osu file format v14

[General]
AudioFilename: audio.mp3
AudioLeadIn: 0
PreviewTime: 452470
Countdown: 0
SampleSet: Drum
StackLeniency: 0.3
Mode: 0
LetterboxInBreaks: 0
WidescreenStoryboard: 1

[Editor]
Bookmarks: 52790,78650,80330,106070,169910,224390,261590,270950,282230,302150,345350,474850,491470,505150
DistanceSpacing: 0.5
BeatDivisor: 4
GridSize: 4
TimelineZoom: 2.2

[Metadata]
Title:Karasu / IX
TitleUnicode:鴉 / IX
Artist:Vermillion-D Alice Syndrome
ArtistUnicode:Vermillion-D Alice Syndrome
Creator:AIcoa
Version:Morgendammerung der Schwarz Gefarbten Sonne
Source:
Tags:Raven / IX Vermilion-D Alice Syndome rib:y(uhki) setsuna siruhei black night funeral kokuyasou symphonic death melodic gothic orchestral japan metal vocal screamo marathon
BeatmapID:3133778
BeatmapSetID:1532321

[Difficulty]
HPDrainRate:3.7
CircleSize:4
OverallDifficulty:8.7
ApproachRate:9.5
SliderMultiplier:2.2
SliderTickRate:1

[Events]
//Background and Video events
0,0,"bg.jpg",0,0
//Break Periods
2,235390,242345
2,381469,403945
2,437190,444265
//Storyboard Layer 0 (Background)
//Storyboard Layer 1 (Fail)
//Storyboard Layer 2 (Pass)
//Storyboard Layer 3 (Foreground)
//Storyboard Layer 4 (Overlay)
//Storyboard Sound Samples

[TimingPoints]
52790,240,4,3,1,40,1,0
52850,-100,4,3,1,40,0,0
53030,-100,4,3,2,40,0,0
55670,-100,4,3,1,40,0,0
55910,-100,4,3,2,40,0,0
58070,-100,4,3,1,40,0,0
58790,-100,4,3,2,40,0,0
61430,-100,4,3,1,40,0,0
61670,-100,4,3,2,40,0,0
62870,-100,4,3,1,40,0,0
63110,-100,4,3,1,40,0,0
63230,-100,4,3,1,40,0,0
63350,-100,4,3,1,40,0,0
63470,-100,4,3,1,40,0,0
63770,-100,4,3,1,5,0,0
63830,-83.3333333333333,4,3,1,40,0,0
64010,-83.3333333333333,4,3,1,5,0,0
64070,-250,4,3,1,30,0,0
64250,-100,4,3,1,5,0,0
64310,-90.9090909090909,4,3,3,60,0,0
64430,-90.9090909090909,4,3,3,60,0,0
65690,-90.9090909090909,4,3,3,5,0,0
65750,-90.9090909090909,4,3,3,60,0,0
65990,-90.9090909090909,4,3,3,60,0,0
67190,-90.9090909090909,4,3,3,60,0,0
67310,-90.9090909090909,4,3,3,60,0,0
68570,-90.9090909090909,4,3,3,5,0,0
68630,-90.9090909090909,4,3,3,60,0,0
68750,-90.9090909090909,4,3,3,60,0,0
69590,-71.4285714285714,4,3,3,60,0,0
69710,-71.4285714285714,4,3,3,60,0,0
69770,-71.4285714285714,4,3,3,5,0,0
69830,-90.9090909090909,4,3,3,60,0,0
70070,-90.9090909090909,4,3,3,60,0,0
70190,-90.9090909090909,4,3,3,60,0,0
71450,-90.9090909090909,4,3,3,5,0,0
71510,-90.9090909090909,4,3,3,60,0,0
72950,-90.9090909090909,4,3,3,60,0,0
73070,-90.9090909090909,4,3,3,60,0,0
74150,-71.4285714285714,4,3,3,60,0,0
74330,-71.4285714285714,4,3,3,5,0,0
74390,-90.9090909090909,4,3,3,60,0,0
74510,-90.9090909090909,4,3,3,60,0,0
74570,-90.9090909090909,4,3,3,5,0,0
74630,-90.9090909090909,4,3,3,60,0,0
75110,-71.4285714285714,4,3,3,60,0,0
75290,-71.4285714285714,4,3,3,5,0,0
75350,-90.9090909090909,4,3,1,60,0,0
75830,-90.9090909090909,4,3,3,60,0,0
75950,-90.9090909090909,4,3,3,60,0,0
76070,-90.9090909090909,4,3,3,60,0,0
76190,-90.9090909090909,4,3,3,60,0,0
76310,-90.9090909090909,4,3,3,60,0,0
76430,-90.9090909090909,4,3,3,60,0,0
76550,-90.9090909090909,4,3,3,60,0,0
76670,-90.9090909090909,4,3,3,60,0,0
76790,-90.9090909090909,4,3,3,60,0,0
76910,-90.9090909090909,4,3,3,60,0,0
77030,-90.9090909090909,4,3,3,60,0,0
77150,-90.9090909090909,4,3,3,60,0,0
77270,-90.9090909090909,4,3,3,60,0,0
77390,-90.9090909090909,4,3,3,60,0,0
77510,-90.9090909090909,4,3,3,60,0,0
77630,-90.9090909090909,4,3,3,60,0,0
77750,-90.9090909090909,4,3,3,60,0,0
77870,-90.9090909090909,4,3,3,60,0,0
77990,-90.9090909090909,4,3,3,60,0,0
78110,-90.9090909090909,4,3,3,60,0,0
78230,-90.9090909090909,4,3,3,60,0,0
78350,-90.9090909090909,4,3,3,60,0,0
78470,-90.9090909090909,4,3,3,60,0,0
78590,-90.9090909090909,4,3,3,60,0,0
78650,-90.9090909090909,4,3,3,5,0,0
78710,-90.9090909090909,4,3,3,60,0,0
78830,-90.9090909090909,4,3,3,60,0,0
78950,-90.9090909090909,4,3,3,60,0,0
79070,-90.9090909090909,4,3,3,60,0,0
79190,-90.9090909090909,4,3,3,60,0,0
79310,-90.9090909090909,4,3,3,60,0,0
79430,-90.9090909090909,4,3,3,60,0,0
79550,-90.9090909090909,4,3,3,60,0,0
79670,-90.9090909090909,4,3,3,60,0,0
79790,-90.9090909090909,4,3,3,60,0,0
79910,-90.9090909090909,4,3,3,60,0,0
80030,-90.9090909090909,4,3,3,60,0,0
80150,-90.9090909090909,4,3,3,60,0,0
80270,-90.9090909090909,4,3,3,60,0,0
80390,-90.9090909090909,4,3,3,60,0,0
80510,-90.9090909090909,4,3,3,60,0,0
80630,-90.9090909090909,4,3,3,60,0,0
80750,-90.9090909090909,4,3,3,60,0,0
80870,-90.9090909090909,4,3,1,60,0,0
81110,-90.9090909090909,4,3,1,60,0,0
81230,-90.9090909090909,4,3,1,60,0,0
81590,-66.6666666666667,4,3,3,60,0,0
81710,-66.6666666666667,4,3,3,60,0,0
81770,-66.6666666666667,4,3,3,5,0,0
81830,-90.9090909090909,4,3,3,60,0,0
81950,-90.9090909090909,4,3,3,60,0,0
82070,-90.9090909090909,4,3,3,60,0,0
82190,-90.9090909090909,4,3,3,60,0,0
82310,-90.9090909090909,4,3,1,60,0,0
82430,-90.9090909090909,4,3,1,60,0,0
82550,-90.9090909090909,4,3,1,60,0,0
82670,-90.9090909090909,4,3,1,60,0,0
82790,-90.9090909090909,4,3,1,60,0,0
82910,-90.9090909090909,4,3,1,60,0,0
83030,-90.9090909090909,4,3,3,60,0,0
83150,-90.9090909090909,4,3,3,60,0,0
83270,-90.9090909090909,4,3,3,60,0,0
83390,-90.9090909090909,4,3,3,60,0,0
83510,-90.9090909090909,4,3,3,60,0,0
83630,-90.9090909090909,4,3,3,60,0,0
83750,-90.9090909090909,4,3,1,60,0,0
84470,-90.9090909090909,4,3,3,60,0,0
84590,-90.9090909090909,4,3,3,60,0,0
84710,-90.9090909090909,4,3,3,60,0,0
84830,-90.9090909090909,4,3,3,60,0,0
84950,-90.9090909090909,4,3,3,60,0,0
85070,-90.9090909090909,4,3,3,60,0,0
85190,-90.9090909090909,4,3,1,60,0,0
85910,-66.6666666666667,4,3,3,50,0,0
86030,-66.6666666666667,4,3,3,50,0,0
86090,-66.6666666666667,4,3,3,5,0,0
86150,-90.9090909090909,4,3,3,50,0,0
86510,-90.9090909090909,4,3,1,50,0,0
86870,-90.9090909090909,4,3,1,50,0,0
87350,-200,4,3,4,50,0,0
88250,-200,4,3,4,5,0,0
88310,-74.0740740740741,4,3,2,60,0,0
88430,-74.0740740740741,4,3,1,60,0,0
90230,-74.0740740740741,4,3,5,60,0,0
90350,-74.0740740740741,4,3,1,60,0,0
90710,-74.0740740740741,4,3,5,60,0,0
90830,-74.0740740740741,4,3,1,60,0,0
91190,-74.0740740740741,4,3,5,60,0,0
91310,-74.0740740740741,4,3,1,60,0,0
92150,-74.0740740740741,4,3,5,60,0,0
92270,-74.0740740740741,4,3,1,60,0,0
93110,-74.0740740740741,4,3,1,60,0,0
93230,-74.0740740740741,4,3,1,60,0,0
94070,-74.0740740740741,4,3,5,60,0,0
94190,-74.0740740740741,4,3,1,60,0,0
95030,-74.0740740740741,4,3,2,60,0,0
95090,-74.0740740740741,4,3,2,60,0,0
95270,-74.0740740740741,4,3,2,60,0,0
95390,-74.0740740740741,4,3,2,60,0,0
95510,-74.0740740740741,4,3,2,60,0,0
95630,-74.0740740740741,4,3,2,60,0,0
95750,-74.0740740740741,4,3,2,60,0,0
95870,-74.0740740740741,4,3,2,60,0,0
95990,-74.0740740740741,4,3,2,60,0,0
96110,-74.0740740740741,4,3,2,60,0,0
96230,-74.0740740740741,4,3,2,60,0,0
96350,-74.0740740740741,4,3,2,60,0,0
96470,-74.0740740740741,4,3,2,60,0,0
96590,-74.0740740740741,4,3,2,60,0,0
96710,-74.0740740740741,4,3,6,60,0,0
96830,-74.0740740740741,4,3,6,60,0,0
96950,-74.0740740740741,4,3,2,60,0,0
97070,-74.0740740740741,4,3,2,60,0,0
97190,-74.0740740740741,4,3,2,60,0,0
97310,-74.0740740740741,4,3,2,60,0,0
97430,-74.0740740740741,4,3,2,60,0,0
97550,-74.0740740740741,4,3,2,60,0,0
97670,-74.0740740740741,4,3,2,60,0,0
97790,-74.0740740740741,4,3,2,60,0,0
97910,-74.0740740740741,4,3,2,60,0,0
98030,-74.0740740740741,4,3,2,60,0,0
98150,-74.0740740740741,4,3,2,60,0,0
98270,-74.0740740740741,4,3,2,60,0,0
98390,-74.0740740740741,4,3,3,60,0,0
98510,-74.0740740740741,4,3,1,60,0,0
98630,-74.0740740740741,4,3,6,60,0,0
98750,-74.0740740740741,4,3,1,60,0,0
98870,-74.0740740740741,4,3,3,60,0,0
98990,-74.0740740740741,4,3,3,60,0,0
99110,-74.0740740740741,4,3,2,60,0,0
99230,-74.0740740740741,4,3,1,60,0,0
99350,-74.0740740740741,4,3,2,60,0,0
99470,-74.0740740740741,4,3,2,60,0,0
99590,-74.0740740740741,4,3,2,60,0,0
99710,-74.0740740740741,4,3,1,60,0,0
99830,-74.0740740740741,4,3,2,60,0,0
99950,-74.0740740740741,4,3,2,60,0,0
100070,-74.0740740740741,4,3,2,60,0,0
100190,-74.0740740740741,4,3,1,60,0,0
100310,-74.0740740740741,4,3,2,60,0,0
100430,-74.0740740740741,4,3,6,60,0,0
100550,-64.5161290322581,4,3,6,60,0,0
100670,-64.5161290322581,4,3,6,60,0,0
100730,-64.5161290322581,4,3,6,5,0,0
100790,-64.5161290322581,4,3,4,60,0,0
100910,-64.5161290322581,4,3,4,60,0,0
100970,-64.5161290322581,4,3,4,5,0,0
101030,-74.0740740740741,4,3,6,60,0,0
101150,-74.0740740740741,4,3,6,60,0,0
101270,-74.0740740740741,4,3,6,60,0,0
101390,-74.0740740740741,4,3,6,60,0,0
101510,-74.0740740740741,4,3,6,60,0,0
101630,-74.0740740740741,4,3,6,60,0,0
101750,-74.0740740740741,4,3,2,60,0,0
101990,-74.0740740740741,4,3,1,60,0,0
102230,-74.0740740740741,4,3,1,60,0,0
102710,-74.0740740740741,4,3,5,60,0,0
102830,-74.0740740740741,4,3,1,60,0,0
102890,-74.0740740740741,4,3,1,5,0,0
102950,-74.0740740740741,4,3,1,60,0,0
106730,-74.0740740740741,4,3,1,5,0,0
106790,-74.0740740740741,4,3,1,60,0,0
109430,-74.0740740740741,4,3,1,60,0,0
110390,-74.0740740740741,4,3,1,60,0,0
114410,-74.0740740740741,4,3,1,5,0,0
114470,-74.0740740740741,4,3,1,60,0,0
115130,-74.0740740740741,4,3,1,5,0,0
115190,-74.0740740740741,4,3,1,60,0,1
118070,-74.0740740740741,4,3,1,60,0,1
118190,-74.0740740740741,4,3,1,60,0,1
118310,-74.0740740740741,4,3,1,60,0,1
118430,-74.0740740740741,4,3,1,60,0,1
118550,-74.0740740740741,4,3,1,60,0,1
118670,-74.0740740740741,4,3,1,60,0,1
118790,-74.0740740740741,4,3,1,60,0,1
118910,-74.0740740740741,4,3,1,60,0,1
119030,-74.0740740740741,4,3,1,60,0,1
119150,-74.0740740740741,4,3,1,60,0,1
119270,-74.0740740740741,4,3,1,60,0,1
119390,-74.0740740740741,4,3,1,60,0,1
119510,-74.0740740740741,4,3,1,60,0,1
119630,-74.0740740740741,4,3,1,60,0,1
119750,-74.0740740740741,4,3,1,60,0,1
119870,-74.0740740740741,4,3,1,60,0,1
119990,-74.0740740740741,4,3,1,60,0,1
120110,-74.0740740740741,4,3,1,60,0,1
120230,-74.0740740740741,4,3,1,60,0,1
120350,-74.0740740740741,4,3,1,60,0,1
120470,-74.0740740740741,4,3,1,60,0,1
120590,-74.0740740740741,4,3,1,60,0,1
120710,-74.0740740740741,4,3,1,60,0,1
120830,-74.0740740740741,4,3,1,60,0,1
120950,-74.0740740740741,4,3,1,60,0,1
122870,-74.0740740740741,4,3,1,50,0,1
123110,-74.0740740740741,4,3,1,45,0,1
123350,-74.0740740740741,4,3,1,40,0,1
123590,-74.0740740740741,4,3,1,50,0,1
123830,-60.6060606060606,4,3,1,60,0,0
123950,-60.6060606060606,4,3,1,60,0,0
124010,-74.0740740740741,4,3,1,5,0,0
124070,-74.0740740740741,4,3,1,60,0,0
124190,-74.0740740740741,4,3,1,60,0,0
124310,-153.846153846154,4,3,1,60,0,0
124430,-153.846153846154,4,3,1,60,0,0
124490,-74.0740740740741,4,3,1,5,0,0
124550,-74.0740740740741,4,3,1,60,0,0
124670,-74.0740740740741,4,3,1,60,0,0
124790,-74.0740740740741,4,3,1,60,0,0
124910,-74.0740740740741,4,3,1,60,0,0
125030,-74.0740740740741,4,3,1,60,0,0
125150,-74.0740740740741,4,3,1,60,0,0
125270,-74.0740740740741,4,3,1,60,0,0
125390,-74.0740740740741,4,3,1,60,0,0
125510,-74.0740740740741,4,3,1,60,0,0
125630,-74.0740740740741,4,3,1,60,0,0
125750,-74.0740740740741,4,3,1,60,0,0
125870,-74.0740740740741,4,3,1,60,0,0
125990,-74.0740740740741,4,3,1,60,0,0
126110,-74.0740740740741,4,3,1,60,0,0
126170,-74.0740740740741,4,3,1,5,0,0
126230,-74.0740740740741,4,3,1,60,0,0
126710,-74.0740740740741,4,3,3,60,0,0
126950,-74.0740740740741,4,3,6,60,0,0
127910,-74.0740740740741,4,3,3,60,0,0
128150,-95.2380952380952,4,3,1,60,0,0
128330,-95.2380952380952,4,3,1,5,0,0
128390,-95.2380952380952,4,3,1,50,0,0
128630,-95.2380952380952,4,3,1,45,0,0
128870,-95.2380952380952,4,3,1,40,0,0
129110,-95.2380952380952,4,3,1,35,0,0
129350,-95.2380952380952,4,3,1,50,0,0
129590,-74.0740740740741,4,3,1,60,0,1
129710,-74.0740740740741,4,3,1,60,0,1
129830,-74.0740740740741,4,3,1,60,0,1
129950,-74.0740740740741,4,3,1,60,0,1
130070,-74.0740740740741,4,3,1,60,0,1
130190,-74.0740740740741,4,3,1,60,0,1
130310,-74.0740740740741,4,3,1,60,0,1
130430,-74.0740740740741,4,3,1,60,0,1
130550,-74.0740740740741,4,3,1,60,0,1
130670,-74.0740740740741,4,3,1,60,0,1
130790,-74.0740740740741,4,3,1,60,0,1
130910,-74.0740740740741,4,3,1,60,0,1
131030,-74.0740740740741,4,3,1,60,0,1
131150,-74.0740740740741,4,3,1,60,0,1
131270,-74.0740740740741,4,3,1,60,0,1
131390,-74.0740740740741,4,3,1,60,0,1
131510,-74.0740740740741,4,3,1,60,0,1
131630,-74.0740740740741,4,3,1,60,0,1
131750,-74.0740740740741,4,3,1,60,0,1
131870,-74.0740740740741,4,3,1,60,0,1
131990,-74.0740740740741,4,3,1,60,0,1
132110,-74.0740740740741,4,3,1,60,0,1
132230,-74.0740740740741,4,3,1,60,0,1
132350,-74.0740740740741,4,3,1,60,0,1
132470,-74.0740740740741,4,3,1,60,0,1
134150,-74.0740740740741,4,3,1,60,0,1
134270,-74.0740740740741,4,3,1,60,0,1
134390,-74.0740740740741,4,3,1,50,0,1
134630,-74.0740740740741,4,3,1,45,0,1
134870,-74.0740740740741,4,3,1,40,0,1
135110,-74.0740740740741,4,3,1,50,0,1
135350,-60.6060606060606,4,3,1,60,0,0
135470,-60.6060606060606,4,3,1,60,0,0
135530,-74.0740740740741,4,3,1,5,0,0
135590,-74.0740740740741,4,3,1,60,0,0
135710,-74.0740740740741,4,3,1,60,0,0
135830,-153.846153846154,4,3,1,60,0,0
135950,-153.846153846154,4,3,1,60,0,0
136010,-74.0740740740741,4,3,1,5,0,0
136070,-74.0740740740741,4,3,1,60,0,0
136190,-74.0740740740741,4,3,1,60,0,0
136310,-74.0740740740741,4,3,1,60,0,0
136430,-74.0740740740741,4,3,1,60,0,0
136550,-74.0740740740741,4,3,1,60,0,0
136670,-74.0740740740741,4,3,1,60,0,0
136790,-74.0740740740741,4,3,1,60,0,0
136910,-74.0740740740741,4,3,1,60,0,0
137030,-74.0740740740741,4,3,1,60,0,0
137150,-74.0740740740741,4,3,1,60,0,0
137270,-74.0740740740741,4,3,1,60,0,0
137390,-74.0740740740741,4,3,1,60,0,0
137510,-74.0740740740741,4,3,1,60,0,0
137630,-74.0740740740741,4,3,1,60,0,0
137690,-74.0740740740741,4,3,1,5,0,0
137750,-74.0740740740741,4,3,1,60,0,0
138470,-74.0740740740741,4,3,6,60,0,0
139430,-74.0740740740741,4,3,3,60,0,0
139670,-80,4,3,3,60,0,0
139850,-95.2380952380952,4,3,3,5,0,0
139910,-95.2380952380952,4,3,3,50,0,0
140150,-95.2380952380952,4,3,3,45,0,0
140390,-95.2380952380952,4,3,3,40,0,0
140630,-95.2380952380952,4,3,3,35,0,0
140870,-95.2380952380952,4,3,3,50,0,0
141110,-95.2380952380952,4,3,7,50,0,0
141830,-95.2380952380952,4,3,1,50,0,0
142070,-95.2380952380952,4,3,7,50,0,0
142549,-95.2380952380952,4,3,7,50,0,0
143030,-95.2380952380952,4,3,7,50,0,0
143990,-95.2380952380952,4,3,8,50,0,0
144110,-95.2380952380952,4,3,7,50,0,0
144350,-95.2380952380952,4,3,7,50,0,0
144470,-95.2380952380952,4,3,7,50,0,0
145910,-95.2380952380952,4,3,8,50,0,0
146389,-95.2380952380952,4,3,8,50,0,0
146870,-95.2380952380952,4,3,7,50,0,0
147830,-95.2380952380952,4,3,8,50,0,0
148130,-95.2380952380952,4,3,8,5,0,0
148190,-95.2380952380952,4,3,1,50,0,0
148490,-95.2380952380952,4,3,1,5,0,0
148550,-181.818181818182,4,3,1,50,0,0
148730,-181.818181818182,4,3,1,5,0,0
148790,-95.2380952380952,4,3,1,40,0,0
149270,-95.2380952380952,4,3,1,40,0,0
149750,-95.2380952380952,4,3,1,40,0,0
150230,-95.2380952380952,4,3,1,40,0,0
150710,-95.2380952380952,4,3,1,40,0,0
151190,-95.2380952380952,4,3,1,40,0,0
151670,-95.2380952380952,4,3,1,40,0,0
152150,-95.2380952380952,4,3,1,40,0,0
153110,-95.2380952380952,4,3,1,40,0,0
153350,-95.2380952380952,4,3,1,40,0,0
154550,-95.2380952380952,4,3,1,40,0,0
155990,-80,4,3,1,40,0,0
156170,-80,4,3,1,5,0,0
156230,-80,4,3,1,40,0,0
156470,-86.9565217391304,4,3,1,60,0,0
164150,-95.2380952380952,4,3,1,60,0,0
164332,-95.2380952380952,4,3,1,5,0,0
164390,-95.2380952380952,4,3,1,60,0,0
164690,-95.2380952380952,4,3,1,5,0,0
164748,-95.2380952380952,4,3,1,60,0,0
165170,-95.2380952380952,4,3,1,5,0,0
165228,-95.2380952380952,4,3,1,60,0,0
166610,-95.2380952380952,4,3,1,5,0,0
166668,-95.2380952380952,4,3,1,60,0,0
167090,-95.2380952380952,4,3,1,5,0,0
167148,-95.2380952380952,4,3,1,60,0,0
167930,-95.2380952380952,4,3,1,5,0,0
167988,-95.2380952380952,4,3,1,60,0,0
168170,-95.2380952380952,4,3,1,5,0,0
168228,-95.2380952380952,4,3,1,60,0,0
168530,-95.2380952380952,4,3,1,5,0,0
168588,-95.2380952380952,4,3,1,60,0,0
170330,-95.2380952380952,4,3,1,5,0,0
170388,-95.2380952380952,4,3,1,60,0,0
171590,-285.714285714286,4,3,1,60,0,0
171770,-285.714285714286,4,3,1,5,0,0
171830,-74.0740740740741,4,3,1,60,0,1
171950,-74.0740740740741,4,3,1,60,0,1
172070,-74.0740740740741,4,3,1,60,0,1
172190,-74.0740740740741,4,3,1,60,0,1
172310,-74.0740740740741,4,3,1,60,0,1
172430,-74.0740740740741,4,3,1,60,0,1
172550,-74.0740740740741,4,3,1,60,0,1
172670,-74.0740740740741,4,3,1,60,0,1
172790,-74.0740740740741,4,3,1,60,0,1
172910,-74.0740740740741,4,3,1,60,0,1
173030,-74.0740740740741,4,3,1,60,0,1
173150,-74.0740740740741,4,3,1,60,0,1
173270,-74.0740740740741,4,3,1,60,0,1
173390,-74.0740740740741,4,3,1,60,0,1
173510,-74.0740740740741,4,3,1,60,0,1
173630,-74.0740740740741,4,3,1,60,0,1
173750,-74.0740740740741,4,3,1,60,0,1
173870,-74.0740740740741,4,3,1,60,0,1
173990,-74.0740740740741,4,3,1,60,0,1
174110,-74.0740740740741,4,3,1,60,0,1
174230,-74.0740740740741,4,3,1,60,0,1
174350,-74.0740740740741,4,3,1,60,0,1
174470,-74.0740740740741,4,3,1,60,0,1
174590,-74.0740740740741,4,3,1,60,0,1
174710,-74.0740740740741,4,3,1,60,0,1
176630,-74.0740740740741,4,3,1,50,0,1
176870,-74.0740740740741,4,3,1,45,0,1
177110,-74.0740740740741,4,3,1,40,0,1
177350,-74.0740740740741,4,3,1,50,0,1
177590,-74.0740740740741,4,3,1,60,0,0
177710,-74.0740740740741,4,3,1,60,0,0
177770,-74.0740740740741,4,3,1,5,0,0
177830,-74.0740740740741,4,3,1,60,0,0
177950,-74.0740740740741,4,3,1,60,0,0
178070,-74.0740740740741,4,3,1,60,0,0
178190,-74.0740740740741,4,3,1,60,0,0
178250,-74.0740740740741,4,3,1,5,0,0
178310,-74.0740740740741,4,3,1,60,0,0
178430,-74.0740740740741,4,3,1,60,0,0
178550,-74.0740740740741,4,3,1,60,0,0
178670,-74.0740740740741,4,3,1,60,0,0
178790,-74.0740740740741,4,3,1,60,0,0
178910,-74.0740740740741,4,3,1,60,0,0
178970,-74.0740740740741,4,3,1,5,0,0
179030,-74.0740740740741,4,3,1,60,0,0
179150,-74.0740740740741,4,3,1,60,0,0
179270,-74.0740740740741,4,3,1,60,0,0
179390,-74.0740740740741,4,3,1,60,0,0
179510,-74.0740740740741,4,3,1,60,0,0
179630,-74.0740740740741,4,3,1,60,0,0
179750,-74.0740740740741,4,3,1,60,0,0
179870,-74.0740740740741,4,3,1,60,0,0
180710,-74.0740740740741,4,3,6,60,0,0
181670,-74.0740740740741,4,3,1,60,0,0
181910,-95.2380952380952,4,3,1,60,0,0
182090,-95.2380952380952,4,3,1,5,0,0
182150,-95.2380952380952,4,3,1,50,0,0
182390,-95.2380952380952,4,3,1,45,0,0
182630,-95.2380952380952,4,3,1,40,0,0
182870,-95.2380952380952,4,3,1,35,0,0
183110,-95.2380952380952,4,3,1,50,0,0
183350,-74.0740740740741,4,3,1,60,0,1
183470,-74.0740740740741,4,3,1,60,0,1
183590,-74.0740740740741,4,3,1,60,0,1
183710,-74.0740740740741,4,3,1,60,0,1
183830,-74.0740740740741,4,3,1,60,0,1
183950,-74.0740740740741,4,3,1,60,0,1
184070,-74.0740740740741,4,3,1,60,0,1
184190,-74.0740740740741,4,3,1,60,0,1
184310,-74.0740740740741,4,3,1,60,0,1
184430,-74.0740740740741,4,3,1,60,0,1
184550,-74.0740740740741,4,3,1,60,0,1
184670,-74.0740740740741,4,3,1,60,0,1
184790,-74.0740740740741,4,3,1,60,0,1
184910,-74.0740740740741,4,3,1,60,0,1
185030,-74.0740740740741,4,3,1,60,0,1
185150,-74.0740740740741,4,3,1,60,0,1
185270,-74.0740740740741,4,3,1,60,0,1
185390,-74.0740740740741,4,3,1,60,0,1
185510,-74.0740740740741,4,3,1,60,0,1
185630,-74.0740740740741,4,3,1,60,0,1
186230,-74.0740740740741,4,3,1,60,0,1
188150,-74.0740740740741,4,3,1,50,0,1
188390,-74.0740740740741,4,3,1,45,0,1
188630,-74.0740740740741,4,3,1,40,0,1
188870,-74.0740740740741,4,3,1,35,0,1
189110,-74.0740740740741,4,3,1,60,0,0
189230,-74.0740740740741,4,3,1,60,0,0
189350,-74.0740740740741,4,3,1,60,0,0
189470,-74.0740740740741,4,3,1,60,0,0
189590,-74.0740740740741,4,3,1,60,0,0
189710,-74.0740740740741,4,3,1,60,0,0
189830,-74.0740740740741,4,3,1,60,0,0
189950,-74.0740740740741,4,3,1,60,0,0
190070,-74.0740740740741,4,3,1,60,0,0
190190,-74.0740740740741,4,3,1,60,0,0
190250,-74.0740740740741,4,3,1,5,0,0
190310,-74.0740740740741,4,3,1,60,0,0
190430,-74.0740740740741,4,3,1,60,0,0
190550,-74.0740740740741,4,3,1,60,0,0
190670,-74.0740740740741,4,3,1,60,0,0
190790,-74.0740740740741,4,3,1,60,0,0
190910,-74.0740740740741,4,3,1,60,0,0
191030,-74.0740740740741,4,3,1,60,0,0
191150,-74.0740740740741,4,3,1,60,0,0
191270,-74.0740740740741,4,3,1,60,0,0
191390,-74.0740740740741,4,3,1,60,0,0
191510,-74.0740740740741,4,3,1,60,0,0
191630,-74.0740740740741,4,3,1,60,0,0
191750,-74.0740740740741,4,3,1,60,0,0
191810,-74.0740740740741,4,3,1,60,0,0
192230,-74.0740740740741,4,3,6,60,0,0
193190,-74.0740740740741,4,3,3,60,0,0
193430,-74.0740740740741,4,3,1,60,0,0
193610,-74.0740740740741,4,3,1,5,0,0
193670,-74.0740740740741,4,3,1,50,0,0
193910,-74.0740740740741,4,3,1,45,0,0
194150,-74.0740740740741,4,3,1,40,0,0
194390,-74.0740740740741,4,3,1,35,0,0
194870,-74.0740740740741,4,3,1,35,0,0
194990,-148.148148148148,4,3,1,35,0,0
195350,-181.818181818182,4,3,1,40,0,0
195830,-64.5161290322581,4,3,8,60,0,1
195950,-64.5161290322581,4,3,1,60,0,1
196010,-64.5161290322581,4,3,1,5,0,1
196070,-64.5161290322581,4,3,1,60,0,1
196190,-64.5161290322581,4,3,1,60,0,1
196310,-64.5161290322581,4,3,1,60,0,1
196430,-64.5161290322581,4,3,1,60,0,1
196550,-64.5161290322581,4,3,1,60,0,1
196670,-64.5161290322581,4,3,1,60,0,1
196790,-64.5161290322581,4,3,1,60,0,1
197270,-64.5161290322581,4,3,1,60,0,1
197330,-64.5161290322581,4,3,1,5,0,1
197390,-64.5161290322581,4,3,1,60,0,1
197870,-64.5161290322581,4,3,1,60,0,1
197990,-64.5161290322581,4,3,1,60,0,1
198110,-64.5161290322581,4,3,1,60,0,1
198230,-64.5161290322581,4,3,1,60,0,1
198350,-64.5161290322581,4,3,1,60,0,1
198410,-64.5161290322581,4,3,1,5,0,1
198470,-64.5161290322581,4,3,1,60,0,1
198590,-64.5161290322581,4,3,1,60,0,1
198710,-86.9565217391304,4,3,1,60,0,1
198830,-86.9565217391304,4,3,1,60,0,1
198890,-86.9565217391304,4,3,1,5,0,1
198950,-74.0740740740741,4,3,9,60,0,1
199070,-74.0740740740741,4,3,3,60,0,1
199130,-74.0740740740741,4,3,3,5,0,1
199190,-86.9565217391304,4,3,3,60,0,1
199310,-86.9565217391304,4,3,3,60,0,1
199370,-86.9565217391304,4,3,3,5,0,1
199430,-105.263157894737,4,3,9,60,0,1
199550,-105.263157894737,4,3,1,60,0,1
199610,-105.263157894737,4,3,1,5,0,1
199670,-64.5161290322581,4,3,1,60,0,1
200150,-64.5161290322581,4,3,1,60,0,1
200390,-64.5161290322581,4,3,1,60,0,1
200510,-64.5161290322581,4,3,1,60,0,1
200630,-64.5161290322581,4,3,1,60,0,1
200750,-64.5161290322581,4,3,1,60,0,1
200810,-64.5161290322581,4,3,1,5,0,1
200870,-64.5161290322581,4,3,1,60,0,1
201110,-64.5161290322581,4,3,1,60,0,1
201170,-64.5161290322581,4,3,1,5,0,1
201230,-64.5161290322581,4,3,1,60,0,1
201350,-64.5161290322581,4,3,1,60,0,1
201470,-64.5161290322581,4,3,1,60,0,1
201530,-64.5161290322581,4,3,1,5,0,1
201590,-64.5161290322581,4,3,1,60,0,1
201710,-64.5161290322581,4,3,1,60,0,1
201830,-64.5161290322581,4,3,1,60,0,1
202070,-64.5161290322581,4,3,1,60,0,1
202250,-64.5161290322581,4,3,1,5,0,1
202310,-64.5161290322581,4,3,1,60,0,1
202430,-64.5161290322581,4,3,1,60,0,1
202490,-64.5161290322581,4,3,1,5,0,1
202550,-64.5161290322581,4,3,1,60,0,1
202670,-64.5161290322581,4,3,1,60,0,1
202790,-64.5161290322581,4,3,1,60,0,1
203510,-74.0740740740741,4,3,1,60,0,0
205010,-74.0740740740741,4,3,1,5,0,0
205070,-74.0740740740741,4,3,1,60,0,0
205970,-74.0740740740741,4,3,1,5,0,0
206030,-74.0740740740741,4,3,1,60,0,0
208490,-74.0740740740741,4,3,1,5,0,0
208550,-74.0740740740741,4,3,1,60,0,0
208970,-74.0740740740741,4,3,1,5,0,0
209030,-74.0740740740741,4,3,1,60,0,0
209270,-74.0740740740741,4,3,1,60,0,0
209450,-74.0740740740741,4,3,1,5,0,0
209510,-74.0740740740741,4,3,1,60,0,0
210410,-74.0740740740741,4,3,1,5,0,0
210470,-74.0740740740741,4,3,1,60,0,0
210890,-74.0740740740741,4,3,1,5,0,0
210950,-74.0740740740741,4,3,1,60,0,0
211190,-95.2380952380952,4,3,1,50,0,0
212090,-95.2380952380952,4,3,1,5,0,0
212150,-95.2380952380952,4,3,1,50,0,0
214970,-95.2380952380952,4,3,1,5,0,0
215030,-95.2380952380952,4,3,1,50,0,0
216950,-95.2380952380952,4,3,1,50,0,0
217850,-95.2380952380952,4,3,1,5,0,0
217910,-95.2380952380952,4,3,1,50,0,0
219830,-95.2380952380952,4,3,1,50,0,0
220730,-95.2380952380952,4,3,1,5,0,0
220790,-95.2380952380952,4,3,1,50,0,0
221330,-95.2380952380952,4,3,1,5,0,0
221390,-95.2380952380952,4,3,1,50,0,0
221450,-95.2380952380952,4,3,1,5,0,0
221510,-95.2380952380952,4,3,1,50,0,0
221570,-95.2380952380952,4,3,1,5,0,0
221630,-95.2380952380952,4,3,1,50,0,0
221810,-95.2380952380952,4,3,1,5,0,0
221870,-95.2380952380952,4,3,1,50,0,0
221930,-95.2380952380952,4,3,1,5,0,0
221990,-95.2380952380952,4,3,1,50,0,0
222170,-95.2380952380952,4,3,1,5,0,0
222230,-95.2380952380952,4,3,1,50,0,0
222290,-95.2380952380952,4,3,1,5,0,0
222350,-95.2380952380952,4,3,1,50,0,0
222530,-95.2380952380952,4,3,1,5,0,0
222590,-95.2380952380952,4,3,1,50,0,0
222650,-95.2380952380952,4,3,1,5,0,0
222710,-74.0740740740741,4,3,1,60,0,0
225590,-74.0740740740741,4,3,1,60,0,0
227030,-74.0740740740741,4,3,1,60,0,0
227990,-86.9565217391304,4,3,3,60,0,0
228470,-74.0740740740741,4,3,3,60,0,0
228710,-74.0740740740741,4,3,6,60,0,0
231350,-74.0740740740741,4,3,3,60,0,0
231590,-74.0740740740741,4,3,6,60,0,0
232310,-74.0740740740741,4,3,6,40,0,0
232790,-74.0740740740741,4,3,3,45,0,0
233030,-74.0740740740741,4,3,3,47,0,0
233270,-74.0740740740741,4,3,3,50,0,0
233510,-74.0740740740741,4,3,3,52,0,0
233750,-74.0740740740741,4,3,3,55,0,0
234830,-74.0740740740741,4,3,3,50,0,0
234950,-74.0740740740741,4,3,3,45,0,0
235070,-74.0740740740741,4,3,3,40,0,0
235190,-74.0740740740741,4,3,3,35,0,0
242870,-117.647058823529,4,3,3,50,0,0
243530,-117.647058823529,4,3,3,5,0,0
243590,-117.647058823529,4,3,3,50,0,0
243890,-117.647058823529,4,3,3,5,0,0
243950,-117.647058823529,4,3,3,50,0,0
244730,-117.647058823529,4,3,3,5,0,0
244790,-117.647058823529,4,3,3,50,0,0
246050,-117.647058823529,4,3,3,5,0,0
246110,-117.647058823529,4,3,3,50,0,0
246650,-117.647058823529,4,3,3,5,0,0
246710,-117.647058823529,4,3,3,50,0,0
248330,-117.647058823529,4,3,3,5,0,0
248390,-117.647058823529,4,3,3,50,0,0
248570,-117.647058823529,4,3,3,5,0,0
248630,-117.647058823529,4,3,3,50,0,0
250550,-80,4,3,3,60,0,0
252410,-80,4,3,3,5,0,0
252470,-80,4,3,3,60,0,0
253370,-80,4,3,3,5,0,0
253430,-80,4,3,1,60,0,0
253910,-80,4,3,3,60,0,0
254390,-80,4,3,1,60,0,0
255290,-80,4,3,1,5,0,0
255350,-80,4,3,1,60,0,0
256250,-80,4,3,1,5,0,0
256310,-80,4,3,1,60,0,0
257030,-117.647058823529,4,3,1,60,0,0
257210,-117.647058823529,4,3,1,5,0,0
257270,-80,4,3,1,60,0,0
258410,-80,4,3,1,5,0,0
258470,-80,4,3,1,60,0,0
261590,-80,4,3,3,60,0,0
262070,-80,4,3,1,60,0,0
265910,-95.2380952380952,4,3,1,50,0,0
269750,-95.2380952380952,4,3,1,50,0,0
273110,-95.2380952380952,4,3,1,50,0,0
273350,-153.846153846154,4,3,1,50,0,0
273590,-80,4,3,1,60,0,0
273830,-80,4,3,1,60,0,0
275510,-80,4,3,1,60,0,0
275750,-80,4,3,1,60,0,0
276470,-80,4,3,1,60,0,0
276710,-80,4,3,10,60,0,0
276950,-80,4,3,3,60,0,0
277190,-80,4,3,10,60,0,0
277430,-80,4,3,1,60,0,0
277610,-80,4,3,1,5,0,0
277670,-80,4,3,1,60,0,0
279350,-80,4,3,1,60,0,0
279590,-80,4,3,1,60,0,0
280310,-80,4,3,1,60,0,0
281270,-80,4,3,11,60,0,0
282230,-74.0740740740741,4,3,12,60,0,1
282350,-74.0740740740741,4,3,12,60,0,1
282530,-74.0740740740741,4,3,12,5,0,1
282590,-74.0740740740741,4,3,12,60,0,1
282890,-74.0740740740741,4,3,12,5,0,1
282950,-74.0740740740741,4,3,12,60,0,1
283190,-74.0740740740741,4,3,10,60,0,1
283610,-74.0740740740741,4,3,10,5,0,1
283670,-74.0740740740741,4,3,10,60,0,1
284150,-74.0740740740741,4,3,10,60,0,1
284210,-74.0740740740741,4,3,10,5,0,1
284270,-74.0740740740741,4,3,10,60,0,1
284570,-74.0740740740741,4,3,10,5,0,1
284630,-74.0740740740741,4,3,10,60,0,1
284930,-74.0740740740741,4,3,10,5,0,1
284990,-74.0740740740741,4,3,10,60,0,1
285650,-74.0740740740741,4,3,10,5,0,1
285710,-74.0740740740741,4,3,10,60,0,1
286250,-74.0740740740741,4,3,10,5,0,1
286310,-74.0740740740741,4,3,10,60,0,1
286490,-74.0740740740741,4,3,10,5,0,1
286550,-74.0740740740741,4,3,10,60,0,1
286850,-74.0740740740741,4,3,10,5,0,1
286910,-74.0740740740741,4,3,10,60,0,1
287570,-74.0740740740741,4,3,10,5,0,1
287630,-74.0740740740741,4,3,10,60,0,1
288170,-74.0740740740741,4,3,10,5,0,1
288230,-74.0740740740741,4,3,10,60,0,1
288530,-74.0740740740741,4,3,10,5,0,1
288590,-74.0740740740741,4,3,10,60,0,1
288890,-74.0740740740741,4,3,10,5,0,1
288950,-74.0740740740741,4,3,10,60,0,1
289190,-153.846153846154,4,3,10,60,0,1
289370,-74.0740740740741,4,3,10,5,0,1
289430,-74.0740740740741,4,3,10,60,0,1
289610,-74.0740740740741,4,3,10,5,0,1
289670,-74.0740740740741,4,3,10,60,0,1
289910,-86.9565217391304,4,3,10,50,0,0
297590,-74.0740740740741,4,3,3,60,0,0
299210,-74.0740740740741,4,3,3,5,0,0
299270,-74.0740740740741,4,3,3,60,0,0
299510,-74.0740740740741,4,3,1,60,0,0
301430,-74.0740740740741,4,3,1,60,0,0
302450,-74.0740740740741,4,3,1,5,0,0
302510,-74.0740740740741,4,3,1,60,0,0
303050,-74.0740740740741,4,3,1,5,0,0
303110,-74.0740740740741,4,3,1,60,0,0
304430,-74.0740740740741,4,3,1,60,0,0
304550,-74.0740740740741,4,3,1,60,0,0
304670,-74.0740740740741,4,3,6,60,0,0
304790,-74.0740740740741,4,3,1,60,0,0
305270,-86.9565217391304,4,3,1,60,0,0
305630,-86.9565217391304,4,3,1,5,0,0
305750,-86.9565217391304,4,3,1,60,0,0
306590,-86.9565217391304,4,3,1,5,0,0
306710,-86.9565217391304,4,3,1,60,0,0
307550,-86.9565217391304,4,3,1,5,0,0
307670,-86.9565217391304,4,3,1,60,0,0
308090,-86.9565217391304,4,3,1,5,0,0
308150,-86.9565217391304,4,3,1,60,0,0
308870,-153.846153846154,4,3,1,60,0,0
309110,-80,4,3,1,60,0,0
310370,-80,4,3,1,5,0,0
310430,-80,4,3,1,60,0,0
310730,-80,4,3,1,5,0,0
310790,-153.846153846154,4,3,1,60,0,0
310970,-153.846153846154,4,3,1,5,0,0
311030,-48.780487804878,4,3,1,60,0,0
311390,-80,4,3,1,60,0,0
311690,-80,4,3,1,5,0,0
311750,-80,4,3,1,60,0,0
311930,-80,4,3,1,5,0,0
311990,-80,4,3,1,60,0,0
312950,-80,4,3,1,60,0,0
313070,-80,4,3,1,60,0,0
316790,-80,4,3,3,60,0,0
316910,-80,4,3,3,60,0,0
320630,-80,4,3,1,60,0,0
320750,-80,4,3,1,60,0,0
321290,-80,4,3,1,5,0,0
321350,-80,4,3,1,60,0,0
324470,-80,4,3,1,60,0,1
328070,-285.714285714286,4,3,1,60,0,1
328250,-285.714285714286,4,3,1,5,0,1
328310,-80,4,3,1,60,0,0
330230,-80,4,3,3,60,0,0
339830,-80,4,3,3,60,0,0
341510,-105.263157894737,4,3,3,60,0,0
341690,-105.263157894737,4,3,3,5,0,0
341750,-80,4,3,3,60,0,0
341870,-80,4,3,2,60,0,0
341990,-80,4,3,1,60,0,0
342110,-80,4,3,2,60,0,0
342230,-80,4,3,1,60,0,0
342350,-80,4,3,2,60,0,0
342470,-80,4,3,1,60,0,0
342590,-80,4,3,2,60,0,0
342650,-80,4,3,2,5,0,0
342710,-80,4,3,1,60,0,0
343670,400,4,3,1,60,1,0
343670,-166.666666666667,4,3,1,60,0,0
346470,-166.666666666667,4,3,1,20,0,0
348470,-166.666666666667,4,3,7,20,0,0
348870,-166.666666666667,4,3,7,27,0,0
349270,-166.666666666667,4,3,7,35,0,0
349670,-166.666666666667,4,3,7,50,0,0
350070,200,4,3,13,60,1,0
350070,-80,4,3,13,60,0,1
350170,-80,4,3,9,60,0,1
350870,-80,4,3,14,60,0,1
350970,-80,4,3,9,60,0,1
352470,-80,4,3,14,60,0,1
352770,-80,4,3,9,60,0,1
354070,-80,4,3,14,60,0,1
354170,-80,4,3,9,60,0,1
355670,-80,4,3,14,60,0,1
355970,-80,4,3,9,60,0,1
356470,-80,4,3,14,60,0,1
356570,-80,4,3,9,60,0,1
357270,-80,4,3,14,60,0,1
357570,-80,4,3,9,60,0,1
358870,-80,4,3,14,60,0,1
358970,-80,4,3,9,60,0,1
359670,-80,4,3,14,60,0,1
359770,-80,4,3,9,60,0,1
360470,-80,4,3,14,60,0,1
360570,-80,4,3,9,60,0,1
362070,-80,4,3,14,60,0,1
362170,-80,4,3,9,60,0,1
362870,-80,4,3,14,60,0,1
362970,-80,4,3,9,60,0,1
363270,-80,4,3,6,60,0,1
363470,-80,4,3,9,60,0,1
364070,-80,4,3,6,60,0,1
364270,-80,4,3,9,60,0,1
364870,-80,4,3,6,60,0,1
364970,-80,4,3,9,60,0,1
365670,-80,4,3,6,60,0,1
365870,-80,4,3,9,60,0,1
366470,-80,4,3,6,60,0,1
366670,-80,4,3,9,60,0,1
367270,-80,4,3,6,60,0,1
367470,-80,4,3,9,60,0,1
368070,-80,4,3,6,60,0,1
368170,-80,4,3,9,60,0,1
368870,-80,4,3,6,60,0,1
369070,-80,4,3,9,60,0,1
369270,-95.2380952380952,4,3,4,60,0,1
369370,-95.2380952380952,4,3,6,60,0,1
370870,-95.2380952380952,4,3,4,60,0,1
370970,-95.2380952380952,4,3,6,60,0,1
372470,-95.2380952380952,4,3,4,60,0,1
372570,-95.2380952380952,4,3,6,60,0,1
374070,-95.2380952380952,4,3,4,60,0,1
374170,-95.2380952380952,4,3,6,60,0,1
374870,-95.2380952380952,4,3,6,60,0,1
375070,-95.2380952380952,4,3,6,60,0,1
375269,-95.2380952380952,4,3,6,60,0,1
375470,-95.2380952380952,4,3,6,60,0,1
375670,800,4,3,4,60,1,0
375670,-83.3333333333333,4,3,4,60,0,0
381269,-83.3333333333333,4,3,4,15,0,0
404470,480,4,3,15,60,1,0
404470,-142.857142857143,4,3,15,45,0,0
406390,240,4,3,4,60,1,0
406390,-80,4,3,4,60,0,0
406450,-80,4,3,15,60,0,0
410410,-80,4,3,15,5,0,0
410470,-80,4,3,15,60,0,0
414250,-80,4,3,15,5,0,0
414310,-80,4,3,15,60,0,0
418090,-80,4,3,15,5,0,0
418150,-80,4,3,15,60,0,0
419950,-80,4,3,6,60,0,0
420670,-80,4,3,15,60,0,0
421690,-80,4,3,15,5,0,0
421750,-80,4,3,15,60,0,0
425530,-80,4,3,15,5,0,0
425590,-80,4,3,15,60,0,0
426490,-80,4,3,15,5,0,0
426550,-80,4,3,15,60,0,0
428410,-80,4,3,15,5,0,0
428470,-80,4,3,15,60,0,0
429730,-80,4,3,15,5,0,0
429790,-80,4,3,15,60,0,0
435310,-80,4,3,6,60,0,0
436030,-80,4,3,15,60,0,0
436150,-80,4,3,15,50,0,0
436390,-80,4,3,15,45,0,0
436630,-80,4,3,15,40,0,0
436870,-80,4,3,15,50,0,0
444790,-95.2380952380952,4,3,15,50,0,0
445210,-95.2380952380952,4,3,15,5,0,0
445270,-95.2380952380952,4,3,15,50,0,0
445450,-95.2380952380952,4,3,15,5,0,0
445510,-95.2380952380952,4,3,15,50,0,0
445690,-95.2380952380952,4,3,15,5,0,0
445750,-95.2380952380952,4,3,15,50,0,0
446890,-95.2380952380952,4,3,15,5,0,0
446950,-95.2380952380952,4,3,15,50,0,0
448630,-80,4,3,15,35,0,1
449110,-80,4,3,15,39,0,1
449590,-80,4,3,15,43,0,1
450070,-80,4,3,15,47,0,1
450550,-64.5161290322581,4,3,15,50,0,1
450730,-64.5161290322581,4,3,15,5,0,1
450790,-80,4,3,15,50,0,1
451510,-64.5161290322581,4,3,11,30,0,0
452230,-250,4,3,11,30,0,0
452470,-64.5161290322581,4,3,16,60,0,1
452590,-64.5161290322581,4,3,12,60,0,1
452650,-64.5161290322581,4,3,12,5,0,1
452710,-64.5161290322581,4,3,12,60,0,1
452830,-64.5161290322581,4,3,12,60,0,1
452950,-64.5161290322581,4,3,12,60,0,1
453070,-64.5161290322581,4,3,12,60,0,1
453190,-64.5161290322581,4,3,12,60,0,1
453310,-64.5161290322581,4,3,12,60,0,1
453430,-64.5161290322581,4,3,12,60,0,1
453910,-64.5161290322581,4,3,12,60,0,1
453970,-64.5161290322581,4,3,12,5,0,1
454030,-64.5161290322581,4,3,12,60,0,1
454510,-64.5161290322581,4,3,12,60,0,1
454630,-64.5161290322581,4,3,12,60,0,1
454750,-64.5161290322581,4,3,12,60,0,1
454870,-64.5161290322581,4,3,12,60,0,1
454990,-64.5161290322581,4,3,12,60,0,1
455110,-64.5161290322581,4,3,12,60,0,1
455230,-64.5161290322581,4,3,12,60,0,1
455350,-86.9565217391304,4,3,12,60,0,1
455470,-86.9565217391304,4,3,12,60,0,1
455530,-86.9565217391304,4,3,12,5,0,1
455590,-74.0740740740741,4,3,16,60,0,1
455710,-74.0740740740741,4,3,15,60,0,1
455770,-74.0740740740741,4,3,15,5,0,1
455830,-86.9565217391304,4,3,15,60,0,1
455950,-86.9565217391304,4,3,15,60,0,1
456010,-86.9565217391304,4,3,15,5,0,1
456070,-105.263157894737,4,3,16,60,0,1
456190,-105.263157894737,4,3,12,60,0,1
456250,-105.263157894737,4,3,12,5,0,1
456310,-64.5161290322581,4,3,12,60,0,1
456430,-64.5161290322581,4,3,12,60,0,1
456790,-64.5161290322581,4,3,12,60,0,1
457030,-64.5161290322581,4,3,12,60,0,1
457150,-64.5161290322581,4,3,12,60,0,1
457270,-64.5161290322581,4,3,12,60,0,1
457390,-64.5161290322581,4,3,12,60,0,1
457450,-64.5161290322581,4,3,12,5,0,1
457510,-64.5161290322581,4,3,12,60,0,1
457750,-64.5161290322581,4,3,12,60,0,1
457810,-64.5161290322581,4,3,12,5,0,1
457870,-80,4,3,12,60,0,1
457990,-80,4,3,12,60,0,1
458110,-80,4,3,12,60,0,1
458170,-64.5161290322581,4,3,12,5,0,1
458230,-64.5161290322581,4,3,12,60,0,1
458350,-64.5161290322581,4,3,12,60,0,1
458470,-64.5161290322581,4,3,12,60,0,1
458710,-64.5161290322581,4,3,12,60,0,1
458950,-64.5161290322581,4,3,12,60,0,1
459070,-64.5161290322581,4,3,12,60,0,1
459130,-64.5161290322581,4,3,12,5,0,1
459190,-64.5161290322581,4,3,12,60,0,1
459310,-64.5161290322581,4,3,12,60,0,1
459430,-64.5161290322581,4,3,12,60,0,1
460150,-74.0740740740741,4,3,12,60,0,1
460390,-74.0740740740741,4,3,12,60,0,1
460510,-74.0740740740741,4,3,12,60,0,1
460630,-74.0740740740741,4,3,12,60,0,1
460750,-74.0740740740741,4,3,12,60,0,1
460870,-74.0740740740741,4,3,12,60,0,1
460990,-74.0740740740741,4,3,12,60,0,1
461110,-74.0740740740741,4,3,12,60,0,1
461350,-74.0740740740741,4,3,12,60,0,1
461470,-74.0740740740741,4,3,12,60,0,1
461650,-74.0740740740741,4,3,12,5,0,0
461710,-74.0740740740741,4,3,12,60,0,0
461830,-74.0740740740741,4,3,12,60,0,0
461950,-74.0740740740741,4,3,12,60,0,0
462190,-74.0740740740741,4,3,12,60,0,0
462310,-74.0740740740741,4,3,12,60,0,0
462610,-74.0740740740741,4,3,12,5,0,0
462670,-74.0740740740741,4,3,12,60,0,0
463150,-74.0740740740741,4,3,12,60,0,0
463270,-74.0740740740741,4,3,12,60,0,0
463750,-74.0740740740741,4,3,12,60,0,0
463870,-74.0740740740741,4,3,12,60,0,0
464590,-74.0740740740741,4,3,12,60,0,0
464710,-74.0740740740741,4,3,12,60,0,0
465070,-74.0740740740741,4,3,12,60,0,0
465130,-74.0740740740741,4,3,12,5,0,0
465190,-74.0740740740741,4,3,12,60,0,0
465310,-74.0740740740741,4,3,12,60,0,0
465430,-74.0740740740741,4,3,12,60,0,0
465550,-74.0740740740741,4,3,12,60,0,0
465610,-74.0740740740741,4,3,12,5,0,0
465670,-74.0740740740741,4,3,12,60,0,0
465790,-74.0740740740741,4,3,12,60,0,0
465910,-74.0740740740741,4,3,12,60,0,0
466030,-74.0740740740741,4,3,12,60,0,0
466090,-74.0740740740741,4,3,12,5,0,0
466150,-74.0740740740741,4,3,12,60,0,0
466510,-74.0740740740741,4,3,12,60,0,0
466630,-74.0740740740741,4,3,12,60,0,0
466750,-74.0740740740741,4,3,12,60,0,0
466870,-74.0740740740741,4,3,12,60,0,0
466990,-74.0740740740741,4,3,12,60,0,0
467230,-74.0740740740741,4,3,12,60,0,0
467350,-74.0740740740741,4,3,12,60,0,0
467590,-74.0740740740741,4,3,12,60,0,0
467710,-74.0740740740741,4,3,12,60,0,0
467770,-74.0740740740741,4,3,12,5,0,0
467830,-86.9565217391304,4,3,12,60,0,0
468010,-86.9565217391304,4,3,12,5,0,0
468070,-86.9565217391304,4,3,12,60,0,0
468370,-86.9565217391304,4,3,12,5,0,0
468430,-86.9565217391304,4,3,12,60,0,0
468970,-86.9565217391304,4,3,12,5,0,0
469030,-86.9565217391304,4,3,12,60,0,0
469510,-222.222222222222,4,3,12,60,0,0
469690,-222.222222222222,4,3,12,5,0,0
469750,-86.9565217391304,4,3,15,60,0,0
469930,-86.9565217391304,4,3,15,5,0,0
469990,-86.9565217391304,4,3,15,60,0,0
470290,-86.9565217391304,4,3,15,5,0,0
470350,-86.9565217391304,4,3,15,60,0,0
470650,-86.9565217391304,4,3,15,5,0,0
470710,-86.9565217391304,4,3,12,60,0,0
470950,-48.780487804878,4,3,12,60,0,0
471130,-48.780487804878,4,3,12,5,0,0
471190,-86.9565217391304,4,3,15,60,0,0
471670,-64.5161290322581,4,3,12,60,0,0
471970,-60.6060606060606,4,3,12,5,0,0
472030,-86.9565217391304,4,3,12,60,0,0
472210,-86.9565217391304,4,3,12,5,0,0
472270,-86.9565217391304,4,3,12,60,0,0
472390,-86.9565217391304,4,3,12,60,0,0
472630,-74.0740740740741,4,3,12,60,0,0
472810,-74.0740740740741,4,3,12,5,0,0
472870,-86.9565217391304,4,3,12,60,0,0
473050,-86.9565217391304,4,3,12,5,0,0
473110,-86.9565217391304,4,3,12,60,0,0
473530,-86.9565217391304,4,3,12,5,0,0
473590,-86.9565217391304,4,3,15,60,0,0
474130,-86.9565217391304,4,3,15,5,0,0
474190,-86.9565217391304,4,3,15,60,0,0
474490,-86.9565217391304,4,3,15,5,0,0
474550,-86.9565217391304,4,3,15,60,0,0
475510,-74.0740740740741,4,3,15,60,0,0
475750,-74.0740740740741,4,3,15,60,0,0
475870,-74.0740740740741,4,3,15,60,0,0
475990,-74.0740740740741,4,3,15,60,0,0
476110,-74.0740740740741,4,3,15,60,0,0
476230,-74.0740740740741,4,3,15,60,0,0
476350,-74.0740740740741,4,3,15,60,0,0
476470,-54.054054054054,4,3,15,60,0,0
476590,-54.054054054054,4,3,15,60,0,0
476650,-54.054054054054,4,3,15,5,0,0
476710,-105.263157894737,4,3,15,60,0,0
477430,-54.054054054054,4,3,15,60,0,0
477610,-54.054054054054,4,3,15,5,0,0
477670,-105.263157894737,4,3,15,60,0,0
477790,-105.263157894737,4,3,15,60,0,0
477910,-105.263157894737,4,3,15,60,0,0
478030,-105.263157894737,4,3,15,60,0,0
478150,-105.263157894737,4,3,15,60,0,0
478270,-105.263157894737,4,3,15,60,0,0
478390,-74.0740740740741,4,3,15,60,0,0
478510,-74.0740740740741,4,3,15,60,0,0
479110,-54.054054054054,4,3,15,60,0,0
479290,-54.054054054054,4,3,15,5,0,0
479350,-74.0740740740741,4,3,15,60,0,1
479590,-74.0740740740741,4,3,17,60,0,1
479710,-74.0740740740741,4,3,6,60,0,1
479830,-48.780487804878,4,3,17,60,0,1
479950,-48.780487804878,4,3,6,60,0,1
480010,-48.780487804878,4,3,6,5,0,1
480070,-74.0740740740741,4,3,6,60,0,1
480310,-48.780487804878,4,3,6,60,0,1
480490,-48.780487804878,4,3,6,5,0,1
480550,-74.0740740740741,4,3,17,60,0,1
480670,-74.0740740740741,4,3,6,60,0,1
480790,-48.780487804878,4,3,17,60,0,1
480910,-48.780487804878,4,3,6,60,0,1
480970,-48.780487804878,4,3,6,5,0,1
481030,-74.0740740740741,4,3,6,60,0,1
481270,-48.780487804878,4,3,6,60,0,1
481450,-48.780487804878,4,3,6,5,0,1
481510,-74.0740740740741,4,3,17,60,0,1
481630,-74.0740740740741,4,3,6,60,0,1
481750,-74.0740740740741,4,3,17,60,0,1
481870,-74.0740740740741,4,3,6,60,0,1
481990,-74.0740740740741,4,3,18,60,0,1
482110,-74.0740740740741,4,3,6,60,0,1
482230,-74.0740740740741,4,3,17,60,0,1
482470,-74.0740740740741,4,3,1,60,0,1
482710,-54.054054054054,4,3,2,60,0,0
482950,-54.054054054054,4,3,1,60,0,0
483190,-60.6060606060606,4,3,19,70,0,1
483310,-60.6060606060606,4,3,1,70,0,1
483430,-60.6060606060606,4,3,16,70,0,1
483550,-60.6060606060606,4,3,1,70,0,1
483670,-60.6060606060606,4,3,16,70,0,1
483790,-60.6060606060606,4,3,1,70,0,1
483910,-60.6060606060606,4,3,16,70,0,1
484030,-60.6060606060606,4,3,1,70,0,1
484150,-60.6060606060606,4,3,16,70,0,1
484270,-60.6060606060606,4,3,1,70,0,1
484390,-60.6060606060606,4,3,16,70,0,1
484510,-60.6060606060606,4,3,1,70,0,1
484630,-60.6060606060606,4,3,16,70,0,1
484750,-60.6060606060606,4,3,20,70,0,1
484870,-60.6060606060606,4,3,16,70,0,1
484990,-60.6060606060606,4,3,20,70,0,1
485110,-60.6060606060606,4,3,16,70,0,1
485230,-60.6060606060606,4,3,20,70,0,1
485350,-60.6060606060606,4,3,16,70,0,1
485470,-60.6060606060606,4,3,20,70,0,1
485590,-60.6060606060606,4,3,15,70,0,1
485710,-60.6060606060606,4,3,20,70,0,1
485830,-60.6060606060606,4,3,15,70,0,1
485950,-60.6060606060606,4,3,20,70,0,1
486070,-60.6060606060606,4,3,12,70,0,1
486190,-60.6060606060606,4,3,12,70,0,1
486310,-60.6060606060606,4,3,16,70,0,1
486430,-60.6060606060606,4,3,1,70,0,1
486550,-60.6060606060606,4,3,16,70,0,1
486670,-60.6060606060606,4,3,1,70,0,1
486790,-60.6060606060606,4,3,16,70,0,1
486910,-60.6060606060606,4,3,1,70,0,1
487030,-60.6060606060606,4,3,16,70,0,1
487150,-60.6060606060606,4,3,1,70,0,1
487270,-60.6060606060606,4,3,16,70,0,1
487390,-60.6060606060606,4,3,12,70,0,1
487510,-60.6060606060606,4,3,12,70,0,1
487630,-60.6060606060606,4,3,12,70,0,1
487750,-60.6060606060606,4,3,16,70,0,1
487870,-60.6060606060606,4,3,1,70,0,1
487990,-60.6060606060606,4,3,16,70,0,1
488110,-60.6060606060606,4,3,15,70,0,1
488470,-60.6060606060606,4,3,12,70,0,1
488590,-60.6060606060606,4,3,12,70,0,1
488710,-60.6060606060606,4,3,16,70,0,1
488830,-60.6060606060606,4,3,12,70,0,1
488950,-60.6060606060606,4,3,12,70,0,1
489070,-60.6060606060606,4,3,12,70,0,1
489190,-60.6060606060606,4,3,16,70,0,1
489310,-60.6060606060606,4,3,15,70,0,1
489670,-60.6060606060606,4,3,16,70,0,1
489790,-60.6060606060606,4,3,1,70,0,1
489910,-60.6060606060606,4,3,16,70,0,1
490030,-60.6060606060606,4,3,15,70,0,1
490390,-60.6060606060606,4,3,16,70,0,1
490510,-60.6060606060606,4,3,20,70,0,1
490630,-60.6060606060606,4,3,16,70,0,1
490750,-60.6060606060606,4,3,20,70,0,1
491470,-60.6060606060606,4,3,15,70,0,1
491590,-60.6060606060606,4,3,20,70,0,1
491710,-60.6060606060606,4,3,6,70,0,1
491830,-60.6060606060606,4,3,1,70,0,1
492010,-60.6060606060606,4,3,1,5,0,1
492070,-60.6060606060606,4,3,20,70,0,1
493270,-60.6060606060606,4,3,12,70,0,1
493390,-60.6060606060606,4,3,12,70,0,1
493510,-60.6060606060606,4,3,20,70,0,1
493630,-60.6060606060606,4,3,6,70,0,1
493750,-60.6060606060606,4,3,20,70,0,1
493990,-60.6060606060606,4,3,15,70,0,1
494230,-60.6060606060606,4,3,6,70,0,1
494470,-60.6060606060606,4,3,15,70,0,1
494710,-60.6060606060606,4,3,12,70,0,1
494830,-60.6060606060606,4,3,12,70,0,1
494950,-60.6060606060606,4,3,16,70,0,1
495070,-60.6060606060606,4,3,1,70,0,1
495190,-60.6060606060606,4,3,16,70,0,1
495310,-60.6060606060606,4,3,1,70,0,1
495430,-60.6060606060606,4,3,16,70,0,1
495550,-60.6060606060606,4,3,1,70,0,1
495670,-60.6060606060606,4,3,16,70,0,1
495790,-60.6060606060606,4,3,1,70,0,1
495910,-60.6060606060606,4,3,16,70,0,1
496030,-60.6060606060606,4,3,1,70,0,1
496150,-60.6060606060606,4,3,16,70,0,1
496270,-60.6060606060606,4,3,20,70,0,1
496390,-60.6060606060606,4,3,16,70,0,1
496510,-60.6060606060606,4,3,20,70,0,1
496630,-60.6060606060606,4,3,16,70,0,1
496750,-60.6060606060606,4,3,20,70,0,1
496870,-60.6060606060606,4,3,16,70,0,1
496990,-60.6060606060606,4,3,20,70,0,1
497110,-60.6060606060606,4,3,16,70,0,1
497230,-60.6060606060606,4,3,20,70,0,1
497350,-60.6060606060606,4,3,16,70,0,1
497470,-60.6060606060606,4,3,20,70,0,1
497590,-60.6060606060606,4,3,12,70,0,1
497710,-60.6060606060606,4,3,12,70,0,1
497830,-60.6060606060606,4,3,16,70,0,1
497950,-60.6060606060606,4,3,1,70,0,1
498070,-60.6060606060606,4,3,16,70,0,1
498190,-60.6060606060606,4,3,1,70,0,1
498310,-60.6060606060606,4,3,16,70,0,1
498430,-60.6060606060606,4,3,1,70,0,1
498550,-60.6060606060606,4,3,16,70,0,1
498670,-60.6060606060606,4,3,1,70,0,1
498790,-60.6060606060606,4,3,16,70,0,1
498910,-60.6060606060606,4,3,15,70,0,1
499270,-60.6060606060606,4,3,16,70,0,1
499390,-60.6060606060606,4,3,20,70,0,1
499990,-60.6060606060606,4,3,3,70,0,1
500230,-60.6060606060606,4,3,20,70,0,1
500470,-60.6060606060606,4,3,12,70,0,1
500590,-60.6060606060606,4,3,12,70,0,1
500710,-60.6060606060606,4,3,16,70,0,1
500830,-60.6060606060606,4,3,1,70,0,1
500950,-60.6060606060606,4,3,16,70,0,1
501070,-60.6060606060606,4,3,1,70,0,1
501190,-60.6060606060606,4,3,16,70,0,1
501310,-60.6060606060606,4,3,1,70,0,1
501430,-60.6060606060606,4,3,16,70,0,1
501550,-60.6060606060606,4,3,1,70,0,1
501670,-60.6060606060606,4,3,16,70,0,1
501790,-60.6060606060606,4,3,1,70,0,1
501910,-60.6060606060606,4,3,16,70,0,1
502030,-60.6060606060606,4,3,20,70,0,1
502150,-60.6060606060606,4,3,16,70,0,1
502270,-60.6060606060606,4,3,20,70,0,1
502390,-60.6060606060606,4,3,16,70,0,1
502510,-60.6060606060606,4,3,20,70,0,1
502630,-60.6060606060606,4,3,16,70,0,1
502750,-60.6060606060606,4,3,20,70,0,1
502870,-60.6060606060606,4,3,16,70,0,1
502990,-60.6060606060606,4,3,20,70,0,1
503110,-60.6060606060606,4,3,16,70,0,1
503230,-60.6060606060606,4,3,20,70,0,1
503350,-60.6060606060606,4,3,12,70,0,1
503470,-60.6060606060606,4,3,12,70,0,1
503590,-60.6060606060606,4,3,16,70,0,1
503710,-60.6060606060606,4,3,1,70,0,1
503830,-60.6060606060606,4,3,16,70,0,1
503950,-60.6060606060606,4,3,15,70,0,1
504310,-60.6060606060606,4,3,20,70,0,1
504430,-60.6060606060606,4,3,6,70,0,1
504550,-60.6060606060606,4,3,20,70,0,1
504790,-60.6060606060606,4,3,1,70,0,1
504970,-60.6060606060606,4,3,1,5,0,1
505030,-60.6060606060606,4,3,16,70,0,1
505150,-60.6060606060606,4,3,6,70,0,1
505510,-60.6060606060606,4,3,20,70,0,1
506170,-60.6060606060606,4,3,20,5,0,1
506230,-60.6060606060606,4,3,15,70,0,1
507670,-60.6060606060606,4,3,15,65,0,1
507910,-60.6060606060606,4,3,20,65,0,1
508030,-60.6060606060606,4,3,3,60,0,1
508150,-60.6060606060606,4,3,20,60,0,1
508390,-60.6060606060606,4,3,3,55,0,1
508510,-60.6060606060606,4,3,20,55,0,1
508750,-60.6060606060606,4,3,3,50,0,1
508870,-60.6060606060606,4,3,20,50,0,1
509110,480,4,3,20,40,1,0
509110,-100,4,3,20,40,0,0

[HitObjects]
28,100,52790,6,0,L|23:44,3,55,2|0|0|0,3:3|0:0|0:0|0:0,0:0:0:0:
112,92,53030,2,0,L|107:36,3,55,2|0|0|0,3:3|0:0|0:0|0:0,0:0:0:0:
148,232,53270,6,0,L|143:287,3,55,2|0|0|0,3:3|0:0|0:0|0:0,0:0:0:0:
232,240,53510,2,0,L|227:295,3,55,2|0|0|0,3:3|0:0|0:0|0:0,0:0:0:0:
296,96,53750,6,0,L|291:40,3,55,2|0|0|0,3:3|0:0|0:0|0:0,0:0:0:0:
380,88,53990,2,0,L|375:32,3,55,2|0|0|0,3:3|0:0|0:0|0:0,0:0:0:0:
448,192,54230,5,10,3:3:0:0:
399,171,54290,1,0,0:0:0:0:
358,203,54350,1,0,0:0:0:0:
365,255,54410,1,0,0:0:0:0:
414,274,54470,2,0,L|480:268,3,55,2|0|0|0,3:3|0:0|0:0|0:0,0:0:0:0:
280,168,54710,2,0,L|214:174,3,55,2|0|0|0,3:3|0:0|0:0|0:0,0:0:0:0:
333,66,54950,6,0,P|349:46|393:30,3,55,10|0|0|0,3:3|0:0|0:0|0:0,0:0:0:0:
208,96,55190,2,0,P|198:72|206:26,3,55,10|0|0|0,3:3|0:0|0:0|0:0,0:0:0:0:
148,192,55430,2,0,P|122:188|86:158,3,55,10|0|0|0,3:3|0:0|0:0|0:0,0:0:0:0:
16,20,55670,5,10,3:3:0:0:
29,18,55730,1,0,0:0:0:0:
43,19,55790,1,0,0:0:0:0:
56,23,55850,1,0,0:0:0:0:
68,29,55910,1,2,3:3:0:0:
78,38,55970,1,0,0:0:0:0:
87,49,56030,1,0,0:0:0:0:
92,62,56090,1,0,0:0:0:0:
96,76,56150,6,0,B|76:80|76:80|40:72,3,55,2|0|0|0,3:3|0:0|0:0|0:0,0:0:0:0:
156,136,56390,2,0,B|144:152|144:152|113:172,3,55,2|0|0|0,3:3|0:0|0:0|0:0,0:0:0:0:
248,119,56630,2,0,B|257:137|257:137|258:174,3,55,2|0|0|0,3:3|0:0|0:0|0:0,0:0:0:0:
184,64,56870,1,10,3:3:0:0:
184,64,56930,1,0,0:0:0:0:
184,64,56990,2,0,L|169:117,1,55,8|0,3:3|0:0,0:0:0:0:
0,208,57110,6,0,L|111:198,1,110,8|0,3:3|0:0,0:0:0:0:
281,274,57350,2,0,L|169:264,1,110
68,308,57590,1,0,0:0:0:0:
68,308,57650,1,0,0:0:0:0:
68,308,57710,1,0,0:0:0:0:
68,308,57770,1,0,0:0:0:0:
68,308,57830,6,0,L|60:376,3,55,8|0|0|0,3:3|0:0|0:0|0:0,0:0:0:0:
60,116,58070,2,0,L|52:48,3,55,10|0|0|0,3:3|0:0|0:0|0:0,0:0:0:0:
0,204,58310,2,0,L|60:208,1,55,8|0,3:3|0:0,0:0:0:0:
180,280,58430,2,0,L|176:220,1,55,8|0,3:3|0:0,0:0:0:0:
168,92,58550,6,0,L|164:24,3,55,10|0|0|0,3:3|0:0|0:0|0:0,0:0:0:0:
300,24,58790,2,0,B|280:26|280:26|251:51,3,55,2|0|0|0,3:3|0:0|0:0|0:0,0:0:0:0:
176,112,59030,2,0,B|188:128|188:128|224:140,3,55,2|0|0|0,3:3|0:0|0:0|0:0,0:0:0:0:
320,176,59270,2,0,B|327:157|327:157|320:120,3,55,2|0|0|0,3:3|0:0|0:0|0:0,0:0:0:0:
501,154,59510,6,0,L|492:99,3,55,2|0|0|0,3:3|0:0|0:0|0:0,0:0:0:0:
416,168,59750,2,0,L|407:112,3,55,2|0|0|0,3:3|0:0|0:0|0:0,0:0:0:0:
476,240,59990,5,10,3:3:0:0:
434,243,60050,1,0,0:0:0:0:
393,247,60110,1,0,0:0:0:0:
352,251,60170,1,0,0:0:0:0:
311,255,60230,2,0,L|320:320,3,55,2|0|0|0,3:3|0:0|0:0|0:0,0:0:0:0:
224,232,60470,2,0,L|232:296,3,55,2|0|0|0,3:3|0:0|0:0|0:0,0:0:0:0:
368,56,60710,6,0,L|360:0,3,55,10|0|0|0,3:3|0:0|0:0|0:0,0:0:0:0:
176,88,60950,2,0,L|131:122,3,55,10|0|0|0,3:3|0:0|0:0|0:0,0:0:0:0:
301,230,61190,2,0,L|353:251,3,55,10|0|0|0,3:3|0:0|0:0|0:0,0:0:0:0:
244,0,61430,6,0,L|256:56,1,55,10|0,3:3|0:0,0:0:0:0:
288,216,61550,2,0,L|276:160,3,55,8|0|2|0,3:3|0:0|3:3|0:0,0:0:0:0:
24,68,61790,6,0,L|80:56,3,55,8|0|2|0,3:3|0:0|3:3|0:0,0:0:0:0:
116,228,62030,2,0,L|147:179,1,55,8|0,3:3|0:0,0:0:0:0:
32,56,62150,2,0,L|88:44,3,55,10|0|0|0,3:3|0:0|0:0|0:0,0:0:0:0:
28,296,62390,2,0,B|60:324|60:324|144:312,1,110,8|0,3:3|0:0,0:0:0:0:
66,137,62630,2,0,B|57:178|57:178|110:245,1,110,8|0,3:3|0:0,0:0:0:0:
216,384,62870,6,0,L|221:324,1,55,10|0,3:3|0:0,0:0:0:0:
240,144,62990,2,0,L|245:84,3,55,8|0|0|0,3:3|0:0|0:0|0:0,0:0:0:0:
280,248,63230,2,0,L|340:253,3,55,8|0|0|0,3:3|0:0|0:0|0:0,0:0:0:0:
432,216,63470,2,0,L|427:156,1,55,8|0,3:3|0:0,0:0:0:0:
352,104,63590,6,0,B|424:64|424:64|508:108,1,165,8|0,3:3|0:0,0:0:0:0:
512,92,63830,2,0,B|424:48|424:48|335:96,1,197.99999395752,8|0,3:3|0:0,0:0:0:0:
432,216,64070,2,0,B|428:196|428:196|432:192|432:192|425:163|425:163|425:150,1,66
328,116,64310,6,0,L|336:244,1,121.000003692627,10|4,3:3|3:3,0:0:0:0:
344,336,64550,1,8,3:3:0:0:
344,336,64670,1,4,3:3:0:0:
136,240,64790,2,0,B|184:232|184:232|244:280,1,121.000003692627,8|4,3:3|3:3,0:0:0:0:
40,324,65030,2,0,B|9:286|9:286|20:210,1,121.000003692627,8|4,3:3|3:3,0:0:0:0:
152,36,65270,2,0,B|182:73|182:73|171:149,1,121.000003692627,8|4,3:3|3:3,0:0:0:0:
0,132,65510,2,0,B|60:120|60:120|120:140|120:140|120:144|120:144|200:144,1,181.500005538941,8|0,3:3|0:0,0:0:0:0:
264,132,65750,5,8,3:3:0:0:
236,220,65870,1,4,3:3:0:0:
288,48,65990,1,8,3:3:0:0:
332,192,66110,1,4,3:3:0:0:
416,140,66230,5,8,3:3:0:0:
372,280,66350,1,4,3:3:0:0:
460,16,66470,1,8,3:3:0:0:
460,16,66590,1,4,3:3:0:0:
264,132,66710,2,0,L|236:8,1,121.000003692627,8|4,3:3|3:3,0:0:0:0:
484,224,66950,2,0,L|512:100,1,121.000003692627,8|4,3:3|3:3,0:0:0:0:
408,364,67190,6,0,B|344:372|344:372|292:328,1,121.000003692627,10|4,3:3|3:3,0:0:0:0:
244,248,67430,1,8,3:3:0:0:
244,248,67550,1,4,3:3:0:0:
12,368,67670,2,0,B|8:308|8:308|23:232,1,121.000003692627,8|4,3:3|3:3,0:0:0:0:
144,156,67910,2,0,B|148:216|148:216|132:291,1,121.000003692627,8|4,3:3|3:3,0:0:0:0:
88,88,68150,2,0,B|128:64|128:64|208:88,1,121.000003692627,8|4,3:3|3:3,0:0:0:0:
384,24,68390,2,0,B|312:0|312:0|332:108,1,181.500005538941,8|0,3:3|0:0,0:0:0:0:
352,224,68630,5,10,3:3:0:0:
316,120,68750,1,4,3:3:0:0:
352,236,68870,1,8,3:3:0:0:
448,96,68990,1,4,3:3:0:0:
504,300,69110,2,0,B|460:309|460:309|419:306|419:306|372:315,1,121.000003692627,8|4,3:3|3:3,0:0:0:0:
288,340,69350,2,0,L|276:264,2,60.5000018463135,8|0|4,3:3|0:0|3:3,0:0:0:0:
72,216,69590,2,0,B|168:184|168:184|124:308,1,230.99999295044,10|0,3:3|0:0,0:0:0:0:
140,336,69830,2,0,L|160:272,2,60.5000018463135,8|0|4,3:3|0:0|3:3,0:0:0:0:
8,56,70070,6,0,B|64:60|64:60|64:64|64:64|131:66,1,121.000003692627,10|4,3:3|3:3,0:0:0:0:
220,72,70310,1,8,3:3:0:0:
220,72,70430,1,4,3:3:0:0:
360,0,70550,2,0,B|324:20|324:20|320:108,1,121.000003692627,8|4,3:3|3:3,0:0:0:0:
504,184,70790,2,0,B|504:142|504:142|430:95,1,121.000003692627,8|4,3:3|3:3,0:0:0:0:
268,212,71030,2,0,B|303:233|303:233|381:192,1,121.000003692627,8|4,3:3|3:3,0:0:0:0:
220,72,71270,2,0,B|126:60|157:141|56:126,1,181.500005538941,8|0,3:3|0:0,0:0:0:0:
72,44,71510,5,8,3:3:0:0:
196,160,71630,1,4,3:3:0:0:
236,60,71750,1,8,3:3:0:0:
168,256,71870,1,4,3:3:0:0:
40,220,71990,5,8,3:3:0:0:
196,160,72110,1,4,3:3:0:0:
44,224,72230,1,8,3:3:0:0:
44,224,72350,1,4,3:3:0:0:
136,352,72470,2,0,L|268:332,1,121.000003692627,8|4,3:3|3:3,0:0:0:0:
315,178,72710,2,0,L|183:158,1,121.000003692627,8|4,3:3|3:3,0:0:0:0:
435,264,72950,6,0,B|425:205|425:205|429:200|429:200|420:141,1,121.000003692627,10|4,3:3|3:3,0:0:0:0:
412,48,73190,1,8,3:3:0:0:
412,48,73310,1,4,3:3:0:0:
241,271,73430,2,0,B|276:222|276:222|282:221|282:221|317:173,1,121.000003692627,8|4,3:3|3:3,0:0:0:0:
144,56,73670,2,0,B|203:62|203:62|207:67|207:67|266:73,1,121.000003692627,8|4,3:3|3:3,0:0:0:0:
72,0,73910,2,0,B|64:24|40:52|40:52|64:76|72:108,1,121.000003692627,8|4,3:3|3:3,0:0:0:0:
64,180,74090,1,0,0:0:0:0:
64,180,74150,2,0,B|53:149|3:144|3:144|92:112|136:212,1,230.99999295044,8|0,3:3|0:0,0:0:0:0:
16,336,74390,6,0,B|-32:304|-32:304|108:280,1,181.500005538941,10|0,3:3|0:0,0:0:0:0:
184,268,74630,2,0,L|172:340,3,60.5000018463135,8|0|4|0,3:3|0:0|3:3|0:0,0:0:0:0:
268,288,74870,2,0,L|256:360,3,60.5000018463135,8|0|4|0,3:3|0:0|3:3|0:0,0:0:0:0:
380,144,75110,2,0,P|300:100|316:204,1,230.99999295044,8|0,3:3|0:0,0:0:0:0:
400,152,75350,6,0,B|392:120|392:120|364:92,1,60.5000018463135,2|0,1:1|0:0,0:0:0:0:
304,52,75470,2,0,B|271:49|271:49|235:67,1,60.5000018463135,2|0,1:1|0:0,0:0:0:0:
179,112,75590,2,0,B|166:142|166:142|172:181,1,60.5000018463135,2|0,1:1|0:0,0:0:0:0:
197,249,75710,2,0,B|222:270|222:270|261:276,1,60.5000018463135,2|0,1:1|0:0,0:0:0:0:
400,152,75830,6,0,B|347:159|347:159|341:156|341:156|279:162,1,121.000003692627,10|4,3:3|3:3,0:0:0:0:
77,238,76070,2,0,B|129:245|129:245|135:242|135:242|197:248,1,121.000003692627,8|4,3:3|3:3,0:0:0:0:
396,280,76310,1,8,3:3:0:0:
299,332,76430,1,4,3:3:0:0:
205,274,76550,1,8,3:3:0:0:
109,327,76670,1,4,3:3:0:0:
260,104,76790,6,0,B|300:124|300:124|308:204,1,121.000003692627,8|4,3:3|3:3,0:0:0:0:
56,148,77030,2,0,B|31:185|31:185|64:258,1,121.000003692627,8|4,3:3|3:3,0:0:0:0:
152,76,77270,1,8,3:3:0:0:
152,76,77390,1,4,3:3:0:0:
132,200,77510,1,8,3:3:0:0:
132,200,77630,1,4,3:3:0:0:
32,55,77750,6,0,L|172:79,1,121.000003692627,8|4,3:3|3:3,0:0:0:0:
348,8,77990,2,0,P|295:19|208:32,1,121.000003692627,8|4,3:3|3:3,0:0:0:0:
440,112,78230,1,8,3:3:0:0:
460,0,78350,1,4,3:3:0:0:
358,177,78470,2,0,B|333:137|357:85|357:85|411:83|451:122,1,181.500005538941,8|0,3:3|0:0,0:0:0:0:
448,204,78710,6,0,B|392:212|392:212|384:208|384:208|316:216,1,121.000003692627,10|4,3:3|3:3,0:0:0:0:
180,328,78950,2,0,B|201:275|201:275|208:270|208:270|235:207,1,121.000003692627,8|4,3:3|3:3,0:0:0:0:
200,36,79190,2,0,B|234:80|234:80|235:89|235:89|276:144,1,121.000003692627,8|4,3:3|3:3,0:0:0:0:
504,288,79430,6,0,B|494:287|480:292|480:292|467:291|467:291|456:296|440:296,1,60.5000018463135,8|0,3:3|0:0,0:0:0:0:
316,232,79550,2,0,B|325:231|340:236|340:236|352:235|352:235|364:240|380:240,1,60.5000018463135,4|0,3:3|0:0,0:0:0:0:
492,176,79670,2,0,B|482:175|468:180|468:180|455:179|455:179|444:184|428:184,1,60.5000018463135,8|0,3:3|0:0,0:0:0:0:
336,104,79790,2,0,B|345:103|360:108|360:108|372:107|372:107|384:112|400:112,1,60.5000018463135,4|0,3:3|0:0,0:0:0:0:
480,28,79910,2,0,B|470:27|456:32|456:32|443:31|443:31|432:36|416:36,3,60.5000018463135,8|0|4|0,3:3|0:0|3:3|0:0,0:0:0:0:
248,152,80150,6,0,B|256:96|256:96|260:88|260:88|268:28,1,121.000003692627,10|4,3:3|3:3,0:0:0:0:
220,256,80390,2,0,B|164:248|164:248|156:244|156:244|96:236,1,121.000003692627,8|4,3:3|3:3,0:0:0:0:
40,112,80630,1,8,3:3:0:0:
54,114,80690,1,0,0:0:0:0:
69,117,80750,1,4,3:3:0:0:
84,120,80810,1,0,0:0:0:0:
100,124,80870,6,0,B|84:128|72:144|72:144|80:164|76:200,1,60.5000018463135,2|0,1:1|0:0,0:0:0:0:
28,164,80990,2,0,B|23:179|31:198|31:198|52:201|81:222,1,60.5000018463135,2|0,1:1|0:0,0:0:0:0:
16,240,81110,2,0,B|27:251|47:254|47:254|60:237|93:222,1,60.5000018463135,2|0,1:1|0:0,0:0:0:0:
64,304,81230,2,0,B|80:300|91:284|91:284|84:264|87:228,1,60.5000018463135,2|0,1:1|0:0,0:0:0:0:
148,304,81350,2,0,B|152:288|144:269|144:269|123:266|94:245,1,60.5000018463135,2|0,1:1|0:0,0:0:0:0:
196,240,81470,2,0,B|184:228|164:225|164:225|151:242|118:257,1,60.5000018463135,2|0,1:1|0:0,0:0:0:0:
96,44,81590,6,0,B|137:37|171:76|171:76|226:41|226:41|260:83|312:76,1,247.500009441376,10|0,3:3|0:0,0:0:0:0:
408,56,81830,2,0,B|385:-14|385:-14|381:34,1,121.000003692627,8|4,3:3|3:3,0:0:0:0:
420,216,82070,2,0,B|442:286|442:286|446:237,1,121.000003692627,8|4,3:3|3:3,0:0:0:0:
468,136,82310,5,2,1:1:0:0:
336,164,82430,1,2,1:1:0:0:
204,192,82550,1,2,1:1:0:0:
204,192,82670,1,2,1:1:0:0:
369,52,82790,1,2,1:1:0:0:
336,164,82910,1,2,1:1:0:0:
119,90,83030,6,0,B|158:75|158:75|234:111,1,121.000003692627,10|4,3:3|3:3,0:0:0:0:
44,260,83270,2,0,B|50:218|50:218|119:170,1,121.000003692627,8|4,3:3|3:3,0:0:0:0:
176,384,83510,2,0,B|143:357|143:357|136:273,1,121.000003692627,8|4,3:3|3:3,0:0:0:0:
119,90,83750,5,2,1:1:0:0:
210,183,83870,1,2,1:1:0:0:
303,92,83990,1,2,1:1:0:0:
212,0,84110,1,2,1:1:0:0:
292,100,84230,1,2,1:1:0:0:
214,195,84350,1,2,1:1:0:0:
362,7,84470,6,0,B|302:2|302:2|297:6|297:6|234:0,1,121.000003692627,10|4,3:3|3:3,0:0:0:0:
0,84,84710,2,0,B|60:88|60:88|64:85|64:85|127:91,1,121.000003692627,8|4,3:3|3:3,0:0:0:0:
344,208,84950,2,0,B|284:213|284:213|279:209|279:209|216:215,1,121.000003692627,8|4,3:3|3:3,0:0:0:0:
116,224,85190,5,2,1:1:0:0:
188,140,85310,1,2,1:1:0:0:
160,316,85430,1,2,1:1:0:0:
160,316,85550,1,2,1:1:0:0:
32,216,85670,1,2,1:1:0:0:
160,316,85790,1,2,1:1:0:0:
140,68,85910,6,0,B|196:44|260:76|260:76|288:148|252:204,1,247.500009441376,10|0,3:3|0:0,0:0:0:0:
248,220,86150,2,0,L|254:279,3,60.5000018463135,8|0|4|0,3:3|0:0|3:3|0:0,0:0:0:0:
356,208,86390,2,0,L|362:267,3,60.5000018463135,8|0|2|0,3:3|0:0|1:1|0:0,0:0:0:0:
456,196,86630,2,0,L|462:256,3,60.5000018463135,2|0|0|0,1:1|0:0|0:0|0:0,0:0:0:0:
468,188,86870,6,0,L|474:248,1,60.5000018463135,2|0,1:1|0:0,0:0:0:0:
364,200,86990,2,0,L|370:260,1,60.5000018463135,2|0,1:1|0:0,0:0:0:0:
256,212,87110,2,0,L|262:272,1,60.5000018463135,2|0,1:1|0:0,0:0:0:0:
156,220,87230,2,0,L|162:280,1,60.5000018463135,2|0,1:1|0:0,0:0:0:0:
32,112,87350,6,0,B|58:60|126:56|126:56|134:48|134:48|126:56|126:56|82:134|124:168|38:216|38:216|37:209|37:209|40:245|40:245|44:249|44:249|48:286,1,412.5,10|0,3:3|0:0,0:0:0:0:
60,308,88310,5,12,3:3:0:0:
152,220,88430,1,4,3:3:0:0:
276,352,88550,2,0,B|227:360|227:360|204:334|204:334|181:336|140:327,1,148.500000566483,8|4,3:3|3:3,0:0:0:0:
379,112,88790,1,8,3:3:0:0:
471,200,88910,1,4,3:3:0:0:
255,244,89030,2,0,B|309:253|309:253|334:225|334:225|358:228|391:221,1,148.500000566483,8|4,3:3|3:3,0:0:0:0:
44,108,89270,5,8,3:3:0:0:
136,20,89390,1,4,3:3:0:0:
112,144,89510,1,8,3:3:0:0:
56,29,89630,1,4,3:3:0:0:
168,89,89750,1,8,3:3:0:0:
44,184,89870,1,4,3:3:0:0:
116,272,89990,1,8,3:3:0:0:
72,352,90110,1,4,3:3:0:0:
168,196,90230,6,0,B|194:176|194:176|215:183|215:183|218:217|238:223|238:223|252:251|276:271,1,148.500000566483,14|4,3:3|3:3,0:0:0:0:
264,292,90470,1,8,3:3:0:0:
264,292,90590,1,4,3:3:0:0:
508,176,90710,2,0,B|494:145|494:145|473:141|473:141|454:169|432:164|432:164|407:181|375:187,1,148.500000566483,14|4,3:3|3:3,0:0:0:0:
388,212,90950,1,8,3:3:0:0:
388,212,91070,1,4,3:3:0:0:
220,56,91190,5,14,3:3:0:0:
312,116,91310,1,4,3:3:0:0:
136,124,91430,1,8,3:3:0:0:
136,124,91550,1,4,3:3:0:0:
312,116,91670,1,8,3:3:0:0:
220,176,91790,1,4,3:3:0:0:
396,184,91910,1,8,3:3:0:0:
396,184,92030,1,4,3:3:0:0:
244,306,92150,6,0,B|204:266|204:266|224:146,1,148.500000566483,14|4,3:3|3:3,0:0:0:0:
371,53,92390,2,0,B|411:93|411:93|391:213,1,148.500000566483,8|4,3:3|3:3,0:0:0:0:
124,176,92630,2,0,B|138:121|138:121|252:78,1,148.500000566483,8|4,3:3|3:3,0:0:0:0:
492,200,92870,2,0,B|477:254|477:254|363:297,1,148.500000566483,8|4,3:3|3:3,0:0:0:0:
300,308,93110,5,8,3:3:0:0:
321,221,93230,1,4,3:3:0:0:
235,200,93350,1,8,3:3:0:0:
213,286,93470,1,4,3:3:0:0:
44,156,93590,1,8,3:3:0:0:
130,135,93710,1,4,3:3:0:0:
152,221,93830,1,8,3:3:0:0:
66,243,93950,1,4,3:3:0:0:
108,44,94070,6,0,B|132:36|164:40|164:40|168:64|168:64|201:85|216:116,1,148.500000566483,14|4,3:3|3:3,0:0:0:0:
312,256,94310,2,0,B|293:239|280:209|280:209|299:194|299:194|301:154|320:126,1,148.500000566483,8|4,3:3|3:3,0:0:0:0:
472,64,94550,2,0,B|490:80|503:110|503:110|484:125|484:125|482:165|463:193,1,148.500000566483,8|4,3:3|3:3,0:0:0:0:
340,248,94790,2,0,B|321:231|308:201|308:201|327:186|327:186|329:146|348:118,1,148.500000566483,8|4,3:3|3:3,0:0:0:0:
376,24,95030,5,4,3:3:0:0:
357,25,95090,1,0,0:0:0:0:
339,27,95150,1,0,0:0:0:0:
320,29,95210,1,0,0:0:0:0:
300,32,95270,6,0,B|277:31|277:31|264:36|264:36|244:36|216:28,3,74.2500002832413,6|0|0|0,3:3|0:0|0:0|0:0,0:0:0:0:
188,112,95510,2,0,B|177:92|177:92|166:82|166:82|156:65|149:37,3,74.2500002832413,14|0|0|0,3:3|0:0|0:0|0:0,0:0:0:0:
52,64,95750,2,0,B|63:44|63:44|66:30|66:30|76:13|97:-6,3,74.2500002832413,6|0|0|0,3:3|0:0|0:0|0:0,0:0:0:0:
104,204,95990,2,0,B|103:181|103:181|108:168|108:168|108:148|100:120,3,74.2500002832413,14|0|0|0,3:3|0:0|0:0|0:0,0:0:0:0:
24,252,96230,5,14,3:3:0:0:
48,279,96290,1,0,0:0:0:0:
82,294,96350,1,0,0:0:0:0:
118,294,96410,1,0,0:0:0:0:
152,278,96470,1,10,3:3:0:0:
186,262,96530,1,0,0:0:0:0:
222,262,96590,1,0,0:0:0:0:
256,277,96650,1,0,0:0:0:0:
276,304,96710,2,0,B|288:276|288:276|272:200,3,74.2500002832413,6|0|0|0,3:3|0:0|0:0|0:0,0:0:0:0:
368,288,96950,5,6,3:3:0:0:
376,251,97010,1,0,0:0:0:0:
385,215,97070,1,0,0:0:0:0:
394,179,97130,1,0,0:0:0:0:
404,144,97190,6,0,B|417:161|424:172|424:172|421:193|421:193|433:217,3,74.2500002832413,14|0|0|0,3:3|0:0|0:0|0:0,0:0:0:0:
320,108,97430,2,0,B|298:110|285:111|285:111|269:98|269:98|242:96,3,74.2500002832413,6|0|0|0,3:3|0:0|0:0|0:0,0:0:0:0:
396,56,97670,2,0,B|404:36|410:24|410:24|429:16|429:16|444:-5,3,74.2500002832413,14|0|0|0,3:3|0:0|0:0|0:0,0:0:0:0:
404,144,97910,2,0,B|417:161|424:172|424:172|421:193|421:193|433:217,3,74.2500002832413,6|0|0|0,3:3|0:0|0:0|0:0,0:0:0:0:
304,16,98150,1,14,3:3:0:0:
267,21,98210,1,0,0:0:0:0:
230,27,98270,1,0,0:0:0:0:
193,32,98330,1,0,0:0:0:0:
157,38,98390,5,10,3:3:0:0:
152,48,98450,1,0,0:0:0:0:
148,56,98510,2,0,L|164:136,1,74.2500002832413,2|0,1:1|0:0,0:0:0:0:
280,100,98630,2,0,L|234:167,1,74.2500002832413,6|0,3:3|0:0,0:0:0:0:
44,140,98750,2,0,L|111:185,1,74.2500002832413,2|0,1:1|0:0,0:0:0:0:
192,292,98870,2,0,L|176:212,3,74.2500002832413,6|0|0|0,3:3|0:0|0:0|0:0,0:0:0:0:
360,356,99110,6,0,B|343:357|343:357|329:366|303:376|303:376|285:369,1,74.2500002832413,6|0,3:3|0:0,0:0:0:0:
323,235,99230,2,0,B|312:247|312:247|309:264|297:289|297:289|279:297,1,74.2500002832413,4|0,3:3|0:0,0:0:0:0:
189,211,99350,2,0,B|190:227|190:227|199:241|209:267|209:267|202:285,3,74.2500002832413,14|0|0|0,3:3|0:0|0:0|0:0,0:0:0:0:
388,280,99590,6,0,B|378:266|378:266|363:259|342:241|342:241|339:221,1,74.2500002832413,6|0,3:3|0:0,0:0:0:0:
474,187,99710,2,0,B|457:184|457:184|442:189|414:192|414:192|398:180,1,74.2500002832413,4|0,3:3|0:0,0:0:0:0:
428,59,99830,2,0,B|414:68|414:68|407:83|389:104|389:104|369:107,3,74.2500002832413,14|0|0|0,3:3|0:0|0:0|0:0,0:0:0:0:
232,144,100070,6,0,B|255:146|255:146|263:154|263:154|274:153|274:153|279:156|279:156|287:152|287:152|310:158,1,74.2500002832413,6|0,3:3|0:0,0:0:0:0:
240,136,100190,2,0,B|263:138|263:138|271:146|271:146|282:145|282:145|287:148|287:148|295:144|295:144|318:150,1,74.2500002832413,4|0,3:3|0:0,0:0:0:0:
104,184,100310,2,0,B|80:186|80:186|72:194|72:194|61:193|61:193|56:196|56:196|48:192|48:192|25:198,1,74.2500002832413,14|0,3:3|0:0,0:0:0:0:
96,176,100430,2,0,B|72:178|72:178|64:186|64:186|53:185|53:185|48:188|48:188|40:184|40:184|17:190,1,74.2500002832413,4|0,3:3|0:0,0:0:0:0:
131,70,100550,2,0,B|108:48|108:6|108:6|73:62|100:105|100:105|97:110|97:110|125:150|96:199,1,255.750001951218,6|0,3:3|0:0,0:0:0:0:
28,264,100790,6,0,B|80:248|112:200|112:200|76:288|108:360,1,255.750001951218,6|0,3:3|0:0,0:0:0:0:
120,364,101030,2,0,B|136:355|136:355|137:348|137:348|159:357|159:357|186:352|186:352|201:341,3,74.2500002832413,6|0|0|0,3:3|0:0|0:0|0:0,0:0:0:0:
204,196,101270,2,0,B|203:213|203:213|208:218|208:218|190:233|190:233|180:259|180:259|182:277,3,74.2500002832413,6|0|0|0,3:3|0:0|0:0|0:0,0:0:0:0:
324,352,101510,2,0,B|308:342|308:342|301:344|301:344|298:321|298:321|280:299|280:299|263:292,3,74.2500002832413,6|0|0|0,3:3|0:0|0:0|0:0,0:0:0:0:
444,168,101750,6,0,B|459:158|459:158|466:160|466:160|469:137|469:137|487:115|487:115|504:108,3,74.2500002832413,14|0|0|0,3:3|0:0|0:0|0:0,0:0:0:0:
288,120,101990,2,0,B|279:103|279:103|272:102|272:102|281:80|281:80|276:53|276:53|265:38,3,74.2500002832413,4|0|0|0,3:3|0:0|0:0|0:0,0:0:0:0:
388,64,102230,1,4,3:3:0:0:
336,212,102350,1,0,0:0:0:0:
188,96,102470,1,4,3:3:0:0:
328,228,102590,1,0,0:0:0:0:
384,48,102710,6,0,B|320:57|307:42|307:42|260:62|246:88|246:88|213:74|170:82,1,222.750000849724,6|0,3:3|0:0,0:0:0:0:
100,0,102950,2,0,B|100:24|100:24|104:36|104:36|72:100|72:100|80:112|80:112|88:152,1,148.500000566483,8|4,3:3|3:3,0:0:0:0:
308,240,103190,2,0,B|287:228|287:228|274:225|274:225|235:165|235:165|221:166|221:166|182:153,1,148.500000566483,8|4,3:3|3:3,0:0:0:0:
0,292,103430,2,0,B|20:280|20:280|29:270|29:270|100:266|100:266|106:253|106:253|137:226,1,148.500000566483,8|4,3:3|3:3,0:0:0:0:
196,152,103670,5,8,3:3:0:0:
144,240,103790,1,4,3:3:0:0:
200,328,103910,1,8,3:3:0:0:
364,206,104030,2,0,B|320:202|320:202|312:191|312:191|284:186|284:186|288:202|288:202|306:219|306:219|308:250,1,148.500000566483,4|8,3:3|3:3,0:0:0:0:
300,324,104270,1,4,3:3:0:0:
512,200,104390,2,0,B|493:159|493:159|498:148|498:148|489:120|489:120|477:132|477:132|471:156|471:156|445:173,1,148.500000566483,8|4,3:3|3:3,0:0:0:0:
436,176,104630,6,0,B|444:120|444:120|436:116|436:116|456:96|456:96|464:80|464:80|480:20,1,148.500000566483,8|4,3:3|3:3,0:0:0:0:
364,206,104870,2,0,B|372:262|372:262|364:266|364:266|384:286|384:286|392:302|392:302|408:362,1,148.500000566483,8|4,3:3|3:3,0:0:0:0:
344,120,105110,1,8,3:3:0:0:
276,204,105230,1,4,3:3:0:0:
332,120,105350,1,8,3:3:0:0:
280,215,105470,1,4,3:3:0:0:
92,64,105590,6,0,B|110:52|125:42|125:42|128:30|128:30|147:15|147:15|170:29|170:29|180:39|180:39|221:52,1,148.500000566483,8|4,3:3|3:3,0:0:0:0:
160,116,105830,2,0,B|176:164|176:164|172:180|172:180|168:196|168:196|172:200|172:200|160:228|160:228|172:280|172:276,1,148.500000566483,8|4,3:3|3:3,0:0:0:0:
450,135,106070,2,0,B|431:123|416:113|416:113|413:101|413:101|394:86|394:86|371:100|371:100|361:110|361:110|320:123,1,148.500000566483,8|4,3:3|3:3,0:0:0:0:
384,184,106310,2,0,B|376:208|376:208|377:215|377:215|379:224|379:224|377:226|377:226|384:240|384:240|377:266|377:264,1,74.2500002832413,8|0,3:3|0:0,0:0:0:0:
496,220,106430,2,0,B|477:236|477:236|474:244|474:244|472:252|472:252|469:253|469:253|468:268|468:268|449:288|450:286,1,74.2500002832413,4|0,3:3|0:0,0:0:0:0:
396,352,106550,6,0,B|358:333|329:340|329:340|310:328|310:328|300:314|300:314|292:300|292:300|248:312|192:292,1,222.750000849724,10|0,3:3|0:0,0:0:0:0:
104,236,106790,1,8,3:3:0:0:
160,376,106910,1,4,3:3:0:0:
238,201,107030,2,0,B|206:212|184:216|184:216|168:212|168:212|160:208|160:208|144:208|144:208|114:221|98:241,1,148.500000566483,8|4,3:3|3:3,0:0:0:0:
158,96,107270,1,8,3:3:0:0:
102,236,107390,1,4,3:3:0:0:
24,61,107510,2,0,B|55:72|78:76|78:76|94:72|94:72|102:68|102:68|118:68|118:68|148:81|164:101,1,148.500000566483,8|4,3:3|3:3,0:0:0:0:
240,204,107750,5,8,3:3:0:0:
240,204,107870,1,4,3:3:0:0:
248,12,107990,1,8,3:3:0:0:
252,212,108110,1,4,3:3:0:0:
420,96,108230,2,0,B|344:68|344:68|272:112,1,148.500000566483,8|4,3:3|3:3,0:0:0:0:
280,124,108410,1,4,3:3:0:0:
280,124,108470,6,0,B|348:116|348:116|356:120|356:120|432:112,1,148.500000566483,10|4,3:3|3:3,0:0:0:0:
512,344,108710,2,0,B|504:276|504:276|508:268|508:268|500:192,1,148.500000566483,8|4,3:3|3:3,0:0:0:0:
308,324,108950,2,0,B|350:270|350:270|358:267|358:267|406:208,1,148.500000566483,8|4,3:3|3:3,0:0:0:0:
504,96,109190,1,8,3:3:0:0:
403,211,109310,1,4,3:3:0:0:
260,56,109430,6,0,B|296:36|296:36|424:72,1,148.500000566483,10|4,3:3|3:3,0:0:0:0:
403,211,109670,2,0,B|367:231|367:231|239:195,1,148.500000566483,8|4,3:3|3:3,0:0:0:0:
192,164,109910,1,8,3:3:0:0:
324,120,110030,1,8,3:3:0:0:
180,152,110150,1,8,3:3:0:0:
336,132,110270,1,8,3:3:0:0:
104,92,110390,6,0,B|96:120|92:148|92:148|96:156|96:156|105:186|105:186|100:196|100:196|93:220|93:259|93:255,1,148.500000566483,6|4,3:3|3:3,0:0:0:0:
20,228,110630,2,0,B|40:248|62:266|62:266|71:266|71:266|102:274|102:274|108:283|108:283|125:301|159:321|156:318,1,148.500000566483,4|4,3:3|3:3,0:0:0:0:
96,376,110870,2,0,B|124:368|150:358|150:358|155:350|155:350|176:327|176:327|188:327|188:327|212:321|246:301|242:303,1,148.500000566483,4|4,3:3|3:3,0:0:0:0:
260,384,111110,2,0,B|268:356|272:328|272:328|268:320|268:320|258:289|258:289|264:280|264:280|270:255|270:216|270:220,1,148.500000566483,8|4,3:3|3:3,0:0:0:0:
272,4,111350,6,0,B|263:32|259:60|259:60|264:68|264:68|273:98|273:98|268:108|268:108|261:132|261:171|261:167,1,148.500000566483,4|4,3:3|3:3,0:0:0:0:
436,12,111590,2,0,B|407:19|381:29|381:29|376:37|376:37|355:60|355:60|343:60|343:60|319:66|285:86|289:84,1,148.500000566483,8|4,3:3|3:3,0:0:0:0:
512,160,111830,2,0,B|491:139|469:121|469:121|460:121|460:121|429:113|429:113|423:104|423:104|406:86|372:66|375:69,1,148.500000566483,4|4,3:3|3:3,0:0:0:0:
428,296,112070,2,0,B|436:268|440:240|440:240|436:232|436:232|426:201|426:201|432:192|432:192|438:167|438:128|438:132,1,148.500000566483,8|4,3:3|3:3,0:0:0:0:
343,67,112310,5,4,3:3:0:0:
248,112,112430,1,4,3:3:0:0:
218,14,112550,2,0,B|294:14|294:14|346:70,1,148.500000566483,8|4,3:3|3:3,0:0:0:0:
72,28,112790,1,4,3:3:0:0:
158,87,112910,1,4,3:3:0:0:
88,162,113030,2,0,B|50:96|50:96|72:23,1,148.500000566483,8|4,3:3|3:3,0:0:0:0:
172,280,113270,5,4,3:3:0:0:
180,176,113390,1,4,3:3:0:0:
280,199,113510,2,0,B|242:264|242:264|167:281,1,148.500000566483,8|4,3:3|3:3,0:0:0:0:
388,118,113750,1,4,3:3:0:0:
380,222,113870,1,4,3:3:0:0:
280,199,113990,2,0,B|318:133|318:133|392:116,1,148.500000566483,8|4,3:3|3:3,0:0:0:0:
464,284,114230,6,0,B|427:249|380:257|380:257|367:258|367:258|374:264|374:264|350:281|350:281|342:281|342:281|332:281|306:299|303:311|294:320|294:320|288:336,1,222.750000849724,6|0,3:3|0:0,0:0:0:0:
276,356,114470,2,0,B|253:351|236:340|236:340|220:360|169:358|169:358|164:350|164:350|112:341,1,148.500000566483,8|4,3:3|3:3,0:0:0:0:
24,304,114710,1,4,3:3:0:0:
64,380,114830,1,4,3:3:0:0:
52,216,114950,2,0,B|55:200|44:184|44:184|48:152|68:124|68:124|64:97|64:97|68:152|68:152|84:176|84:176|92:200,1,222.750000849724,8|0,3:3|0:0,0:0:0:0:
140,256,115190,5,4,3:3:0:0:
265,192,115310,2,0,B|240:205|240:205|233:200|213:202|213:202|190:210|190:210|163:241|163:241|121:265,1,148.500000566483,4|8,3:3|3:3,0:0:0:0:
232,96,115550,1,4,3:3:0:0:
232,96,115670,1,4,3:3:0:0:
352,252,115790,1,4,3:3:0:0:
232,96,115910,2,0,B|248:92|248:92|256:92|256:92|270:94|270:94|276:84|316:84|360:96|360:96|372:96|372:96|392:104,1,148.500000566483,8|4,3:3|3:3,0:0:0:0:
484,128,116150,1,4,3:3:0:0:
444,56,116270,1,4,3:3:0:0:
442,200,116390,6,0,B|438:184|438:184|438:176|440:161|440:161|430:156|430:116|442:72|442:72|442:60|442:60|450:40,1,148.500000566483,8|4,3:3|3:3,0:0:0:0:
352,252,116630,2,0,B|336:256|336:256|328:256|313:253|313:253|308:264|268:264|224:252|224:252|212:252|212:252|192:244,1,148.500000566483,4|4,3:3|3:3,0:0:0:0:
442,200,116870,2,0,B|438:184|438:184|438:176|440:161|440:161|430:156|430:116|442:72|442:72|442:60|442:60|450:40,1,148.500000566483,8|4,3:3|3:3,0:0:0:0:
432,284,117110,1,4,3:3:0:0:
432,284,117230,1,4,3:3:0:0:
224,328,117350,6,0,B|224:313|192:288|192:288|228:308|292:304,1,148.500000566483,8|4,3:3|3:3,0:0:0:0:
442,200,117590,2,0,B|442:185|474:160|474:160|438:180|374:176,1,148.500000566483,4|4,3:3|3:3,0:0:0:0:
280,92,117830,1,8,3:3:0:0:
280,92,117950,1,4,3:3:0:0:
404,8,118070,6,0,L|428:87,3,74.2500002832413,8|0|4|0,2:3|0:0|3:3|0:0,0:0:0:0:
280,92,118310,2,0,L|222:152,3,74.2500002832413,8|0|4|0,2:3|0:0|3:3|0:0,0:0:0:0:
152,24,118550,2,0,L|70:4,3,74.2500002832413,8|0|4|0,2:3|0:0|3:3|0:0,0:0:0:0:
0,184,118790,6,0,L|81:164,3,74.2500002832413,8|0|4|0,2:3|0:0|3:3|0:0,0:0:0:0:
176,284,119030,2,0,L|94:264,3,74.2500002832413,8|0|4|0,2:3|0:0|3:3|0:0,0:0:0:0:
0,384,119270,2,0,L|81:364,3,74.2500002832413,8|0|4|0,2:3|0:0|3:3|0:0,0:0:0:0:
160,188,119510,6,0,L|153:108,3,74.2500002832413,8|0|4|0,2:3|0:0|3:3|0:0,0:0:0:0:
336,248,119750,2,0,L|329:168,3,74.2500002832413,8|0|4|0,2:3|0:0|3:3|0:0,0:0:0:0:
248,220,119990,2,0,L|241:140,3,74.2500002832413,8|0|4|0,2:3|0:0|3:3|0:0,0:0:0:0:
272,332,120230,5,8,2:3:0:0:
319,359,120290,1,0,0:0:0:0:
373,355,120350,1,4,3:3:0:0:
415,319,120410,1,0,0:0:0:0:
429,267,120470,2,0,L|422:187,3,74.2500002832413,8|0|4|4,2:3|0:0|3:3|3:3,0:0:0:0:
260,120,120710,2,0,L|327:151,3,74.2500002832413,8|0|4|4,2:3|0:0|3:3|3:3,0:0:0:0:
316,48,120950,5,10,3:3:0:0:
282,33,121010,1,0,0:0:0:0:
245,32,121070,1,4,3:3:0:0:
211,46,121130,1,0,0:0:0:0:
184,72,121190,1,8,3:3:0:0:
157,98,121250,1,0,0:0:0:0:
123,112,121310,1,4,3:3:0:0:
86,111,121370,1,0,0:0:0:0:
53,97,121430,2,0,P|80:68|88:24,3,74.2500002832413,8|0|4|0,3:3|0:0|3:3|0:0,0:0:0:0:
53,97,121670,5,10,3:3:0:0:
84,141,121730,1,0,0:0:0:0:
86,196,121790,1,4,3:3:0:0:
56,242,121850,1,0,0:0:0:0:
6,264,121910,2,0,L|-8:188,3,74.2500002832413,8|0|4|0,3:3|0:0|3:3|0:0,0:0:0:0:
120,308,122150,2,0,L|106:384,3,74.2500002832413,8|0|4|0,3:3|0:0|3:3|0:0,0:0:0:0:
264,184,122390,6,0,L|184:204,3,74.2500002832413,10|0|4|0,3:3|0:0|3:3|0:0,0:0:0:0:
260,280,122630,6,0,L|340:300,3,74.2500002832413,2|0|4|0,1:1|0:0|3:3|0:0,0:0:0:0:
392,208,122870,5,2,1:1:0:0:
395,220,122950,1,0,0:0:0:0:
398,232,123030,1,0,0:0:0:0:
432,248,123110,5,2,1:1:0:0:
421,176,123190,1,0,0:0:0:0:
367,127,123270,1,0,0:0:0:0:
294,124,123350,1,0,0:0:0:0:
237,169,123430,1,0,0:0:0:0:
184,219,123510,1,0,0:0:0:0:
111,223,123590,1,0,0:0:0:0:
54,179,123670,1,0,0:0:0:0:
39,108,123750,1,0,0:0:0:0:
70,42,123830,6,0,B|108:40|152:76|152:76|164:136|240:168|300:120,1,272.250002596378,8|0,2:3|0:0,0:0:0:0:
236,60,124070,1,8,2:3:0:0:
236,60,124190,1,4,3:3:0:0:
336,8,124310,2,0,L|314:118,1,107.249995090485,8|0,2:3|0:0,0:0:0:0:
240,168,124550,6,0,P|312:144|368:224,1,148.500000566483,8|4,2:3|3:3,0:0:0:0:
512,272,124790,2,0,P|440:248|384:328,1,148.500000566483,8|4,2:3|3:3,0:0:0:0:
344,368,125030,1,8,2:3:0:0:
344,368,125150,1,4,3:3:0:0:
292,228,125270,5,8,2:3:0:0:
268,316,125390,1,4,3:3:0:0:
184,336,125510,5,8,2:3:0:0:
356,284,125630,1,4,3:3:0:0:
184,176,125750,5,8,2:3:0:0:
212,256,125870,1,4,3:3:0:0:
288,108,125990,2,0,B|224:88|180:127|180:127|132:168|80:140,1,222.750000849724,8|0,2:3|0:0,0:0:0:0:
111,58,126230,2,0,P|176:122|180:192,1,148.500000566483,8|4,3:3|3:3,0:0:0:0:
120,269,126470,1,4,3:3:0:0:
121,261,126530,1,4,3:3:0:0:
124,254,126590,1,4,3:3:0:0:
126,247,126650,1,4,3:3:0:0:
128,240,126710,1,10,3:3:0:0:
120,224,126950,5,2,3:3:0:0:
180,328,127070,1,4,3:3:0:0:
116,204,127190,5,2,3:3:0:0:
320,316,127310,1,4,3:3:0:0:
104,360,127430,5,2,3:3:0:0:
296,204,127550,1,4,3:3:0:0:
252,376,127670,5,2,3:3:0:0:
160,112,127790,1,4,3:3:0:0:
205,200,127910,5,10,3:3:0:0:
205,200,128150,2,0,L|376:152,1,173.24999471283,6|0,3:3|0:0,0:0:0:0:
459,117,128390,5,4,3:3:0:0:
457,136,128470,1,0,0:0:0:0:
455,155,128550,1,0,0:0:0:0:
428,188,128630,5,4,3:3:0:0:
428,203,128710,1,0,0:0:0:0:
430,218,128790,1,0,0:0:0:0:
464,256,128870,5,4,3:3:0:0:
464,268,128950,1,0,0:0:0:0:
462,280,129030,1,0,0:0:0:0:
428,312,129110,5,4,3:3:0:0:
428,321,129190,1,0,0:0:0:0:
429,331,129270,1,0,0:0:0:0:
452,376,129350,5,8,3:3:0:0:
452,376,129590,5,8,2:3:0:0:
397,364,129650,1,0,0:0:0:0:
342,353,129710,1,4,3:3:0:0:
288,341,129770,1,0,0:0:0:0:
233,330,129830,2,0,L|160:308,3,74.2500002832413,8|0|4|0,2:3|0:0|3:3|0:0,0:0:0:0:
256,236,130070,2,0,L|329:213,3,74.2500002832413,8|0|4|0,2:3|0:0|3:3|0:0,0:0:0:0:
128,164,130310,5,8,2:3:0:0:
182,152,130370,1,0,0:0:0:0:
237,141,130430,1,4,3:3:0:0:
291,129,130490,1,0,0:0:0:0:
346,118,130550,2,0,L|419:95,3,74.2500002832413,8|0|4|0,2:3|0:0|3:3|0:0,0:0:0:0:
324,24,130790,2,0,L|250:1,3,74.2500002832413,8|0|4|0,2:3|0:0|3:3|0:0,0:0:0:0:
346,118,131030,6,0,L|419:95,3,74.2500002832413,8|0|4|0,2:3|0:0|3:3|0:0,0:0:0:0:
256,236,131270,2,0,L|312:287,3,74.2500002832413,8|0|4|0,2:3|0:0|3:3|0:0,0:0:0:0:
120,192,131510,2,0,L|103:266,3,74.2500002832413,8|0|4|0,2:3|0:0|3:3|0:0,0:0:0:0:
88,52,131750,5,8,2:3:0:0:
141,40,131810,1,0,0:0:0:0:
193,57,131870,1,4,3:3:0:0:
229,98,131930,1,0,0:0:0:0:
239,153,131990,2,0,B|228:188|228:188|244:236,3,74.2500002832413,8|0|4|0,2:3|0:0|3:3|0:0,0:0:0:0:
380,220,132230,2,0,B|355:192|355:192|305:182,3,74.2500002832413,8|0|4|0,2:3|0:0|3:3|0:0,0:0:0:0:
312,276,132470,5,10,3:3:0:0:
340,299,132530,1,0,0:0:0:0:
375,309,132590,1,4,3:3:0:0:
411,304,132650,1,0,0:0:0:0:
442,284,132710,1,8,3:3:0:0:
462,253,132770,1,0,0:0:0:0:
467,216,132830,1,4,3:3:0:0:
456,181,132890,1,0,0:0:0:0:
432,152,132950,2,0,P|420:128|428:72,3,74.2500002832413,8|0|4|0,3:3|0:0|3:3|0:0,0:0:0:0:
432,152,133190,5,10,3:3:0:0:
378,166,133250,1,0,0:0:0:0:
324,181,133310,1,4,3:3:0:0:
270,195,133370,1,0,0:0:0:0:
217,210,133430,2,0,L|132:232,3,74.2500002832413,8|0|4|0,3:3|0:0|3:3|0:0,0:0:0:0:
217,210,133670,5,10,3:3:0:0:
226,170,133730,1,0,0:0:0:0:
236,130,133790,1,4,3:3:0:0:
247,92,133850,1,0,0:0:0:0:
257,53,133910,2,0,L|315:108,3,74.2500002832413,8|0|4|0,3:3|0:0|3:3|0:0,0:0:0:0:
102,95,134150,6,0,L|41:32,3,74.2500002832413,2|0|4|0,1:1|0:0|3:3|0:0,0:0:0:0:
144,172,134390,5,2,1:1:0:0:
136,191,134470,1,0,0:0:0:0:
128,209,134550,1,0,0:0:0:0:
104,232,134630,5,2,1:1:0:0:
166,268,134710,1,0,0:0:0:0:
238,266,134790,1,0,0:0:0:0:
297,224,134870,1,0,0:0:0:0:
324,157,134950,1,0,0:0:0:0:
310,86,135030,1,0,0:0:0:0:
260,34,135110,1,0,0:0:0:0:
190,17,135190,1,0,0:0:0:0:
122,42,135270,1,0,0:0:0:0:
78,99,135350,6,0,B|112:100|144:60|144:60|136:160|68:152|92:264,1,272.250002596378,10|0,2:3|0:0,0:0:0:0:
112,328,135590,1,8,2:3:0:0:
112,328,135710,1,4,3:3:0:0:
184,220,135830,6,0,L|312:244,1,107.249995090485,8|0,2:3|0:0,0:0:0:0:
368,268,136070,2,0,L|221:295,1,148.500000566483,8|4,2:3|3:3,0:0:0:0:
200,144,136310,2,0,L|346:171,1,148.500000566483,8|4,2:3|3:3,0:0:0:0:
444,188,136550,1,8,2:3:0:0:
444,188,136670,1,4,3:3:0:0:
440,208,136790,5,8,2:3:0:0:
400,108,136910,1,4,3:3:0:0:
360,256,137030,5,8,2:3:0:0:
392,24,137150,1,4,3:3:0:0:
336,160,137270,5,8,2:3:0:0:
476,64,137390,1,4,3:3:0:0:
336,160,137510,6,0,L|108:116,1,222.750000849724,8|0,2:3|0:0,0:0:0:0:
24,56,137750,2,0,L|36:208,1,148.500000566483,8|4,3:3|3:3,0:0:0:0:
68,288,137990,1,4,3:3:0:0:
61,287,138050,1,4,3:3:0:0:
54,286,138110,1,4,3:3:0:0:
46,286,138170,1,4,3:3:0:0:
39,285,138230,1,8,3:3:0:0:
20,296,138470,5,2,3:3:0:0:
136,368,138590,1,4,3:3:0:0:
152,192,138710,5,2,3:3:0:0:
228,337,138830,1,4,3:3:0:0:
256,232,138950,5,2,3:3:0:0:
59,223,139070,1,4,3:3:0:0:
144,356,139190,5,2,3:3:0:0:
176,104,139310,1,4,3:3:0:0:
88,128,139430,5,8,3:3:0:0:
88,128,139670,2,0,B|96:100|48:80|48:80|120:56|176:104,1,206.25,10|0,3:3|0:0,0:0:0:0:
192,192,139910,5,4,3:3:0:0:
219,183,139990,1,0,0:0:0:0:
242,166,140070,1,0,0:0:0:0:
280,152,140150,5,4,3:3:0:0:
284,129,140230,1,0,0:0:0:0:
281,106,140310,1,0,0:0:0:0:
288,72,140390,5,4,3:3:0:0:
273,60,140470,1,0,0:0:0:0:
256,52,140550,1,0,0:0:0:0:
224,32,140630,5,4,3:3:0:0:
209,37,140710,1,0,0:0:0:0:
197,46,140790,1,0,0:0:0:0:
220,92,140870,5,8,3:3:0:0:
508,40,141110,5,6,3:3:0:0:
508,40,141710,5,4,3:3:0:0:
432,128,141830,1,8,3:3:0:0:
500,224,141950,1,4,3:3:0:0:
424,312,142070,2,0,P|312:256|476:264,1,461.999985900879,10|0,3:3|0:0,0:0:0:0:
424,312,143030,5,6,3:3:0:0:
411,213,143150,1,4,3:3:0:0:
398,114,143270,1,4,3:3:0:0:
436,324,143390,1,4,3:3:0:0:
276,176,143630,5,4,3:3:0:0:
276,176,143750,1,4,3:3:0:0:
115,282,143990,5,10,3:3:0:0:
0,272,144110,2,0,L|115:282,1,115.49999647522,4|0,3:3|0:0,0:0:0:0:
164,368,144350,5,4,3:3:0:0:
230,274,144470,2,0,L|163:369,1,115.49999647522
276,176,144710,5,4,3:3:0:0:
324,280,144830,1,4,3:3:0:0:
324,72,144950,2,0,B|220:152|220:152|328:100,1,230.99999295044,2|0,3:3|0:0,0:0:0:0:
416,32,145550,5,4,3:3:0:0:
384,152,145670,1,4,3:3:0:0:
352,272,145790,1,4,3:3:0:0:
497,261,145910,2,0,B|433:233|376:290|376:290|317:361|145:345|229:141|361:281,1,461.999985900879,10|0,3:3|0:0,0:0:0:0:
351,271,146870,5,6,3:3:0:0:
208,296,146990,1,4,3:3:0:0:
65,321,147110,1,4,3:3:0:0:
356,288,147230,1,4,3:3:0:0:
128,240,147470,5,4,3:3:0:0:
128,240,147590,1,4,3:3:0:0:
128,240,147830,2,0,B|28:208|44:80|116:80|116:80|76:104|72:160,1,288.74999118805,10|0,3:3|0:0,0:0:0:0:
128,240,148190,2,0,B|230:262|280:143|218:107|218:107|241:148|216:198,1,288.74999118805,4|0,3:3|0:0,0:0:0:0:
151,152,148550,2,0,B|127:241|127:239,1,90.7500027694703,4|0,3:3|0:0,0:0:0:0:
48,336,148790,5,4,3:3:0:0:
124,332,148910,1,4,3:3:0:0:
201,328,149030,1,4,3:3:0:0:
201,328,149150,1,4,3:3:0:0:
368,256,149270,5,4,3:3:0:0:
292,252,149390,1,4,3:3:0:0:
215,248,149510,1,4,3:3:0:0:
328,324,149630,1,4,3:3:0:0:
396,180,149750,1,8,3:3:0:0:
376,181,149870,1,4,3:3:0:0:
357,183,149990,1,4,3:3:0:0:
338,185,150110,1,4,3:3:0:0:
236,72,150230,5,4,3:3:0:0:
256,73,150350,1,4,3:3:0:0:
275,75,150470,1,4,3:3:0:0:
192,144,150590,1,4,3:3:0:0:
28,104,150710,5,4,3:3:0:0:
121,75,150830,1,4,3:3:0:0:
177,155,150950,1,4,3:3:0:0:
117,232,151070,1,4,3:3:0:0:
153,322,151190,1,4,3:3:0:0:
248,335,151310,1,4,3:3:0:0:
306,259,151430,1,4,3:3:0:0:
236,320,151550,1,4,3:3:0:0:
184,137,151670,5,8,3:3:0:0:
280,162,151790,1,4,3:3:0:0:
376,188,151910,1,4,3:3:0:0:
408,304,152030,5,4,3:3:0:0:
392,246,152150,1,4,3:3:0:0:
376,188,152270,1,4,3:3:0:0:
447,118,152390,5,4,3:3:0:0:
376,188,152510,1,4,3:3:0:0:
240,72,152630,2,0,B|288:16|344:32|344:32|344:44|344:44|424:96|424:96|440:96|440:96|424:96|424:96|368:64|316:76,1,346.49998942566,4|4,3:3|3:3,0:0:0:0:
244,88,153110,1,8,3:3:0:0:
40,16,153350,1,4,3:3:0:0:
112,192,153590,5,4,3:3:0:0:
112,192,153710,1,4,3:3:0:0:
146,81,153830,2,0,L|110:197,1,115.49999647522,4|0,3:3|0:0,0:0:0:0:
64,340,154070,1,8,3:3:0:0:
300,196,154310,5,4,3:3:0:0:
300,196,154550,5,2,1:1:0:0:
228,173,154630,5,2,1:1:0:0:
163,211,154710,5,2,1:1:0:0:
147,284,154790,5,4,3:3:0:0:
189,345,154870,5,2,1:1:0:0:
263,356,154950,5,2,1:1:0:0:
321,309,155030,5,8,3:3:0:0:
321,309,155390,5,4,3:3:0:0:
405,113,155510,5,8,3:3:0:0:
369,109,155590,5,2,1:1:0:0:
321,121,155670,5,2,1:1:0:0:
281,173,155750,5,4,3:3:0:0:
273,241,155830,5,2,1:1:0:0:
321,309,155910,5,2,1:1:0:0:
420,288,155990,6,0,B|368:264|356:208|356:208|360:272|316:320,1,206.25,4|0,3:3|0:0,0:0:0:0:
260,364,156230,1,8,3:3:0:0:
259,363,156470,6,0,L|133:346,1,126.500002412796,10|4,3:3|3:3,0:0:0:0:
0,248,156710,2,0,L|126:230,1,126.500002412796,8|4,3:3|3:3,0:0:0:0:
220,208,156950,1,8,3:3:0:0:
124,328,157070,1,4,3:3:0:0:
88,152,157190,1,8,3:3:0:0:
213,296,157310,1,4,3:3:0:0:
232,120,157430,6,0,L|100:132,1,126.500002412796,8|4,3:3|3:3,0:0:0:0:
296,256,157670,2,0,L|351:135,1,126.500002412796,8|4,3:3|3:3,0:0:0:0:
412,32,157910,1,8,3:3:0:0:
248,112,158030,1,4,3:3:0:0:
416,48,158150,1,8,3:3:0:0:
424,272,158270,2,0,L|429:208,1,63.250001206398,4|0,3:3|0:0,0:0:0:0:
488,152,158390,6,0,B|429:121|429:121|366:148,1,126.500002412796,8|4,3:3|3:3,0:0:0:0:
300,276,158630,2,0,B|358:306|358:306|421:279,1,126.500002412796,8|4,3:3|3:3,0:0:0:0:
504,236,158870,1,8,3:3:0:0:
312,364,158990,1,4,3:3:0:0:
360,216,159110,1,8,3:3:0:0:
324,376,159230,1,4,3:3:0:0:
180,136,159350,6,0,P|260:144|284:200,1,126.500002412796,8|4,3:3|3:3,0:0:0:0:
280,196,159530,1,0,0:0:0:0:
280,196,159590,2,0,P|218:199|178:153,1,126.500002412796,8|4,3:3|3:3,0:0:0:0:
40,324,159830,2,0,P|120:316|144:260,1,126.500002412796,8|4,3:3|3:3,0:0:0:0:
140,264,160010,1,0,0:0:0:0:
140,264,160070,2,0,P|78:260|38:306,1,126.500002412796,8|4,3:3|3:3,0:0:0:0:
0,128,160310,6,0,B|-4:214|-4:214|20:169,1,126.500002412796,10|4,3:3|3:3,0:0:0:0:
152,80,160550,2,0,B|156:-6|156:-6|131:38,1,126.500002412796,8|4,3:3|3:3,0:0:0:0:
96,152,160790,1,8,3:3:0:0:
248,92,160910,1,4,3:3:0:0:
308,244,161030,1,8,3:3:0:0:
156,304,161150,1,4,3:3:0:0:
184,180,161270,6,0,L|152:320,1,126.500002412796,8|4,3:3|3:3,0:0:0:0:
336,367,161510,2,0,L|307:243,1,126.500002412796,8|4,3:3|3:3,0:0:0:0:
288,164,161750,1,8,3:3:0:0:
424,288,161870,1,4,3:3:0:0:
360,100,161990,1,8,3:3:0:0:
432,276,162110,2,0,L|439:192,1,63.250001206398,4|0,3:3|0:0,0:0:0:0:
432,48,162230,6,0,L|304:72,1,126.500002412796,8|4,3:3|3:3,0:0:0:0:
160,168,162470,2,0,L|203:45,1,126.500002412796,8|4,3:3|3:3,0:0:0:0:
329,283,162710,2,0,L|285:160,1,126.500002412796,8|4,3:3|3:3,0:0:0:0:
184,344,162950,1,8,3:3:0:0:
184,344,163070,1,4,3:3:0:0:
36,260,163190,5,8,3:3:0:0:
200,328,163310,1,4,3:3:0:0:
40,352,163430,1,8,3:3:0:0:
112,196,163550,1,4,3:3:0:0:
112,196,163610,1,4,3:3:0:0:
112,196,163670,5,8,3:3:0:0:
220,248,163790,1,8,3:3:0:0:
308,172,163910,1,8,3:3:0:0:
416,224,164030,1,8,3:3:0:0:
292,343,164150,6,0,B|299:228|299:228|303:223|303:223|307:170,1,173.24999471283,2|0,3:3|0:0,0:0:0:0:
312,84,164390,1,4,3:3:0:0:
312,84,164510,2,0,B|291:63|259:67|259:67|292:32|336:40|367:79,1,173.24999471283,4|0,3:3|0:0,0:0:0:0:
304,100,164750,5,4,3:3:0:0:
160,160,164870,2,0,L|140:36,2,115.49999647522,8|4|0,3:3|3:3|0:0,0:0:0:0:
172,284,165230,1,4,3:3:0:0:
56,274,165350,2,0,L|175:284,1,115.49999647522,8|0,3:3|0:0,0:0:0:0:
248,376,165590,5,4,3:3:0:0:
248,376,165710,1,4,3:3:0:0:
313,281,165830,2,0,L|248:376,1,115.49999647522,8|0,3:3|0:0,0:0:0:0:
272,196,166070,5,4,3:3:0:0:
272,196,166190,1,4,3:3:0:0:
387,205,166310,1,8,3:3:0:0:
440,312,166430,2,0,L|408:140,1,173.24999471283,4|0,3:3|0:0,0:0:0:0:
388,56,166670,5,4,3:3:0:0:
388,56,166790,1,8,3:3:0:0:
268,44,166910,2,0,B|312:0|312:0|288:112,1,173.24999471283,4|0,3:3|0:0,0:0:0:0:
272,132,167150,5,4,3:3:0:0:
260,90,167270,1,8,3:3:0:0:
248,48,167390,1,4,3:3:0:0:
192,196,167510,1,4,3:3:0:0:
192,196,167630,1,4,3:3:0:0:
93,118,167750,2,0,P|169:114|185:206,1,173.24999471283,8|0,3:3|0:0,0:0:0:0:
108,228,167990,6,0,B|223:235|223:235|228:239|228:239|281:243,1,173.24999471283,6|0,3:3|0:0,0:0:0:0:
380,256,168230,1,8,3:3:0:0:
380,256,168350,2,0,B|412:284|464:248|464:248|416:208|376:240,1,173.24999471283,4|0,3:3|0:0,0:0:0:0:
364,248,168590,5,4,3:3:0:0:
297,356,168710,2,0,L|277:232,2,115.49999647522,8|4|0,3:3|3:3|0:0,0:0:0:0:
264,156,169070,1,4,3:3:0:0:
148,146,169190,2,0,L|267:156,1,115.49999647522,8|0,3:3|0:0,0:0:0:0:
392,120,169430,5,4,3:3:0:0:
392,120,169550,1,4,3:3:0:0:
457,25,169670,2,0,L|391:119,1,115.49999647522,8|0,3:3|0:0,0:0:0:0:
348,192,169910,5,4,3:3:0:0:
348,192,170030,1,4,3:3:0:0:
256,64,170150,2,0,B|216:48|184:56|184:56|152:96|88:80,1,173.24999471283,8|0,3:3|0:0,0:0:0:0:
0,32,170390,6,0,B|12:88|12:88|16:92|16:92|28:144,1,115.49999647522,0|4,0:0|3:3,0:0:0:0:
48,240,170630,1,8,3:3:0:0:
142,200,170750,2,0,B|87:194|87:194|37:251,1,115.49999647522,4|0,3:3|0:0,0:0:0:0:
128,296,170990,1,4,3:3:0:0:
232,268,171110,2,0,L|199:380,1,115.49999647522,8|4,3:3|3:3,0:0:0:0:
276,176,171350,5,4,3:3:0:0:
332,264,171470,1,4,3:3:0:0:
332,264,171590,2,0,L|362:316,1,57.7499982376099,8|0,3:3|0:0,0:0:0:0:
440,168,171830,6,0,B|428:171|428:171|408:172|392:164|392:164|380:172|360:174,3,74.2500002832413,8|0|4|0,2:3|0:0|3:3|0:0,0:0:0:0:
272,88,172070,2,0,B|284:91|284:91|303:92|320:84|320:84|332:92|351:94,3,74.2500002832413,8|0|4|0,2:3|0:0|3:3|0:0,0:0:0:0:
424,0,172310,2,0,B|412:3|412:3|392:4|376:-4|376:-4|364:4|344:6,3,74.2500002832413,8|0|4|0,2:3|0:0|3:3|0:0,0:0:0:0:
272,88,172550,6,0,B|262:96|262:96|252:113|251:131|251:131|238:137|226:153,3,74.2500002832413,8|0|4|0,2:3|0:0|3:3|0:0,0:0:0:0:
100,24,172790,2,0,B|90:32|90:32|80:49|79:67|79:67|66:73|54:89,3,74.2500002832413,8|0|4|0,2:3|0:0|3:3|0:0,0:0:0:0:
119,194,173030,2,0,L|152:124,3,74.2500002832413,8|0|4|0,2:3|0:0|3:3|0:0,0:0:0:0:
4,312,173270,6,0,L|37:382,3,74.2500002832413,8|0|4|0,2:3|0:0|3:3|0:0,0:0:0:0:
120,212,173510,2,0,L|93:284,3,74.2500002832413,8|0|4|0,2:3|0:0|3:3|0:0,0:0:0:0:
276,236,173750,2,0,L|206:269,3,74.2500002832413,8|0|4|0,2:3|0:0|3:3|0:0,0:0:0:0:
328,336,173990,5,8,2:3:0:0:
377,359,174050,1,0,0:0:0:0:
432,356,174110,1,4,3:3:0:0:
480,328,174170,1,0,0:0:0:0:
509,281,174230,2,0,P|520:252|504:200,3,74.2500002832413,8|0|4|0,2:3|0:0|3:3|0:0,0:0:0:0:
368,208,174470,2,0,P|388:232|441:244,3,74.2500002832413,8|0|4|0,2:3|0:0|3:3|0:0,0:0:0:0:
428,128,174710,5,10,3:3:0:0:
393,113,174770,1,0,0:0:0:0:
357,112,174830,1,4,3:3:0:0:
322,124,174890,1,0,0:0:0:0:
294,149,174950,1,8,3:3:0:0:
266,174,175010,1,0,0:0:0:0:
231,186,175070,1,4,3:3:0:0:
195,185,175130,1,0,0:0:0:0:
161,171,175190,2,0,L|232:128,3,74.2500002832413,8|0|4|0,3:3|0:0|3:3|0:0,0:0:0:0:
161,171,175430,5,10,3:3:0:0:
114,142,175490,1,0,0:0:0:0:
59,145,175550,1,4,3:3:0:0:
17,180,175610,1,0,0:0:0:0:
2,232,175670,2,0,P|4:264|28:308,3,74.2500002832413,8|0|4|0,3:3|0:0|3:3|0:0,0:0:0:0:
124,328,175910,2,0,P|150:310|176:268,3,74.2500002832413,8|0|4|0,3:3|0:0|3:3|0:0,0:0:0:0:
59,145,176150,6,0,L|32:72,3,74.2500002832413,2|0|4|0,3:3|0:0|3:3|0:0,0:0:0:0:
216,88,176390,6,0,L|265:28,3,74.2500002832413,2|0|4|0,1:1|0:0|3:3|0:0,0:0:0:0:
300,180,176630,5,2,1:1:0:0:
280,183,176710,1,0,0:0:0:0:
260,186,176790,1,0,0:0:0:0:
224,200,176870,5,2,1:1:0:0:
272,146,176950,1,0,0:0:0:0:
342,128,177030,1,0,0:0:0:0:
410,152,177110,1,0,0:0:0:0:
453,210,177190,1,0,0:0:0:0:
457,282,177270,1,0,0:0:0:0:
421,344,177350,1,0,0:0:0:0:
356,376,177430,1,0,0:0:0:0:
284,366,177510,1,0,0:0:0:0:
230,318,177590,6,0,B|248:300|260:282|260:282|296:270|328:272|328:272|356:257|368:228|368:228|336:240|292:236,1,222.750000849724,8|0,2:3|0:0,0:0:0:0:
160,380,177830,2,0,B|152:371|152:371|146:352|135:346|134:321|134:321|139:310|139:310|144:266|180:249,1,148.500000566483,8|4,2:3|3:3,0:0:0:0:
88,64,178070,2,0,B|64:53|35:53|35:53|8:60|8:60|-1:54|-1:54|12:75|12:75|21:123|29:154|29:154|32:196,1,222.750000849724,8|0,2:3|0:0,0:0:0:0:
32,296,178310,5,8,2:3:0:0:
27,200,178430,1,4,3:3:0:0:
116,167,178550,1,8,2:3:0:0:
175,241,178670,1,4,3:3:0:0:
32,296,178790,2,0,B|79:268|151:280|151:280|168:328|224:348,1,222.750000849724,8|0,2:3|0:0,0:0:0:0:
336,240,179030,5,8,2:3:0:0:
244,264,179150,1,4,3:3:0:0:
388,132,179270,5,8,2:3:0:0:
349,268,179390,1,4,3:3:0:0:
300,16,179510,5,8,2:3:0:0:
416,138,179630,1,4,3:3:0:0:
168,100,179750,6,0,B|155:81|128:76|128:76|184:36|264:52|264:52|236:56|216:76|216:76,1,222.750000849724,8|0,2:3|0:0,0:0:0:0:
104,156,179990,2,0,P|40:104|60:24,1,148.500000566483,8|4,3:3|3:3,0:0:0:0:
36,24,180230,1,4,3:3:0:0:
33,30,180290,1,4,3:3:0:0:
31,37,180350,1,4,3:3:0:0:
30,45,180410,1,4,3:3:0:0:
28,52,180470,1,8,3:3:0:0:
12,72,180710,5,2,3:3:0:0:
104,156,180830,1,4,3:3:0:0:
8,168,180950,5,2,3:3:0:0:
192,216,181070,1,4,3:3:0:0:
84,248,181190,5,2,3:3:0:0:
208,120,181310,1,4,3:3:0:0:
160,300,181430,5,2,3:3:0:0:
160,36,181550,1,4,3:3:0:0:
256,140,181670,5,8,3:3:0:0:
256,140,181910,2,0,P|316:124|364:215,1,173.24999471283,4|0,3:3|0:0,0:0:0:0:
324,248,182150,5,4,3:3:0:0:
358,231,182230,1,0,0:0:0:0:
395,237,182310,1,0,0:0:0:0:
432,272,182390,5,4,3:3:0:0:
404,258,182470,1,0,0:0:0:0:
375,263,182550,1,0,0:0:0:0:
344,296,182630,5,4,3:3:0:0:
366,284,182710,1,0,0:0:0:0:
389,288,182790,1,0,0:0:0:0:
408,324,182870,5,4,3:3:0:0:
390,314,182950,1,0,0:0:0:0:
372,317,183030,1,0,0:0:0:0:
376,360,183110,5,8,3:3:0:0:
376,360,183350,5,8,2:3:0:0:
320,351,183410,1,0,0:0:0:0:
265,343,183470,1,4,3:3:0:0:
210,335,183530,1,0,0:0:0:0:
155,326,183590,2,0,B|136:321|136:321|120:324|120:324|107:321|107:321|108:316|72:312,3,74.2500002832413,8|0|4|0,2:3|0:0|3:3|0:0,0:0:0:0:
256,156,183830,2,0,B|269:142|269:142|276:126|276:126|284:116|284:116|289:120|310:90,3,74.2500002832413,8|0|4|0,2:3|0:0|3:3|0:0,0:0:0:0:
324,224,184070,5,8,2:3:0:0:
274,248,184130,1,0,0:0:0:0:
219,244,184190,1,4,3:3:0:0:
174,213,184250,1,0,0:0:0:0:
150,164,184310,2,0,B|150:144|150:144|156:128|156:128|157:115|157:115|151:115|155:92,3,74.2500002832413,8|0|4|0,2:3|0:0|3:3|0:0,0:0:0:0:
24,288,184550,2,0,L|30:361,3,74.2500002832413,8|0|4|0,2:3|0:0|3:3|0:0,0:0:0:0:
12,124,184790,6,0,L|5:50,3,74.2500002832413,8|0|4|0,2:3|0:0|3:3|0:0,0:0:0:0:
120,248,185030,2,0,L|126:321,3,74.2500002832413,8|0|4|0,2:3|0:0|3:3|0:0,0:0:0:0:
112,140,185270,2,0,L|105:66,3,74.2500002832413,8|0|4|0,2:3|0:0|3:3|0:0,0:0:0:0:
196,184,185510,5,8,2:3:0:0:
251,179,185570,1,0,0:0:0:0:
306,174,185630,1,4,3:3:0:0:
362,169,185690,1,0,0:0:0:0:
417,164,185750,2,0,L|504:152,3,74.2500002832413,8|0|4|0,3:3|0:0|3:3|0:0,0:0:0:0:
360,252,185990,2,0,L|372:339,3,74.2500002832413,8|0|4|0,3:3|0:0|3:3|0:0,0:0:0:0:
348,84,186230,5,10,3:3:0:0:
331,62,186290,1,0,0:0:0:0:
305,52,186350,1,4,3:3:0:0:
278,56,186410,1,0,0:0:0:0:
258,75,186470,1,8,3:3:0:0:
250,101,186530,1,0,0:0:0:0:
257,128,186590,1,4,3:3:0:0:
276,147,186650,1,0,0:0:0:0:
303,153,186710,2,0,B|312:124|312:124|288:76,3,74.2500002832413,8|0|4|0,3:3|0:0|3:3|0:0,0:0:0:0:
303,153,186950,5,10,3:3:0:0:
259,157,187010,1,0,0:0:0:0:
215,163,187070,1,4,3:3:0:0:
170,169,187130,1,0,0:0:0:0:
126,174,187190,2,0,L|136:97,3,74.2500002832413,8|0|4|0,3:3|0:0|3:3|0:0,0:0:0:0:
52,304,187430,6,0,L|62:380,3,74.2500002832413,10|0|4|0,3:3|0:0|3:3|0:0,0:0:0:0:
32,208,187670,2,0,L|21:131,3,74.2500002832413,8|0|4|0,3:3|0:0|3:3|0:0,0:0:0:0:
184,308,187910,6,0,L|173:384,3,74.2500002832413,2|0|4|0,1:1|0:0|3:3|0:0,0:0:0:0:
184,188,188150,5,2,1:1:0:0:
159,191,188230,1,0,0:0:0:0:
135,195,188310,1,0,0:0:0:0:
108,212,188390,5,2,1:1:0:0:
170,247,188470,1,0,0:0:0:0:
240,232,188550,1,0,0:0:0:0:
282,174,188630,1,0,0:0:0:0:
341,134,188710,1,0,0:0:0:0:
411,145,188790,1,0,0:0:0:0:
454,202,188870,1,0,0:0:0:0:
446,273,188950,1,0,0:0:0:0:
391,319,189030,1,0,0:0:0:0:
320,312,189110,6,0,B|328:294|328:294|328:280|328:280|324:260|324:260|344:256|344:256|359:224|359:224|308:236|316:292|264:308,1,222.750000849724,10|0,2:3|0:0,0:0:0:0:
108,212,189350,2,0,B|123:191|123:191|168:184|168:184|212:200|252:240,1,148.500000566483,8|4,2:3|3:3,0:0:0:0:
72,304,189590,2,0,B|46:300|46:300|17:266|17:266|9:219|24:165,1,148.500000566483,8|4,2:3|3:3,0:0:0:0:
72,52,189830,1,8,2:3:0:0:
72,52,189950,1,4,3:3:0:0:
0,112,190070,2,0,B|28:98|49:102|49:102|72:124|92:128|92:128|132:128|132:128|68:104|72:48,1,222.750000849724,8|0,2:3|0:0,0:0:0:0:
160,52,190310,2,0,P|140:88|152:268,1,222.750000849724,8|0,2:3|0:0,0:0:0:0:
164,288,190550,5,8,2:3:0:0:
40,276,190670,1,4,3:3:0:0:
256,308,190790,5,8,2:3:0:0:
104,220,190910,1,4,3:3:0:0:
264,228,191030,5,8,2:3:0:0:
96,344,191150,1,4,3:3:0:0:
304,376,191270,6,0,P|264:304|280:224,1,148.500000566483,8|4,2:3|3:3,0:0:0:0:
392,140,191510,2,0,P|309:138|248:84,1,148.500000566483,8|4,2:3|3:3,0:0:0:0:
360,8,191750,1,4,2:3:0:0:
358,15,191810,1,4,3:3:0:0:
356,22,191870,1,4,3:3:0:0:
355,29,191930,1,4,3:3:0:0:
353,36,191990,1,8,3:3:0:0:
340,56,192230,5,2,3:3:0:0:
232,108,192350,1,4,3:3:0:0:
280,4,192470,5,2,3:3:0:0:
288,172,192590,1,4,3:3:0:0:
196,28,192710,5,2,3:3:0:0:
332,72,192830,1,4,3:3:0:0:
160,168,192950,5,2,3:3:0:0:
408,132,193070,1,4,3:3:0:0:
344,248,193190,5,10,3:3:0:0:
344,248,193430,6,0,B|284:276|252:240|252:240|212:241|208:260|208:260|176:248|128:272,1,222.750000849724,6|0,3:3|0:0,0:0:0:0:
115,251,193670,1,4,3:3:0:0:
148,215,193750,1,0,0:0:0:0:
160,168,193830,1,0,0:0:0:0:
144,116,193910,5,4,3:3:0:0:
105,107,193990,1,0,0:0:0:0:
68,118,194070,1,0,0:0:0:0:
36,148,194150,5,4,3:3:0:0:
45,178,194230,1,0,0:0:0:0:
67,199,194310,1,0,0:0:0:0:
100,168,194390,6,0,L|96:252,2,74.2500002832413,4|4|4,3:3|3:3|3:3,0:0:0:0:
192,352,194630,1,0,0:0:0:0:
192,352,194750,6,0,L|129:311,2,74.2500002832413,4|4|4,3:3|3:3|3:3,0:0:0:0:
336,296,194990,1,4,3:3:0:0:
336,296,195110,6,0,L|270:330,1,74.2500002832413,4|4,3:3|3:3,0:0:0:0:
224,192,195350,2,0,B|268:184|308:232|308:232|340:268|411:260,1,181.500005538941
380,176,195830,6,0,P|248:208|152:284,1,255.750001951218,12|0,1:3|0:0,0:0:0:0:
96,344,196070,2,0,P|124:244|100:164,1,170.500001300812,8|4,2:3|3:3,0:0:0:0:
32,104,196310,1,12,2:3:0:0:
32,104,196430,1,4,3:3:0:0:
0,188,196550,1,8,2:3:0:0:
188,132,196670,1,4,3:3:0:0:
144,56,196790,5,8,2:3:0:0:
109,181,196910,1,4,2:3:0:0:
132,36,197030,1,8,2:3:0:0:
116,204,197150,2,0,P|224:172|332:260,1,255.750001951218,4|0,2:3|0:0,0:0:0:0:
412,296,197390,2,0,P|323:284|247:320,1,170.500001300812,4|8,2:3|3:3,0:0:0:0:
208,384,197630,1,4,2:3:0:0:
116,204,197750,5,8,2:3:0:0:
116,352,197870,1,4,3:3:0:0:
104,188,197990,1,8,2:3:0:0:
28,316,198110,1,4,3:3:0:0:
116,204,198230,2,0,B|198:221|198:221|242:271|242:271|349:291,1,255.750001951218,12|0,2:3|0:0,0:0:0:0:
400,216,198470,1,8,2:3:0:0:
400,216,198590,1,4,3:3:0:0:
500,261,198710,6,0,P|391:238|342:301,1,189.750003619194,10|0,2:3|0:0,0:0:0:0:
440,312,198950,2,0,L|392:88,1,222.750000849724,10|0,2:3|0:0,0:0:0:0:
424,16,199190,2,0,L|283:143,1,189.750003619194,14|0,2:3|0:0,0:0:0:0:
260,148,199430,2,0,B|248:139|254:104|254:104|227:148|227:148|265:194,1,156.749995814324,10|0,2:3|0:0,0:0:0:0:
332,248,199670,5,10,2:3:0:0:
180,232,199790,1,4,2:3:0:0:
344,164,199910,1,8,2:3:0:0:
168,324,200030,2,0,B|120:308|92:276|92:276|76:232|88:185,1,170.500001300812,4|12,2:3|3:3,0:0:0:0:
108,120,200270,1,4,3:3:0:0:
0,152,200390,1,8,2:3:0:0:
128,132,200510,1,4,3:3:0:0:
30,6,200630,6,0,B|4:40|-45:45|-45:45|21:126|122:125,1,255.750001951218,8|0,2:3|0:0,0:0:0:0:
79,210,200870,1,8,2:3:0:0:
215,211,200990,2,0,B|198:171|218:125|218:125|115:143|65:230,1,255.750001951218,4|0,2:3|0:0,0:0:0:0:
64,296,201230,1,4,3:3:0:0:
64,296,201350,2,0,B|27:280|14:250|14:250|24:192|24:192|80:220|80:220|100:244|88:288,1,255.750001951218,8|0,2:3|0:0,0:0:0:0:
0,360,201590,5,8,2:3:0:0:
152,324,201710,1,4,3:3:0:0:
240,384,201830,1,8,2:3:0:0:
332,336,201950,1,4,2:3:0:0:
256,200,202070,2,0,B|237:216|178:206|178:206|202:229|244:235|244:235|292:200|352:232,1,255.750001951218,12|0,3:3|0:0,0:0:0:0:
408,284,202310,2,0,P|376:192|464:248,1,255.750001951218,8|0,2:3|0:0,0:0:0:0:
420,300,202550,5,8,2:3:0:0:
384,152,202670,1,4,3:3:0:0:
348,4,202790,1,8,2:3:0:0:
268,232,202910,5,4,2:3:0:0:
261,134,203030,1,8,3:3:0:0:
255,36,203150,5,4,2:3:0:0:
192,192,203270,1,8,2:3:0:0:
348,255,203390,1,4,2:3:0:0:
411,99,203510,6,0,L|260:115,1,148.500000566483,10|4,3:3|3:3,0:0:0:0:
120,128,203750,1,8,2:3:0:0:
168,52,203870,1,4,3:3:0:0:
72,200,203990,2,0,B|56:116|56:116|92:180,1,148.500000566483,8|4,2:3|3:3,0:0:0:0:
152,288,204230,2,0,B|168:204|168:204|132:268,1,148.500000566483,8|4,2:3|3:3,0:0:0:0:
72,348,204470,5,8,2:3:0:0:
240,312,204590,1,4,2:3:0:0:
64,216,204710,1,8,2:3:0:0:
240,312,204830,2,0,B|312:316|340:276|340:276|376:232|440:240,1,222.750000849724,4|0,2:3|0:0,0:0:0:0:
496,296,205070,1,4,2:3:0:0:
496,296,205190,2,0,P|456:204|472:156,1,148.500000566483,8|4,2:3|2:3,0:0:0:0:
512,72,205430,5,8,2:3:0:0:
384,120,205550,1,4,3:3:0:0:
432,20,205670,1,8,2:3:0:0:
476,152,205790,2,0,P|384:144|300:240,1,222.750000849724,4|0,2:3|0:0,0:0:0:0:
280,252,206030,1,4,2:3:0:0:
280,108,206150,1,8,3:3:0:0:
384,292,206270,1,4,2:3:0:0:
184,364,206390,6,0,L|176:196,1,148.500000566483,8|4,2:3|3:3,0:0:0:0:
172,108,206630,1,8,2:3:0:0:
16,292,206750,2,0,L|93:142,1,148.500000566483,4|8,2:3|3:3,0:0:0:0:
160,20,206990,1,4,2:3:0:0:
88,72,207110,1,8,2:3:0:0:
100,160,207230,1,4,2:3:0:0:
311,56,207350,6,0,L|167:109,1,148.500000566483,8|4,2:3|2:3,0:0:0:0:
392,172,207590,1,8,2:3:0:0:
392,172,207710,2,0,L|418:20,1,148.500000566483,4|8,2:3|3:3,0:0:0:0:
260,184,207950,1,4,3:3:0:0:
504,152,208070,1,8,2:3:0:0:
336,256,208190,1,4,3:3:0:0:
193,87,208310,6,0,B|290:64|290:64|258:188,1,222.750000849724,8|0,2:3|0:0,0:0:0:0:
240,276,208550,1,8,2:3:0:0:
240,276,208670,1,4,3:3:0:0:
104,148,208790,2,0,B|7:125|7:125|39:249,1,222.750000849724,8|0,2:3|0:0,0:0:0:0:
57,337,209030,1,8,2:3:0:0:
57,337,209150,1,4,3:3:0:0:
128,252,209270,6,0,B|192:244|228:308|228:308|256:360|360:344,1,222.750000849724,8|0,2:3|0:0,0:0:0:0:
300,264,209510,1,8,2:3:0:0:
312,116,209630,2,0,L|297:287,1,148.500000566483,4|8,2:3|3:3,0:0:0:0:
388,68,209870,1,4,2:3:0:0:
224,128,209990,1,8,3:3:0:0:
284,32,210110,1,4,3:3:0:0:
160,200,210230,6,0,B|72:80|72:80|160:112,1,222.750000849724,8|0,2:3|0:0,0:0:0:0:
228,132,210470,1,8,2:3:0:0:
228,132,210590,1,4,2:3:0:0:
184,288,210710,2,0,B|36:304|36:304|107:244,1,222.750000849724,8|0,2:3|0:0,0:0:0:0:
164,204,210950,1,8,2:3:0:0:
164,204,211070,1,4,2:3:0:0:
256,344,211190,5,14,2:3:0:0:
316,124,211550,5,4,3:3:0:0:
247,252,211790,5,4,3:3:0:0:
164,204,211910,2,0,B|236:216|236:216|244:220|244:220|340:236,1,173.24999471283,8|0,3:3|0:0,0:0:0:0:
428,252,212150,1,4,3:3:0:0:
324,4,212390,5,4,3:3:0:0:
348,320,212750,5,4,3:3:0:0:
460,108,212990,5,4,3:3:0:0:
460,108,213110,1,4,3:3:0:0:
320,132,213230,1,4,3:3:0:0:
180,156,213350,1,8,3:3:0:0:
180,156,213470,1,4,3:3:0:0:
28,224,213590,5,4,3:3:0:0:
83,155,213710,1,4,3:3:0:0:
169,168,213830,1,4,3:3:0:0:
200,249,213950,1,4,3:3:0:0:
48,72,214070,5,6,3:3:0:0:
124,356,214430,5,4,3:3:0:0:
356,132,214670,5,4,3:3:0:0:
252,184,214790,2,0,B|244:64|244:64|264:128,1,173.24999471283,8|0,3:3|0:0,0:0:0:0:
256,296,215030,1,4,3:3:0:0:
420,12,215270,5,4,3:3:0:0:
488,264,215630,5,4,3:3:0:0:
352,344,215870,5,4,3:3:0:0:
384,256,215990,1,4,3:3:0:0:
256,296,216110,1,4,3:3:0:0:
128,336,216230,1,8,3:3:0:0:
208,376,216350,1,4,3:3:0:0:
44,204,216470,5,4,3:3:0:0:
16,284,216590,1,4,3:3:0:0:
192,232,216710,5,4,3:3:0:0:
127,176,216830,1,4,3:3:0:0:
128,336,216950,5,6,3:3:0:0:
72,40,217310,5,4,3:3:0:0:
280,136,217550,1,4,3:3:0:0:
411,118,217670,2,0,B|366:105|341:73|341:73|320:112|277:137,1,173.24999471283,8|0,3:3|0:0,0:0:0:0:
352,184,217910,1,4,3:3:0:0:
496,8,218150,5,4,3:3:0:0:
404,352,218510,5,4,3:3:0:0:
224,148,218750,5,4,3:3:0:0:
216,248,218870,1,4,3:3:0:0:
131,176,218990,1,4,3:3:0:0:
173,73,219110,1,8,3:3:0:0:
283,80,219230,1,4,3:3:0:0:
311,187,219350,5,4,3:3:0:0:
416,216,219470,1,4,3:3:0:0:
468,88,219590,1,4,3:3:0:0:
363,117,219710,1,4,3:3:0:0:
464,312,219830,5,6,3:3:0:0:
356,32,220190,5,4,3:3:0:0:
160,232,220430,5,4,3:3:0:0:
56,132,220550,2,0,L|228:152,1,173.24999471283,8|0,3:3|0:0,0:0:0:0:
312,164,220790,1,4,3:3:0:0:
124,324,221030,5,4,3:3:0:0:
124,324,221270,6,0,B|120:302|120:302|124:292|124:292|118:260,1,57.7499982376099
136,312,221390,2,0,B|132:290|132:290|136:280|136:280|130:248,1,57.7499982376099,4|0,3:3|0:0,0:0:0:0:
152,300,221510,2,0,B|148:278|148:278|152:268|152:268|146:236,1,57.7499982376099
136,156,221630,1,4,3:3:0:0:
272,280,221750,6,0,B|276:258|276:258|272:248|272:248|277:216,1,57.7499982376099,4|0,3:3|0:0,0:0:0:0:
260,272,221870,2,0,B|264:250|264:250|260:240|260:240|265:208,1,57.7499982376099,4|0,3:3|0:0,0:0:0:0:
272,124,221990,1,8,3:3:0:0:
416,200,222110,6,0,B|399:185|399:185|388:184|388:184|363:163,1,57.7499982376099,4|0,3:3|0:0,0:0:0:0:
403,206,222230,2,0,B|386:191|386:191|375:190|375:190|350:169,1,57.7499982376099,4|0,3:3|0:0,0:0:0:0:
272,124,222350,1,4,3:3:0:0:
400,40,222470,6,0,B|379:47|379:47|372:56|372:56|341:67,1,57.7499982376099,4|0,3:3|0:0,0:0:0:0:
398,54,222590,2,0,B|377:61|377:61|370:70|370:70|339:81,1,57.7499982376099,4|0,3:3|0:0,0:0:0:0:
180,28,222710,2,0,B|143:51|140:84|140:84|172:116|172:116|196:188,1,148.500000566483,6|8,3:3|3:3,0:0:0:0:
344,272,222950,2,0,B|342:228|315:209|315:209|271:221|271:221|197:205,1,148.500000566483,4|8,3:3|3:3,0:0:0:0:
148,232,223190,5,4,3:3:0:0:
272,124,223310,1,8,3:3:0:0:
208,304,223430,1,4,3:3:0:0:
88,164,223550,1,8,3:3:0:0:
0,368,223670,6,0,B|17:368|17:368|44:376|44:376|52:364|52:364|74:359|112:352|112:352|164:360,1,148.500000566483,4|8,3:3|3:3,0:0:0:0:
376,232,223910,2,0,B|359:232|359:232|332:240|332:240|324:228|324:228|302:223|264:216|264:216|212:224,1,148.500000566483,4|8,3:3|3:3,0:0:0:0:
424,320,224150,5,4,3:3:0:0:
464,192,224270,1,8,3:3:0:0:
336,152,224390,1,4,3:3:0:0:
296,280,224510,1,8,3:3:0:0:
276,88,224630,6,0,B|300:64|316:52|316:52|320:56|320:56|332:52|332:52|344:60|344:60|371:75|389:68|420:76,1,148.500000566483,4|8,3:3|3:3,0:0:0:0:
248,172,224870,2,0,B|224:196|208:208|208:208|204:204|204:204|192:208|192:208|180:200|180:200|152:184|134:191|104:184,1,148.500000566483,4|8,3:3|3:3,0:0:0:0:
72,120,225110,5,4,3:3:0:0:
132,272,225230,1,8,3:3:0:0:
172,96,225350,1,4,3:3:0:0:
16,200,225470,1,8,3:3:0:0:
259,314,225590,6,0,B|251:250|251:250|259:242|259:242|247:154,1,148.500000566483,2|8,3:3|3:3,0:0:0:0:
480,168,225830,1,4,3:3:0:0:
480,168,225950,2,0,B|420:142|420:142|417:132|417:132|335:98,1,148.500000566483,8|4,3:3|3:3,0:0:0:0:
239,27,226190,1,8,3:3:0:0:
80,88,226310,5,4,3:3:0:0:
236,160,226430,1,8,3:3:0:0:
128,16,226550,2,0,L|112:176,1,148.500000566483,4|8,3:3|3:3,0:0:0:0:
104,252,226790,1,4,3:3:0:0:
0,120,226910,1,8,3:3:0:0:
104,252,227030,2,0,L|264:236,1,148.500000566483,6|8,3:3|3:3,0:0:0:0:
340,224,227270,5,4,3:3:0:0:
340,224,227390,1,8,3:3:0:0:
316,136,227510,2,0,L|300:60,3,74.2500002832413,4|0|8|0,3:3|0:0|3:3|0:0,0:0:0:0:
420,256,227750,2,0,L|493:280,3,74.2500002832413,4|0|8|8,3:3|0:0|3:3|3:3,0:0:0:0:
246,309,227990,2,0,L|338:224,1,126.500002412796,6|4,3:3|3:3,0:0:0:0:
348,227,228230,2,0,L|254:310,1,126.500002412796,4|4,3:3|3:3,0:0:0:0:
484,320,228470,5,6,3:3:0:0:
505,289,228530,1,0,0:0:0:0:
512,253,228590,1,0,0:0:0:0:
503,217,228650,1,0,0:0:0:0:
480,188,228710,2,0,P|467:167|463:103,3,74.2500002832413,6|0|0|0,3:3|0:0|0:0|0:0,0:0:0:0:
380,84,228950,2,0,P|391:62|445:27,3,74.2500002832413,6|0|0|0,3:3|0:0|0:0|0:0,0:0:0:0:
304,132,229190,2,0,P|291:111|287:47,3,74.2500002832413,6|0|0|0,3:3|0:0|0:0|0:0,0:0:0:0:
136,204,229430,2,0,P|124:182|70:147,3,74.2500002832413,6|0|0|0,3:3|0:0|0:0|0:0,0:0:0:0:
212,252,229670,2,0,P|224:231|228:167,3,74.2500002832413,6|0|0|0,3:3|0:0|0:0|0:0,0:0:0:0:
8,312,229910,5,6,3:3:0:0:
40,294,229970,1,0,0:0:0:0:
76,290,230030,1,0,0:0:0:0:
112,301,230090,1,0,0:0:0:0:
140,324,230150,1,6,3:3:0:0:
168,347,230210,1,0,0:0:0:0:
204,358,230270,1,0,0:0:0:0:
240,354,230330,1,0,0:0:0:0:
273,337,230390,6,0,L|312:264,3,74.2500002832413,6|0|0|0,3:3|0:0|0:0|0:0,0:0:0:0:
172,188,230630,2,0,L|215:258,3,74.2500002832413,6|0|0|0,3:3|0:0|0:0|0:0,0:0:0:0:
356,176,230870,2,0,L|273:178,3,74.2500002832413,6|0|0|0,3:3|0:0|0:0|0:0,0:0:0:0:
456,232,231110,2,0,L|499:302,3,74.2500002832413,6|0|0|0,3:3|0:0|0:0|0:0,0:0:0:0:
448,88,231350,6,0,L|292:88,1,148.500000566483,2|0,3:3|0:0,0:0:0:0:
75,93,231590,1,6,3:3:0:0:
96,62,231650,1,0,0:0:0:0:
129,46,231710,1,0,0:0:0:0:
166,47,231770,1,0,0:0:0:0:
198,65,231830,1,6,3:3:0:0:
217,97,231890,1,0,0:0:0:0:
218,133,231950,1,0,0:0:0:0:
202,166,232010,1,0,0:0:0:0:
172,188,232070,6,0,L|164:104,3,74.2500002832413,6|0|0|0,3:3|0:0|0:0|0:0,0:0:0:0:
164,208,232310,1,4,3:3:0:0:
80,240,232430,1,0,0:0:0:0:
24,168,232550,1,4,3:3:0:0:
75,93,232670,1,0,0:0:0:0:
80,240,232790,6,0,B|88:268|72:308|72:308|112:268|148:268|148:268|176:288|224:284,1,222.750000849724,6|0,3:3|0:0,0:0:0:0:
240,284,233030,2,0,B|252:364|252:360,3,74.2500002832413,4|0|0|0,3:3|0:0|0:0|0:0,0:0:0:0:
384,176,233270,2,0,B|459:205|455:203,3,74.2500002832413,4|4|4|0,3:3|3:3|3:3|0:0,0:0:0:0:
224,56,233510,5,4,3:3:0:0:
304,20,233630,1,4,3:3:0:0:
296,128,233750,1,4,3:3:0:0:
225,77,233870,1,4,3:3:0:0:
272,208,233990,1,8,3:3:0:0:
392,68,234110,1,4,3:3:0:0:
392,68,234710,5,0,0:0:0:0:
345,55,234830,1,0,0:0:0:0:
304,81,234950,1,0,0:0:0:0:
293,128,235070,1,0,0:0:0:0:
512,0,235190,5,0,0:0:0:0:
0,76,242870,5,4,3:3:0:0:
0,76,243110,1,4,3:3:0:0:
148,28,243230,2,0,L|116:262,1,233.750004458428,4|0,3:3|0:0,0:0:0:0:
108,348,243590,1,4,3:3:0:0:
108,348,243710,2,0,L|244:316,1,140.250002675057,4|0,3:3|0:0,0:0:0:0:
332,288,243950,1,4,3:3:0:0:
164,144,244190,1,4,3:3:0:0:
332,288,244310,6,0,B|296:248|312:196|312:196|300:156|252:136|252:136|308:136|356:92|336:20,1,327.250006241799,8|0,3:3|0:0,0:0:0:0:
252,48,244790,1,4,3:3:0:0:
480,112,245030,1,4,3:3:0:0:
480,112,245150,1,4,3:3:0:0:
400,56,245270,1,4,3:3:0:0:
396,84,245390,1,4,3:3:0:0:
392,112,245510,1,4,3:3:0:0:
388,140,245630,1,4,3:3:0:0:
436,212,245750,5,4,3:3:0:0:
372,276,245870,2,0,L|232:244,1,140.250002675057,4|0,3:3|0:0,0:0:0:0:
160,224,246110,1,4,3:3:0:0:
74,320,246230,6,0,P|10:236|162:236,1,327.250006241799,8|0,3:3|0:0,0:0:0:0:
84,244,246710,5,4,3:3:0:0:
84,244,246950,1,4,3:3:0:0:
332,368,247190,1,8,3:3:0:0:
484,224,247430,1,4,3:3:0:0:
420,300,247670,1,0,0:0:0:0:
420,300,247790,1,4,3:3:0:0:
312,112,248150,2,0,L|450:126,1,140.250002675057,8|0,3:3|0:0,0:0:0:0:
464,144,248390,2,0,L|325:129,1,140.250002675057,4|0,3:3|0:0,0:0:0:0:
228,116,248630,5,4,3:3:0:0:
232,196,248750,1,4,3:3:0:0:
236,276,248870,1,4,3:3:0:0:
104,20,249110,1,8,3:3:0:0:
16,144,249350,1,4,3:3:0:0:
16,144,249590,5,4,3:3:0:0:
112,128,249710,1,4,3:3:0:0:
191,184,249830,1,4,3:3:0:0:
207,279,249950,1,4,3:3:0:0:
151,357,250070,5,4,3:3:0:0:
144,340,250190,1,4,2:3:0:0:
136,324,250310,1,4,2:3:0:0:
191,184,250430,1,4,2:3:0:0:
380,348,250550,6,0,L|236:360,1,137.5,12|0,2:3|0:0,0:0:0:0:
408,256,250790,1,12,3:3:0:0:
512,384,250910,1,0,0:0:0:0:
500,212,251030,1,4,3:3:0:0:
480,296,251150,1,8,3:3:0:0:
360,172,251270,6,0,B|428:156|428:156|484:196,1,137.5,4|0,2:3|0:0,0:0:0:0:
324,248,251510,2,0,L|156:212,1,137.5,12|0,2:3|0:0,0:0:0:0:
16,296,251750,1,12,2:3:0:0:
72,380,251870,2,0,L|240:344,1,137.5,8|4,2:3|3:3,0:0:0:0:
36,208,252110,1,0,0:0:0:0:
36,208,252230,2,0,B|175:237|175:237|136:220|116:192,1,206.25,12|0,2:3|0:0,0:0:0:0:
88,124,252470,5,12,2:3:0:0:
139,268,252590,1,0,0:0:0:0:
279,213,252710,1,4,2:3:0:0:
225,72,252830,1,8,2:3:0:0:
196,164,252950,1,4,3:3:0:0:
279,213,253070,1,0,0:0:0:0:
368,72,253190,2,0,B|331:-15|257:-4|257:-4|305:4|311:60,1,206.25,12|0,2:3|0:0,0:0:0:0:
300,120,253430,6,0,B|357:162|357:162|427:136,1,137.5,14|0,2:3|0:0,0:0:0:0:
368,72,253670,1,4,3:3:0:0:
336,288,253790,1,8,2:3:0:0:
456,275,253910,2,0,B|390:249|390:249|328:292,1,137.5,6|0,3:3|0:0,0:0:0:0:
284,360,254150,1,12,2:3:0:0:
284,360,254270,1,8,2:3:0:0:
136,220,254390,6,0,L|283:232,1,137.5,14|0,2:3|0:0,0:0:0:0:
440,92,254630,1,12,2:3:0:0:
440,92,254750,2,0,L|292:104,1,137.5,0|12,2:2|3:3,0:0:0:0:
392,216,254990,1,0,0:0:0:0:
223,76,255110,2,0,B|360:65|360:65|300:105,1,206.25,12|0,2:3|0:0,0:0:0:0:
120,136,255350,6,0,L|132:-3,1,137.5,12|0,2:3|0:0,0:0:0:0:
224,304,255590,1,4,2:3:0:0:
224,304,255710,2,0,L|211:164,1,137.5,8|4,2:3|3:3,0:0:0:0:
108,372,255950,1,0,0:0:0:0:
10,258,256070,2,0,P|102:274|98:382,1,206.25,12|0,2:3|0:0,0:0:0:0:
0,232,256310,6,0,P|56:220|132:276,1,137.5,12|0,2:3|0:0,0:0:0:0:
240,120,256550,1,4,2:3:0:0:
240,120,256670,2,0,P|184:108|108:164,1,137.5,8|4,2:3|3:3,0:0:0:0:
272,204,256910,1,0,0:0:0:0:
340,144,257030,2,0,P|328:84|264:28,1,140.250002675057,12|0,2:3|0:0,0:0:0:0:
376,16,257270,6,0,B|316:72|344:172|344:168,1,137.5,12|0,2:3|0:0,0:0:0:0:
352,228,257450,1,0,0:0:0:0:
352,228,257510,2,0,B|384:216|384:216|412:188,1,68.75,4|0,3:3|0:0,0:0:0:0:
288,284,257630,2,0,B|314:305|314:305|352:315,1,68.75,4|0,3:3|0:0,0:0:0:0:
208,256,257750,2,0,B|202:289|202:289|212:327,3,68.75,8|0|4|4,3:3|0:0|3:3|3:3,0:0:0:0:
272,204,257990,2,0,L|256:132,1,68.75,0|0,2:2|0:0,0:0:0:0:
200,236,258110,2,0,L|184:164,1,68.75,0|0,2:2|0:0,0:0:0:0:
72,84,258230,6,0,B|141:49|199:87|199:87|143:77|107:121,1,206.25,14|0,2:3|0:0,0:0:0:0:
64,164,258470,2,0,L|12:28,1,137.5,12|0,3:3|0:0,0:0:0:0:
12,248,258710,1,4,3:3:0:0:
168,168,258830,1,8,3:3:0:0:
52,344,258950,1,4,2:3:0:0:
52,344,259070,1,0,0:0:0:0:
168,168,259190,6,0,P|260:168|220:272,1,206.25,12|0,2:3|0:0,0:0:0:0:
152,256,259430,1,12,2:3:0:0:
272,340,259550,2,0,L|412:308,1,137.5,8|4,2:3|3:3,0:0:0:0:
488,268,259790,1,0,0:0:0:0:
380,132,259910,2,0,B|468:96|468:96|428:216,1,206.25,12|0,2:3|0:0,0:0:0:0:
328,216,260150,6,0,L|272:80,1,137.5,12|0,2:3|0:0,0:0:0:0:
228,0,260390,1,4,2:3:0:0:
132,104,260510,2,0,L|277:123,1,137.5,8|4,2:3|3:3,0:0:0:0:
380,132,260750,1,0,0:0:0:0:
200,248,260870,2,0,B|154:197|154:197|318:218,1,206.25,12|0,2:3|0:0,0:0:0:0:
380,284,261110,6,0,L|368:148,1,137.5,14|0,2:3|0:0,0:0:0:0:
280,324,261350,1,4,2:3:0:0:
280,324,261470,1,8,3:3:0:0:
200,248,261590,2,0,L|257:123,1,137.5,6|0,2:3|0:0,0:0:0:0:
284,328,261830,1,12,2:3:0:0:
284,328,261950,1,8,2:3:0:0:
108,336,262070,6,0,B|72:272|72:272|95:199,1,137.5,14|0,2:3|0:0,0:0:0:0:
312,88,262310,2,0,B|274:151|274:151|199:167,1,137.5,12|0,3:3|0:0,0:0:0:0:
0,48,262550,2,0,B|73:48|73:48|124:105,1,137.5,12|0,3:3|0:0,0:0:0:0:
188,184,262790,1,12,2:3:0:0:
160,24,262910,1,0,0:0:0:0:
80,184,263030,5,12,2:3:0:0:
195,203,263150,1,0,0:0:0:0:
268,112,263270,1,4,3:3:0:0:
312,320,263390,5,8,2:3:0:0:
296,224,263510,1,4,3:3:0:0:
280,128,263630,1,0,0:0:0:0:
300,332,263750,2,0,B|164:308|164:308|240:300,1,206.25,12|0,2:3|0:0,0:0:0:0:
395,271,263990,5,12,2:3:0:0:
195,203,264110,1,0,0:0:0:0:
244,288,264230,1,4,3:3:0:0:
44,186,264350,5,8,2:3:0:0:
244,118,264470,1,4,3:3:0:0:
195,203,264590,1,0,0:0:0:0:
192,32,264710,2,0,P|288:24|348:120,1,206.25,12|0,2:3|0:0,0:0:0:0:
443,32,264950,2,0,P|371:52|347:116,1,137.5,12|0,2:3|0:0,0:0:0:0:
360,136,265130,1,0,0:0:0:0:
360,136,265190,1,4,3:3:0:0:
460,44,265310,1,4,3:3:0:0:
392,216,265430,5,12,2:3:0:0:
276,156,265550,1,4,3:3:0:0:
183,247,265670,1,4,3:3:0:0:
284,172,265790,1,0,0:0:0:0:
212,72,265910,5,12,2:3:0:0:
207,93,266030,1,4,3:3:0:0:
202,114,266150,1,4,3:3:0:0:
197,135,266270,1,4,3:3:0:0:
296,0,266390,5,8,3:3:0:0:
40,80,266630,5,4,3:3:0:0:
132,236,266870,5,4,3:3:0:0:
116,160,266990,1,4,3:3:0:0:
116,160,267230,1,4,3:3:0:0:
20,352,267350,5,8,3:3:0:0:
192,180,267590,1,4,3:3:0:0:
160,308,267830,5,4,3:3:0:0:
181,313,267950,1,4,3:3:0:0:
202,318,268070,1,4,3:3:0:0:
223,323,268190,1,4,3:3:0:0:
352,292,268310,1,8,3:3:0:0:
300,360,268550,1,4,3:3:0:0:
388,184,268790,5,4,3:3:0:0:
367,189,268910,1,4,3:3:0:0:
346,194,269030,1,4,3:3:0:0:
325,199,269150,1,0,0:0:0:0:
484,252,269270,5,8,3:3:0:0:
469,165,269390,1,4,3:3:0:0:
455,79,269510,1,4,3:3:0:0:
455,79,269750,1,4,3:3:0:0:
348,112,269870,1,4,3:3:0:0:
240,8,269990,5,8,3:3:0:0:
455,79,270230,1,4,3:3:0:0:
196,232,270470,5,8,3:3:0:0:
196,232,270710,1,4,3:3:0:0:
152,156,270830,1,4,3:3:0:0:
195,79,270950,1,8,3:3:0:0:
100,228,271070,1,4,3:3:0:0:
100,228,271310,5,4,3:3:0:0:
16,48,271430,1,8,3:3:0:0:
16,48,271670,1,4,3:3:0:0:
64,136,271790,1,4,3:3:0:0:
144,0,271910,5,8,3:3:0:0:
0,212,272150,1,4,3:3:0:0:
144,316,272390,1,8,3:3:0:0:
28,326,272630,6,0,L|144:315,1,115.49999647522,4|4,3:3|3:3,0:0:0:0:
232,372,272810,1,4,3:3:0:0:
232,372,272870,2,0,L|258:258,1,115.49999647522,4|4,3:3|3:3,0:0:0:0:
332,196,273050,1,0,0:0:0:0:
332,196,273110,2,0,L|232:136,1,115.49999647522,8|4,3:3|3:3,0:0:0:0:
216,36,273290,1,4,3:3:0:0:
216,36,273350,2,0,L|134:106,1,107.249995090485,12|0,3:3|0:0,0:0:0:0:
80,40,273590,6,0,L|105:181,1,137.5,10|4,3:3|3:3,0:0:0:0:
116,276,273830,1,8,3:3:0:0:
0,228,273950,1,4,3:3:0:0:
116,276,274070,2,0,L|251:325,1,137.5,8|4,3:3|3:3,0:0:0:0:
336,144,274310,6,0,L|206:191,1,137.5,8|4,3:3|3:3,0:0:0:0:
200,208,274490,1,4,3:3:0:0:
200,208,274550,2,0,L|330:161,1,137.5,8|4,3:3|3:3,0:0:0:0:
264,344,274790,2,0,L|288:207,1,137.5,8|4,3:3|3:3,0:0:0:0:
424,360,275030,2,0,L|318:270,1,137.5,8|4,3:3|3:3,0:0:0:0:
512,240,275270,2,0,L|382:287,1,137.5,8|4,3:3|3:3,0:0:0:0:
300,64,275510,6,0,B|372:52|404:96|404:96|436:140|488:132,1,206.25,10|0,3:3|0:0,0:0:0:0:
476,56,275750,2,0,P|400:112|376:160,1,137.5,8|4,3:3|3:3,0:0:0:0:
216,16,275990,2,0,P|226:109|256:154,1,137.5,8|4,3:3|3:3,0:0:0:0:
320,228,276230,1,8,3:3:0:0:
320,228,276350,1,4,3:3:0:0:
64,200,276470,6,0,P|96:188|204:212,1,137.5,10|4,3:3|3:3,0:0:0:0:
360,48,276710,2,0,P|328:62|269:155,1,137.5,10|4,3:3|3:3,0:0:0:0:
124,316,276950,2,0,P|129:282|204:200,1,137.5,10|4,3:3|3:3,0:0:0:0:
399,173,277190,2,0,P|371:153|260:148,1,137.5,10|4,3:3|3:3,0:0:0:0:
424,344,277430,6,0,B|444:256|444:256|476:239|476:239|492:160,1,206.25,10|0,3:3|0:0,0:0:0:0:
480,136,277670,2,0,B|459:228|459:228|432:180,1,137.5,8|4,3:3|3:3,0:0:0:0:
332,24,277910,2,0,B|352:-13|352:-13|373:79,1,137.5,8|4,3:3|3:3,0:0:0:0:
399,173,278150,2,0,L|327:166,1,68.75,8|0,3:3|0:0,0:0:0:0:
208,104,278270,2,0,L|279:97,1,68.75,4|4,3:3|3:3,0:0:0:0:
336,252,278390,6,0,L|192:239,1,137.5,8|4,3:3|3:3,0:0:0:0:
92,172,278630,2,0,L|104:315,1,137.5,8|4,3:3|3:3,0:0:0:0:
120,324,278810,1,4,3:3:0:0:
120,324,278870,2,0,L|107:180,1,137.5,8|4,3:3|3:3,0:0:0:0:
96,64,279110,1,8,3:3:0:0:
92,172,279230,1,4,3:3:0:0:
24,16,279350,6,0,P|144:36|164:52,1,137.5,10|4,3:3|3:3,0:0:0:0:
320,104,279590,2,0,P|200:124|180:140,1,137.5,8|4,3:3|3:3,0:0:0:0:
0,200,279830,2,0,P|120:220|140:236,1,137.5,8|4,3:3|3:3,0:0:0:0:
156,380,280070,2,0,P|233:286|257:276,1,137.5,8|4,3:3|3:3,0:0:0:0:
344,288,280310,2,0,L|334:220,1,68.75,6|8,3:3|3:3,0:0:0:0:
240,196,280430,2,0,L|249:263,1,68.75,4|0,3:3|0:0,0:0:0:0:
256,372,280550,6,0,P|284:384|340:376,3,68.75,4|0|0|0,3:3|0:0|0:0|0:0,0:0:0:0:
404,356,280790,2,0,P|428:337|449:285,3,68.75,4|0|0|0,3:3|0:0|0:0|0:0,0:0:0:0:
436,212,281030,2,0,P|432:181|397:137,3,68.75,4|0|0|0,3:3|0:0|0:0|0:0,0:0:0:0:
512,384,281270,5,6,3:3:0:0:
504,52,282230,5,6,1:3:0:0:
344,120,282350,2,0,B|339:89|296:55|296:55|378:81|378:81|395:94|395:94|430:89|430:89,1,222.750000849724,4|0,3:3|0:0,0:0:0:0:
504,52,282590,1,4,3:3:0:0:
424,176,282710,2,0,B|374:183|341:165|341:165|301:125|301:125|261:118|261:118|213:120,1,222.750000849724,4|0,3:3|0:0,0:0:0:0:
128,160,282950,5,4,3:3:0:0:
128,160,283070,1,4,3:3:0:0:
112,8,283190,2,0,B|120:45|120:45|120:117|120:117|128:155,1,148.500000566483,14|4,3:3|3:3,0:0:0:0:
36,244,283430,2,0,B|16:228|16:228|8:184|8:184|33:168|33:168|48:172|60:160|100:148|100:148|92:200,1,222.750000849724,4|0,3:3|0:0,0:0:0:0:
48,264,283670,5,4,3:3:0:0:
160,240,283790,1,4,3:3:0:0:
252,312,283910,1,4,3:3:0:0:
364,288,284030,2,0,B|379:255|379:255|376:246|384:234|384:234|384:181|384:181|364:206|368:222|368:222|361:236|344:236|344:236|335:240|335:240|351:263|351:263,1,222.750000849724,4|0,3:3|0:0,0:0:0:0:
368,312,284270,5,4,3:3:0:0:
388,96,284390,2,0,B|392:83|367:67|367:67|396:67|396:67|404:63|404:63|441:59|441:59|457:91|457:91|478:116|478:116|455:111|455:111|437:112,1,222.750000849724,4|0,3:3|0:0,0:0:0:0:
372,108,284630,1,4,3:3:0:0:
174,198,284750,2,0,B|160:200|158:229|158:229|144:205|144:205|137:200|137:200|114:169|114:169|135:139|135:139|146:108|146:108|153:130|153:130|162:146,1,222.750000849724,4|0,3:3|0:0,0:0:0:0:
192,188,284990,1,4,3:3:0:0:
192,188,285110,5,14,3:3:0:0:
252,296,285230,1,0,0:0:0:0:
364,288,285350,1,4,3:3:0:0:
322,101,285470,2,0,B|283:126|276:160|276:160|284:184|284:184|289:211|289:211|284:255|245:304,1,222.750000849724,4|0,3:3|0:0,0:0:0:0:
208,376,285710,1,4,3:3:0:0:
36,216,285830,2,0,B|45:188|80:180|80:180|144:180|196:212,1,148.500000566483,4|4,3:3|3:3,0:0:0:0:
112,280,286070,6,0,B|92:185|92:185|98:158|98:158|79:60,1,222.750000849724,4|0,3:3|0:0,0:0:0:0:
103,58,286310,2,0,B|92:155|92:155|101:182|101:182|89:278,1,222.750000849724,4|0,3:3|0:0,0:0:0:0:
64,364,286550,1,4,3:3:0:0:
64,364,286670,2,0,B|48:328|4:308|4:308|76:280|160:336,1,222.750000849724,4|0,3:3|0:0,0:0:0:0:
208,376,286910,1,4,3:3:0:0:
208,376,287030,5,14,3:3:0:0:
199,273,287150,1,4,3:3:0:0:
294,233,287270,1,4,3:3:0:0:
360,308,287390,2,0,B|332:265|332:265|280:269|260:289|260:289|276:321|308:345|308:345|344:336,1,222.750000849724,4|0,3:3|0:0,0:0:0:0:
376,320,287630,5,4,3:3:0:0:
349,165,287750,1,4,3:3:0:0:
349,165,287870,1,4,3:3:0:0:
488,91,287990,2,0,B|500:140|480:168|480:168|544:120|504:36,1,222.750000849724,4|0,3:3|0:0,0:0:0:0:
484,24,288230,1,4,3:3:0:0:
325,42,288350,6,0,B|316:9|337:-16|337:-16|427:-44|489:30,1,222.750000849724,4|0,3:3|0:0,0:0:0:0:
416,124,288590,1,4,3:3:0:0:
416,124,288710,2,0,B|424:91|403:65|403:65|313:37|251:112,1,222.750000849724,4|0,3:3|0:0,0:0:0:0:
224,180,288950,2,0,B|208:159|180:148|180:148|187:121|177:92,2,99.0000003776551,14|0|0,3:3|0:0|0:0,0:0:0:0:
216,200,289190,6,0,P|160:164|120:172,1,107.249995090485,4|0,3:3|0:0,0:0:0:0:
76,252,289430,2,0,B|184:240|184:240|192:244|192:244|304:232,1,222.750000849724,4|0,3:3|0:0,0:0:0:0:
384,216,289670,1,8,3:3:0:0:
384,216,289910,5,6,3:3:0:0:
413,195,289990,1,0,0:0:0:0:
450,194,290070,1,0,0:0:0:0:
481,213,290150,1,4,3:3:0:0:
496,247,290230,1,0,0:0:0:0:
489,283,290310,1,0,0:0:0:0:
464,309,290390,1,6,3:3:0:0:
429,317,290470,1,0,0:0:0:0:
395,304,290550,1,0,0:0:0:0:
362,288,290630,1,4,3:3:0:0:
326,283,290710,1,0,0:0:0:0:
290,291,290790,1,0,0:0:0:0:
259,309,290870,5,14,3:3:0:0:
282,249,290950,1,0,0:0:0:0:
262,187,291030,1,0,0:0:0:0:
208,152,291110,1,4,3:3:0:0:
144,158,291190,1,0,0:0:0:0:
97,203,291270,1,0,0:0:0:0:
89,267,291350,2,0,L|102:362,2,84.3333349418641,6|0|0,3:3|0:0|0:0,0:0:0:0:
80,104,291590,2,0,L|-8:67,2,84.3333349418641,4|0|0,3:3|0:0|0:0,0:0:0:0:
208,152,291830,5,6,3:3:0:0:
226,147,291910,1,0,0:0:0:0:
244,142,291990,1,0,0:0:0:0:
262,137,292070,1,4,3:3:0:0:
280,132,292150,1,0,0:0:0:0:
298,127,292230,1,0,0:0:0:0:
316,124,292310,5,6,3:3:0:0:
328,70,292390,1,0,0:0:0:0:
374,39,292470,1,0,0:0:0:0:
428,47,292550,1,4,3:3:0:0:
463,89,292630,1,0,0:0:0:0:
460,144,292710,1,0,0:0:0:0:
421,183,292790,2,0,L|408:84,2,84.3333349418641,14|0|0,3:3|0:0|0:0,0:0:0:0:
304,207,293030,2,0,L|317:108,2,84.3333349418641,4|0|0,3:3|0:0|0:0,0:0:0:0:
188,168,293270,5,6,3:3:0:0:
194,152,293350,1,0,0:0:0:0:
200,136,293430,1,0,0:0:0:0:
207,121,293510,1,4,3:3:0:0:
213,105,293590,1,0,0:0:0:0:
220,90,293670,1,0,0:0:0:0:
244,72,293750,5,6,3:3:0:0:
175,43,293830,1,0,0:0:0:0:
103,63,293910,1,0,0:0:0:0:
59,124,293990,1,4,3:3:0:0:
61,198,294070,1,0,0:0:0:0:
109,255,294150,1,0,0:0:0:0:
181,271,294230,6,0,L|266:256,2,84.3333349418641,6|0|0,3:3|0:0|0:0,0:0:0:0:
244,72,294470,2,0,L|213:153,2,84.3333349418641,4|0|0,3:3|0:0|0:0,0:0:0:0:
388,208,294710,1,14,3:3:0:0:
388,208,294790,1,0,0:0:0:0:
388,208,294870,1,0,0:0:0:0:
388,208,294950,6,0,L|332:140,2,84.3333349418641,4|0|0,3:3|0:0|0:0,0:0:0:0:
492,316,295190,1,6,3:3:0:0:
492,316,295270,1,0,0:0:0:0:
492,316,295350,1,0,0:0:0:0:
484,336,295430,5,4,3:3:0:0:
442,344,295510,1,0,0:0:0:0:
401,353,295590,1,0,0:0:0:0:
360,361,295670,5,6,3:3:0:0:
378,300,295750,1,0,0:0:0:0:
397,240,295830,1,0,0:0:0:0:
416,179,295910,1,4,3:3:0:0:
424,188,295990,2,0,L|438:271,1,84.3333349418641
492,136,296150,5,6,3:3:0:0:
449,137,296230,1,0,0:0:0:0:
407,139,296310,1,0,0:0:0:0:
376,168,296390,1,4,3:3:0:0:
333,169,296470,1,0,0:0:0:0:
291,171,296550,1,0,0:0:0:0:
248,148,296630,6,0,B|208:148|208:148|198:144|198:144|160:144,2,84.3333349418641,14|0|0,3:3|0:0|0:0,0:0:0:0:
324,84,296870,2,0,B|324:44|324:44|327:34|327:34|328:-4,2,84.3333349418641,4|0|0,3:3|0:0|0:0,0:0:0:0:
220,228,297110,2,0,B|219:261|219:261|216:271|216:271|216:311,5,84.3333349418641,6|0|0|4|0|0,3:3|0:0|0:0|3:3|0:0|0:0,0:0:0:0:
148,124,297590,6,0,B|144:96|144:96|140:92|140:92|136:52,3,74.2500002832413,14|0|4|0,3:3|0:0|3:3|0:0,0:0:0:0:
80,200,297830,2,0,B|53:189|53:189|48:190|48:190|11:174,3,74.2500002832413,8|0|4|0,3:3|0:0|3:3|0:0,0:0:0:0:
108,292,298070,2,0,B|85:309|85:309|84:314|84:314|51:338,3,74.2500002832413,8|0|4|0,3:3|0:0|3:3|0:0,0:0:0:0:
200,312,298310,2,0,B|203:340|203:340|208:344|208:344|212:384,3,74.2500002832413,8|0|4|0,3:3|0:0|3:3|0:0,0:0:0:0:
184,212,298550,5,8,3:3:0:0:
242,222,298610,1,0,0:0:0:0:
300,232,298670,1,4,3:3:0:0:
359,244,298730,1,0,0:0:0:0:
418,256,298790,1,8,3:3:0:0:
416,265,298850,1,0,0:0:0:0:
414,274,298910,1,4,3:3:0:0:
412,283,298970,1,0,0:0:0:0:
392,312,299030,6,0,B|360:292|352:252|352:252|424:200|388:116,1,222.750000849724,8|0,3:3|0:0,0:0:0:0:
244,144,299270,2,0,B|273:152|273:152|284:152|284:152|321:161,3,74.2500002832413,8|0|4|0,3:3|0:0|3:3|0:0,0:0:0:0:
188,68,299510,6,0,B|136:120|136:120|164:196,1,148.500000566483,10|4,3:3|3:3,0:0:0:0:
204,272,299750,1,8,3:3:0:0:
36,168,299870,1,4,3:3:0:0:
0,364,299990,2,0,B|63:358|63:358|78:345|78:345|153:336,1,148.500000566483,8|4,3:3|3:3,0:0:0:0:
346,297,300230,2,0,B|282:291|282:291|267:278|267:278|192:269,1,148.500000566483,8|4,3:3|3:3,0:0:0:0:
108,260,300470,5,8,3:3:0:0:
252,192,300590,1,4,3:3:0:0:
216,372,300710,1,8,3:3:0:0:
168,144,300830,1,4,3:3:0:0:
399,208,300950,2,0,L|251:191,1,148.500000566483,8|4,3:3|3:3,0:0:0:0:
75,27,301190,2,0,L|167:142,1,148.500000566483,8|4,3:3|3:3,0:0:0:0:
364,28,301430,6,0,B|305:32|305:32|288:45|288:45|220:52,1,148.500000566483,10|4,3:3|3:3,0:0:0:0:
204,40,301610,1,0,0:0:0:0:
204,40,301670,2,0,B|272:33|272:33|289:20|289:20|348:16,1,148.500000566483,8|4,3:3|3:3,0:0:0:0:
468,8,301910,1,8,3:3:0:0:
300,120,302030,1,4,3:3:0:0:
499,118,302150,1,8,3:3:0:0:
499,118,302270,6,0,B|392:84|392:84|424:192,1,222.750000849724,4|0,3:3|0:0,0:0:0:0:
456,280,302510,1,4,3:3:0:0:
296,140,302630,1,8,3:3:0:0:
380,372,302750,1,4,3:3:0:0:
456,280,302870,2,0,B|372:248|372:248|236:316|236:312,1,222.750000849724,8|0,3:3|0:0,0:0:0:0:
168,352,303110,1,8,3:3:0:0:
80,192,303230,6,0,B|135:200|135:200|162:222|162:222|225:235,1,148.500000566483,4|8,3:3|3:3,0:0:0:0:
52,288,303470,1,4,3:3:0:0:
140,84,303590,2,0,B|85:92|85:92|58:114|58:114|-5:127,1,148.500000566483,8|4,3:3|3:3,0:0:0:0:
232,140,303830,1,8,3:3:0:0:
168,8,303950,1,4,3:3:0:0:
248,156,304070,1,8,3:3:0:0:
392,80,304190,6,0,B|328:73|328:73|313:65|313:65|237:58,1,148.500000566483,6|8,3:3|3:3,0:0:0:0:
432,168,304430,1,4,3:3:0:0:
488,52,304550,1,8,3:3:0:0:
440,184,304670,1,6,3:3:0:0:
408,0,304790,1,8,3:3:0:0:
448,200,304910,1,12,3:3:0:0:
336,152,305030,1,8,3:3:0:0:
456,216,305150,1,12,3:3:0:0:
312,52,305270,6,0,B|330:-3|400:-4|448:24|440:96|419:128|374:141|374:141|341:210|384:270,1,379.500007238388,6|0,3:3|0:0,0:0:0:0:
402,274,305750,1,0,0:0:0:0:
294,294,305870,1,4,3:3:0:0:
186,314,305990,1,8,3:3:0:0:
402,274,306110,6,0,B|488:280|504:100|332:84|248:180|296:296|296:296|280:236|224:220|224:220,1,506.000009651184,4|0,3:3|0:0,0:0:0:0:
148,200,306710,1,4,3:3:0:0:
284,76,306950,1,8,3:3:0:0:
10,123,307070,6,0,B|63:54|201:51|241:111|244:199|193:229|140:229|140:229|120:205|86:191|86:191|142:209|157:195,1,506.000009651184
284,76,307670,1,4,3:3:0:0:
284,76,307910,2,0,B|317:103|337:152|337:152|328:208|289:237,1,189.750003619194,8|0,3:3|0:0,0:0:0:0:
200,240,308150,6,0,B|197:240|197:240|257:228|300:286|300:286|357:349|415:331,1,253.000004825592,4|8,3:3|3:3,0:0:0:0:
512,224,308510,1,0,0:0:0:0:
512,224,308630,2,0,L|374:248,1,126.500002412796,4|4,3:3|3:3,0:0:0:0:
128,288,308870,1,8,3:3:0:0:
8,108,309110,6,0,B|31:43|110:22|110:22|188:64|192:134|192:134|78:157|-16:282|166:573|396:292|184:244,1,825,4|8,3:3|3:3,0:0:0:0:
64,220,309950,1,4,3:3:0:0:
364,80,310070,2,0,P|288:36|348:164,1,343.75,4|0,3:3|0:0,0:0:0:0:
296,112,310430,2,0,B|309:143|345:164|345:164|336:202|302:216|302:216|306:243|348:273|348:273|272:302|277:375,1,343.75,4|0,3:3|0:0,0:0:0:0:
420,328,310790,2,0,P|438:278|420:229,1,107.249995090485,8|0,3:3|0:0,0:0:0:0:
228,244,311030,6,0,B|332:216|332:216|340:220|340:220|448:192,2,225.500003440857,4|4|8,3:3|3:3|3:3,0:0:0:0:
28,344,311390,2,0,B|-8:284|26:199|26:199|104:212|140:164|140:164|104:212|112:276,1,343.75,4|0,3:3|0:0,0:0:0:0:
120,304,311750,2,0,B|84:252|84:252|88:176|88:176|40:80,1,206.25,8|0,3:3|0:0,0:0:0:0:
8,44,311990,5,4,3:3:0:0:
58,116,312110,1,4,3:3:0:0:
144,131,312230,1,4,3:3:0:0:
215,80,312350,1,4,3:3:0:0:
116,48,312470,5,4,3:3:0:0:
168,216,312590,1,4,3:3:0:0:
260,0,312710,1,4,3:3:0:0:
176,232,312830,1,4,3:3:0:0:
360,144,312950,6,0,L|280:148,3,68.75,6|0|8|0,3:3|0:0|3:3|0:0,0:0:0:0:
420,220,313190,2,0,L|500:224,3,68.75,4|4|8|0,3:3|3:3|3:3|0:0,0:0:0:0:
356,292,313430,2,0,L|276:296,3,68.75,4|0|8|0,3:3|0:0|3:3|0:0,0:0:0:0:
408,368,313670,2,0,L|488:372,3,68.75,4|4|8|0,3:3|3:3|3:3|0:0,0:0:0:0:
240,364,313910,6,0,P|216:336|208:288,1,68.75,4|0,3:3|0:0,0:0:0:0:
156,344,314030,2,0,P|168:309|205:278,1,68.75,8|0,3:3|0:0,0:0:0:0:
124,264,314150,2,0,P|160:257|205:274,1,68.75,4|4,3:3|3:3,0:0:0:0:
168,188,314270,2,0,P|192:216|200:264,1,68.75,8|0,3:3|0:0,0:0:0:0:
260,184,314390,2,0,P|247:218|210:249,3,68.75,4|0|8|0,3:3|0:0|3:3|0:0,0:0:0:0:
132,112,314630,2,0,P|168:105|213:122,3,68.75,4|4|8|0,3:3|3:3|3:3|0:0,0:0:0:0:
60,152,314870,5,4,3:3:0:0:
88,304,314990,1,8,3:3:0:0:
88,304,315110,2,0,L|76:232,2,68.75,4|4|8,3:3|3:3|3:3,0:0:0:0:
276,99,315350,5,4,3:3:0:0:
248,251,315470,1,8,3:3:0:0:
248,251,315590,2,0,L|260:179,2,68.75,4|4|8,3:3|3:3|3:3,0:0:0:0:
368,196,315830,2,0,L|356:124,2,68.75,4|4|8,3:3|3:3|3:3,0:0:0:0:
180,120,316070,2,0,L|192:48,2,68.75,4|4|8,3:3|3:3|3:3,0:0:0:0:
420,68,316310,2,0,L|408:-4,2,68.75,4|4|8,3:3|3:3|3:3,0:0:0:0:
232,264,316550,2,0,L|244:192,2,68.75,4|4|8,3:3|3:3|3:3,0:0:0:0:
416,348,316790,6,0,L|404:276,1,68.75,6|0,3:3|0:0,0:0:0:0:
332,384,316910,2,0,L|374:324,1,68.75,8|0,3:3|0:0,0:0:0:0:
256,340,317030,2,0,L|328:327,1,68.75,4|4,3:3|3:3,0:0:0:0:
232,264,317150,2,0,L|291:306,1,68.75,8|0,3:3|0:0,0:0:0:0:
268,196,317270,6,0,L|280:267,3,68.75,4|0|8|0,3:3|0:0|3:3|0:0,0:0:0:0:
244,44,317510,2,0,L|256:115,3,68.75,4|4|8|0,3:3|3:3|3:3|0:0,0:0:0:0:
4,120,317750,6,0,L|75:108,1,68.75,4|0,3:3|0:0,0:0:0:0:
104,180,317870,2,0,L|176:168,1,68.75,8|0,3:3|0:0,0:0:0:0:
180,136,317990,2,0,L|251:124,1,68.75,4|4,3:3|3:3,0:0:0:0:
268,160,318110,2,0,L|340:148,1,68.75,8|0,3:3|0:0,0:0:0:0:
356,124,318230,6,0,L|352:204,3,68.75,4|0|8|0,3:3|0:0|3:3|0:0,0:0:0:0:
464,68,318470,2,0,L|460:-12,3,68.75,4|4|8|0,3:3|3:3|3:3|0:0,0:0:0:0:
464,200,318710,5,4,3:3:0:0:
372,32,318830,1,8,3:3:0:0:
372,32,318950,2,0,L|296:24,2,68.75,4|4|8,3:3|3:3|3:3,0:0:0:0:
268,296,319190,5,4,3:3:0:0:
360,128,319310,1,8,3:3:0:0:
360,128,319430,2,0,L|436:120,2,68.75,4|4|8,3:3|3:3|3:3,0:0:0:0:
368,240,319670,2,0,L|427:288,2,68.75,4|4|8,3:3|3:3|3:3,0:0:0:0:
268,296,319910,2,0,L|276:372,2,68.75,4|4|8,3:3|3:3|3:3,0:0:0:0:
200,196,320150,2,0,L|207:127,2,68.75,4|4|8,3:3|3:3|3:3,0:0:0:0:
104,296,320390,2,0,L|96:364,2,68.75,4|4|8,3:3|3:3|3:3,0:0:0:0:
4,48,320630,6,0,B|76:24|124:80|124:80|120:96|120:96|176:144|244:112,1,275,6|4,3:3|3:3,0:0:0:0:
260,104,320930,1,4,3:3:0:0:
260,104,320990,2,0,P|237:126|236:176,1,68.75,8|0,3:3|0:0,0:0:0:0:
240,192,321110,2,0,B|308:224|308:224|360:192|360:192|368:192|368:192|424:156,1,206.25,4|0,3:3|0:0,0:0:0:0:
432,140,321350,1,4,3:3:0:0:
408,324,321470,2,0,B|286:259|286:259|282:260|282:260|165:199|165:199|232:340,1,412.5,8|4,3:3|3:3,0:0:0:0:
212,344,321890,1,4,3:3:0:0:
212,344,321950,2,0,L|184:280,1,68.75,8|0,3:3|0:0,0:0:0:0:
48,152,322070,6,0,B|50:123|50:123|58:117|58:117|60:81,5,68.75,4|0|8|0|4|4,3:3|0:0|3:3|0:0|3:3|3:3,0:0:0:0:
120,224,322430,2,0,B|117:252|117:252|109:258|109:258|107:294,5,68.75,8|0|4|0|8|0,3:3|0:0|3:3|0:0|3:3|0:0,0:0:0:0:
144,76,322790,2,0,B|146:47|146:47|154:41|154:41|156:5,3,68.75,4|4|8|0,3:3|3:3|3:3|0:0,0:0:0:0:
244,160,323030,6,0,B|241:131|241:131|233:125|233:125|231:89,3,68.75,4|0|8|0,3:3|0:0|3:3|0:0,0:0:0:0:
344,180,323270,6,0,B|361:158|361:158|361:149|361:149|385:121,3,68.75,4|4|8|0,3:3|3:3|3:3|0:0,0:0:0:0:
180,240,323510,6,0,B|158:222|158:222|148:222|148:222|121:198,3,68.75,4|4|8|0,3:3|3:3|3:3|0:0,0:0:0:0:
400,264,323750,6,0,B|428:261|428:261|434:253|434:253|470:251,3,68.75,4|4|8|0,3:3|3:3|3:3|0:0,0:0:0:0:
180,332,323990,6,0,B|151:334|151:334|145:342|145:342|109:344,3,68.75,4|4|8|0,3:3|3:3|3:3|0:0,0:0:0:0:
392,288,324230,6,0,B|414:304|414:304|417:314|417:314|447:334,3,68.75,4|4|8|0,3:3|3:3|3:3|0:0,0:0:0:0:
160,116,324470,6,0,B|144:92|144:92|160:36,1,68.75,2|0,1:1|0:0,0:0:0:0:
232,72,324590,2,0,B|244:46|244:46|301:31,1,68.75,2|0,1:1|0:0,0:0:0:0:
312,108,324710,2,0,B|340:106|340:106|381:148,1,68.75,2|0,1:1|0:0,0:0:0:0:
320,192,324830,2,0,B|336:216|336:216|320:272,1,68.75,2|0,1:1|0:0,0:0:0:0:
244,240,324950,2,0,B|231:265|231:265|174:280,1,68.75,2|0,1:1|0:0,0:0:0:0:
168,208,325070,2,0,B|184:231|184:231|168:288,1,68.75,2|0,1:1|0:0,0:0:0:0:
100,248,325190,2,0,B|128:246|128:246|169:288,1,68.75,2|0,1:1|0:0,0:0:0:0:
104,324,325310,2,0,B|116:298|116:298|173:284,1,68.75,2|0,1:1|0:0,0:0:0:0:
176,360,325430,2,0,B|160:336|160:336|176:279,1,68.75,2|0,1:1|0:0,0:0:0:0:
240,316,325550,2,0,B|211:317|211:317|170:275,1,68.75,2|0,1:1|0:0,0:0:0:0:
244,240,325670,2,0,B|231:265|231:265|174:280,1,68.75,2|0,1:1|0:0,0:0:0:0:
168,208,325790,2,0,B|140:217|140:217|90:187,1,68.75,2|0,1:1|0:0,0:0:0:0:
148,132,325910,2,0,B|122:119|122:119|107:62,1,68.75,2|0,1:1|0:0,0:0:0:0:
184,64,326030,2,0,B|174:36|174:36|204:-13,1,68.75,2|0,1:1|0:0,0:0:0:0:
264,40,326150,2,0,B|276:14|276:14|333:0,1,68.75,2|0,1:1|0:0,0:0:0:0:
332,76,326270,2,0,B|359:66|359:66|409:96,1,68.75,2|0,1:1|0:0,0:0:0:0:
352,152,326390,6,0,B|377:164|377:164|392:221,1,68.75,2|0,1:1|0:0,0:0:0:0:
340,168,326510,2,0,B|361:187|361:187|360:245,1,68.75,2|0,1:1|0:0,0:0:0:0:
320,176,326630,2,0,B|336:200|336:200|320:256,1,68.75,2|0,1:1|0:0,0:0:0:0:
304,176,326750,2,0,B|313:203|313:203|283:253,1,68.75,2|0,1:1|0:0,0:0:0:0:
288,172,326870,2,0,B|289:200|289:200|248:241,1,68.75,2|0,1:1|0:0,0:0:0:0:
276,164,326990,2,0,B|270:192|270:192|219:220,1,68.75,2|0,1:1|0:0,0:0:0:0:
264,152,327110,2,0,B|251:177|251:177|194:192,1,68.75,2|0,1:1|0:0,0:0:0:0:
256,140,327230,2,0,B|236:161|236:161|178:160,1,68.75,2|0,1:1|0:0,0:0:0:0:
244,104,327350,6,0,B|224:136|224:136|244:176,1,68.75,2|0,1:1|0:0,0:0:0:0:
152,200,327470,2,0,B|169:233|169:233|214:236,1,68.75,2|0,1:1|0:0,0:0:0:0:
176,336,327590,2,0,B|213:337|213:337|238:300,1,68.75,2|0,1:1|0:0,0:0:0:0:
308,384,327710,2,0,B|328:352|328:352|308:312,1,68.75,2|0,1:1|0:0,0:0:0:0:
424,300,327830,5,2,1:1:0:0:
415,284,327890,1,0,0:0:0:0:
407,269,327950,1,2,1:1:0:0:
392,265,328010,1,0,0:0:0:0:
376,264,328070,2,0,L|400:204,1,57.7499982376099,2|0,1:1|0:0,0:0:0:0:
484,204,328310,6,0,B|488:157|466:121|466:121|443:115|427:86|427:86|441:45|418:19|418:19|405:5,1,206.25,6|0,3:3|0:0,0:0:0:0:
400,8,328550,1,4,3:3:0:0:
400,8,328670,1,8,3:3:0:0:
220,64,328790,2,0,B|248:76|248:76|264:64|264:64|272:68|272:68|280:68|280:68|316:88|368:76,1,137.5,4|8,3:3|3:3,0:0:0:0:
228,256,329030,2,0,B|224:225|224:225|206:217|206:217|205:208|205:208|201:202|201:202|200:160|164:121,1,137.5,4|8,3:3|3:3,0:0:0:0:
96,20,329270,6,0,B|92:52|92:52|96:72|96:72|88:104,2,68.75,4|4|8,3:3|3:3|3:3,0:0:0:0:
95,248,329510,1,4,3:3:0:0:
0,108,329630,1,8,3:3:0:0:
172,124,329750,2,0,B|204:128|204:128|224:124|224:124|256:132,2,68.75,4|4|8,3:3|3:3|3:3,0:0:0:0:
0,204,329990,1,4,3:3:0:0:
172,124,330110,1,8,3:3:0:0:
89,312,330230,6,0,B|84:306|84:306|84:294|84:294|89:279|97:268|97:268|95:243,2,68.75,6|4|8,3:3|3:3|3:3,0:0:0:0:
212,376,330470,1,4,3:3:0:0:
212,376,330590,1,8,3:3:0:0:
296,252,330710,2,0,B|264:244|264:244|248:245|248:245|248:260|248:260|204:244|160:260,1,137.5,4|8,3:3|3:3,0:0:0:0:
340,336,330950,1,4,3:3:0:0:
340,336,331070,1,8,3:3:0:0:
376,208,331190,2,0,B|371:192|371:192|366:185|366:185|360:189|360:189|356:166|338:151,2,68.75,4|4|8,3:3|3:3|3:3,0:0:0:0:
472,140,331430,1,4,3:3:0:0:
428,292,331550,1,8,3:3:0:0:
280,88,331670,6,0,B|304:72|304:72|312:72|312:72|328:64|352:68|352:68|392:80|412:112,1,137.5,4|8,3:3|3:3,0:0:0:0:
232,168,331910,2,0,B|206:155|206:155|202:148|202:148|187:138|178:115|178:115|169:75|186:41,1,137.5,4|8,3:3|3:3,0:0:0:0:
200,32,332150,1,6,3:3:0:0:
76,164,332270,1,8,3:3:0:0:
8,75,332390,2,0,B|36:75|36:75|56:83|56:83|68:91|68:91|64:127|80:179,1,137.5,4|8,3:3|3:3,0:0:0:0:
292,232,332630,2,0,B|278:207|278:207|261:194|261:194|248:188|248:188|218:209|165:221,1,137.5,4|8,3:3|3:3,0:0:0:0:
76,264,332870,1,4,3:3:0:0:
160,120,332990,1,8,3:3:0:0:
76,264,333110,6,0,B|92:258|102:263|102:263|112:273|124:280|124:280|131:284|161:286|157:285,2,68.75,4|4|8,3:3|3:3|3:3,0:0:0:0:
136,384,333350,1,4,3:3:0:0:
232,168,333470,1,8,3:3:0:0:
260,344,333590,2,0,B|247:332|246:321|246:321|249:307|250:293|250:293|250:285|237:258|238:262,2,68.75,4|4|8,3:3|3:3|3:3,0:0:0:0:
152,208,333830,1,4,3:3:0:0:
328,176,333950,1,8,3:3:0:0:
56,56,334070,6,0,B|87:55|108:62|108:62|108:76|108:76|120:101|120:101|152:108|168:136,1,137.5,6|8,3:3|3:3,0:0:0:0:
264,256,334310,1,4,3:3:0:0:
264,256,334430,1,8,3:3:0:0:
328,72,334550,1,4,3:3:0:0:
276,268,334670,1,8,3:3:0:0:
164,136,334790,1,4,3:3:0:0:
288,280,334910,1,8,3:3:0:0:
156,112,335030,6,0,B|185:88|185:88|190:64|190:64|212:32|212:32|252:48|252:48|268:65|268:65|296:68|336:92,1,206.25,6|0,3:3|0:0,0:0:0:0:
328,72,335270,2,0,B|324:84|328:96|328:96|320:112|312:128|312:128|316:148,1,68.75,4|4,3:3|3:3,0:0:0:0:
264,256,335390,2,0,B|265:247|265:247|257:231|249:215|249:215|253:203|249:191,1,68.75,8|0,3:3|0:0,0:0:0:0:
100,228,335510,2,0,B|112:225|120:216|120:216|138:214|156:213|156:213|171:200,2,68.75,4|4|8,3:3|3:3|3:3,0:0:0:0:
64,32,335750,2,0,B|51:29|43:20|43:20|25:18|7:17|7:17|-7:4,2,68.75,4|4|8,3:3|3:3|3:3,0:0:0:0:
72,48,335990,5,6,3:3:0:0:
88,244,336110,1,8,3:3:0:0:
136,144,336230,2,0,B|118:139|106:136|79:136|79:136|55:144|55:144|27:164|27:164|7:164,1,137.5,4|8,3:3|3:3,0:0:0:0:
32,336,336470,2,0,B|49:340|61:343|88:343|88:343|112:335|112:335|140:315|140:315|160:315,1,137.5,4|8,3:3|3:3,0:0:0:0:
232,184,336710,2,0,B|192:188|188:220|188:220|175:232|175:232|176:236|204:240|232:264|232:264|256:280|260:296|272:336,1,206.25,4|0,3:3|0:0,0:0:0:0:
312,136,336950,6,0,L|327:49,2,68.75,4|4|8,3:3|3:3|3:3,0:0:0:0:
288,324,337190,1,4,3:3:0:0:
288,324,337310,1,8,3:3:0:0:
136,144,337430,2,0,L|80:74,2,68.75,4|4|8,3:3|3:3|3:3,0:0:0:0:
64,192,337670,1,4,3:3:0:0:
64,192,337790,1,8,3:3:0:0:
136,144,337910,5,6,3:3:0:0:
56,296,338030,1,8,3:3:0:0:
8,128,338150,2,0,B|30:124|42:107|42:107|55:102|55:102|74:95|74:95|88:107|88:107|117:122|121:137|153:157|149:157,1,137.5,4|8,3:3|3:3,0:0:0:0:
304,56,338390,2,0,B|281:52|269:35|269:35|256:30|256:30|237:23|237:23|223:35|223:35|194:50|190:65|158:85|162:85,1,137.5,4|8,3:3|3:3,0:0:0:0:
324,148,338630,1,4,3:3:0:0:
380,4,338750,1,8,3:3:0:0:
324,148,338870,6,0,B|308:172|308:172|304:184|304:184|304:191|304:191|296:212,2,68.75,4|4|8,3:3|3:3|3:3,0:0:0:0:
440,92,339110,1,4,3:3:0:0:
244,120,339230,1,8,3:3:0:0:
440,92,339350,2,0,B|468:93|468:93|481:91|481:91|487:87|487:87|509:83,2,68.75,6|4|8,3:3|3:3|3:3,0:0:0:0:
412,172,339590,1,4,3:3:0:0:
412,172,339710,1,8,3:3:0:0:
456,244,339830,5,6,3:3:0:0:
224,200,339950,1,8,3:3:0:0:
340,336,340070,2,0,B|356:312|356:312|359:298|359:298|368:296|368:296|360:280|360:280|340:256|328:188,1,137.5,4|8,3:3|3:3,0:0:0:0:
198,69,340310,2,0,B|192:107|172:131|172:131|164:147|164:147|172:150|172:150|176:163|176:163|192:187,1,137.5,4|8,3:3|3:3,0:0:0:0:
256,256,340550,1,4,3:3:0:0:
80,184,340670,1,8,3:3:0:0:
264,128,340790,6,0,B|239:134|227:138|227:138|217:146|217:146|203:151|182:152,1,68.75,4|4,3:3|3:3,0:0:0:0:
80,184,340910,1,8,3:3:0:0:
100,92,341030,1,4,3:3:0:0:
12,256,341150,2,0,B|36:262|48:264|48:264|61:263|61:263|76:266|94:275,1,68.75,8|0,3:3|0:0,0:0:0:0:
304,300,341270,2,0,B|279:293|267:291|267:291|254:292|254:292|239:289|221:280,1,68.75,4|4,3:3|3:3,0:0:0:0:
160,272,341390,1,8,3:3:0:0:
159,271,341510,2,0,B|160:239|160:239|167:233|167:233|176:224|176:224|176:204|176:204|169:167|169:167|160:240|160:240,1,156.749995814324,4|0,3:3|0:0,0:0:0:0:
152,356,341750,5,6,3:3:0:0:
244,272,341870,1,10,3:3:0:0:
264,368,341990,5,4,3:3:0:0:
264,192,342110,1,10,3:3:0:0:
364,328,342230,5,4,3:3:0:0:
164,368,342350,1,10,3:3:0:0:
368,312,342470,2,0,B|388:329|416:340|416:340|432:320|456:300|456:300|432:292|412:276|412:276|388:280|368:304,1,206.25,4|0,3:3|0:0,0:0:0:0:
360,300,342710,2,0,B|346:276|346:276|368:228,1,68.75,4|4,3:3|3:3,0:0:0:0:
460,212,342830,2,0,B|473:188|473:188|452:140,1,68.75,8|0,3:3|0:0,0:0:0:0:
384,96,342950,2,0,B|370:72|370:72|392:24,3,68.75,4|4|4|4,3:3|3:3|3:3|3:3,0:0:0:0:
376,108,343190,5,4,3:3:0:0:
345,93,343250,1,4,3:3:0:0:
311,91,343310,1,8,3:3:0:0:
279,104,343370,1,8,3:3:0:0:
255,129,343430,1,8,3:3:0:0:
224,168,343490,1,8,3:3:0:0:
175,184,343550,1,8,3:3:0:0:
126,170,343610,1,8,3:3:0:0:
92,132,343670,6,0,B|136:37|193:107|292:4|292:4|271:132|161:115|200:242|200:242|251:136|435:185|402:390|263:386|219:337,1,923.999971801759,2|0,3:3|0:0,0:0:0:0:
92,132,348470,5,2,3:3:0:0:
88,140,348870,5,2,3:3:0:0:
84,148,349270,5,2,3:3:0:0:
0,0,349670,5,4,3:3:0:0:
32,276,350070,5,6,1:3:0:0:
32,276,350170,2,0,B|16:255|6:223|6:223|-17:206|-17:206|12:210|12:210|21:212|21:212|53:228|79:231|105:223|105:223|131:225|165:242,1,275,4|4,3:3|3:3,0:0:0:0:
172,332,350470,2,0,B|187:311|197:279|197:279|221:262|221:262|191:266|191:266|182:268|182:268|150:284|124:287|98:279|98:279|72:281|38:298,1,275,4|4,3:3|3:3,0:0:0:0:
276,348,350770,1,4,3:3:0:0:
276,348,350870,1,12,3:3:0:0:
276,348,350970,6,0,B|302:352|321:338|321:338|347:344|347:344|377:351|410:373|410:373|359:336|359:336|343:328|335:304|335:304|327:277|327:277,1,275,4|4,3:3|3:3,0:0:0:0:
336,112,351270,2,0,B|319:133|321:156|321:156|303:176|303:176|282:198|247:216|247:216|304:190|304:190|319:180|344:185|344:185|371:192|371:192,1,275,4|4,3:3|3:3,0:0:0:0:
424,272,351570,5,4,3:3:0:0:
448,56,351770,1,4,3:3:0:0:
448,56,351870,1,4,3:3:0:0:
202,94,352070,6,0,B|223:100|252:92|252:92|282:98|302:110|302:110|332:114|362:110,1,137.5,4|4,3:3|3:3,0:0:0:0:
512,180,352270,2,0,B|490:186|461:178|461:178|432:184|412:196|412:196|381:200|352:196,1,137.5,4|4,3:3|3:3,0:0:0:0:
172,260,352470,1,12,3:3:0:0:
172,260,352570,6,0,B|180:224|208:204|208:204|260:204|300:184|300:184|284:256|220:220|212:292,1,275,0|4,0:0|3:3,0:0:0:0:
112,180,352870,2,0,B|104:144|76:124|76:124|24:124|-16:104|-16:104|0:176|64:140|72:212,1,275,4|4,3:3|3:3,0:0:0:0:
16,300,353170,1,4,3:3:0:0:
16,300,353270,1,4,3:3:0:0:
16,300,353370,6,0,B|60:311|88:348|88:348|123:324|124:280|124:280|160:300|188:292|188:292|224:268,1,275,0|4,0:0|3:3,0:0:0:0:
256,148,353670,2,0,B|240:140|240:140|228:124|221:109|221:109|216:84|216:84|208:120|208:120|203:132|200:164|212:186|212:186|268:188|312:236|312:236,1,275,4|4,3:3|3:3,0:0:0:0:
367,352,353970,1,4,3:3:0:0:
367,352,354070,1,12,3:3:0:0:
367,352,354170,6,0,B|383:312|371:296|371:296|379:292|419:288|419:288|395:256|395:256|375:212|375:212|415:192|419:144,1,275,4|4,3:3|3:3,0:0:0:0:
371,81,354470,2,0,B|345:97|345:97|307:97|307:97|307:145|307:145|335:197|335:197|371:189|371:189|395:177|395:177|423:145|423:145,1,275,4|4,3:3|3:3,0:0:0:0:
454,67,354770,1,4,3:3:0:0:
272,37,354870,6,0,B|313:36|313:36|338:31|338:31|376:17|376:17|376:21|389:65|389:65|408:89|408:89|427:106|427:106|384:77|340:77,1,275,0|4,0:0|3:3,0:0:0:0:
200,84,355170,1,0,0:0:0:0:
296,224,355270,2,0,B|255:225|255:225|230:230|230:230|192:244|192:244|192:240|179:196|179:196|160:172|160:172|141:155|141:155|184:184|228:184,1,275,4|4,3:3|3:3,0:0:0:0:
96,228,355570,1,4,3:3:0:0:
96,228,355670,5,12,3:3:0:0:
96,228,355770,2,0,B|51:197|36:166|36:166|51:229|31:292|31:292|32:312|32:312|68:264,1,275,0|4,0:0|3:3,0:0:0:0:
12,76,356070,2,0,B|60:72|60:72|100:92|100:92|120:116|124:144|124:144|156:168|156:168|208:184|272:152,1,275,4|4,3:3|3:3,0:0:0:0:
284,60,356370,1,4,3:3:0:0:
284,60,356470,6,0,B|275:70|275:91|275:91|292:94|307:111|307:111|312:137|330:169|330:169|324:183,2,137.5,14|4|0,3:3|3:3|0:0,0:0:0:0:
508,272,356770,2,0,B|497:280|476:280|476:280|473:263|456:248|456:248|430:243|398:225|398:225|384:231,2,137.5,4|4|0,3:3|3:3|0:0,0:0:0:0:
320,264,357070,1,4,3:3:0:0:
320,264,357170,1,4,3:3:0:0:
424,84,357270,5,12,3:3:0:0:
220,120,357370,2,0,B|208:100|213:81|213:81|209:59|197:35|197:35|226:63|226:63|267:82|267:82|288:108|288:108|295:131|295:131|313:158|329:191,1,275,0|4,0:0|3:3,0:0:0:0:
422,298,357670,2,0,B|443:292|453:274|453:274|472:262|498:254|498:254|456:253|456:253|414:238|414:238|381:241|381:241|360:253|360:253|328:259|294:271,1,275,4|4,3:3|3:3,0:0:0:0:
184,312,357970,2,0,B|156:280|168:252|168:252|172:236|172:236|216:228|228:192|228:192|212:173|212:173|204:144|204:144|190:180|204:208,1,275,4|4,3:3|3:3,0:0:0:0:
200,324,358270,1,4,3:3:0:0:
200,324,358470,5,4,3:3:0:0:
149,383,358570,1,4,3:3:0:0:
72,368,358670,1,4,3:3:0:0:
44,294,358770,1,4,3:3:0:0:
166,238,358870,6,0,B|231:244|231:244|192:270|192:270|169:293|169:293|144:295|106:293|106:293|76:282|76:282|-4:308|-4:308,1,275,12|0,3:3|0:0,0:0:0:0:
42,293,359170,1,4,3:3:0:0:
28,158,359270,2,0,B|-10:104|-10:104|-13:151|-13:151|-21:182|-21:182|-11:205|9:236|9:236|34:257|34:257|51:340|51:340,1,275,4|4,3:3|3:3,0:0:0:0:
41,292,359570,1,4,3:3:0:0:
124,152,359670,5,12,3:3:0:0:
124,152,359770,2,0,B|155:129|200:130|200:130|226:154|222:186|222:186|262:205|256:199|256:199|280:223|280:223|327:227|382:221,1,275,4|4,3:3|3:3,0:0:0:0:
380,104,360070,2,0,B|341:100|303:123|303:123|292:157|312:183|312:183|286:219|289:211|289:211|280:244|280:244|241:270|190:293,1,275,4|4,3:3|3:3,0:0:0:0:
152,312,360370,1,4,3:3:0:0:
152,312,360470,1,12,3:3:0:0:
152,312,360570,6,0,B|183:303|183:303|208:304|208:304|240:304|240:304|268:320|268:320|288:336|288:336|312:348|312:348|347:350|347:350|364:344|364:344|432:332,1,275,4|4,3:3|3:3,0:0:0:0:
472,284,360870,2,0,B|488:300|488:300|496:316|496:316|500:316|500:316|500:328|500:328|496:344|496:344|492:368|492:368|504:352|504:352|520:332|520:332|516:304|516:304|512:280|512:280|504:268|504:268|504:268|496:248|496:248|464:216|464:216,1,275,4|4,3:3|3:3,0:0:0:0:
336,252,361170,6,0,B|324:228|324:228|320:200|320:200|300:164|300:164|284:128|284:128|311:99|311:99|328:62|328:62|353:39|353:39|392:20,1,275,4|4,3:3|3:3,0:0:0:0:
404,152,361470,2,0,B|352:148|352:148|308:140|308:140|264:140|264:140|236:128|236:128|200:124|200:124|160:124|160:124|124:120,1,275,4|4,3:3|3:3,0:0:0:0:
40,112,361770,1,4,3:3:0:0:
40,112,361870,1,4,3:3:0:0:
36,204,361970,1,4,3:3:0:0:
40,16,362070,6,0,B|16:25|16:25|-4:36|-4:36|-35:41|-35:41|8:62|8:62|33:67|33:67|49:68|49:68|66:82|66:82|88:40|148:44,1,275,12|0,3:3|0:0,0:0:0:0:
140,128,362370,1,4,3:3:0:0:
236,156,362470,2,0,B|259:146|259:146|280:135|280:135|311:130|311:130|267:109|267:109|242:104|242:104|226:103|226:103|209:89|209:89|188:132|128:128,1,275,4|4,3:3|3:3,0:0:0:0:
232,168,362770,1,4,3:3:0:0:
340,48,362870,5,14,3:3:0:0:
340,48,362970,2,0,B|368:80|368:80|376:104|376:104|371:136|371:136|312:168|299:229|299:229|304:244|304:244|304:256|304:256|312:332,1,275,4|4,3:3|3:3,0:0:0:0:
380,364,363270,2,0,B|363:362|342:339|342:339|324:331|300:337|300:337|278:239|178:239|131:273,1,275,8|4,3:3|3:3,0:0:0:0:
77,339,363570,1,4,3:3:0:0:
77,339,363670,1,4,3:3:0:0:
77,339,363770,6,0,B|57:319|57:319|45:299|45:299|39:272|39:272|53:251|53:251|69:227|69:227|73:195|73:195|117:207|157:231|169:299,1,275,4|4,3:3|3:3,0:0:0:0:
186,369,364070,2,0,B|212:361|212:361|233:350|233:350|251:330|251:330|250:304|250:304|248:276|248:276|261:246|261:246|217:234|170:235|126:288,1,275,8|4,3:3|3:3,0:0:0:0:
280,316,364370,6,0,B|318:327|318:327|354:323|354:323|386:311|386:311|405:273|405:273|422:251|422:251|454:235|454:235|490:227|490:227|558:235,1,275,4|4,3:3|3:3,0:0:0:0:
504,328,364670,2,0,B|465:335|465:335|429:328|429:328|398:313|398:313|383:274|383:274|368:250|368:250|337:232|337:232|302:221|302:221|234:223,1,275,4|8,3:3|3:3,0:0:0:0:
192,256,364970,5,4,3:3:0:0:
192,256,365070,1,4,3:3:0:0:
204,168,365170,1,4,3:3:0:0:
220,80,365270,1,4,3:3:0:0:
192,256,365370,6,0,B|186:280|186:280|164:294|164:294|136:304|136:304|116:296|116:296|104:280|92:276|92:276|44:264|44:264|12:240|12:240|44:248|44:248|80:252,1,275,4|4,3:3|3:3,0:0:0:0:
44,348,365670,2,0,B|48:312|48:312|84:268|84:268|93:211|52:168|52:168|57:129|57:129|92:64,1,275,8|4,3:3|3:3,0:0:0:0:
112,28,365970,1,4,3:3:0:0:
112,28,366070,1,4,3:3:0:0:
296,70,366170,6,0,B|312:60|312:60|316:48|316:48|328:32|328:32|328:20|328:20|328:8|328:8|320:-26|320:-26|264:-8|264:-8|248:8|248:8|232:28|232:28|220:52|220:52|216:72|216:72|216:96,1,275,4|4,3:3|3:3,0:0:0:0:
184,176,366470,2,0,B|212:160|212:160|235:156|235:156|263:144|263:144|282:170|310:186|310:186|352:180|352:180|387:192|387:192|432:228|432:228,1,275,8|4,3:3|3:3,0:0:0:0:
244,344,366770,1,4,3:3:0:0:
244,344,366870,1,4,3:3:0:0:
244,344,366970,6,0,B|224:316|224:316|208:268|208:268|240:244|240:244|268:228|300:204|300:204|340:252|340:252|352:284|352:284|328:316,1,275,4|4,3:3|3:3,0:0:0:0:
422,220,367270,2,0,B|372:220|372:220|328:240|328:240|280:248|280:248|256:248|256:248|236:264|236:264|178:262|138:272,1,275,8|4,3:3|3:3,0:0:0:0:
44,152,367570,6,0,B|47:115|18:75|18:75|36:84|36:84|80:96|80:96|112:124|152:140|168:192,1,275,4|4,3:3|3:3,0:0:0:0:
124,344,367870,2,0,B|139:310|184:290|184:290|164:289|164:289|120:277|120:277|78:285|40:280|32:280|32:280|45:296|52:316,1,275,4|8,3:3|3:3,0:0:0:0:
132,356,368170,5,4,3:3:0:0:
184,272,368270,1,4,3:3:0:0:
236,184,368370,1,4,3:3:0:0:
184,104,368470,1,4,3:3:0:0:
184,104,368570,6,0,B|165:136|165:136|160:164|160:164|152:184|152:184|144:192|144:192|136:212|136:212|172:192|172:192|220:204|220:204|252:208|252:208|312:196|308:196,1,275,4|4,3:3|3:3,0:0:0:0:
400,72,368870,2,0,B|381:39|381:39|360:21|360:21|346:4|346:4|343:-7|343:-7|330:-23|330:-23|329:17|329:17|295:53|295:53|275:78|275:78|256:136|258:133,1,275,8|4,3:3|3:3,0:0:0:0:
368,288,369170,1,4,3:3:0:0:
452,252,369270,5,6,3:3:0:0:
413,213,369370,1,4,3:3:0:0:
360,202,369470,1,4,3:3:0:0:
310,222,369570,1,4,3:3:0:0:
279,267,369670,1,4,3:3:0:0:
237,302,369770,1,4,3:3:0:0:
184,312,369870,1,4,3:3:0:0:
133,295,369970,1,4,3:3:0:0:
97,254,370070,6,0,B|113:241|124:220|124:220|153:209|192:223,1,115.49999647522,12|4,3:3|3:3,0:0:0:0:
320,68,370270,2,0,B|323:64|300:76|276:75|276:75|253:94|245:135,1,115.49999647522,4|4,3:3|3:3,0:0:0:0:
0,168,370470,2,0,B|-5:169|16:155|27:134|27:134|56:123|95:137,1,115.49999647522,4|4,3:3|3:3,0:0:0:0:
216,0,370670,2,0,B|219:-4|196:8|172:7|172:7|149:26|141:67,1,115.49999647522,4|4,3:3|3:3,0:0:0:0:
147,187,370870,5,6,3:3:0:0:
190,222,370970,1,4,3:3:0:0:
247,229,371070,1,4,3:3:0:0:
298,205,371170,1,4,3:3:0:0:
328,157,371270,1,4,3:3:0:0:
329,100,371370,1,4,3:3:0:0:
298,52,371470,1,4,3:3:0:0:
247,28,371570,1,4,3:3:0:0:
192,36,371670,6,0,B|218:93|218:93|226:97|226:97|246:141,1,115.49999647522,12|4,3:3|3:3,0:0:0:0:
412,80,371870,2,0,B|363:119|363:119|361:128|361:128|324:159,1,115.49999647522,4|4,3:3|3:3,0:0:0:0:
80,160,372070,2,0,B|138:181|138:181|147:179|147:179|192:196,1,115.49999647522,4|4,3:3|3:3,0:0:0:0:
472,240,372270,2,0,B|409:234|409:234|402:238|402:238|354:234,1,115.49999647522,4|4,3:3|3:3,0:0:0:0:
196,336,372470,5,6,3:3:0:0:
158,275,372570,1,4,3:3:0:0:
166,205,372670,1,4,3:3:0:0:
216,154,372770,1,4,3:3:0:0:
286,145,372870,1,4,3:3:0:0:
347,181,372970,1,4,3:3:0:0:
373,247,373070,1,4,3:3:0:0:
352,315,373170,1,4,3:3:0:0:
294,356,373270,6,0,P|268:324|264:240,1,115.49999647522,12|4,3:3|3:3,0:0:0:0:
419,99,373470,2,0,P|404:138|333:183,1,115.49999647522,4|4,3:3|3:3,0:0:0:0:
128,112,373670,2,0,P|169:105|244:143,1,115.49999647522,4|4,3:3|3:3,0:0:0:0:
294,356,373870,2,0,P|268:324|264:240,1,115.49999647522,4|4,3:3|3:3,0:0:0:0:
324,96,374070,5,6,3:3:0:0:
255,147,374170,1,4,3:3:0:0:
187,199,374270,1,4,3:3:0:0:
119,250,374370,1,4,3:3:0:0:
51,301,374470,5,12,3:3:0:0:
56,280,374570,1,4,3:3:0:0:
61,259,374670,1,4,3:3:0:0:
66,238,374770,1,12,3:3:0:0:
35,186,374870,6,0,L|51:302,1,115.49999647522,4|12,3:3|3:3,0:0:0:0:
151,246,375070,1,12,3:3:0:0:
222,155,375170,2,0,L|151:248,1,115.49999647522,12|6,3:3|3:3,0:0:0:0:
224,336,375370,1,4,3:3:0:0:
339,322,375470,2,0,L|223:337,1,115.49999647522,4|4,3:3|3:3,0:0:0:0:
60,44,375670,6,0,B|74:-61|249:-36|230:61|149:60|149:60|157:88|182:109|182:109|56:92|16:188|16:188|83:174|83:174|167:259|262:202|262:202|321:239|321:239|246:156|294:63|294:63|296:35|296:35|321:53|321:53|457:89|430:196|430:196|385:184|367:165|367:165|386:192|386:192|383:204|391:203|396:219|396:219|402:223|410:238|410:238|427:237|427:237|446:243|451:254|451:254|449:274|449:274|453:286|471:297|471:297|484:310|484:310|288:232|338:429|429:361,1,1847.99994360352,8|0,3:3|0:0,0:0:0:0:
352,368,404470,6,0,B|360:328|328:304|328:304|304:260|333:213|333:213|344:216|344:216|300:180|292:88|368:32|464:88|488:100|488:100|444:112|448:160|392:156,1,577.499982376099,14|0,3:3|0:0,0:0:0:0:
398,156,406390,6,0,L|328:146,1,68.75,6|4,3:3|3:3,0:0:0:0:
136,48,406510,2,0,B|180:20|180:20|268:64,1,137.5,8|4,3:3|3:3,0:0:0:0:
112,212,406750,2,0,B|65:187|65:187|59:89,1,137.5,8|4,3:3|3:3,0:0:0:0:
64,296,406990,1,8,3:3:0:0:
64,296,407110,5,4,3:3:0:0:
194,201,407230,1,8,3:3:0:0:
228,348,407350,2,0,L|212:280,1,68.75,4|4,3:3|3:3,0:0:0:0:
176,116,407470,2,0,B|235:126|235:126|252:121|252:121|315:132,1,137.5,8|4,3:3|3:3,0:0:0:0:
444,144,407710,1,8,3:3:0:0:
356,252,407830,6,0,L|372:184,1,68.75,4|4,3:3|3:3,0:0:0:0:
448,44,407950,2,0,B|388:54|388:54|371:49|371:49|308:60,1,137.5,8|4,3:3|3:3,0:0:0:0:
236,16,408190,1,8,3:3:0:0:
236,16,408310,5,6,3:3:0:0:
276,176,408430,1,8,3:3:0:0:
320,56,408550,1,4,3:3:0:0:
188,216,408670,1,8,3:3:0:0:
56,68,408790,2,0,B|68:73|88:69|88:69|126:73|160:95|160:95|176:88|197:93,1,137.5,4|8,3:3|3:3,0:0:0:0:
16,208,409030,1,4,3:3:0:0:
16,208,409150,1,8,3:3:0:0:
0,128,409270,6,0,B|-1:142|7:148|7:148|4:164|0:176|0:176|7:199,1,68.75,4|4,3:3|3:3,0:0:0:0:
12,312,409390,2,0,B|52:288|52:288|152:304,1,137.5,8|4,3:3|3:3,0:0:0:0:
248,304,409630,1,8,3:3:0:0:
268,384,409750,2,0,B|262:377|254:363|254:363|258:354|264:340|264:340|254:330|254:310,1,68.75,4|4,3:3|3:3,0:0:0:0:
232,216,409870,5,8,3:3:0:0:
320,252,409990,1,4,3:3:0:0:
320,252,410110,1,8,3:3:0:0:
440,148,410230,2,0,B|404:152|368:116|368:116|334:128|305:157|305:157|272:128|200:124,1,206.25,6|0,3:3|0:0,0:0:0:0:
184,136,410470,5,4,3:3:0:0:
232,216,410590,1,8,3:3:0:0:
220,56,410710,1,4,3:3:0:0:
96,144,410830,1,8,3:3:0:0:
0,52,410950,2,0,B|67:52|67:52|75:56|75:56|144:56,1,137.5,4|8,3:3|3:3,0:0:0:0:
249,131,411190,2,0,B|224:136|224:136|217:130|217:130|180:135,1,68.75,4|4,3:3|3:3,0:0:0:0:
150,211,411310,6,0,B|144:143|144:143|139:135|139:135|133:67,1,137.5,8|4,3:3|3:3,0:0:0:0:
128,0,411550,1,8,3:3:0:0:
0,160,411670,2,0,L|99:186,1,68.75,4|4,3:3|3:3,0:0:0:0:
232,220,411790,1,8,3:3:0:0:
128,296,411910,1,4,3:3:0:0:
128,296,412030,1,8,3:3:0:0:
353,226,412150,6,0,B|292:191|292:191|225:222,1,137.5,6|8,3:3|3:3,0:0:0:0:
368,132,412390,1,4,3:3:0:0:
396,344,412510,2,0,B|456:308|456:308|463:235,1,137.5,8|4,3:3|3:3,0:0:0:0:
464,136,412750,1,8,3:3:0:0:
353,227,412870,1,4,3:3:0:0:
472,148,412990,1,8,3:3:0:0:
208,72,413110,6,0,L|216:0,2,68.75,6|4|8,3:3|3:3|3:3,0:0:0:0:
312,48,413350,2,0,L|378:18,2,68.75,4|4|8,3:3|3:3|3:3,0:0:0:0:
168,228,413590,2,0,L|160:156,2,68.75,4|4|8,3:3|3:3|3:3,0:0:0:0:
64,204,413830,2,0,L|-2:174,2,68.75,4|4|8,3:3|3:3|3:3,0:0:0:0:
196,344,414070,6,0,B|240:316|296:328|296:328|316:376|388:384,1,206.25,6|0,3:3|0:0,0:0:0:0:
496,260,414310,2,0,B|420:248|420:248|368:308,1,137.5,4|8,3:3|3:3,0:0:0:0:
400,168,414550,1,4,3:3:0:0:
448,332,414670,1,8,3:3:0:0:
492,120,414790,1,4,3:3:0:0:
492,120,414910,1,8,3:3:0:0:
428,32,415030,5,4,3:3:0:0:
410,34,415090,1,4,3:3:0:0:
393,36,415150,1,8,3:3:0:0:
376,38,415210,1,0,0:0:0:0:
352,56,415270,1,4,3:3:0:0:
400,168,415390,1,8,3:3:0:0:
260,88,415510,5,4,3:3:0:0:
264,48,415570,1,4,3:3:0:0:
268,5,415630,1,8,3:3:0:0:
316,164,415750,2,0,B|242:177|242:177|174:131,1,137.5,4|8,3:3|3:3,0:0:0:0:
128,280,415990,6,0,B|156:277|156:277|160:272|160:272|200:268,1,68.75,6|4,3:3|3:3,0:0:0:0:
288,248,416110,2,0,B|282:311|282:311|285:321|285:321|279:391,1,137.5,8|4,3:3|3:3,0:0:0:0:
220,192,416350,1,8,3:3:0:0:
392,312,416470,6,0,B|397:249|397:249|394:239|394:239|400:169,1,137.5,4|8,3:3|3:3,0:0:0:0:
412,96,416710,1,4,3:3:0:0:
412,96,416830,1,8,3:3:0:0:
248,48,416950,6,0,B|273:51|273:51|315:41,1,68.75,4|4,3:3|3:3,0:0:0:0:
388,16,417070,1,8,3:3:0:0:
196,124,417190,2,0,B|152:64|152:64|176:4,1,137.5,4|8,3:3|3:3,0:0:0:0:
144,196,417430,6,0,B|118:199|118:199|76:189,1,68.75,4|4,3:3|3:3,0:0:0:0:
0,164,417550,1,8,3:3:0:0:
196,124,417670,2,0,B|240:184|240:184|216:244,1,137.5,4|8,3:3|3:3,0:0:0:0:
92,316,417910,2,0,B|122:302|132:284|132:284|168:316|168:316|232:348|280:308,1,206.25,4|0,3:3|0:0,0:0:0:0:
333,250,418150,5,4,3:3:0:0:
352,364,418270,1,8,3:3:0:0:
216,242,418390,2,0,B|272:211|272:211|333:250,1,137.5,4|8,3:3|3:3,0:0:0:0:
428,308,418630,1,4,3:3:0:0:
428,308,418750,1,8,3:3:0:0:
400,108,418870,6,0,L|392:36,2,68.75,4|4|8,3:3|3:3|3:3,0:0:0:0:
412,208,419110,1,4,3:3:0:0:
412,208,419230,1,8,3:3:0:0:
296,68,419350,2,0,L|304:-4,2,68.75,4|4|8,3:3|3:3|3:3,0:0:0:0:
280,184,419590,1,4,3:3:0:0:
280,184,419710,1,8,3:3:0:0:
192,140,419830,5,4,3:3:0:0:
400,108,419950,1,10,3:3:0:0:
280,184,420070,1,4,3:3:0:0:
169,21,420190,2,0,B|212:74|212:74|188:145,1,137.5,10|4,3:3|3:3,0:0:0:0:
40,168,420430,2,0,B|-3:114|-3:114|20:43,1,137.5,10|4,3:3|3:3,0:0:0:0:
136,216,420670,1,10,3:3:0:0:
136,216,420790,5,4,3:3:0:0:
174,237,420850,1,4,3:3:0:0:
218,238,420910,1,8,3:3:0:0:
257,219,420970,1,0,0:0:0:0:
280,184,421030,2,0,B|288:152|288:152|276:112,3,68.75,4|4|8|0,3:3|3:3|3:3|0:0,0:0:0:0:
372,260,421270,2,0,B|403:250|403:250|432:220,1,68.75,4|4,3:3|3:3,0:0:0:0:
468,134,421390,1,8,3:3:0:0:
468,134,421450,1,8,3:3:0:0:
468,134,421510,6,0,B|415:120|372:162|372:162|336:202|279:183,1,206.25,4|0,3:3|0:0,0:0:0:0:
248,64,421750,1,6,3:3:0:0:
287,71,421810,1,4,3:3:0:0:
309,104,421870,1,8,3:3:0:0:
180,108,421990,1,4,3:3:0:0:
204,0,422110,1,8,3:3:0:0:
220,188,422230,6,0,B|152:200|152:200|88:140,1,137.5,4|8,3:3|3:3,0:0:0:0:
52,80,422470,1,4,3:3:0:0:
52,80,422590,1,8,3:3:0:0:
12,256,422710,6,0,L|88:236,1,68.75,4|4,3:3|3:3,0:0:0:0:
232,200,422830,1,8,3:3:0:0:
140,316,422950,1,4,3:3:0:0:
140,316,423070,1,8,3:3:0:0:
306,228,423190,6,0,L|230:208,1,68.75,4|4,3:3|3:3,0:0:0:0:
144,184,423310,1,8,3:3:0:0:
268,312,423430,1,4,3:3:0:0:
268,312,423550,1,8,3:3:0:0:
360,152,423670,6,0,L|352:84,2,68.75,6|4|8,3:3|3:3|3:3,0:0:0:0:
376,296,423910,1,4,3:3:0:0:
452,156,424030,1,8,3:3:0:0:
376,296,424150,2,0,L|240:260,1,137.5,4|8,3:3|3:3,0:0:0:0:
72,176,424390,2,0,L|208:140,1,137.5,4|8,3:3|3:3,0:0:0:0:
68,95,424630,6,0,L|62:162,1,68.75,4|4,3:3|3:3,0:0:0:0:
48,260,424750,1,8,3:3:0:0:
136,28,424870,2,0,B|68:-4|68:-4|0:23,1,137.5,4|8,3:3|3:3,0:0:0:0:
0,101,425110,6,0,L|67:95,1,68.75,4|4,3:3|3:3,0:0:0:0:
208,88,425230,1,8,3:3:0:0:
208,88,425350,2,0,B|196:123|152:120|152:120|216:120|200:180|276:176,1,206.25,4|0,3:3|0:0,0:0:0:0:
364,56,425590,6,0,L|348:128,2,68.75,6|4|8,3:3|3:3|3:3,0:0:0:0:
328,240,425830,1,4,3:3:0:0:
328,240,425950,1,8,3:3:0:0:
428,180,426070,1,4,3:3:0:0:
432,352,426190,1,8,3:3:0:0:
432,352,426310,2,0,B|448:300|408:256|408:256|448:300|508:284,1,206.25,4|0,3:3|0:0,0:0:0:0:
340,332,426550,6,0,L|256:344,2,68.75,4|4|8,3:3|3:3|3:3,0:0:0:0:
240,252,426790,1,4,3:3:0:0:
240,252,426910,1,8,3:3:0:0:
100,372,427030,6,0,L|184:384,2,68.75,4|4|8,3:3|3:3|3:3,0:0:0:0:
152,284,427270,1,4,3:3:0:0:
152,284,427390,1,8,3:3:0:0:
20,172,427510,6,0,L|88:184,1,68.75,6|4,3:3|3:3,0:0:0:0:
168,196,427630,1,8,3:3:0:0:
36,260,427750,1,4,3:3:0:0:
36,260,427870,1,8,3:3:0:0:
8,92,427990,2,0,L|152:116,1,137.5,4|8,3:3|3:3,0:0:0:0:
268,144,428230,2,0,B|268:84|224:52|224:52|256:100|240:164,1,206.25,4|0,3:3|0:0,0:0:0:0:
180,248,428470,5,4,3:3:0:0:
190,247,428530,1,4,3:3:0:0:
201,246,428590,1,8,3:3:0:0:
213,245,428650,1,0,0:0:0:0:
224,244,428710,1,4,3:3:0:0:
236,243,428770,1,4,3:3:0:0:
260,228,428830,6,0,B|304:232|324:256|324:256|284:272|276:320,1,137.5,8|4,3:3|3:3,0:0:0:0:
292,332,429010,1,4,3:3:0:0:
292,332,429070,1,8,3:3:0:0:
428,256,429190,2,0,L|420:325,2,68.75,4|4|8,3:3|3:3|3:3,0:0:0:0:
376,168,429430,5,6,3:3:0:0:
326,162,429490,1,4,3:3:0:0:
277,157,429550,1,8,3:3:0:0:
180,184,429670,1,4,3:3:0:0:
180,184,429790,1,8,3:3:0:0:
208,64,429910,1,4,3:3:0:0:
167,195,430030,1,8,3:3:0:0:
4,92,430150,6,0,B|71:101|71:101|75:106|75:106|146:116,1,137.5,4|8,3:3|3:3,0:0:0:0:
80,264,430390,1,4,3:3:0:0:
77,229,430450,1,4,3:3:0:0:
74,195,430510,1,8,3:3:0:0:
302,172,430630,6,0,B|234:181|234:181|230:186|230:186|159:196,1,137.5,4|8,3:3|3:3,0:0:0:0:
224,352,430870,1,4,3:3:0:0:
226,317,430930,1,4,3:3:0:0:
229,283,430990,1,8,3:3:0:0:
236,376,431110,2,0,B|292:372|292:372|304:368|304:368|380:364,1,137.5,4|8,3:3|3:3,0:0:0:0:
400,168,431350,2,0,P|328:195|305:280,1,137.5,6|8,3:3|3:3,0:0:0:0:
500,320,431590,6,0,P|511:244|449:182,1,137.5,4|8,3:3|3:3,0:0:0:0:
375,42,431830,2,0,P|365:105|401:168,1,137.5,4|8,3:3|3:3,0:0:0:0:
448,92,432070,1,4,3:3:0:0:
302,172,432190,2,0,L|164:152,1,137.5,8|4,3:3|3:3,0:0:0:0:
188,184,432370,1,4,3:3:0:0:
188,184,432430,1,8,3:3:0:0:
8,92,432550,6,0,B|44:92|72:116|72:116|92:152|84:192,1,137.5,4|8,3:3|3:3,0:0:0:0:
72,280,432790,1,4,3:3:0:0:
106,271,432850,1,4,3:3:0:0:
139,265,432910,1,8,3:3:0:0:
130,381,433030,2,0,B|104:355|101:318|101:318|113:279|146:256,1,137.5,4|8,3:3|3:3,0:0:0:0:
260,344,433270,5,6,3:3:0:0:
226,335,433330,1,4,3:3:0:0:
193,329,433390,1,8,3:3:0:0:
328,292,433510,1,4,3:3:0:0:
340,384,433630,1,8,3:3:0:0:
260,224,433750,2,0,B|316:192|316:192|400:224,1,137.5,4|8,3:3|3:3,0:0:0:0:
480,100,433990,6,0,L|336:116,1,137.5,4|8,3:3|3:3,0:0:0:0:
500,248,434230,1,4,3:3:0:0:
505,214,434290,1,4,3:3:0:0:
510,180,434350,1,8,3:3:0:0:
459,331,434470,2,0,L|320:289,1,137.5,4|8,3:3|3:3,0:0:0:0:
232,240,434710,5,4,3:3:0:0:
240,277,434770,1,4,3:3:0:0:
244,311,434830,1,8,3:3:0:0:
168,188,434950,2,0,B|228:147|228:147|295:180,1,137.5,4|8,3:3|3:3,0:0:0:0:
76,64,435190,6,0,L|4:28,2,68.75,4|4|10,3:3|3:3|3:3,0:0:0:0:
152,36,435430,1,4,3:3:0:0:
24,128,435550,1,10,3:3:0:0:
156,52,435670,1,4,3:3:0:0:
84,188,435790,1,10,3:3:0:0:
172,64,435910,1,4,3:3:0:0:
168,212,436030,1,10,3:3:0:0:
104,156,436150,5,4,3:3:0:0:
147,131,436210,1,4,3:3:0:0:
198,137,436270,1,8,3:3:0:0:
237,169,436330,1,0,0:0:0:0:
252,217,436390,2,0,L|319:203,3,68.75,4|0|4|4,3:3|0:0|3:3|3:3,0:0:0:0:
196,304,436630,2,0,L|128:290,3,68.75,4|4|8|8,3:3|3:3|3:3|3:3,0:0:0:0:
303,123,436870,6,0,P|303:87|287:50,2,68.75,4|4|8,3:3|3:3|3:3,0:0:0:0:
28,48,444790,5,4,3:3:0:0:
40,128,444910,1,4,3:3:0:0:
52,208,445030,2,0,P|134:189|201:245,1,173.24999471283,4|0,3:3|0:0,0:0:0:0:
80,360,445270,2,0,B|59:299|120:269|120:269|93:295|100:329|100:329,1,173.24999471283,8|0,3:3|0:0,0:0:0:0:
180,324,445510,2,0,L|356:348,1,173.24999471283
432,360,445750,5,0,0:0:0:0:
404,280,445870,1,0,0:0:0:0:
432,200,445990,1,4,3:3:0:0:
404,120,446110,1,0,0:0:0:0:
448,352,446230,5,8,3:3:0:0:
328,96,446470,1,0,0:0:0:0:
179,79,446710,2,0,B|223:91|251:127|251:127|279:95|335:95,1,173.24999471283,4|0,3:3|0:0,0:0:0:0:
328,184,446950,1,0,0:0:0:0:
328,184,447070,1,4,3:3:0:0:
168,284,447190,2,0,L|178:160,2,115.49999647522,8|0|0,3:3|0:0|0:0,0:0:0:0:
164,376,447550,1,4,3:3:0:0:
56,299,447670,6,0,P|132:299|180:275,1,115.49999647522
88,212,447910,1,4,3:3:0:0:
0,144,448030,2,0,P|65:182|95:226,1,115.49999647522,0|8,0:0|3:3,0:0:0:0:
0,236,448270,1,0,0:0:0:0:
36,64,448390,1,4,3:3:0:0:
40,68,448510,1,0,0:0:0:0:
104,8,448630,5,4,3:3:0:0:
48,84,448750,1,4,3:3:0:0:
184,172,448870,1,4,3:3:0:0:
88,213,448990,1,4,3:3:0:0:
144,80,449110,5,4,3:3:0:0:
176,260,449230,1,4,3:3:0:0:
292,120,449350,1,4,3:3:0:0:
192,160,449470,1,4,3:3:0:0:
328,216,449590,5,4,3:3:0:0:
304,112,449710,1,4,3:3:0:0:
268,268,449830,1,4,3:3:0:0:
224,64,449950,1,4,3:3:0:0:
456,228,450070,5,4,3:3:0:0:
268,280,450190,1,4,3:3:0:0:
384,164,450310,1,4,3:3:0:0:
328,348,450430,1,4,3:3:0:0:
492,240,450550,2,0,B|400:252|400:252|344:240|344:240|228:260,1,255.750001951218,2|0,3:3|0:0,0:0:0:0:
144,300,450790,5,4,3:3:0:0:
144,300,450870,2,0,L|152:208,1,91.6666666666667
240,176,451030,1,4,3:3:0:0:
240,176,451110,2,0,L|231:84,1,91.6666666666667
52,92,451270,1,4,3:3:0:0:
52,92,451350,2,0,L|43:0,1,91.6666666666667
60,244,451510,5,6,3:3:0:0:
60,244,452230,2,0,B|63:236|56:220|56:220|56:207|60:188|60:188|56:164,1,66
0,344,452470,6,0,P|97:263|221:235,1,255.750001951218,12|0,1:3|0:0,0:0:0:0:
292,304,452710,2,0,P|248:236|252:140,1,170.500001300812,8|4,2:3|3:3,0:0:0:0:
272,60,452950,1,12,2:3:0:0:
272,60,453070,1,4,3:3:0:0:
164,112,453190,1,8,2:3:0:0:
348,208,453310,1,4,3:3:0:0:
440,140,453430,5,8,2:3:0:0:
416,252,453550,1,4,2:3:0:0:
392,364,453670,1,8,2:3:0:0:
213,239,453790,2,0,P|301:169|456:140,1,255.750001951218,4|0,2:3|0:0,0:0:0:0:
327,46,454030,2,0,P|359:126|343:218,1,170.500001300812,4|8,2:3|3:3,0:0:0:0:
296,284,454270,1,4,2:3:0:0:
204,148,454390,5,8,2:3:0:0:
288,296,454510,1,4,3:3:0:0:
120,248,454630,1,8,2:3:0:0:
208,160,454750,1,4,3:3:0:0:
200,332,454870,2,0,B|145:320|145:320|116:287|116:287|45:274,1,170.500001300812,12|4,2:3|3:3,0:0:0:0:
68,368,455110,1,8,2:3:0:0:
68,368,455230,1,4,3:3:0:0:
18,128,455350,6,0,P|103:158|119:247,1,189.750003619194,10|0,2:3|0:0,0:0:0:0:
7,217,455590,2,0,B|119:245|79:125|215:161,1,222.750000849724,10|0,2:3|0:0,0:0:0:0:
252,228,455830,2,0,P|232:152|284:44,1,189.750003619194,14|0,2:3|0:0,0:0:0:0:
392,132,456070,2,0,B|376:112|340:100|340:100|304:156|332:200,1,156.749995814324,10|0,2:3|0:0,0:0:0:0:
344,272,456310,5,10,2:3:0:0:
164,236,456430,1,4,2:3:0:0:
340,296,456550,1,8,2:3:0:0:
168,136,456670,2,0,B|120:152|92:184|92:184|76:228|85:262,1,170.500001300812,4|12,2:3|3:3,0:0:0:0:
100,340,456910,1,4,3:3:0:0:
0,252,457030,1,8,2:3:0:0:
120,336,457150,1,4,3:3:0:0:
12,136,457270,6,0,B|184:108|184:108|136:120|108:144,1,255.750001951218,8|0,2:3|0:0,0:0:0:0:
79,210,457510,1,8,2:3:0:0:
280,104,457630,2,0,B|108:76|108:76|156:88|184:112,1,255.750001951218,4|0,2:3|0:0,0:0:0:0:
228,184,457870,1,4,3:3:0:0:
164,256,457990,2,0,B|292:192|292:192|264:268,1,206.25,8|0,2:3|0:0,0:0:0:0:
256,336,458230,5,8,2:3:0:0:
228,184,458350,1,4,3:3:0:0:
380,200,458470,1,8,2:3:0:0:
347,319,458590,1,4,2:3:0:0:
305,136,458710,2,0,B|320:104|361:100|361:100|348:158|385:208,1,170.500001300812,12|4,3:3|3:3,0:0:0:0:
500,76,458950,2,0,B|464:52|444:20|444:20|465:88|448:144|448:144|464:112|496:100,1,255.750001951218,8|0,2:3|0:0,0:0:0:0:
512,92,459190,5,8,2:3:0:0:
372,220,459310,1,4,3:3:0:0:
224,100,459430,1,8,2:3:0:0:
336,28,459550,5,4,2:3:0:0:
220,116,459670,1,8,3:3:0:0:
108,32,459790,5,4,2:3:0:0:
176,220,459910,1,8,2:3:0:0:
100,48,460030,1,4,2:3:0:0:
12,228,460150,6,0,L|159:243,1,148.500000566483,10|4,3:3|3:3,0:0:0:0:
255,248,460390,1,8,2:3:0:0:
164,320,460510,1,4,3:3:0:0:
220,116,460630,2,0,P|260:172|256:248,1,148.500000566483,8|4,2:3|3:3,0:0:0:0:
432,220,460870,2,0,P|369:248|334:316,1,148.500000566483,8|4,2:3|3:3,0:0:0:0:
432,316,461110,5,8,2:3:0:0:
376,144,461230,1,4,2:3:0:0:
512,244,461350,1,8,3:3:0:0:
376,144,461470,2,0,P|404:68|460:156,1,222.750000849724,4|0,2:3|0:0,0:0:0:0:
368,164,461710,2,0,L|208:136,1,148.500000566483,4|8,2:3|3:3,0:0:0:0:
296,240,461950,1,4,2:3:0:0:
136,68,462070,5,8,2:3:0:0:
144,156,462190,1,4,3:3:0:0:
152,244,462310,1,8,2:3:0:0:
224,56,462430,2,0,P|128:32|44:128,1,222.750000849724,4|0,2:3|0:0,0:0:0:0:
20,200,462670,1,4,2:3:0:0:
0,40,462790,1,8,3:3:0:0:
8,208,462910,1,4,2:3:0:0:
144,156,463030,6,0,L|108:304,1,148.500000566483,8|4,2:3|3:3,0:0:0:0:
248,152,463270,1,8,2:3:0:0:
304,384,463390,2,0,L|268:236,1,148.500000566483,4|8,2:3|3:3,0:0:0:0:
180,380,463630,1,4,2:3:0:0:
380,304,463750,1,8,3:3:0:0:
200,300,463870,1,4,2:3:0:0:
432,384,463990,6,0,B|473:337|473:337|444:246,1,148.500000566483,8|4,2:3|2:3,0:0:0:0:
392,188,464230,1,8,2:3:0:0:
392,188,464350,2,0,L|418:36,1,148.500000566483,4|8,2:3|3:3,0:0:0:0:
316,148,464590,1,4,3:3:0:0:
480,140,464710,1,8,2:3:0:0:
324,240,464830,1,4,2:3:0:0:
176,92,464950,6,0,B|211:53|273:69|273:69|207:109|241:193,1,222.750000849724,8|0,2:3|0:0,0:0:0:0:
244,252,465190,1,8,2:3:0:0:
244,252,465310,1,4,3:3:0:0:
64,260,465430,2,0,B|47:209|92:163|92:163|94:241|183:253,1,222.750000849724,8|0,2:3|0:0,0:0:0:0:
244,252,465670,1,8,2:3:0:0:
244,252,465790,1,4,3:3:0:0:
412,256,465910,6,0,B|348:248|312:312|312:312|284:364|180:348,1,222.750000849724,8|0,2:3|0:0,0:0:0:0:
392,352,466150,1,8,2:3:0:0:
312,196,466270,2,0,L|327:25,1,148.500000566483,4|8,2:3|3:3,0:0:0:0:
400,148,466510,1,4,3:3:0:0:
200,80,466630,1,8,2:3:0:0:
256,4,466750,1,4,3:3:0:0:
148,160,466870,6,0,L|16:80,1,148.500000566483,8|4,2:3|3:3,0:0:0:0:
185,272,467110,1,8,3:3:0:0:
185,272,467230,2,0,L|317:192,1,148.500000566483,4|8,2:3|3:3,0:0:0:0:
144,368,467470,1,4,3:3:0:0:
21,248,467590,2,0,P|105:250|141:370,1,222.750000849724,8|0,2:3|0:0,0:0:0:0:
72,328,467830,6,0,B|66:239|66:239|59:233|59:233|51:129,1,189.750003619194,14|0,3:3|0:0,0:0:0:0:
52,24,468070,1,8,3:3:0:0:
52,24,468190,2,0,B|0:80|0:80|124:48,1,189.750003619194,4|0,3:3|0:0,0:0:0:0:
184,36,468430,1,4,3:3:0:0:
158,111,468550,1,8,3:3:0:0:
210,171,468670,1,0,0:0:0:0:
332,96,468790,6,0,B|276:44|276:44|296:168,1,189.750003619194,4|0,3:3|0:0,0:0:0:0:
304,240,469030,1,8,3:3:0:0:
404,184,469150,1,0,0:0:0:0:
308,244,469270,1,4,3:3:0:0:
308,244,469390,1,4,3:3:0:0:
413,256,469510,2,0,B|409:222|409:222|406:218|406:218|403:179,1,74.2499977340699,8|0,3:3|0:0,0:0:0:0:
416,336,469750,6,0,B|364:348|328:296|328:296|328:288|328:288|320:288|320:288|296:272|252:285,1,189.750003619194,6|0,3:3|0:0,0:0:0:0:
228,368,469990,1,8,3:3:0:0:
228,368,470110,2,0,B|188:364|164:320|164:320|156:248|204:220,1,189.750003619194,4|0,3:3|0:0,0:0:0:0:
228,140,470350,1,4,3:3:0:0:
228,140,470470,2,0,B|170:137|136:168|136:168|170:137|166:81,1,189.750003619194,8|0,3:3|0:0,0:0:0:0:
204,232,470710,5,6,3:3:0:0:
204,232,470830,1,4,3:3:0:0:
84,100,470950,2,0,L|419:143,1,338.250005161286,8|0,3:3|0:0,0:0:0:0:
496,152,471190,1,6,3:3:0:0:
112,336,471430,1,8,3:3:0:0:
268,308,471670,6,0,B|256:210|159:196|159:196|88:244|112:336|112:336|109:282|152:252,1,426.25000325203,6|0,3:3|0:0,0:0:0:0:
192,320,472030,2,0,B|158:297|124:293|124:293|42:313|4:369,1,189.750003619194,4|0,3:3|0:0,0:0:0:0:
12,368,472270,1,4,3:3:0:0:
76,168,472390,1,8,3:3:0:0:
0,216,472510,1,0,0:0:0:0:
31,95,472630,6,0,B|86:66|86:66|233:142,1,222.750000849724,4|0,3:3|0:0,0:0:0:0:
279,213,472870,2,0,B|247:85|247:85|223:157,1,189.750003619194,8|0,3:3|0:0,0:0:0:0:
208,244,473110,1,4,3:3:0:0:
208,244,473230,1,4,3:3:0:0:
184,12,473350,2,0,P|284:8|352:88,1,189.750003619194,8|0,3:3|0:0,0:0:0:0:
352,156,473590,5,6,3:3:0:0:
352,156,473710,1,4,3:3:0:0:
432,48,473830,1,8,3:3:0:0:
476,232,473950,2,0,B|480:204|532:192|532:192|448:168|416:232,1,189.750003619194,4|0,3:3|0:0,0:0:0:0:
468,248,474190,1,4,3:3:0:0:
504,344,474310,2,0,B|408:340|408:340|400:332|400:332|316:328,1,189.750003619194,8|0,3:3|0:0,0:0:0:0:
312,344,474550,1,4,3:3:0:0:
352,156,474670,1,8,3:3:0:0:
300,356,474790,6,0,L|232:340,1,63.250001206398,12|0,3:3|0:0,0:0:0:0:
112,288,474910,2,0,L|180:272,1,63.250001206398,8|0,3:3|0:0,0:0:0:0:
300,224,475030,2,0,L|232:208,1,63.250001206398,4|0,3:3|0:0,0:0:0:0:
112,164,475150,2,0,L|180:148,1,63.250001206398,4|0,3:3|0:0,0:0:0:0:
272,60,475270,2,0,L|253:125,3,63.250001206398,4|0|4|0,3:3|0:0|3:3|0:0,0:0:0:0:
368,8,475510,6,0,B|392:36|392:36|368:157,1,148.500000566483,6|8,3:3|3:3,0:0:0:0:
476,76,475750,1,4,3:3:0:0:
264,140,475870,1,8,3:3:0:0:
488,80,475990,2,0,B|491:111|514:120|514:120|521:132|522:161|522:161|510:182|500:200|500:200|488:224|460:260,1,148.500000566483,4|8,3:3|3:3,0:0:0:0:
272,288,476230,2,0,B|297:268|293:244|293:244|301:232|325:216|325:216|349:216|369:217|369:217|396:216|441:222,1,148.500000566483,4|8,3:3|3:3,0:0:0:0:
408,344,476470,2,0,B|352:316|296:312|296:312|266:344|266:344|209:360|209:360|158:364|99:352,1,305.249998835564,4|0,3:3|0:0,0:0:0:0:
32,312,476710,6,0,B|40:312|58:325|58:325|71:338|73:349|73:349|88:361|88:361|101:372|112:372,1,104.499997209549,4|8,3:3|3:3,0:0:0:0:
16,140,476950,2,0,B|19:147|17:169|17:169|12:187|3:194|3:194|1:213|1:213|-2:230|3:240,1,104.499997209549,4|8,3:3|3:3,0:0:0:0:
160,44,477190,2,0,B|155:50|135:60|135:60|116:65|106:60|106:60|88:67|88:67|73:74|66:83,1,104.499997209549,4|8,3:3|3:3,0:0:0:0:
292,204,477430,6,0,B|324:176|324:176|340:132|324:104|324:104|300:68|300:68|288:20|288:20|281:41|288:88|268:120,1,305.249998835564,6|0,3:3|0:0,0:0:0:0:
196,240,477670,2,0,B|217:251|217:251|229:255|246:253|246:253|269:242|290:222,1,104.499997209549,4|8,3:3|3:3,0:0:0:0:
404,72,477910,2,0,B|383:85|383:85|373:92|366:109|366:109|364:134|371:162,1,104.499997209549,4|8,3:3|3:3,0:0:0:0:
448,340,478150,2,0,B|447:315|447:315|445:303|434:289|434:289|413:274|385:266,1,104.499997209549,4|8,3:3|3:3,0:0:0:0:
324,384,478390,6,0,B|314:374|315:358|315:358|325:342|328:328|328:328|320:316|320:300,1,74.2500002832413,4|0,3:3|0:0,0:0:0:0:
448,340,478510,2,0,B|446:326|433:316|433:316|414:314|402:307|402:307|398:293|386:282,1,74.2500002832413,8|0,3:3|0:0,0:0:0:0:
289,375,478630,2,0,B|286:361|294:348|294:348|311:339|320:328|320:328|319:314|327:300,1,74.2500002832413,4|0,3:3|0:0,0:0:0:0:
463,308,478750,2,0,B|454:297|439:295|439:295|421:302|407:302|407:302|396:292|380:289,1,74.2500002832413,8|0,3:3|0:0,0:0:0:0:
264,351,478870,2,0,B|267:338|282:330|282:330|301:331|314:326|314:326|320:313|334:305,1,74.2500002832413,4|0,3:3|0:0,0:0:0:0:
460,272,478990,2,0,B|447:266|432:272|432:272|421:288|408:294|408:294|394:291|379:296,1,74.2500002832413,8|0,3:3|0:0,0:0:0:0:
240,236,479110,2,0,B|261:130|369:130|369:130|390:224|319:239,1,305.249998835564,4|0,3:3|0:0,0:0:0:0:
184,304,479350,6,0,B|156:280|156:280|156:240,1,74.2500002832413,6|0,3:3|0:0,0:0:0:0:
162,309,479470,2,0,B|143:277|143:277|157:239,1,74.2500002832413,8|0,3:3|0:0,0:0:0:0:
192,20,479590,6,0,B|188:44|188:44|184:56|186:67|186:67|172:88|172:88|172:104,3,74.2500002832413,6|0|8|0,3:3|0:0|3:3|0:0,0:0:0:0:
28,136,479830,2,0,B|1:103|-26:91|-26:91|-50:70|-53:46|-53:46|-12:79|43:82|43:82|95:91|124:152,1,338.250005161286,6|0,3:3|0:0,0:0:0:0:
168,216,480070,6,0,B|156:234|156:234|147:243|143:254|143:254|120:264|120:264|112:278,3,74.2500002832413,4|0|8|0,3:3|0:0|3:3|0:0,0:0:0:0:
320,212,480310,2,0,B|340:196|340:156|372:164|376:136|376:136|352:104|368:68|344:-4|344:-4|340:60|320:108,1,338.250005161286,4|0,3:3|0:0,0:0:0:0:
244,176,480550,6,0,B|233:156|233:156|230:144|223:135|223:135|225:110|225:110|217:96,3,74.2500002832413,6|0|8|0,3:3|0:0|3:3|0:0,0:0:0:0:
216,320,480790,2,0,B|238:288|292:296|312:252|312:252|359:241|384:240|384:240|417:243|448:256|448:256|480:306|512:348,1,338.250005161286,6|0,3:3|0:0,0:0:0:0:
428,368,481030,6,0,B|416:349|416:349|407:340|403:329|403:329|380:319|380:319|372:305,3,74.2500002832413,4|0|8|0,3:3|0:0|3:3|0:0,0:0:0:0:
496,176,481270,2,0,B|483:120|483:120|490:72|490:72|464:95|446:102|446:102|437:115|437:115|428:140|418:138|418:138|479:179|474:252,1,338.250005161286,4|0,3:3|0:0,0:0:0:0:
456,276,481510,5,6,3:3:0:0:
336,88,481630,1,10,3:3:0:0:
352,260,481750,5,6,3:3:0:0:
512,148,481870,1,10,3:3:0:0:
272,192,481990,5,6,3:3:0:0:
456,52,482110,1,8,3:3:0:0:
232,16,482230,6,0,B|259:5|288:16|288:16|322:11|348:-8,2,99.0000003776551,6|0|0,3:3|0:0|0:0,0:0:0:0:
96,132,482470,2,0,B|68:121|40:132|40:132|5:127|-20:108,2,99.0000003776551,4|0|0,3:3|0:0|0:0,0:0:0:0:
272,272,482710,2,0,B|332:256|348:192|304:136|304:136|244:104|228:23|228:23|208:100|144:136|144:136|104:192|120:256|172:272|172:272,1,610.499997671127,4|0,3:3|0:0,0:0:0:0:
124,36,483190,5,12,1:3:0:0:
328,52,483310,1,4,3:3:0:0:
48,208,483430,2,0,B|4:144|4:144|36:32,1,181.500001730919,10|4,3:3|3:3,0:0:0:0:
144,368,483670,2,0,B|188:304|188:304|156:192,1,181.500001730919,10|4,3:3|3:3,0:0:0:0:
308,328,483910,5,10,3:3:0:0:
148,196,484030,1,4,3:3:0:0:
320,340,484150,2,0,L|348:144,1,181.500001730919,10|4,3:3|3:3,0:0:0:0:
136,8,484390,2,0,L|164:204,1,181.500001730919,10|4,3:3|3:3,0:0:0:0:
184,344,484630,5,10,3:3:0:0:
60,200,484750,1,6,3:3:0:0:
200,352,484870,1,10,3:3:0:0:
184,116,484990,1,6,3:3:0:0:
76,336,485110,2,0,B|266:311,1,181.500001730919,10|6,3:3|3:3,0:0:0:0:
456,148,485350,2,0,B|265:123,1,181.500001730919,10|6,3:3|3:3,0:0:0:0:
456,40,485590,5,10,3:3:0:0:
392,244,485710,1,6,3:3:0:0:
440,32,485830,1,10,3:3:0:0:
404,256,485950,1,6,3:3:0:0:
172,100,486070,2,0,P|248:40|356:52,1,181.500001730919,10|4,3:3|3:3,0:0:0:0:
296,304,486310,2,0,P|309:208|245:120,1,181.500001730919,10|4,3:3|3:3,0:0:0:0:
56,220,486550,5,10,3:3:0:0:
204,240,486670,1,4,3:3:0:0:
112,76,486790,2,0,B|32:116|32:116|48:228,1,181.500001730919,10|4,3:3|3:3,0:0:0:0:
320,192,487030,2,0,B|325:102|325:102|220:60,1,181.500001730919,10|4,3:3|3:3,0:0:0:0:
116,320,487270,2,0,B|190:369|190:369|279:299,1,181.500001730919,10|4,3:3|3:3,0:0:0:0:
428,168,487510,5,10,3:3:0:0:
348,325,487630,1,4,3:3:0:0:
190,246,487750,1,10,3:3:0:0:
269,88,487870,1,4,3:3:0:0:
274,240,487990,1,10,3:3:0:0:
274,240,488110,1,4,3:3:0:0:
128,12,488230,6,0,P|234:23|266:95,1,181.500001730919,10|4,3:3|3:3,0:0:0:0:
480,92,488470,2,0,P|374:103|342:174,1,181.500001730919,10|4,3:3|3:3,0:0:0:0:
137,168,488710,2,0,P|243:179|275:251,1,181.500001730919,10|4,3:3|3:3,0:0:0:0:
180,252,488950,5,10,3:3:0:0:
428,168,489070,1,4,3:3:0:0:
336,368,489190,1,10,3:3:0:0:
184,260,489310,1,4,3:3:0:0:
340,172,489430,2,0,L|323:352,1,181.500001730919,10|4,3:3|3:3,0:0:0:0:
163,71,489670,2,0,L|179:251,1,181.500001730919,10|4,3:3|3:3,0:0:0:0:
328,28,489910,2,0,L|147:44,1,181.500001730919,10|4,3:3|3:3,0:0:0:0:
0,260,490150,2,0,L|180:276,1,181.500001730919,10|4,3:3|3:3,0:0:0:0:
348,216,490390,5,10,3:3:0:0:
152,352,490510,1,6,3:3:0:0:
328,300,490630,1,10,3:3:0:0:
156,204,490750,1,6,3:3:0:0:
388,360,490870,2,0,P|424:360|480:368,3,90.7500008654595,6|0|2|0,3:3|0:0|3:3|0:0,0:0:0:0:
348,216,491110,2,0,P|312:216|256:224,3,90.7500008654595,6|0|2|0,3:3|0:0|3:3|0:0,0:0:0:0:
360,224,491350,6,0,P|352:200|352:124,1,90.7500008654595,6|4,3:3|3:3,0:0:0:0:
504,132,491470,2,0,P|487:113|421:75,1,90.7500008654595,10|0,3:3|0:0,0:0:0:0:
256,140,491590,2,0,P|261:115|299:49,1,90.7500008654595,6|4,3:3|3:3,0:0:0:0:
232,124,491710,2,0,P|241:100|290:42,1,90.7500008654595,10|0,3:3|0:0,0:0:0:0:
332,308,491830,2,0,B|256:352|256:352|124:316|124:316|208:328,1,272.250002596378,6|0,3:3|0:0,0:0:0:0:
244,264,492070,6,0,L|156:240,3,90.7500008654595,6|0|0|0,3:3|0:0|0:0|0:0,0:0:0:0:
0,204,492310,2,0,L|88:180,3,90.7500008654595,6|0|0|0,3:3|0:0|0:0|0:0,0:0:0:0:
260,0,492550,2,0,L|172:24,3,90.7500008654595,6|0|0|0,3:3|0:0|0:0|0:0,0:0:0:0:
4,64,492790,2,0,L|92:88,3,90.7500008654595,6|0|0|0,3:3|0:0|0:0|0:0,0:0:0:0:
264,12,493030,2,0,L|176:36,3,90.7500008654595,6|0|0|0,3:3|0:0|0:0|0:0,0:0:0:0:
356,0,493270,5,10,3:3:0:0:
264,176,493390,1,4,3:3:0:0:
264,176,493510,1,6,3:3:0:0:
212,104,493630,5,8,3:3:0:0:
452,208,493750,1,6,3:3:0:0:
452,208,493870,1,4,3:3:0:0:
376,120,493990,5,10,3:3:0:0:
448,328,494110,1,4,3:3:0:0:
440,56,494230,1,6,3:3:0:0:
342,265,494350,1,6,3:3:0:0:
342,265,494470,2,0,P|330:169|434:257,1,272.250002596378,10|0,3:3|0:0,0:0:0:0:
356,352,494710,6,0,B|272:384|272:384|168:332,1,181.500001730919,10|4,3:3|3:3,0:0:0:0:
152,112,494950,2,0,B|221:168|221:168|228:284,1,181.500001730919,10|4,3:3|3:3,0:0:0:0:
64,148,495190,1,10,3:3:0:0:
288,92,495310,1,4,3:3:0:0:
56,28,495430,1,10,3:3:0:0:
136,232,495550,1,4,3:3:0:0:
360,28,495670,6,0,B|327:8|272:4|272:4|216:24|200:64,1,181.500001730919,10|4,3:3|3:3,0:0:0:0:
176,320,495910,2,0,B|209:301|240:255|240:255|251:197|224:163,1,181.500001730919,10|4,3:3|3:3,0:0:0:0:
148,128,496150,1,10,3:3:0:0:
156,324,496270,1,6,3:3:0:0:
64,148,496390,1,10,3:3:0:0:
229,169,496510,1,6,3:3:0:0:
0,208,496630,6,0,B|-20:148|-20:148|35:30,1,181.500001730919,10|6,3:3|3:3,0:0:0:0:
260,0,496870,2,0,B|280:60|280:60|224:177,1,181.500001730919,10|6,3:3|3:3,0:0:0:0:
192,248,497110,1,10,3:3:0:0:
352,144,497230,1,6,3:3:0:0:
196,264,497350,1,10,3:3:0:0:
344,128,497470,1,6,3:3:0:0:
296,384,497590,6,0,L|280:200,1,181.500001730919,10|4,3:3|3:3,0:0:0:0:
0,200,497830,2,0,L|173:136,1,181.500001730919,10|4,3:3|3:3,0:0:0:0:
260,104,498070,1,10,3:3:0:0:
92,272,498190,1,4,3:3:0:0:
56,56,498310,1,10,3:3:0:0:
196,260,498430,1,4,3:3:0:0:
324,24,498550,6,0,P|216:20|164:72,1,181.500001730919,10|4,3:3|3:3,0:0:0:0:
452,160,498790,2,0,P|456:52|404:0,1,181.500001730919,10|4,3:3|3:3,0:0:0:0:
512,224,499030,1,10,3:3:0:0:
372,104,499150,1,4,3:3:0:0:
404,328,499270,1,10,3:3:0:0:
452,160,499390,1,4,3:3:0:0:
404,328,499510,6,0,B|380:344|380:344|308:328,3,90.7500008654595,4|0|4|4,3:3|0:0|3:3|3:3,0:0:0:0:
256,384,499750,2,0,B|230:371|230:371|208:300,3,90.7500008654595,6|0|4|0,3:3|0:0|3:3|0:0,0:0:0:0:
372,104,499990,2,0,B|373:132|373:132|324:187,3,90.7500008654595,6|0|4|0,3:3|0:0|3:3|0:0,0:0:0:0:
240,32,500230,2,0,B|263:15|263:15|335:31,3,90.7500008654595,6|0|4|0,3:3|0:0|3:3|0:0,0:0:0:0:
256,124,500470,6,0,B|212:148|212:148|76:88,1,181.500001730919,10|4,3:3|3:3,0:0:0:0:
36,280,500710,2,0,B|80:304|80:304|216:244,1,181.500001730919,10|4,3:3|3:3,0:0:0:0:
271,207,500950,1,10,3:3:0:0:
188,368,501070,1,4,3:3:0:0:
128,192,501190,1,10,3:3:0:0:
336,300,501310,1,4,3:3:0:0:
256,27,501430,6,0,L|272:214,1,181.500001730919,10|4,3:3|3:3,0:0:0:0:
424,384,501670,2,0,L|440:196,1,181.500001730919,10|4,3:3|3:3,0:0:0:0:
452,104,501910,1,10,3:3:0:0:
336,300,502030,1,6,3:3:0:0:
344,32,502150,1,10,3:3:0:0:
456,196,502270,1,6,3:3:0:0:
188,128,502390,6,0,B|275:120|275:120|292:126|292:126|383:118,1,181.500001730919,10|6,3:3|3:3,0:0:0:0:
92,288,502630,2,0,B|84:200|84:200|90:183|90:183|82:92,1,181.500001730919,10|6,3:3|3:3,0:0:0:0:
76,28,502870,1,10,3:3:0:0:
10,146,502990,1,6,3:3:0:0:
192,204,503110,1,10,3:3:0:0:
154,58,503230,1,6,3:3:0:0:
91,287,503350,6,0,B|140:328|140:328|280:304,1,181.500001730919,10|4,3:3|3:3,0:0:0:0:
436,124,503590,2,0,B|377:146|377:146|327:279,1,181.500001730919,10|4,3:3|3:3,0:0:0:0:
304,384,503830,1,10,3:3:0:0:
264,156,503950,1,4,3:3:0:0:
452,304,504070,1,10,3:3:0:0:
340,64,504190,1,4,3:3:0:0:
324,220,504310,6,0,L|312:312,3,90.7500008654595,6|0|8|0,3:3|0:0|3:3|0:0,0:0:0:0:
236,236,504550,2,0,L|150:271,3,90.7500008654595,6|0|4|0,3:3|0:0|3:3|0:0,0:0:0:0:
244,76,504790,2,0,B|174:21|174:21|-8:88,1,272.250002596378,6|0,3:3|0:0,0:0:0:0:
36,248,505030,6,0,L|12:156,3,90.7500008654595,10|0|4|0,3:3|0:0|3:3|0:0,0:0:0:0:
120,296,505270,2,0,L|145:204,3,90.7500008654595,8|0|4|0,3:3|0:0|3:3|0:0,0:0:0:0:
168,384,505510,2,0,L|235:317,3,90.7500008654595,6|0|4|0,3:3|0:0|3:3|0:0,0:0:0:0:
336,240,505750,2,0,B|376:188|376:188|340:52,1,181.500001730919,6|4,3:3|3:3,0:0:0:0:
400,300,505990,2,0,B|232:276|232:276|380:244,1,272.250002596378,6|0,3:3|0:0,0:0:0:0:
504,240,506230,6,0,L|513:343,3,90.7500008654595,8|0|4|0,3:3|0:0|3:3|0:0,0:0:0:0:
424,92,506470,2,0,L|431:1,3,90.7500008654595,8|0|4|0,3:3|0:0|3:3|0:0,0:0:0:0:
320,256,506710,2,0,L|312:346,3,90.7500008654595,8|0|4|0,3:3|0:0|3:3|0:0,0:0:0:0:
252,140,506950,2,0,L|244:49,3,90.7500008654595,8|0|4|0,3:3|0:0|3:3|0:0,0:0:0:0:
428,192,507190,6,0,L|502:139,3,90.7500008654595,8|0|4|0,3:3|0:0|3:3|0:0,0:0:0:0:
216,272,507430,2,0,L|141:219,3,90.7500008654595,8|0|4|0,3:3|0:0|3:3|0:0,0:0:0:0:
300,340,507670,5,10,3:3:0:0:
64,172,507790,1,4,3:3:0:0:
108,296,507910,1,6,3:3:0:0:
184,0,508030,5,6,3:3:0:0:
88,64,508150,1,6,3:3:0:0:
88,64,508270,1,6,3:3:0:0:
312,176,508390,5,6,3:3:0:0:
88,84,508510,1,2,3:3:0:0:
288,28,508630,1,6,3:3:0:0:
324,152,508750,5,2,3:3:0:0:
312,12,508870,1,6,3:3:0:0:
312,176,508990,1,2,3:3:0:0:
512,0,509110,5,0,0:0:0:0:
