osu file format v14

[General]
AudioFilename: audio.mp3
AudioLeadIn: 0
PreviewTime: 28194
Countdown: 0
SampleSet: Normal
StackLeniency: 0.7
Mode: 1
LetterboxInBreaks: 0
WidescreenStoryboard: 1

[Editor]
DistanceSpacing: 0.5
BeatDivisor: 2
GridSize: 16
TimelineZoom: 0.9

[Metadata]
Title:Pylesos
TitleUnicode:Пылесос
Artist:Verka Smerdyuchka
ArtistUnicode:Верка Смердючка
Creator:Volta
Version:Futsuu
Source:
Tags:Vacuum Cleaner Ukrainian Russian Сердючка Красная Плесень Пародия Parody Serduchka Krasnaya Plesen' Sredyuchka Smerduchka
BeatmapID:936961
BeatmapSetID:434921

[Difficulty]
HPDrainRate:7
CircleSize:5
OverallDifficulty:4
ApproachRate:5
SliderMultiplier:1.4
SliderTickRate:1

[Events]
//Background and Video events
0,0,"pembersih lantai.jpg",0,-100
//Break Periods
//Storyboard Layer 0 (Background)
//Storyboard Layer 1 (Fail)
//Storyboard Layer 2 (Pass)
//Storyboard Layer 3 (Foreground)
//Storyboard Sound Samples

[TimingPoints]
136,352.941176470588,4,1,0,85,1,0
136,-100,4,1,0,85,0,1
11430,-100,4,1,0,85,0,0
56606,-100,4,1,0,85,0,1
63665,-100,4,1,0,75,0,1
64018,-100,4,1,0,65,0,1
64371,-100,4,1,0,55,0,1
64724,-100,4,1,0,45,0,1
65077,-100,4,1,0,25,0,1
67547,-100,4,1,0,25,0,0

[Colours]
Combo1 : 132,176,193
Combo2 : 226,226,226

[HitObjects]
352,224,136,5,8,0:0:0:0:
352,224,488,1,8,0:0:0:0:
144,144,841,1,0,0:0:0:0:
144,144,1018,1,0,0:0:0:0:
144,144,1194,1,0,0:0:0:0:
208,160,1547,1,8,0:0:0:0:
208,160,2253,1,8,0:0:0:0:
128,176,2606,1,0,0:0:0:0:
128,176,2959,1,8,0:0:0:0:
160,176,3135,1,8,0:0:0:0:
256,176,3312,1,8,0:0:0:0:
256,176,3665,1,0,0:0:0:0:
256,176,4018,1,0,0:0:0:0:
256,176,4371,1,8,0:0:0:0:
256,176,4724,1,0,0:0:0:0:
272,192,5077,1,12,0:0:0:0:
352,224,5783,5,8,0:0:0:0:
352,224,6135,1,8,0:0:0:0:
144,144,6488,1,0,0:0:0:0:
144,144,6665,1,0,0:0:0:0:
144,144,6841,1,0,0:0:0:0:
208,160,7194,1,8,0:0:0:0:
208,160,7900,1,8,0:0:0:0:
128,176,8253,1,0,0:0:0:0:
128,176,8606,1,8,0:0:0:0:
160,176,8782,1,8,0:0:0:0:
256,176,8959,1,8,0:0:0:0:
256,176,9312,1,0,0:0:0:0:
256,176,9665,1,0,0:0:0:0:
256,176,10018,1,8,0:0:0:0:
256,176,10371,5,0,0:0:0:0:
272,192,10724,1,12,0:0:0:0:
176,96,11430,1,8,0:0:0:0:
176,96,11783,1,8,0:0:0:0:
176,96,12135,1,8,0:0:0:0:
176,96,12312,1,0,0:0:0:0:
176,96,12488,1,8,0:0:0:0:
176,96,12841,1,12,0:0:0:0:
176,96,13547,1,4,0:0:0:0:
160,128,13900,1,4,0:0:0:0:
176,96,14253,1,8,0:0:0:0:
176,96,14606,1,8,0:0:0:0:
176,96,14958,1,0,0:0:0:0:
176,96,15135,1,0,0:0:0:0:
176,96,15311,1,8,0:0:0:0:
240,160,15665,1,12,0:0:0:0:
240,160,16371,1,4,0:0:0:0:
96,160,16724,1,4,0:0:0:0:
80,144,17077,1,8,0:0:0:0:
80,144,17430,1,8,0:0:0:0:
240,144,17783,1,8,0:0:0:0:
240,144,17959,1,0,0:0:0:0:
240,144,18135,1,8,0:0:0:0:
240,128,18488,1,4,0:0:0:0:
240,128,19194,1,12,0:0:0:0:
240,128,19547,1,12,0:0:0:0:
80,144,19900,1,8,0:0:0:0:
80,144,20253,1,8,0:0:0:0:
240,144,20606,1,0,0:0:0:0:
240,144,20782,1,0,0:0:0:0:
240,144,20958,1,8,0:0:0:0:
240,128,21312,1,4,0:0:0:0:
240,128,21664,1,4,0:0:0:0:
240,128,22018,1,12,0:0:0:0:
272,176,22724,1,8,0:0:0:0:
288,192,23077,1,8,0:0:0:0:
240,176,23430,1,8,0:0:0:0:
240,176,23606,1,0,0:0:0:0:
96,160,23783,1,8,0:0:0:0:
144,144,24135,1,8,0:0:0:0:
144,144,24488,1,8,0:0:0:0:
144,144,24841,1,0,0:0:0:0:
128,160,25018,1,0,0:0:0:0:
128,160,25194,1,8,0:0:0:0:
128,160,25547,1,0,0:0:0:0:
128,176,26253,1,8,0:0:0:0:
128,192,26606,1,8,0:0:0:0:
128,192,26959,1,0,0:0:0:0:
112,160,27135,1,0,0:0:0:0:
32,208,27312,1,0,0:0:0:0:
176,192,27665,1,12,0:0:0:0:
176,96,28371,1,8,0:0:0:0:
176,96,28724,1,8,0:0:0:0:
176,96,29076,1,8,0:0:0:0:
176,96,29253,1,0,0:0:0:0:
176,96,29429,1,8,0:0:0:0:
176,96,29782,1,12,0:0:0:0:
176,96,30488,1,4,0:0:0:0:
160,128,30841,1,4,0:0:0:0:
176,96,31194,1,8,0:0:0:0:
176,96,31547,1,8,0:0:0:0:
176,96,31899,1,0,0:0:0:0:
176,96,32076,1,0,0:0:0:0:
176,96,32252,1,8,0:0:0:0:
240,160,32606,1,12,0:0:0:0:
240,160,33312,1,4,0:0:0:0:
96,160,33665,1,4,0:0:0:0:
80,144,34018,1,8,0:0:0:0:
80,144,34371,1,8,0:0:0:0:
240,144,34724,1,8,0:0:0:0:
240,144,34900,1,0,0:0:0:0:
240,144,35076,1,8,0:0:0:0:
240,128,35429,1,4,0:0:0:0:
240,128,36135,1,12,0:0:0:0:
240,128,36488,1,12,0:0:0:0:
80,144,36841,1,8,0:0:0:0:
80,144,37194,1,8,0:0:0:0:
240,144,37547,1,0,0:0:0:0:
240,144,37724,1,0,0:0:0:0:
240,144,37900,1,8,0:0:0:0:
240,128,38253,1,4,0:0:0:0:
240,128,38606,1,4,0:0:0:0:
240,128,38959,1,12,0:0:0:0:
272,176,39665,1,8,0:0:0:0:
288,192,40018,1,8,0:0:0:0:
240,176,40371,1,8,0:0:0:0:
240,176,40547,1,0,0:0:0:0:
96,160,40724,1,8,0:0:0:0:
144,144,41076,1,8,0:0:0:0:
144,144,41429,1,8,0:0:0:0:
144,144,41782,1,0,0:0:0:0:
128,160,41959,1,0,0:0:0:0:
128,160,42135,1,8,0:0:0:0:
128,160,42488,1,0,0:0:0:0:
128,176,43194,1,8,0:0:0:0:
128,192,43547,1,8,0:0:0:0:
128,192,43900,1,0,0:0:0:0:
112,160,44076,1,0,0:0:0:0:
32,208,44253,1,0,0:0:0:0:
176,192,44606,1,12,0:0:0:0:
176,96,45312,1,8,0:0:0:0:
176,96,45665,1,8,0:0:0:0:
176,96,46017,1,8,0:0:0:0:
176,96,46194,1,0,0:0:0:0:
176,96,46370,1,8,0:0:0:0:
176,96,46723,1,12,0:0:0:0:
176,96,47429,1,4,0:0:0:0:
160,128,47782,1,4,0:0:0:0:
176,96,48135,1,8,0:0:0:0:
176,96,48488,1,8,0:0:0:0:
176,96,48840,1,0,0:0:0:0:
176,96,49017,1,0,0:0:0:0:
176,96,49193,1,8,0:0:0:0:
240,160,49547,1,12,0:0:0:0:
240,160,50253,1,4,0:0:0:0:
96,160,50606,1,4,0:0:0:0:
80,144,50959,1,8,0:0:0:0:
80,144,51312,1,8,0:0:0:0:
240,144,51665,1,8,0:0:0:0:
240,144,51841,1,0,0:0:0:0:
240,144,52017,1,8,0:0:0:0:
240,128,52370,1,4,0:0:0:0:
240,128,53076,1,12,0:0:0:0:
240,128,53429,1,12,0:0:0:0:
80,144,53782,1,8,0:0:0:0:
80,144,54135,1,8,0:0:0:0:
240,144,54488,1,0,0:0:0:0:
240,144,54664,1,0,0:0:0:0:
240,144,54840,1,8,0:0:0:0:
240,128,55194,1,4,0:0:0:0:
240,128,55546,1,4,0:0:0:0:
240,128,55900,1,12,0:0:0:0:
352,224,56606,5,8,0:0:0:0:
352,224,56958,1,8,0:0:0:0:
144,144,57311,1,0,0:0:0:0:
144,144,57488,1,0,0:0:0:0:
144,144,57664,1,0,0:0:0:0:
208,160,58017,1,8,0:0:0:0:
208,160,58723,1,8,0:0:0:0:
128,176,59076,1,0,0:0:0:0:
128,176,59429,1,8,0:0:0:0:
160,176,59605,1,8,0:0:0:0:
256,176,59782,1,8,0:0:0:0:
256,176,60135,1,0,0:0:0:0:
256,176,60488,1,0,0:0:0:0:
256,176,60841,1,8,0:0:0:0:
256,176,61194,1,0,0:0:0:0:
272,192,61547,1,12,0:0:0:0:
352,224,62253,5,8,0:0:0:0:
352,224,62605,1,8,0:0:0:0:
144,144,62958,1,0,0:0:0:0:
144,144,63135,1,0,0:0:0:0:
144,144,63311,1,0,0:0:0:0:
208,160,63664,5,8,0:0:0:0:
224,96,64371,1,8,0:0:0:0:
160,128,64724,1,0,0:0:0:0:
256,192,65077,12,0,67547,0:0:0:0:
