osu file format v14

[General]
AudioFilename: audio.mp3
AudioLeadIn: 0
PreviewTime: 28194
Countdown: 0
SampleSet: Normal
StackLeniency: 0.7
Mode: 1
LetterboxInBreaks: 0
WidescreenStoryboard: 0

[Editor]
DistanceSpacing: 0.5
BeatDivisor: 4
GridSize: 16
TimelineZoom: 1.6

[Metadata]
Title:Pylesos
TitleUnicode:Пылесос
Artist:Verka Smerdyuchka
ArtistUnicode:Верка Смердючка
Creator:Volta
Version:Oni
Source:
Tags:Vacuum Cleaner Ukrainian Russian Сердючка Красная Плесень Пародия Parody Serduchka Krasnaya Plesen' Sredyuchka Smerduchka
BeatmapID:936964
BeatmapSetID:434921

[Difficulty]
HPDrainRate:5
CircleSize:5
OverallDifficulty:6
ApproachRate:5
SliderMultiplier:1.4
SliderTickRate:1

[Events]
//Background and Video events
0,0,"pembersih lantai.jpg",0,-100
//Break Periods
//Storyboard Layer 0 (Background)
//Storyboard Layer 1 (Fail)
//Storyboard Layer 2 (Pass)
//Storyboard Layer 3 (Foreground)
//Storyboard Sound Samples

[TimingPoints]
136,352.941176470588,4,1,0,85,1,0
136,-100,4,1,0,85,0,1
11430,-100,4,1,0,85,0,0
56606,-100,4,1,0,85,0,1
63665,-100,4,1,0,75,0,1
64018,-100,4,1,0,65,0,1
64371,-100,4,1,0,55,0,1
64724,-100,4,1,0,45,0,1
65077,-100,4,1,0,25,0,1
67547,-100,4,1,0,25,0,0

[Colours]
Combo1 : 132,176,193
Combo2 : 226,226,226

[HitObjects]
352,224,136,5,8,0:0:0:0:
352,224,224,1,8,0:0:0:0:
352,224,312,1,8,0:0:0:0:
352,224,400,1,0,0:0:0:0:
352,224,488,1,8,0:0:0:0:
144,144,665,1,0,0:0:0:0:
144,144,841,1,8,0:0:0:0:
144,144,930,1,0,0:0:0:0:
144,144,1018,1,8,0:0:0:0:
144,144,1106,1,0,0:0:0:0:
144,144,1194,1,8,0:0:0:0:
144,144,1371,1,0,0:0:0:0:
208,160,1547,1,0,0:0:0:0:
208,160,1635,1,0,0:0:0:0:
208,160,1724,1,8,0:0:0:0:
208,160,1812,1,0,0:0:0:0:
208,160,1900,1,8,0:0:0:0:
208,160,2077,1,0,0:0:0:0:
208,160,2253,1,8,0:0:0:0:
208,160,2430,1,0,0:0:0:0:
128,176,2606,1,8,0:0:0:0:
128,176,2694,1,8,0:0:0:0:
128,176,2783,1,0,0:0:0:0:
128,176,2959,1,8,0:0:0:0:
160,176,3047,1,8,0:0:0:0:
160,176,3135,1,8,0:0:0:0:
256,176,3224,1,0,0:0:0:0:
256,176,3312,1,8,0:0:0:0:
256,176,3488,1,0,0:0:0:0:
256,176,3665,1,8,0:0:0:0:
256,176,3753,1,0,0:0:0:0:
256,176,3841,1,8,0:0:0:0:
256,176,3930,1,0,0:0:0:0:
256,176,4018,1,8,0:0:0:0:
256,176,4194,1,0,0:0:0:0:
256,176,4371,1,0,0:0:0:0:
256,176,4459,1,0,0:0:0:0:
256,176,4547,1,8,0:0:0:0:
256,176,4635,1,0,0:0:0:0:
256,176,4724,1,8,0:0:0:0:
256,176,4900,1,0,0:0:0:0:
272,192,5077,1,12,0:0:0:0:
128,176,5430,1,12,0:0:0:0:
144,144,5782,1,8,0:0:0:0:
144,144,5871,1,8,0:0:0:0:
144,144,5959,1,8,0:0:0:0:
144,144,6047,1,0,0:0:0:0:
144,144,6135,1,8,0:0:0:0:
144,144,6312,1,0,0:0:0:0:
208,160,6488,1,8,0:0:0:0:
208,160,6576,1,0,0:0:0:0:
208,160,6665,1,8,0:0:0:0:
208,160,6753,1,0,0:0:0:0:
208,160,6841,1,8,0:0:0:0:
48,160,7018,1,0,0:0:0:0:
208,160,7194,1,0,0:0:0:0:
208,160,7282,1,0,0:0:0:0:
208,160,7371,1,8,0:0:0:0:
208,160,7459,1,0,0:0:0:0:
208,160,7547,1,8,0:0:0:0:
224,160,7724,1,0,0:0:0:0:
224,160,7900,1,8,0:0:0:0:
224,160,8077,1,0,0:0:0:0:
128,176,8253,1,8,0:0:0:0:
128,176,8341,1,8,0:0:0:0:
128,176,8430,1,0,0:0:0:0:
128,176,8606,1,8,0:0:0:0:
160,176,8694,1,8,0:0:0:0:
160,176,8782,1,8,0:0:0:0:
256,176,8871,1,0,0:0:0:0:
256,176,8959,1,8,0:0:0:0:
256,176,9135,1,0,0:0:0:0:
256,176,9312,1,8,0:0:0:0:
256,176,9400,1,0,0:0:0:0:
256,176,9488,1,8,0:0:0:0:
256,176,9577,1,0,0:0:0:0:
256,176,9665,1,8,0:0:0:0:
256,176,9841,1,0,0:0:0:0:
256,176,10018,1,0,0:0:0:0:
256,176,10106,1,0,0:0:0:0:
256,176,10194,1,8,0:0:0:0:
256,176,10282,1,0,0:0:0:0:
256,176,10371,1,8,0:0:0:0:
256,176,10547,1,0,0:0:0:0:
272,192,10724,1,12,0:0:0:0:
128,176,11077,1,12,0:0:0:0:
192,160,11341,1,0,0:0:0:0:
176,96,11430,1,8,0:0:0:0:
176,96,11606,1,0,0:0:0:0:
176,96,11783,1,8,0:0:0:0:
176,96,11959,1,0,0:0:0:0:
176,96,12135,1,8,0:0:0:0:
176,96,12312,1,0,0:0:0:0:
176,96,12488,1,8,0:0:0:0:
176,96,12841,1,12,0:0:0:0:
176,96,13018,1,4,0:0:0:0:
176,96,13194,1,12,0:0:0:0:
176,96,13371,1,12,0:0:0:0:
176,96,13547,1,4,0:0:0:0:
160,128,13900,1,4,0:0:0:0:
192,160,14077,1,0,0:0:0:0:
288,128,14165,1,0,0:0:0:0:
176,96,14253,1,8,0:0:0:0:
176,96,14429,1,0,0:0:0:0:
176,96,14606,1,8,0:0:0:0:
176,96,14782,1,0,0:0:0:0:
176,96,14958,1,8,0:0:0:0:
176,96,15135,1,0,0:0:0:0:
176,96,15311,1,8,0:0:0:0:
240,160,15665,1,12,0:0:0:0:
240,160,15841,1,12,0:0:0:0:
240,160,16018,1,4,0:0:0:0:
240,160,16194,1,12,0:0:0:0:
240,160,16371,1,4,0:0:0:0:
96,160,16724,1,4,0:0:0:0:
80,144,17077,1,8,0:0:0:0:
80,144,17253,1,0,0:0:0:0:
80,144,17430,1,8,0:0:0:0:
240,144,17783,1,8,0:0:0:0:
240,144,17959,1,0,0:0:0:0:
240,144,18135,1,8,0:0:0:0:
240,128,18488,1,12,0:0:0:0:
240,128,18665,1,12,0:0:0:0:
240,128,18841,1,4,0:0:0:0:
240,128,19018,1,4,0:0:0:0:
240,128,19194,1,12,0:0:0:0:
240,128,19371,1,12,0:0:0:0:
240,128,19547,1,12,0:0:0:0:
80,144,19900,1,8,0:0:0:0:
80,144,20076,1,0,0:0:0:0:
80,144,20253,1,8,0:0:0:0:
128,128,20341,1,8,0:0:0:0:
192,128,20430,1,0,0:0:0:0:
240,144,20606,1,8,0:0:0:0:
240,144,20782,1,0,0:0:0:0:
240,144,20958,1,8,0:0:0:0:
240,128,21312,1,4,0:0:0:0:
240,128,21488,1,12,0:0:0:0:
240,128,21664,1,4,0:0:0:0:
240,128,21841,1,4,0:0:0:0:
240,128,22017,1,12,0:0:0:0:
240,128,22194,1,12,0:0:0:0:
240,128,22370,1,12,0:0:0:0:
272,176,22724,1,8,0:0:0:0:
288,192,22900,1,0,0:0:0:0:
288,192,23077,1,8,0:0:0:0:
240,176,23253,1,0,0:0:0:0:
240,176,23430,1,8,0:0:0:0:
176,128,23518,1,8,0:0:0:0:
240,176,23606,1,0,0:0:0:0:
96,160,23694,1,0,0:0:0:0:
96,160,23783,1,8,0:0:0:0:
144,144,23959,1,0,0:0:0:0:
144,144,24135,1,8,0:0:0:0:
144,144,24488,1,8,0:0:0:0:
144,144,24665,1,0,0:0:0:0:
144,144,24841,1,8,0:0:0:0:
192,128,24930,1,0,0:0:0:0:
128,160,25018,1,8,0:0:0:0:
128,160,25106,1,8,0:0:0:0:
128,160,25194,1,0,0:0:0:0:
128,160,25371,1,0,0:0:0:0:
128,160,25547,1,8,0:0:0:0:
128,192,25900,1,8,0:0:0:0:
128,176,26077,1,0,0:0:0:0:
128,176,26254,1,8,0:0:0:0:
128,176,26430,1,0,0:0:0:0:
128,176,26607,1,8,0:0:0:0:
128,192,26783,1,0,0:0:0:0:
128,192,26959,1,0,0:0:0:0:
192,160,27135,1,8,0:0:0:0:
224,336,27224,1,8,0:0:0:0:
32,208,27312,1,8,0:0:0:0:
32,208,27488,1,0,0:0:0:0:
176,192,27665,1,12,0:0:0:0:
176,192,28018,1,12,0:0:0:0:
192,160,28283,1,0,0:0:0:0:
176,96,28372,1,8,0:0:0:0:
176,96,28548,1,0,0:0:0:0:
176,96,28725,1,8,0:0:0:0:
176,96,28901,1,0,0:0:0:0:
176,96,29077,1,8,0:0:0:0:
176,96,29254,1,0,0:0:0:0:
176,96,29430,1,8,0:0:0:0:
176,96,29783,1,12,0:0:0:0:
176,96,29960,1,4,0:0:0:0:
176,96,30136,1,12,0:0:0:0:
176,96,30313,1,12,0:0:0:0:
176,96,30489,1,4,0:0:0:0:
160,128,30842,1,4,0:0:0:0:
192,160,31019,1,0,0:0:0:0:
288,128,31107,1,0,0:0:0:0:
176,96,31195,1,8,0:0:0:0:
176,96,31371,1,0,0:0:0:0:
176,96,31548,1,8,0:0:0:0:
176,96,31724,1,0,0:0:0:0:
176,96,31900,1,8,0:0:0:0:
176,96,32077,1,0,0:0:0:0:
176,96,32253,1,8,0:0:0:0:
240,160,32606,1,12,0:0:0:0:
240,160,32783,1,12,0:0:0:0:
240,160,32960,1,4,0:0:0:0:
240,160,33136,1,12,0:0:0:0:
240,160,33313,1,4,0:0:0:0:
96,160,33666,1,4,0:0:0:0:
80,144,34019,1,8,0:0:0:0:
80,144,34195,1,0,0:0:0:0:
80,144,34372,1,8,0:0:0:0:
240,144,34725,1,8,0:0:0:0:
240,144,34901,1,0,0:0:0:0:
240,144,35077,1,8,0:0:0:0:
240,128,35430,1,12,0:0:0:0:
240,128,35607,1,12,0:0:0:0:
240,128,35783,1,4,0:0:0:0:
240,128,35960,1,4,0:0:0:0:
240,128,36136,1,12,0:0:0:0:
240,128,36313,1,12,0:0:0:0:
240,128,36489,1,12,0:0:0:0:
80,144,36842,1,8,0:0:0:0:
80,144,37018,1,0,0:0:0:0:
80,144,37195,1,8,0:0:0:0:
128,128,37283,1,8,0:0:0:0:
192,128,37372,1,0,0:0:0:0:
240,144,37548,1,8,0:0:0:0:
240,144,37724,1,0,0:0:0:0:
240,144,37900,1,8,0:0:0:0:
240,128,38253,1,4,0:0:0:0:
240,128,38429,1,12,0:0:0:0:
240,128,38605,1,4,0:0:0:0:
240,128,38782,1,4,0:0:0:0:
240,128,38958,1,12,0:0:0:0:
240,128,39135,1,12,0:0:0:0:
240,128,39311,1,12,0:0:0:0:
272,176,39666,1,8,0:0:0:0:
288,192,39841,5,0,0:0:0:0:
288,192,40018,1,8,0:0:0:0:
240,176,40194,1,0,0:0:0:0:
240,176,40371,1,8,0:0:0:0:
192,144,40459,1,8,0:0:0:0:
240,176,40547,1,0,0:0:0:0:
96,160,40635,1,0,0:0:0:0:
96,160,40724,1,8,0:0:0:0:
144,144,40900,1,0,0:0:0:0:
144,144,41076,1,8,0:0:0:0:
144,144,41429,1,8,0:0:0:0:
144,144,41606,1,0,0:0:0:0:
144,144,41782,1,8,0:0:0:0:
176,144,41871,1,0,0:0:0:0:
128,160,41959,1,8,0:0:0:0:
128,160,42047,1,8,0:0:0:0:
128,160,42135,1,0,0:0:0:0:
128,160,42312,1,0,0:0:0:0:
128,160,42488,1,8,0:0:0:0:
128,192,42841,1,8,0:0:0:0:
128,192,43018,1,0,0:0:0:0:
128,176,43194,1,8,0:0:0:0:
128,176,43371,1,0,0:0:0:0:
128,176,43547,1,8,0:0:0:0:
128,176,43724,1,0,0:0:0:0:
128,192,43900,1,0,0:0:0:0:
16,208,44076,1,8,0:0:0:0:
224,144,44165,1,8,0:0:0:0:
32,208,44253,1,8,0:0:0:0:
32,208,44429,1,0,0:0:0:0:
176,192,44606,1,12,0:0:0:0:
176,192,44959,1,12,0:0:0:0:
192,160,45224,1,0,0:0:0:0:
176,96,45313,1,8,0:0:0:0:
176,96,45489,1,0,0:0:0:0:
176,96,45666,1,8,0:0:0:0:
176,96,45842,1,0,0:0:0:0:
176,96,46018,1,8,0:0:0:0:
176,96,46195,1,0,0:0:0:0:
176,96,46371,1,8,0:0:0:0:
176,96,46724,1,12,0:0:0:0:
176,96,46901,1,4,0:0:0:0:
176,96,47077,1,12,0:0:0:0:
176,96,47254,1,12,0:0:0:0:
176,96,47430,1,4,0:0:0:0:
160,128,47783,1,4,0:0:0:0:
192,160,47960,1,0,0:0:0:0:
288,128,48048,1,0,0:0:0:0:
176,96,48136,1,8,0:0:0:0:
176,96,48312,1,0,0:0:0:0:
176,96,48489,1,8,0:0:0:0:
176,96,48665,1,0,0:0:0:0:
176,96,48841,1,8,0:0:0:0:
176,96,49018,1,0,0:0:0:0:
176,96,49194,1,8,0:0:0:0:
240,160,49548,1,12,0:0:0:0:
240,160,49724,1,12,0:0:0:0:
240,160,49901,1,4,0:0:0:0:
240,160,50077,1,12,0:0:0:0:
240,160,50254,1,4,0:0:0:0:
96,160,50607,1,4,0:0:0:0:
80,144,50960,1,8,0:0:0:0:
80,144,51136,1,0,0:0:0:0:
80,144,51313,1,8,0:0:0:0:
240,144,51666,1,8,0:0:0:0:
240,144,51842,1,0,0:0:0:0:
240,144,52018,1,8,0:0:0:0:
240,128,52371,1,12,0:0:0:0:
240,128,52548,1,12,0:0:0:0:
240,128,52724,1,4,0:0:0:0:
240,128,52901,1,4,0:0:0:0:
240,128,53077,1,12,0:0:0:0:
240,128,53254,1,12,0:0:0:0:
240,128,53430,1,12,0:0:0:0:
80,144,53783,1,8,0:0:0:0:
80,144,53959,1,0,0:0:0:0:
80,144,54136,1,8,0:0:0:0:
128,128,54224,1,8,0:0:0:0:
192,128,54313,1,0,0:0:0:0:
240,144,54489,1,8,0:0:0:0:
240,144,54665,1,0,0:0:0:0:
240,144,54841,1,8,0:0:0:0:
240,128,55194,1,4,0:0:0:0:
240,128,55370,1,12,0:0:0:0:
240,128,55546,1,4,0:0:0:0:
240,128,55723,1,4,0:0:0:0:
240,128,55899,1,12,0:0:0:0:
240,128,56076,1,12,0:0:0:0:
240,128,56252,1,12,0:0:0:0:
272,176,56607,1,8,0:0:0:0:
352,224,56694,5,8,0:0:0:0:
352,224,56782,1,8,0:0:0:0:
352,224,56870,1,0,0:0:0:0:
352,224,56958,1,8,0:0:0:0:
144,144,57135,1,0,0:0:0:0:
144,144,57311,1,8,0:0:0:0:
144,144,57400,1,0,0:0:0:0:
144,144,57488,1,8,0:0:0:0:
144,144,57576,1,0,0:0:0:0:
144,144,57664,1,8,0:0:0:0:
144,144,57841,1,0,0:0:0:0:
208,160,58017,1,0,0:0:0:0:
208,160,58105,1,0,0:0:0:0:
208,160,58194,1,8,0:0:0:0:
208,160,58282,1,0,0:0:0:0:
208,160,58370,1,8,0:0:0:0:
208,160,58547,1,0,0:0:0:0:
208,160,58723,1,8,0:0:0:0:
208,160,58900,1,0,0:0:0:0:
128,176,59076,1,8,0:0:0:0:
128,176,59164,1,8,0:0:0:0:
128,176,59253,1,0,0:0:0:0:
128,176,59429,1,8,0:0:0:0:
160,176,59517,1,8,0:0:0:0:
160,176,59605,1,8,0:0:0:0:
256,176,59694,1,0,0:0:0:0:
256,176,59782,1,8,0:0:0:0:
256,176,59958,1,0,0:0:0:0:
256,176,60135,1,8,0:0:0:0:
256,176,60223,1,0,0:0:0:0:
256,176,60311,1,8,0:0:0:0:
256,176,60400,1,0,0:0:0:0:
256,176,60488,1,8,0:0:0:0:
256,176,60664,1,0,0:0:0:0:
256,176,60841,1,0,0:0:0:0:
256,176,60929,1,0,0:0:0:0:
256,176,61017,1,8,0:0:0:0:
256,176,61105,1,0,0:0:0:0:
256,176,61194,1,8,0:0:0:0:
256,176,61370,1,0,0:0:0:0:
272,192,61547,1,12,0:0:0:0:
128,176,61900,1,12,0:0:0:0:
144,144,62253,1,8,0:0:0:0:
144,144,62342,1,8,0:0:0:0:
144,144,62430,1,8,0:0:0:0:
144,144,62518,1,0,0:0:0:0:
144,144,62606,1,8,0:0:0:0:
144,144,62783,1,0,0:0:0:0:
208,160,62959,1,8,0:0:0:0:
208,160,63047,1,0,0:0:0:0:
208,160,63136,1,8,0:0:0:0:
208,160,63224,1,0,0:0:0:0:
208,160,63312,1,8,0:0:0:0:
48,160,63489,1,0,0:0:0:0:
208,160,63665,1,0,0:0:0:0:
208,160,63753,1,0,0:0:0:0:
208,160,63842,1,8,0:0:0:0:
208,160,63930,1,0,0:0:0:0:
208,160,64018,1,8,0:0:0:0:
224,160,64195,1,0,0:0:0:0:
224,160,64371,1,8,0:0:0:0:
224,160,64548,1,0,0:0:0:0:
160,128,64724,1,8,0:0:0:0:
160,128,64812,1,8,0:0:0:0:
160,128,64900,1,0,0:0:0:0:
256,192,65077,12,0,67547,0:0:0:0:
