osu file format v14

[General]
AudioFilename: audio.mp3
AudioLeadIn: 0
PreviewTime: 28194
Countdown: 0
SampleSet: Normal
StackLeniency: 0.7
Mode: 1
LetterboxInBreaks: 0
WidescreenStoryboard: 0

[Editor]
DistanceSpacing: 0.5
BeatDivisor: 1
GridSize: 16
TimelineZoom: 0.8

[Metadata]
Title:Pylesos
TitleUnicode:Пылесос
Artist:Verka Smerdyuchka
ArtistUnicode:Верка Смердючка
Creator:Volta
Version:Kantan
Source:
Tags:Vacuum Cleaner Ukrainian Russian Сердючка Красная Плесень Пародия Parody Serduchka Krasnaya Plesen' Sredyuchka Smerduchka
BeatmapID:936962
BeatmapSetID:434921

[Difficulty]
HPDrainRate:8
CircleSize:5
OverallDifficulty:3
ApproachRate:5
SliderMultiplier:1.4
SliderTickRate:1

[Events]
//Background and Video events
0,0,"pembersih lantai.jpg",0,-100
//Break Periods
//Storyboard Layer 0 (Background)
//Storyboard Layer 1 (Fail)
//Storyboard Layer 2 (Pass)
//Storyboard Layer 3 (Foreground)
//Storyboard Sound Samples

[TimingPoints]
136,352.941176470588,4,1,0,85,1,0
136,-100,4,1,0,85,0,1
11430,-100,4,1,0,85,0,0
56606,-100,4,1,0,85,0,1
63665,-100,4,1,0,75,0,1
64018,-100,4,1,0,65,0,1
64371,-100,4,1,0,55,0,1
64724,-100,4,1,0,45,0,1
65077,-100,4,1,0,25,0,1
67547,-100,4,1,0,25,0,0

[Colours]
Combo1 : 132,176,193
Combo2 : 226,226,226

[HitObjects]
320,288,136,5,8,0:0:0:0:
192,176,488,1,8,0:0:0:0:
320,288,841,1,0,0:0:0:0:
192,128,1547,1,8,0:0:0:0:
224,160,2253,1,0,0:0:0:0:
192,144,2606,1,0,0:0:0:0:
224,160,2959,1,8,0:0:0:0:
224,160,3312,1,0,0:0:0:0:
224,160,3665,1,8,0:0:0:0:
224,160,4371,1,12,0:0:0:0:
320,288,5783,1,8,0:0:0:0:
320,288,6135,1,8,0:0:0:0:
192,176,6488,1,0,0:0:0:0:
192,128,7194,1,8,0:0:0:0:
224,160,7900,1,0,0:0:0:0:
224,160,8253,1,0,0:0:0:0:
224,160,8606,1,8,0:0:0:0:
224,160,8959,1,0,0:0:0:0:
224,160,9312,1,8,0:0:0:0:
224,160,10018,1,12,0:0:0:0:
336,128,11430,1,8,0:0:0:0:
192,128,12135,1,8,0:0:0:0:
288,128,12841,1,0,0:0:0:0:
288,128,13194,1,0,0:0:0:0:
288,128,13547,1,0,0:0:0:0:
288,128,14253,1,8,0:0:0:0:
256,144,14959,1,0,0:0:0:0:
144,112,15665,1,12,0:0:0:0:
240,144,17077,1,8,0:0:0:0:
176,112,17783,1,8,0:0:0:0:
160,192,18488,1,0,0:0:0:0:
208,128,18841,1,0,0:0:0:0:
160,176,19194,1,8,0:0:0:0:
160,176,19900,1,0,0:0:0:0:
160,176,20606,1,8,0:0:0:0:
192,192,21312,1,4,0:0:0:0:
288,128,22724,1,8,0:0:0:0:
240,144,23430,5,8,0:0:0:0:
208,96,23783,1,8,0:0:0:0:
240,144,24135,1,0,0:0:0:0:
224,160,24841,1,0,0:0:0:0:
192,144,25547,1,8,0:0:0:0:
112,208,26253,1,8,0:0:0:0:
112,144,26606,1,0,0:0:0:0:
160,208,26959,1,12,0:0:0:0:
336,128,28371,1,8,0:0:0:0:
192,128,29076,1,8,0:0:0:0:
288,128,29782,1,0,0:0:0:0:
288,128,30135,1,0,0:0:0:0:
288,128,30488,1,0,0:0:0:0:
288,128,31194,1,8,0:0:0:0:
256,144,31900,1,0,0:0:0:0:
144,112,32606,1,12,0:0:0:0:
240,144,34018,5,8,0:0:0:0:
176,112,34724,1,8,0:0:0:0:
160,192,35429,1,0,0:0:0:0:
208,128,35782,1,0,0:0:0:0:
160,176,36135,1,8,0:0:0:0:
160,176,36841,1,0,0:0:0:0:
160,176,37547,1,8,0:0:0:0:
192,192,38253,1,4,0:0:0:0:
288,128,39665,5,8,0:0:0:0:
80,128,40371,1,8,0:0:0:0:
80,128,40724,1,8,0:0:0:0:
208,160,41076,1,0,0:0:0:0:
224,160,41783,1,0,0:0:0:0:
160,80,42488,1,8,0:0:0:0:
112,208,43194,1,8,0:0:0:0:
160,80,43547,1,0,0:0:0:0:
160,208,43900,1,12,0:0:0:0:
336,128,45312,1,8,0:0:0:0:
192,128,46017,1,8,0:0:0:0:
288,128,46723,1,0,0:0:0:0:
288,128,47076,1,0,0:0:0:0:
288,128,47429,1,0,0:0:0:0:
288,128,48135,1,8,0:0:0:0:
144,112,48841,1,8,0:0:0:0:
256,144,49547,1,4,0:0:0:0:
240,144,50959,5,8,0:0:0:0:
176,112,51665,1,8,0:0:0:0:
160,192,52370,1,0,0:0:0:0:
208,128,52723,1,0,0:0:0:0:
160,176,53076,1,8,0:0:0:0:
160,176,53782,1,0,0:0:0:0:
160,176,54488,1,8,0:0:0:0:
192,192,55194,1,12,0:0:0:0:
320,288,56606,5,8,0:0:0:0:
320,288,56958,1,8,0:0:0:0:
192,176,57311,1,0,0:0:0:0:
192,128,58017,1,8,0:0:0:0:
224,160,58723,1,0,0:0:0:0:
192,144,59076,1,0,0:0:0:0:
224,160,59429,1,8,0:0:0:0:
224,160,59782,1,0,0:0:0:0:
224,160,60135,1,8,0:0:0:0:
224,160,60841,1,12,0:0:0:0:
320,288,62253,1,8,0:0:0:0:
320,288,62605,1,8,0:0:0:0:
192,176,62958,1,0,0:0:0:0:
192,128,63664,1,8,0:0:0:0:
224,160,64370,1,0,0:0:0:0:
256,192,65077,12,0,67547,0:0:0:0:
