osu file format v14

[General]
AudioFilename: audio.mp3
AudioLeadIn: 0
PreviewTime: 5650
Countdown: 0
SampleSet: Normal
StackLeniency: 0.7
Mode: 1
LetterboxInBreaks: 0
WidescreenStoryboard: 1

[Editor]
DistanceSpacing: 0.8
BeatDivisor: 4
GridSize: 16
TimelineZoom: 1

[Metadata]
Title:~DISK 1~
TitleUnicode:•~DISK 1~•
Artist:Veritas Unae
ArtistUnicode:Veritas Unae
Creator:JeirYagtama
Version:Muzukashii
Source:
Tags:experimental piano instrumental disc 1 homestuck unofficialmspafans land of fans and music 2
BeatmapID:1735715
BeatmapSetID:828427

[Difficulty]
HPDrainRate:9
CircleSize:5
OverallDifficulty:4.5
ApproachRate:8.5
SliderMultiplier:2.8
SliderTickRate:1

[Events]
//Background and Video events
0,0,"piano.jpg",0,0
//Break Periods
//Storyboard Layer 0 (Background)
//Storyboard Layer 1 (Fail)
//Storyboard Layer 2 (Pass)
//Storyboard Layer 3 (Foreground)
//Storyboard Sound Samples

[TimingPoints]
25,750,4,1,1,30,1,0
27775,-100,4,1,1,20,0,0
28525,-100,4,1,1,15,0,0
29275,-100,4,1,1,10,0,0

[Colours]
Combo1 : 0,128,128
Combo2 : 128,128,255

[HitObjects]
256,192,775,5,0,0:0:0:0:
256,192,1150,1,0,0:0:0:0:
256,192,1525,1,8,0:0:0:0:
256,192,2087,1,0,0:0:0:0:
256,192,2650,1,0,0:0:0:0:
256,192,3025,1,8,0:0:0:0:
256,192,3587,1,8,0:0:0:0:
256,192,4150,1,0,0:0:0:0:
256,192,4525,1,8,0:0:0:0:
256,192,5650,1,0,0:0:0:0:
256,192,5837,1,0,0:0:0:0:
256,192,6025,1,8,0:0:0:0:
256,192,6400,1,0,0:0:0:0:
256,192,6775,1,8,0:0:0:0:
256,192,7150,1,0,0:0:0:0:
256,192,7337,1,0,0:0:0:0:
256,192,7525,1,8,0:0:0:0:
256,192,7900,1,0,0:0:0:0:
256,192,8275,1,8,0:0:0:0:
256,192,8650,1,0,0:0:0:0:
256,192,8837,1,8,0:0:0:0:
256,192,9025,1,0,0:0:0:0:
256,192,9400,1,0,0:0:0:0:
256,192,9775,1,8,0:0:0:0:
256,192,10150,1,8,0:0:0:0:
256,192,10525,1,0,0:0:0:0:
256,192,11087,1,8,0:0:0:0:
256,192,11650,1,0,0:0:0:0:
256,192,12025,1,4,0:0:0:0:
256,192,12775,1,0,0:0:0:0:
256,192,13150,1,0,0:0:0:0:
256,192,13525,1,8,0:0:0:0:
256,192,14087,1,0,0:0:0:0:
256,192,14650,1,0,0:0:0:0:
256,192,15025,1,12,0:0:0:0:
256,192,15587,1,8,0:0:0:0:
256,192,16150,1,8,0:0:0:0:
256,192,16525,1,0,0:0:0:0:
256,192,17650,1,0,0:0:0:0:
256,192,17837,1,0,0:0:0:0:
256,192,18025,1,8,0:0:0:0:
256,192,18400,1,0,0:0:0:0:
256,192,18775,1,8,0:0:0:0:
256,192,19150,1,0,0:0:0:0:
256,192,19337,1,8,0:0:0:0:
256,192,19525,1,8,0:0:0:0:
256,192,19900,1,0,0:0:0:0:
256,192,20275,1,8,0:0:0:0:
256,192,20650,1,0,0:0:0:0:
256,192,20837,1,8,0:0:0:0:
256,192,21025,1,8,0:0:0:0:
256,192,21400,1,0,0:0:0:0:
256,192,21775,1,8,0:0:0:0:
256,192,22150,1,0,0:0:0:0:
256,192,22337,1,8,0:0:0:0:
256,192,22525,1,4,0:0:0:0:
256,192,23087,1,8,0:0:0:0:
256,192,23650,1,0,0:0:0:0:
256,192,24025,1,4,0:0:0:0:
256,192,24775,1,12,0:0:0:0:
256,192,25150,12,0,30775,2:0:0:0:
