osu file format v14

[General]
AudioFilename: audio.mp3
AudioLeadIn: 0
PreviewTime: 5462
Countdown: 0
SampleSet: Soft
StackLeniency: 0.5
Mode: 0
LetterboxInBreaks: 0
WidescreenStoryboard: 0

[Editor]
Bookmarks: 10525
DistanceSpacing: 1.8
BeatDivisor: 4
GridSize: 4
TimelineZoom: 1

[Metadata]
Title:~DISK 1~
TitleUnicode:•~DISK 1~•
Artist:Veritas Unae
ArtistUnicode:Veritas Unae
Creator:100bit
Version:Hard
Source:
Tags:experimental piano disc homestuck unofficialmspafans land of fans and music 2
BeatmapID:1241727
BeatmapSetID:586306

[Difficulty]
HPDrainRate:5
CircleSize:4
OverallDifficulty:6.5
ApproachRate:7
SliderMultiplier:1.65
SliderTickRate:1

[Events]
//Background and Video events
0,0,"Piano.jpg",0,0
//Break Periods
//Storyboard Layer 0 (Background)
//Storyboard Layer 1 (Fail)
//Storyboard Layer 2 (Pass)
//Storyboard Layer 3 (Foreground)
//Storyboard Sound Samples

[TimingPoints]
1525,750,4,2,1,30,1,0
5650,-90.9090909090909,4,2,1,30,0,0
6025,750,4,2,1,30,1,0
6025,-90.9090909090909,4,2,1,30,0,0
12025,-100,4,2,1,30,0,0
16525,-142.857142857143,4,2,1,30,0,0
17275,-100,4,2,1,30,0,0
17650,-76.9230769230769,4,2,1,30,0,0
18025,-76.9230769230769,4,2,1,30,0,1
24775,-100,4,2,1,30,0,0
25525,-100,4,2,1,26,0,0
26275,-100,4,2,1,22,0,0
27025,-100,4,2,1,18,0,0
27775,-100,4,2,1,14,0,0
28525,-100,4,2,1,10,0,0
29275,-100,4,2,1,6,0,0
30025,-100,4,2,1,5,0,0

[Colours]
Combo1 : 227,122,119
Combo2 : 206,112,34
Combo3 : 78,98,116

[HitObjects]
304,196,775,5,0,0:0:0:0:
156,196,1150,1,0,0:0:0:0:
276,122,1525,2,0,P|331:95|392:90,2,123.75,0|2|0,0:0|0:0|0:0,0:0:0:0:
276,262,3025,2,0,P|360:294|416:290,2,123.75,0|2|0,0:0|0:0|0:0,0:0:0:0:
108,192,4525,1,2,0:0:0:0:
420,260,5650,5,0,0:0:0:0:
420,260,5837,1,0,0:0:0:0:
380,188,6025,2,0,L|380:120,1,45.3750013847352,8|0,0:0|0:0,0:0:0:0:
304,108,6400,2,0,L|304:176,1,45.3750013847352,0|0,0:0|0:0,0:0:0:0:
264,224,6775,1,8,0:0:0:0:
68,188,7150,6,0,L|68:120,1,45.3750013847352
64,60,7525,2,0,L|0:60,2,45.3750013847352,8|0|0,0:0|0:0|0:0,0:0:0:0:
144,92,8087,1,0,0:0:0:0:
144,92,8275,1,8,0:0:0:0:
272,252,8650,6,0,L|272:297,1,45.3750013847352
336,348,9025,1,8,0:0:0:0:
336,348,9212,1,0,0:0:0:0:
392,296,9400,2,0,L|392:250,2,45.3750013847352,0|0|8,0:0|0:0|0:0,0:0:0:0:
240,168,10150,6,0,L|240:122,1,45.3750013847352
168,84,10525,2,0,L|168:220,1,136.125004154205,2|2,0:0|0:0,0:0:0:0:
376,352,11650,1,2,0:0:0:0:
376,352,12025,6,0,B|392:272|392:272|376:180,1,165,8|2,0:0|0:0,0:0:0:0:
312,56,13150,1,2,0:0:0:0:
164,52,13525,1,2,0:0:0:0:
164,276,14087,1,0,0:0:0:0:
360,172,14650,1,0,0:0:0:0:
360,172,15025,1,2,0:0:0:0:
136,172,15587,1,0,0:0:0:0:
244,368,16150,1,0,0:0:0:0:
248,264,16525,6,0,P|300:280|344:348,1,115.49999647522,2|0,0:0|0:0,0:0:0:0:
468,132,17650,5,0,0:0:0:0:
408,56,17837,1,0,0:0:0:0:
373,147,18025,2,0,L|305:147,1,53.6249975452424,8|0,0:0|0:0,0:0:0:0:
291,55,18400,2,0,L|223:55,1,53.6249975452424
184,136,18775,1,8,0:0:0:0:
16,300,19150,6,0,L|69:300,1,53.6249975452424
164,324,19525,1,8,0:0:0:0:
140,232,19712,1,0,0:0:0:0:
236,252,19900,2,0,L|289:252,1,53.6249975452424
368,308,20275,1,8,0:0:0:0:
408,76,20650,6,0,L|358:54,1,53.6249975452424
272,12,21025,1,8,0:0:0:0:
254,106,21212,1,0,0:0:0:0:
172,54,21400,2,0,L|122:75,2,53.6249975452424,0|0|8,0:0|0:0|0:0,0:0:0:0:
136,288,22150,5,0,0:0:0:0:
232,288,22337,1,0,0:0:0:0:
232,192,22525,1,2,0:0:0:0:
484,336,23087,1,2,0:0:0:0:
480,48,23650,1,2,0:0:0:0:
352,192,24025,1,8,0:0:0:0:
28,28,24775,5,4,0:0:0:0:
256,192,24962,12,0,30775,0:0:0:0:
