osu file format v14

[General]
AudioFilename: audio.mp3
AudioLeadIn: 0
PreviewTime: 94300
Countdown: 0
SampleSet: Normal
StackLeniency: 0.2
Mode: 1
LetterboxInBreaks: 0
WidescreenStoryboard: 0

[Editor]
DistanceSpacing: 0.5
BeatDivisor: 2
GridSize: 32
TimelineZoom: 3.1

[Metadata]
Title:Hitoribocchi no Maou
TitleUnicode:ひとりぼっちの魔王
Artist:Verdammt
ArtistUnicode:Verdammt
Creator:Axer
Version:Epilogue
Source:SOUND VOLTEX IV HEAVENLY HAVEN
Tags:Konami Bemani The 7th KAC オリジナル楽曲コンテスト Original Song Contest SDVX electronic instrumental video game Flute Vulkin Nifty komasy
BeatmapID:2036368
BeatmapSetID:972634

[Difficulty]
HPDrainRate:6
CircleSize:2
OverallDifficulty:7
ApproachRate:10
SliderMultiplier:1.4
SliderTickRate:3

[Events]
//Background and Video events
0,0,"bg.jpg",0,0
//Break Periods
//Storyboard Layer 0 (Background)
//Storyboard Layer 1 (Fail)
//Storyboard Layer 2 (Pass)
//Storyboard Layer 3 (Foreground)
//Storyboard Layer 4 (Overlay)
//Storyboard Sound Samples

[TimingPoints]
1642,535.714285714286,3,1,0,35,1,0
15302,-100,3,1,0,35,0,0
15570,-100,3,1,0,37,0,0
15838,-100,3,1,0,39,0,0
16106,-100,3,1,0,41,0,0
16369,-100,3,1,0,43,0,0
16458,-98.0550775370526,3,1,0,45,0,0
16547,-96.184458707531,3,1,0,47,0,0
16637,-94.3837871305819,3,1,0,49,0,0
16703,-93.0769373964519,3,1,0,51,0,0
16770,-91.8057830298846,3,1,0,52,0,0
16837,-90.5688812569512,3,1,0,54,0,0
16904,-89.3648660241929,3,1,0,56,0,0
17034,-87.0503847627006,3,1,0,58,0,0
17168,-84.8527634848012,3,1,0,60,0,0
17257,-83.4482833436392,3,1,0,62,0,0
17346,-82.0895399866358,3,1,0,64,0,0
17436,-80.7743350858672,3,1,0,66,0,0
17570,-78.8787231743322,3,1,0,68,0,0
17704,-77.0700435676956,3,1,0,70,0,0
23864,-76.9230769230769,3,1,0,70,0,0
23954,-76.4706062283779,3,1,0,70,0,0
24043,-76.0233695838101,3,1,0,70,0,0
24132,-75.5813909545703,3,1,0,70,0,0
24311,-74.7126179151892,3,1,0,70,0,0
24489,-73.8636447572324,3,1,0,70,0,0
24668,-73.0336955561187,3,1,0,70,0,0
24757,-72.6257023813242,3,1,0,70,0,0
24846,-72.2222422839562,3,1,0,70,0,0
25025,-71.4285714285714,3,1,0,70,0,0
25204,-70.6521547140884,3,1,0,70,0,0
25296,-70.1754385964912,3,1,0,70,0,0
25382,-69.8924843912609,3,1,0,70,0,0
25561,-69.1489288139437,3,1,0,70,0,0
25739,-68.421074238234,3,1,0,70,0,0
25918,-67.7083368598092,3,1,0,70,0,0
26007,-67.3575304035053,3,1,0,70,0,0
26096,-67.0102954617948,3,1,0,70,0,0
26186,-66.6666666666667,3,1,0,70,0,0
26275,-66.3265441482743,3,1,0,70,0,0
26364,-65.989830967048,3,1,0,70,0,0
26454,-65.6565623405777,3,1,0,70,0,0
26543,-65.3266430140668,3,1,0,70,0,0
26632,-64.9999805000058,3,1,0,70,0,0
26811,-64.3564420154893,3,1,0,70,0,0
26989,-63.7254808246842,3,1,0,70,0,0
27078,-63.4146372397384,3,1,0,70,0,0
27167,-63.1068114336921,3,1,0,70,0,0
27356,535.714285714286,4,1,0,70,1,0
27356,-62.5,3,1,0,70,0,0
28954,-62.5,3,1,0,70,0,0
29311,-59.2105224203604,3,1,0,70,0,0
29489,-57.6923187869844,3,1,0,70,0,0
29668,-56.2499929687509,3,1,0,70,0,0
29846,-54.8780554729336,3,1,0,70,0,0
30034,535.714285714286,3,1,0,70,1,8
30034,-53.5714190051037,3,1,0,70,0,0
30114,-52.9411733564016,3,1,0,70,0,0
30204,-52.325584437534,3,1,0,70,0,0
30293,-51.7241468489908,3,1,0,70,0,0
30382,-51.1363520144655,3,1,0,70,0,0
30471,-50.5617920717088,3,1,0,70,0,0
30561,-50,3,1,0,70,0,0
30926,-57.1428571428571,3,1,0,70,0,0
31105,535.714285714286,4,1,0,70,1,0
31105,-57.5418689023601,3,1,0,70,0,0
31273,-58.0826341636246,3,1,0,70,0,0
31452,-58.6336254460553,3,1,0,70,0,0
31632,-59.195205661903,3,1,0,70,0,0
31811,-59.7676472943784,3,1,0,70,0,0
31989,-60.3512685233131,3,1,0,70,0,0
32168,-60.9463629343723,3,1,0,70,0,0
32235,-61.1725929655188,3,1,0,70,0,0
32302,-61.400471064414,3,1,0,70,0,0
32369,-61.6300912618391,3,1,0,70,0,0
32525,-62.1725449771733,3,1,0,70,0,0
32704,-62.8043262132069,3,1,0,70,0,0
32882,-63.4490792586863,3,1,0,70,0,0
33061,-64.1071666683762,3,1,0,70,0,0
33239,-64.7790903461017,3,1,0,70,0,0
33373,-65.2923497606709,3,1,0,70,0,0
33507,-65.8138074735527,3,1,0,70,0,0
33641,-66.3436614934091,3,1,0,70,0,0
33775,-66.8820715250249,3,1,0,70,0,0
33954,-67.6137550718768,3,1,0,70,0,0
34132,-68.3616247917534,3,1,0,70,0,0
34311,-69.1262237933845,3,1,0,70,0,0
34489,-69.9081197582018,3,1,0,70,0,0
34668,-70.707856349919,3,1,0,70,0,0
34846,-71.5261535380412,3,1,0,70,0,0
35025,-72.3636126809995,3,1,0,70,0,0
35204,-73.2209148221098,3,1,0,70,0,0
35382,-74.0987187590539,3,1,0,70,0,0
35449,-74.4333943935279,3,1,0,70,0,0
35516,-74.7710510417103,3,1,0,70,0,0
35583,-75.1118415320412,3,1,0,70,0,0
35739,-75.9191339752549,3,1,0,70,0,0
35918,-76.9230769230769,3,1,0,70,0,0
36096,-75.6302648118092,3,1,0,70,0,0
36275,-74.3801898777487,3,1,0,70,0,0
36454,-73.1707138608015,3,1,0,70,0,0
36587,-72.2891740455841,3,1,0,70,0,0
36721,-71.4285714285714,3,1,0,70,0,0
36855,-70.588218685125,3,1,0,70,0,0
36989,-69.7674580854554,3,1,0,70,0,0
37079,-69.2307905325509,3,1,0,70,0,0
37168,-68.7022690985438,3,1,0,70,0,0
37257,-68.1818026859539,3,1,0,70,0,0
37346,-67.6691627565169,3,1,0,70,0,0
37436,-67.1641740922258,3,1,0,70,0,0
37533,535.714285714286,3,1,0,70,1,0
37533,-66.6666666666667,3,1,0,70,0,0
39132,-66.6666666666667,3,1,0,70,0,0
39311,-65.4545359338857,3,1,0,70,0,0
39489,-64.2856959183726,3,1,0,70,0,0
39668,-63.1579080332438,3,1,0,70,0,0
39846,-62.06896979786,3,1,0,70,0,0
40025,-61.0169450158003,3,1,0,70,0,0
40204,-59.9999880000024,3,1,0,70,0,0
40382,-59.0164089223368,3,1,0,70,0,0
40561,-58.0645236212289,3,1,0,70,0,0
40739,-57.1428571428571,3,1,0,70,0,0
40829,-56.6929098146199,3,1,0,70,0,0
40918,-56.2499929687509,3,1,0,70,0,0
41007,-55.8139431043827,3,1,0,70,0,0
41096,-55.3846017514826,3,1,0,70,0,0
41186,-54.961845486863,3,1,0,70,0,0
41275,-54.5454644628117,3,1,0,70,0,0
41364,-54.1353448583874,3,1,0,70,0,0
41454,-53.7313464914237,3,1,0,70,0,0
41543,-53.3333333333333,3,1,0,70,0,0
41632,-52.9411733564016,3,1,0,70,0,0
41721,-52.5547383877678,3,1,0,70,0,0
41811,-52.1739039697558,3,1,0,70,0,0
41900,-51.7985492262333,3,1,0,70,0,0
41989,-51.4285831836762,3,1,0,70,0,0
42079,-51.0638384789512,3,1,0,70,0,0
42168,-50.7042310652655,3,1,0,70,0,0
42257,-50.3496531664142,3,1,0,70,0,0
42346,-50,3,1,0,70,0,0
42882,-76.9230769230769,3,1,0,70,0,0
42971,-75.9592706390833,3,1,0,70,0,0
43061,-75.0193174742496,3,1,0,70,0,0
43150,-74.1023427455659,3,1,0,70,0,0
43239,-73.2075676126793,3,1,0,70,0,0
43329,-72.3340909123788,3,1,0,70,0,0
43418,-71.4812122355821,3,1,0,70,0,0
43686,-69.0391272349692,3,1,0,70,0,0
43822,-68.0272108843537,3,1,0,70,0,0
43961,-66.7584372650937,3,1,0,85,0,1
53596,-66.6666666666667,3,1,0,85,0,1
53775,-67.411791670599,3,1,0,85,0,1
53954,-68.1738077594065,3,1,0,85,0,1
54132,-68.9532007731033,3,1,0,85,0,1
54311,-69.7506206061469,3,1,0,85,0,1
54489,-70.5667497942979,3,1,0,85,0,1
54668,-71.4021526320976,3,1,0,85,0,1
54846,-72.2575722322821,3,1,0,85,0,1
54936,-72.6930144920794,3,1,0,85,0,1
55025,-73.1337367390252,3,1,0,85,0,1
55114,-73.5798897331772,3,1,0,85,0,1
55204,-74.0314648531919,3,1,0,85,0,1
55471,-75.4200709401187,3,1,0,85,0,1
55605,-76.1340934561224,3,1,0,85,0,1
55672,-76.4962279709988,3,1,0,85,0,1
55739,-76.9230769230769,3,1,0,85,0,1
56007,-73.8255281293718,3,1,0,85,0,1
56141,-72.3684305747935,3,1,0,85,0,1
56275,-70.9677373569202,3,1,0,85,0,1
56364,-70.0636808795514,3,1,0,85,0,1
56454,-69.1823681816452,3,1,0,85,0,1
56543,-68.3229983411176,3,1,0,85,0,1
56632,-67.4846708570148,3,1,0,85,0,1
56719,-66.6666666666667,3,1,0,85,0,1
56818,-65.7894736842105,3,1,0,85,0,0
57354,-66.6666666666667,3,1,0,85,0,1
60293,-66.6666666666667,3,1,0,85,0,1
60427,-64.5161290322581,3,1,0,85,0,1
60561,-62.5,3,1,0,85,0,1
60628,-61.5384615384615,3,1,0,85,0,1
60695,-60.6060606060606,3,1,0,85,0,1
60762,-59.7014925373134,3,1,0,85,0,1
60829,-58.8235294117647,3,1,0,85,0,1
60895,-57.9710144927536,3,1,0,85,0,1
60962,-57.1428571428571,3,1,0,85,0,1
61029,-56.3380281690141,3,1,0,85,0,1
61096,-55.5555555555556,3,1,0,85,0,1
61275,-56.3339023057466,3,1,0,85,0,1
61454,-57.1344012514719,3,1,0,85,0,1
61632,-57.9579445562711,3,1,0,85,0,1
61811,-58.8056109961788,3,1,0,85,0,1
61989,-59.6784050110763,3,1,0,85,0,1
62168,-60.5775340945506,3,1,0,85,0,1
62346,-61.5041327702015,3,1,0,85,0,1
62436,-61.9781440272902,3,1,0,85,0,1
62525,-62.4595574365598,3,1,0,85,0,1
62614,-62.9484684952358,3,1,0,85,0,1
62704,-63.4450939812177,3,1,0,85,0,1
62882,-64.4622718438466,3,1,0,85,0,1
62971,-64.983169359136,3,1,0,85,0,1
63061,-65.5125538431302,3,1,0,85,0,1
63150,-66.0506344163436,3,1,0,85,0,1
63239,-66.5976714790144,3,1,0,85,0,1
64846,-66.6666666666667,3,1,0,85,0,1
65114,-63.180812745339,3,1,0,85,0,1
65181,-62.3656021274154,3,1,0,85,0,1
65248,-61.5711226509077,3,1,0,85,0,1
65315,-60.7966304075563,3,1,0,85,0,1
65382,-60.0414165691494,3,1,0,85,0,1
65516,-58.5858431996775,3,1,0,85,0,1
65650,-57.199206532607,3,1,0,85,0,1
65717,-56.5301989976065,3,1,0,85,0,1
65784,-55.8766913176003,3,1,0,85,0,1
65851,-55.2380899773248,3,1,0,85,0,1
65918,-54.6139503690265,3,1,0,85,0,1
66007,-53.8033305337667,3,1,0,85,0,1
66096,-53.0164504744177,3,1,0,85,0,1
66186,-52.2522550766985,3,1,0,85,0,1
66275,-51.5097773283836,3,1,0,85,0,1
66364,-50.7880786158827,3,1,0,85,0,1
66461,-50.086348865444,3,1,0,85,0,0
66994,-66.6666666666667,3,1,0,70,0,0
68061,-133.333333333333,3,1,0,70,0,0
69675,-100,3,1,0,70,0,0
70033,-91.681129364824,3,1,0,70,0,0
70390,-84.64003439771,3,1,0,70,0,0
70747,-78.6032516593147,3,1,0,70,0,0
71015,-74.6121102916214,3,1,0,70,0,0
71282,535.714285714286,4,1,0,70,1,8
71283,535.714285714286,4,1,0,70,1,0
71283,-71.0066902503554,3,1,0,70,0,0
71550,-67.73365231368,3,1,0,70,0,0
71818,-64.7491004731217,3,1,0,70,0,0
71997,-62.9013103600975,3,1,0,70,0,0
72175,-61.156057415753,3,1,0,70,0,0
72354,-59.5050725099061,3,1,0,70,0,0
72488,-58.3241375609779,3,1,0,70,0,0
72622,-57.1891967319806,3,1,0,70,0,0
72756,-56.0975513979791,3,1,0,70,0,0
72890,-55.0468310915512,3,1,0,70,0,0
72979,-54.3679481373269,3,1,0,70,0,0
73068,-53.7055774316275,3,1,0,70,0,0
73157,-53.059180087102,3,1,0,70,0,0
73246,-52.4281576955099,3,1,0,70,0,0
73335,-51.8119413053604,3,1,0,70,0,0
73424,-51.2100683091101,3,1,0,70,0,0
73491,-50.7677608472937,3,1,0,70,0,0
73558,-50.3330284829575,3,1,0,70,0,0
73625,-49.9056533623186,3,1,0,70,0,0
73692,-49.4854992641507,3,1,0,70,0,0
73759,-49.0723606308154,3,1,0,70,0,0
73826,-48.6660632074829,3,1,0,70,0,0
73893,-48.2664151664661,3,1,0,70,0,0
73960,-47.8733004379929,3,1,0,70,0,0
74005,-47.6147622904415,3,1,0,70,0,0
74049,-47.359001596472,3,1,0,70,0,0
74094,-47.1059738382843,3,1,0,70,0,0
74161,-46.7314395573225,3,1,0,70,0,0
74228,-46.3628355510223,3,1,0,70,0,0
74295,-46.00000092,3,1,0,70,0,0
74362,-45.6428012630276,3,1,0,70,0,0
74429,-45.2910858084912,3,1,0,70,0,0
74496,-44.9447696198527,3,1,0,70,0,0
74540,-44.7168195609256,3,1,0,70,0,0
74585,-44.4911700599341,3,1,0,70,0,0
74630,-44.2677864645931,3,1,0,70,0,0
74697,-43.9368855426557,3,1,0,70,0,0
74764,-43.6108758546642,3,1,0,70,0,0
74831,-43.2896872276808,3,1,0,70,0,0
74898,-42.973195039862,3,1,0,70,0,0
74965,-42.6612970314137,3,1,0,70,0,0
75032,-42.3538759514269,3,1,0,70,0,0
75076,-42.1513900896181,3,1,0,70,0,0
75121,-41.9508311088905,3,1,0,70,0,0
75165,-41.7521716348272,3,1,0,70,0,0
75232,-41.4576853842589,3,1,0,70,0,0
75299,-41.1673072299672,3,1,0,70,0,0
75434,-40.5986185102094,3,1,0,70,0,0
75501,-40.3201256697677,3,1,0,70,0,0
75568,535.714285714286,3,1,0,70,1,0
75568,-40.0454275329934,3,1,0,70,0,0
76096,-66.6666666666667,3,1,0,70,0,0
78775,-66.6666666666667,3,1,0,70,0,0
80382,-80,3,1,0,70,0,0
80918,-85.7142612244968,3,1,0,70,0,0
81454,-92.3077207100679,3,1,0,70,0,0
81989,-100,3,1,0,70,0,0
87346,-100,3,1,0,70,0,0
87547,-94.7265717506418,3,1,0,70,0,0
87681,-91.5093925240487,3,1,0,70,0,0
88150,-81.7875486635915,3,1,0,70,0,0
88418,-77.1065311545084,3,1,0,70,0,0
92704,-76.9230769230769,3,1,0,70,0,0
92837,-75.4716981132076,3,1,0,70,0,0
92971,-74.0740740740741,3,1,0,70,0,0
93038,-73.394495412844,3,1,0,70,0,0
93105,-72.7272727272727,3,1,0,70,0,0
93172,-72.0720720720721,3,1,0,70,0,0
93239,-71.4285714285714,3,1,0,70,0,0
93329,-70.588218685125,3,1,0,70,0,0
93418,-69.7674580854554,3,1,0,70,0,0
93507,-68.9655172413793,3,1,0,70,0,0
93596,-68.1818026859539,3,1,0,70,0,0
93686,-67.4157454866844,3,1,0,70,0,0
93775,-66.6666666666667,3,1,0,70,0,0
94313,-100,3,1,0,70,0,0
100471,-76.9230769230769,3,1,0,70,0,0
100538,-76.6291745658574,3,1,0,70,0,0
100605,-76.3375095040199,3,1,0,70,0,0
100672,-76.0480562877293,3,1,0,70,0,0
100739,-75.7607324547614,3,1,0,70,0,0
100873,-75.1926623992324,3,1,0,70,0,0
101007,-74.6330479614356,3,1,0,70,0,0
101096,-74.2645764654072,3,1,0,70,0,0
101186,-73.899670850866,3,1,0,70,0,0
101275,-73.5383877738018,3,1,0,70,0,0
101454,-72.8263165177369,3,1,0,70,0,0
101632,-72.1278509434683,3,1,0,70,0,0
101811,-71.4427068784324,3,1,0,70,0,0
101900,-71.104992921498,3,1,0,70,0,0
101989,-70.7704567312966,3,1,0,70,0,0
102168,-70.1106907585696,3,1,0,70,0,0
102346,-69.4631609072445,3,1,0,70,0,0
102443,-69.204152249135,3,1,0,70,0,0
102525,-68.8274351662768,3,1,0,70,0,0
102704,-68.2032867163869,3,1,0,70,0,0
102882,-67.5903564782991,3,1,0,70,0,0
103061,-66.9882998235528,3,1,0,70,0,0
103150,-66.6912979860562,3,1,0,70,0,0
103239,-66.3969181206485,3,1,0,70,0,0
103329,-66.1051256592334,3,1,0,70,0,0
103418,-65.815843321436,3,1,0,70,0,0
103507,-65.5291247471395,3,1,0,70,0,0
103596,-65.2448934453023,3,1,0,70,0,0
103686,-64.9631171902153,3,1,0,70,0,0
103775,-64.6837643104743,3,1,0,70,0,0
103864,-64.4067621947763,3,1,0,70,0,0
103954,-64.1321635626699,3,1,0,70,0,0
104132,-63.589931424618,3,1,0,70,0,0
104311,-63.0567517071039,3,1,0,70,0,0
104407,-62.6959247648903,3,1,0,70,0,0
104489,-62.5,3,1,0,70,0,0
104757,-64.5161290322581,3,1,0,70,0,0
104891,-65.5737704918033,3,1,0,70,0,0
105159,-67.7966101694915,3,1,0,70,0,0
105293,-68.9655172413793,3,1,0,70,0,0
105561,-71.4285714285714,3,1,0,70,0,0
105695,-72.7272727272727,3,1,0,70,0,0
105829,-74.0740740740741,3,1,0,70,0,0
105962,-75.4716981132076,3,1,0,70,0,0
106096,-66.6666666666667,3,1,0,70,0,0
106632,-60.0414165691494,3,1,0,70,0,0
107168,-54.6139503690265,3,1,0,70,0,0
107710,-50.086348865444,3,1,0,85,0,1
112525,-50,3,1,0,85,0,1
112704,-51.4285831836762,3,1,0,85,0,1
112882,-52.9411733564016,3,1,0,85,0,1
113061,-54.5454644628117,3,1,0,85,0,1
113195,-55.8139431043827,3,1,0,85,0,1
113329,-57.1428571428571,3,1,0,85,0,1
113462,-58.5365967876286,3,1,0,85,0,1
113596,-59.9999880000024,3,1,0,85,0,1
113686,-61.0169450158003,3,1,0,85,0,1
113775,-62.06896979786,3,1,0,85,0,1
113864,-63.1579080332438,3,1,0,85,0,1
113954,-64.2856959183726,3,1,0,85,0,1
114043,-65.4545359338857,3,1,0,85,0,1
114132,-66.6666666666667,3,1,0,85,0,1
114311,-64.2856959183726,3,1,0,85,0,1
114400,-63.1579080332438,3,1,0,85,0,1
114489,-62.06896979786,3,1,0,85,0,1
114579,-61.0169450158003,3,1,0,85,0,1
114668,-59.9999880000024,3,1,0,85,0,1
114846,-58.0645236212289,3,1,0,85,0,1
114936,-57.1428571428571,3,1,0,85,0,1
115025,-56.2499929687509,3,1,0,85,0,1
115114,-55.3846017514826,3,1,0,85,0,1
115204,-54.5454644628117,3,1,0,85,0,1
115382,-52.9411733564016,3,1,0,85,0,1
115471,-52.1739039697558,3,1,0,85,0,1
115561,-51.4285831836762,3,1,0,85,0,1
115650,-50.7042310652655,3,1,0,85,0,1
115739,-50,3,1,0,85,0,1
115918,-48.6486381300242,3,1,0,85,0,1
116007,-48.0000076800012,3,1,0,85,0,1
116096,-47.3684235457065,3,1,0,85,0,1
116186,-46.7532443245068,3,1,0,85,0,1
116275,-46.1538390532555,3,1,0,85,0,1
116364,-45.5696294824566,3,1,0,85,0,1
116454,-45.0000045000005,3,1,0,85,0,1
116543,-44.4444444444444,3,1,0,85,0,1
116632,-43.9024347412259,3,1,0,85,0,1
116721,-43.3734856147498,3,1,0,85,0,1
116811,-42.8571489795927,3,1,0,85,0,1
116878,-42.477870091629,3,1,0,85,0,1
116945,-42.1052631578947,3,1,0,85,0,1
117012,-41.7391362419668,3,1,0,85,0,1
117079,-41.3793046373373,3,1,0,85,0,1
117145,-41.025641025641,3,1,0,85,0,1
117212,-40.6779716173521,3,1,0,85,0,1
117279,-40.3361290304364,3,1,0,85,0,1
117346,-40,3,1,0,85,0,1
117480,-25,3,1,0,85,0,1
118418,-50,3,1,0,85,0,1
118485,-47.0588235294118,3,1,0,85,0,1
118552,-44.4444444444444,3,1,0,85,0,1
118619,-42.1052631578947,3,1,0,85,0,1
118686,-40,3,1,0,100,0,1
118819,-36.3636363636364,3,1,0,100,0,1
118960,-33.3333333333333,3,1,0,100,0,0

[HitObjects]
256,192,4320,5,0,0:0:0:0:
256,192,4588,1,0,0:0:0:0:
256,192,4856,1,0,0:0:0:0:
256,192,5392,1,8,0:0:0:0:
256,192,5927,1,0,0:0:0:0:
256,192,6463,1,0,0:0:0:0:
256,192,6999,1,8,0:0:0:0:
256,192,7802,1,0,0:0:0:0:
256,192,8070,1,8,0:0:0:0:
256,192,8874,1,0,0:0:0:0:
256,192,9142,1,8,0:0:0:0:
256,192,9409,1,0,0:0:0:0:
256,192,9677,1,0,0:0:0:0:
256,192,10213,1,0,0:0:0:0:
256,192,11017,1,0,0:0:0:0:
256,192,11284,1,0,0:0:0:0:
256,192,11820,1,8,0:0:0:0:
256,192,12356,1,0,0:0:0:0:
256,192,12892,1,0,0:0:0:0:
256,192,13427,1,8,0:0:0:0:
256,192,14231,1,0,0:0:0:0:
256,192,14499,1,8,0:0:0:0:
256,192,15302,1,0,0:0:0:0:
256,192,15570,1,8,0:0:0:0:
256,192,15838,1,0,0:0:0:0:
256,192,16106,1,0,0:0:0:0:
256,192,16374,1,0,0:0:0:0:
256,192,16463,1,8,0:0:0:0:
256,192,16552,1,0,0:0:0:0:
256,192,16642,1,8,0:0:0:0:
256,192,16708,1,8,0:0:0:0:
256,192,16775,1,8,0:0:0:0:
256,192,16842,1,8,0:0:0:0:
256,192,16909,1,0,0:0:0:0:
256,192,17043,1,0,0:0:0:0:
256,192,17177,1,8,0:0:0:0:
256,192,17267,1,8,0:0:0:0:
256,192,17356,1,8,0:0:0:0:
256,192,17445,1,0,0:0:0:0:
256,192,17579,1,0,0:0:0:0:
256,192,17713,1,12,0:0:0:0:
256,192,18249,1,8,0:0:0:0:
256,192,18517,1,0,0:0:0:0:
256,192,18650,1,0,0:0:0:0:
256,192,18784,1,8,0:0:0:0:
256,192,19052,1,0,0:0:0:0:
256,192,19119,1,0,0:0:0:0:
256,192,19186,1,0,0:0:0:0:
256,192,19253,1,0,0:0:0:0:
256,192,19320,1,8,0:0:0:0:
256,192,19454,1,0,0:0:0:0:
256,192,19722,1,0,0:0:0:0:
256,192,19856,1,8,0:0:0:0:
256,192,20124,1,0,0:0:0:0:
256,192,20191,1,0,0:0:0:0:
256,192,20258,1,0,0:0:0:0:
256,192,20325,1,0,0:0:0:0:
256,192,20392,1,8,0:0:0:0:
256,192,20525,1,0,0:0:0:0:
256,192,20659,1,8,0:0:0:0:
256,192,20927,1,8,0:0:0:0:
256,192,21195,1,0,0:0:0:0:
256,192,21262,1,0,0:0:0:0:
256,192,21329,1,0,0:0:0:0:
256,192,21396,1,0,0:0:0:0:
256,192,21463,1,8,0:0:0:0:
256,192,21731,1,8,0:0:0:0:
256,192,21865,1,0,0:0:0:0:
256,192,21999,1,8,0:0:0:0:
256,192,22267,1,0,0:0:0:0:
256,192,22333,1,0,0:0:0:0:
256,192,22400,1,0,0:0:0:0:
256,192,22467,1,0,0:0:0:0:
256,192,22534,1,8,0:0:0:0:
256,192,22668,1,8,0:0:0:0:
256,192,22802,1,0,0:0:0:0:
256,192,22936,1,0,0:0:0:0:
256,192,23070,1,8,0:0:0:0:
256,192,23338,1,0,0:0:0:0:
256,192,23472,1,0,0:0:0:0:
256,192,23606,1,8,0:0:0:0:
256,192,23874,1,0,0:0:0:0:
256,192,23963,1,0,0:0:0:0:
256,192,24052,1,0,0:0:0:0:
256,192,24142,1,12,0:0:0:0:
256,192,24320,1,0,0:0:0:0:
256,192,24499,1,0,0:0:0:0:
256,192,24677,1,8,0:0:0:0:
256,192,24767,1,8,0:0:0:0:
256,192,24856,1,0,0:0:0:0:
256,192,25034,1,8,0:0:0:0:
256,192,25213,1,8,0:0:0:0:
256,192,25302,1,8,0:0:0:0:
256,192,25392,1,0,0:0:0:0:
256,192,25570,1,0,0:0:0:0:
256,192,25749,1,12,0:0:0:0:
256,192,25927,1,8,0:0:0:0:
256,192,26017,1,0,0:0:0:0:
256,192,26106,1,8,0:0:0:0:
256,192,26195,1,0,0:0:0:0:
256,192,26284,1,8,0:0:0:0:
256,192,26374,1,0,0:0:0:0:
256,192,26463,1,8,0:0:0:0:
256,192,26552,1,8,0:0:0:0:
256,192,26642,1,0,0:0:0:0:
256,192,26820,1,8,0:0:0:0:
256,192,26999,1,0,0:0:0:0:
256,192,27088,1,0,0:0:0:0:
256,192,27177,1,8,0:0:0:0:
256,192,27356,1,12,0:0:0:0:
256,192,27891,1,0,0:0:0:0:
256,192,28829,1,0,0:0:0:0:
256,192,28963,1,0,0:0:0:0:
256,192,29320,1,0,0:0:0:0:
256,192,29498,1,8,0:0:0:0:
256,192,29677,1,0,0:0:0:0:
256,192,29856,1,0,0:0:0:0:
256,192,30034,1,8,0:0:0:0:
256,192,30123,1,0,0:0:0:0:
256,192,30212,1,8,0:0:0:0:
256,192,30301,1,8,0:0:0:0:
256,192,30391,1,0,0:0:0:0:
256,192,30480,1,0,0:0:0:0:
256,192,30569,1,8,0:0:0:0:
256,192,30926,1,0,0:0:0:0:
256,192,31016,1,0,0:0:0:0:
256,192,31105,1,12,0:0:0:0:
256,192,31283,1,0,0:0:0:0:
256,192,31462,1,0,0:0:0:0:
256,192,31640,1,8,0:0:0:0:
256,192,31819,1,0,0:0:0:0:
256,192,31997,1,0,0:0:0:0:
256,192,32176,1,0,0:0:0:0:
256,192,32243,1,0,0:0:0:0:
256,192,32310,1,8,0:0:0:0:
256,192,32377,1,8,0:0:0:0:
256,192,32533,1,0,0:0:0:0:
256,192,32712,1,8,0:0:0:0:
256,192,32890,1,0,0:0:0:0:
256,192,33069,1,0,0:0:0:0:
256,192,33247,1,8,0:0:0:0:
256,192,33381,1,8,0:0:0:0:
256,192,33515,1,0,0:0:0:0:
256,192,33649,1,0,0:0:0:0:
256,192,33783,1,8,0:0:0:0:
256,192,33962,1,0,0:0:0:0:
256,192,34140,1,0,0:0:0:0:
256,192,34319,1,8,0:0:0:0:
256,192,34497,1,0,0:0:0:0:
256,192,34676,1,0,0:0:0:0:
256,192,34855,1,8,0:0:0:0:
256,192,35033,1,0,0:0:0:0:
256,192,35212,1,0,0:0:0:0:
256,192,35390,1,0,0:0:0:0:
256,192,35457,1,0,0:0:0:0:
256,192,35524,1,8,0:0:0:0:
256,192,35591,1,8,0:0:0:0:
256,192,35747,1,0,0:0:0:0:
256,192,35926,1,8,0:0:0:0:
256,192,36105,1,0,0:0:0:0:
256,192,36283,1,0,0:0:0:0:
256,192,36462,1,8,0:0:0:0:
256,192,36596,1,8,0:0:0:0:
256,192,36730,1,0,0:0:0:0:
256,192,36863,1,0,0:0:0:0:
256,192,36997,1,8,0:0:0:0:
256,192,37087,1,0,0:0:0:0:
256,192,37176,1,8,0:0:0:0:
256,192,37265,1,8,0:0:0:0:
256,192,37355,1,0,0:0:0:0:
256,192,37444,1,0,0:0:0:0:
256,192,37533,1,12,0:0:0:0:
256,192,37800,1,0,0:0:0:0:
256,192,38068,1,8,0:0:0:0:
256,192,38202,1,8,0:0:0:0:
256,192,38336,1,0,0:0:0:0:
256,192,38604,1,8,0:0:0:0:
256,192,38671,1,8,0:0:0:0:
256,192,38738,1,8,0:0:0:0:
256,192,38805,1,8,0:0:0:0:
256,192,38872,1,0,0:0:0:0:
256,192,39006,1,0,0:0:0:0:
256,192,39140,1,8,0:0:0:0:
256,192,39318,1,0,0:0:0:0:
256,192,39497,1,0,0:0:0:0:
256,192,39675,1,8,0:0:0:0:
256,192,39854,1,0,0:0:0:0:
256,192,40033,1,0,0:0:0:0:
256,192,40211,1,8,0:0:0:0:
256,192,40390,1,0,0:0:0:0:
256,192,40568,1,0,0:0:0:0:
256,192,40747,1,8,0:0:0:0:
256,192,40836,1,8,0:0:0:0:
256,192,40925,1,0,0:0:0:0:
256,192,41015,1,0,0:0:0:0:
256,192,41104,1,0,0:0:0:0:
256,192,41193,1,0,0:0:0:0:
256,192,41283,1,8,0:0:0:0:
256,192,41372,1,8,0:0:0:0:
256,192,41461,1,0,0:0:0:0:
256,192,41550,1,0,0:0:0:0:
256,192,41640,1,0,0:0:0:0:
256,192,41729,1,0,0:0:0:0:
256,192,41818,1,8,0:0:0:0:
256,192,41908,1,0,0:0:0:0:
256,192,41997,1,8,0:0:0:0:
256,192,42086,1,8,0:0:0:0:
256,192,42175,1,0,0:0:0:0:
256,192,42265,1,0,0:0:0:0:
256,192,42354,1,8,0:0:0:0:
256,192,42890,1,0,0:0:0:0:
256,192,42979,1,0,0:0:0:0:
256,192,43068,1,8,0:0:0:0:
256,192,43158,1,8,0:0:0:0:
256,192,43247,1,0,0:0:0:0:
256,192,43336,1,0,0:0:0:0:
256,192,43425,1,8,0:0:0:0:
256,192,43693,1,0,0:0:0:0:
256,192,43827,1,0,0:0:0:0:
256,192,43961,1,12,0:0:0:0:
256,192,44229,1,0,0:0:0:0:
256,192,44318,1,0,0:0:0:0:
256,192,44408,1,0,0:0:0:0:
256,192,44497,1,8,0:0:0:0:
256,192,44765,1,0,0:0:0:0:
256,192,44832,1,0,0:0:0:0:
256,192,44899,1,0,0:0:0:0:
256,192,44966,1,0,0:0:0:0:
256,192,45033,1,8,0:0:0:0:
256,192,45300,1,8,0:0:0:0:
256,192,45434,1,8,0:0:0:0:
256,192,45568,1,8,0:0:0:0:
256,192,45836,1,8,0:0:0:0:
256,192,45970,1,0,0:0:0:0:
256,192,46037,1,0,0:0:0:0:
256,192,46104,1,8,0:0:0:0:
256,192,46372,1,0,0:0:0:0:
256,192,46439,1,0,0:0:0:0:
256,192,46506,1,0,0:0:0:0:
256,192,46573,1,0,0:0:0:0:
256,192,46640,1,8,0:0:0:0:
256,192,46774,1,8,0:0:0:0:
256,192,46908,1,0,0:0:0:0:
256,192,47041,1,0,0:0:0:0:
256,192,47175,1,8,0:0:0:0:
256,192,47443,1,0,0:0:0:0:
256,192,47577,1,0,0:0:0:0:
256,192,47711,1,8,0:0:0:0:
256,192,47979,1,0,0:0:0:0:
256,192,48046,1,0,0:0:0:0:
256,192,48113,1,0,0:0:0:0:
256,192,48180,1,0,0:0:0:0:
256,192,48247,1,8,0:0:0:0:
256,192,48515,1,8,0:0:0:0:
256,192,48582,1,0,0:0:0:0:
256,192,48649,1,8,0:0:0:0:
256,192,48716,1,0,0:0:0:0:
256,192,48783,1,8,0:0:0:0:
256,192,49050,1,8,0:0:0:0:
256,192,49184,1,0,0:0:0:0:
256,192,49251,1,0,0:0:0:0:
256,192,49318,1,8,0:0:0:0:
256,192,49586,1,0,0:0:0:0:
256,192,49653,1,0,0:0:0:0:
256,192,49720,1,0,0:0:0:0:
256,192,49787,1,0,0:0:0:0:
256,192,49854,1,8,0:0:0:0:
256,192,49988,1,8,0:0:0:0:
256,192,50122,1,0,0:0:0:0:
256,192,50256,1,0,0:0:0:0:
256,192,50390,1,12,0:0:0:0:
256,192,50658,1,0,0:0:0:0:
256,192,50791,1,0,0:0:0:0:
256,192,50925,1,8,0:0:0:0:
256,192,51193,1,0,0:0:0:0:
256,192,51260,1,0,0:0:0:0:
256,192,51327,1,0,0:0:0:0:
256,192,51394,1,0,0:0:0:0:
256,192,51461,1,8,0:0:0:0:
256,192,51595,1,8,0:0:0:0:
256,192,51729,1,0,0:0:0:0:
256,192,51863,1,0,0:0:0:0:
256,192,51930,1,0,0:0:0:0:
256,192,51997,1,8,0:0:0:0:
256,192,52265,1,8,0:0:0:0:
256,192,52332,1,8,0:0:0:0:
256,192,52399,1,0,0:0:0:0:
256,192,52466,1,0,0:0:0:0:
256,192,52533,1,8,0:0:0:0:
256,192,52800,1,0,0:0:0:0:
256,192,52867,1,0,0:0:0:0:
256,192,52934,1,0,0:0:0:0:
256,192,53001,1,0,0:0:0:0:
256,192,53068,1,8,0:0:0:0:
256,192,53336,1,8,0:0:0:0:
256,192,53470,1,0,0:0:0:0:
256,192,53537,1,0,0:0:0:0:
256,192,53604,1,12,0:0:0:0:
256,192,53783,1,4,0:0:0:0:
256,192,53961,1,4,0:0:0:0:
256,192,54140,1,12,0:0:0:0:
256,192,54318,1,4,0:0:0:0:
256,192,54497,1,4,0:0:0:0:
256,192,54675,1,12,0:0:0:0:
256,192,54854,1,0,0:0:0:0:
256,192,54943,1,8,0:0:0:0:
256,192,55033,1,0,0:0:0:0:
256,192,55122,1,0,0:0:0:0:
256,192,55211,1,12,0:0:0:0:
256,192,55479,1,0,0:0:0:0:
256,192,55613,1,0,0:0:0:0:
256,192,55680,1,0,0:0:0:0:
256,192,55747,1,8,0:0:0:0:
256,192,56015,1,0,0:0:0:0:
256,192,56149,1,0,0:0:0:0:
256,192,56283,1,8,0:0:0:0:
256,192,56372,1,8,0:0:0:0:
256,192,56461,1,0,0:0:0:0:
256,192,56550,1,8,0:0:0:0:
256,192,56640,1,8,0:0:0:0:
256,192,56729,1,8,0:0:0:0:
256,192,56818,1,0,0:0:0:0:
256,192,57354,1,12,0:0:0:0:
256,192,57533,1,0,0:0:0:0:
256,192,57711,1,0,0:0:0:0:
256,192,57890,1,8,0:0:0:0:
256,192,58024,1,8,0:0:0:0:
256,192,58158,1,0,0:0:0:0:
256,192,58291,1,0,0:0:0:0:
256,192,58425,1,8,0:0:0:0:
256,192,58693,1,0,0:0:0:0:
256,192,58827,1,0,0:0:0:0:
256,192,58894,1,0,0:0:0:0:
256,192,58961,1,8,0:0:0:0:
256,192,59229,1,0,0:0:0:0:
256,192,59296,1,0,0:0:0:0:
256,192,59363,1,0,0:0:0:0:
256,192,59430,1,0,0:0:0:0:
256,192,59497,1,8,0:0:0:0:
256,192,59631,1,0,0:0:0:0:
256,192,59765,1,8,0:0:0:0:
256,192,59832,1,8,0:0:0:0:
256,192,59899,1,0,0:0:0:0:
256,192,59966,1,0,0:0:0:0:
256,192,60033,1,8,0:0:0:0:
256,192,60300,1,0,0:0:0:0:
256,192,60434,1,0,0:0:0:0:
256,192,60568,1,8,0:0:0:0:
256,192,60635,1,0,0:0:0:0:
256,192,60702,1,0,0:0:0:0:
256,192,60769,1,8,0:0:0:0:
256,192,60836,1,0,0:0:0:0:
256,192,60903,1,0,0:0:0:0:
256,192,60970,1,8,0:0:0:0:
256,192,61037,1,8,0:0:0:0:
256,192,61104,1,4,0:0:0:0:
256,192,61283,1,12,0:0:0:0:
256,192,61461,1,12,0:0:0:0:
256,192,61640,1,4,0:0:0:0:
256,192,61818,1,12,0:0:0:0:
256,192,61997,1,12,0:0:0:0:
256,192,62175,1,4,0:0:0:0:
256,192,62354,1,8,0:0:0:0:
256,192,62443,1,8,0:0:0:0:
256,192,62533,1,0,0:0:0:0:
256,192,62622,1,0,0:0:0:0:
256,192,62711,1,12,0:0:0:0:
256,192,62890,1,0,0:0:0:0:
256,192,62979,1,8,0:0:0:0:
256,192,63068,1,0,0:0:0:0:
256,192,63158,1,0,0:0:0:0:
256,192,63247,1,12,0:0:0:0:
256,192,63515,1,0,0:0:0:0:
256,192,63783,1,8,0:0:0:0:
256,192,64050,1,8,0:0:0:0:
256,192,64184,1,8,0:0:0:0:
256,192,64318,1,0,0:0:0:0:
256,192,64586,1,0,0:0:0:0:
256,192,64720,1,0,0:0:0:0:
256,192,64854,1,8,0:0:0:0:
256,192,65122,1,0,0:0:0:0:
256,192,65189,1,0,0:0:0:0:
256,192,65256,1,0,0:0:0:0:
256,192,65323,1,0,0:0:0:0:
256,192,65390,1,8,0:0:0:0:
256,192,65524,1,0,0:0:0:0:
256,192,65658,1,8,0:0:0:0:
256,192,65724,1,8,0:0:0:0:
256,192,65791,1,0,0:0:0:0:
256,192,65858,1,0,0:0:0:0:
256,192,65925,1,8,0:0:0:0:
256,192,66015,1,0,0:0:0:0:
256,192,66104,1,8,0:0:0:0:
256,192,66193,1,8,0:0:0:0:
256,192,66283,1,0,0:0:0:0:
256,192,66372,1,8,0:0:0:0:
256,192,66461,1,4,0:0:0:0:
256,192,68068,1,8,0:0:0:0:
256,192,69140,1,0,0:0:0:0:
256,192,69675,1,8,0:0:0:0:
256,192,70033,1,0,0:0:0:0:
256,192,70390,1,8,0:0:0:0:
256,192,70747,1,0,0:0:0:0:
256,192,71015,1,8,0:0:0:0:
256,192,71283,1,0,0:0:0:0:
256,192,71550,1,0,0:0:0:0:
256,192,71818,1,8,0:0:0:0:
256,192,71997,1,0,0:0:0:0:
256,192,72175,1,0,0:0:0:0:
256,192,72354,1,8,0:0:0:0:
256,192,72488,1,0,0:0:0:0:
256,192,72622,1,0,0:0:0:0:
256,192,72756,1,0,0:0:0:0:
256,192,72890,1,8,0:0:0:0:
256,192,72979,1,8,0:0:0:0:
256,192,73068,1,0,0:0:0:0:
256,192,73158,1,0,0:0:0:0:
256,192,73247,1,0,0:0:0:0:
256,192,73336,1,0,0:0:0:0:
256,192,73425,1,8,0:0:0:0:
256,192,73492,1,8,0:0:0:0:
256,192,73559,1,0,0:0:0:0:
256,192,73626,1,0,0:0:0:0:
256,192,73693,1,0,0:0:0:0:
256,192,73760,1,0,0:0:0:0:
256,192,73827,1,0,0:0:0:0:
256,192,73894,1,0,0:0:0:0:
256,192,73961,1,8,0:0:0:0:
256,192,74006,1,8,0:0:0:0:
256,192,74050,1,8,0:0:0:0:
256,192,74095,1,0,0:0:0:0:
256,192,74162,1,0,0:0:0:0:
256,192,74229,1,0,0:0:0:0:
256,192,74296,1,0,0:0:0:0:
256,192,74363,1,0,0:0:0:0:
256,192,74430,1,0,0:0:0:0:
256,192,74497,1,8,0:0:0:0:
256,192,74541,1,8,0:0:0:0:
256,192,74586,1,8,0:0:0:0:
256,192,74631,1,0,0:0:0:0:
256,192,74698,1,0,0:0:0:0:
256,192,74765,1,0,0:0:0:0:
256,192,74832,1,0,0:0:0:0:
256,192,74899,1,0,0:0:0:0:
256,192,74966,1,0,0:0:0:0:
256,192,75033,1,8,0:0:0:0:
256,192,75077,1,8,0:0:0:0:
256,192,75122,1,8,0:0:0:0:
256,192,75166,1,0,0:0:0:0:
256,192,75233,1,0,0:0:0:0:
256,192,75300,1,8,0:0:0:0:
256,192,75434,1,0,0:0:0:0:
256,192,75501,1,0,0:0:0:0:
256,192,75568,1,12,0:0:0:0:
256,192,77175,1,0,0:0:0:0:
256,192,77443,1,8,0:0:0:0:
256,192,77710,1,8,0:0:0:0:
256,192,78514,1,0,0:0:0:0:
256,192,78648,1,0,0:0:0:0:
256,192,78782,1,12,0:0:0:0:
256,192,80389,1,8,0:0:0:0:
256,192,80925,1,8,0:0:0:0:
256,192,81460,1,8,0:0:0:0:
256,192,81996,1,4,0:0:0:0:
256,192,82532,1,8,0:0:0:0:
256,192,83068,1,0,0:0:0:0:
256,192,83335,1,0,0:0:0:0:
256,192,83603,1,8,0:0:0:0:
256,192,84139,1,0,0:0:0:0:
256,192,84273,1,8,0:0:0:0:
256,192,84407,1,0,0:0:0:0:
256,192,84541,1,8,0:0:0:0:
256,192,84675,1,0,0:0:0:0:
256,192,84943,1,0,0:0:0:0:
256,192,85210,1,8,0:0:0:0:
256,192,86014,1,8,0:0:0:0:
256,192,86148,1,0,0:0:0:0:
256,192,86215,1,0,0:0:0:0:
256,192,86282,1,8,0:0:0:0:
256,192,86550,1,0,0:0:0:0:
256,192,86818,1,8,0:0:0:0:
256,192,87353,1,8,0:0:0:0:
256,192,87554,1,0,0:0:0:0:
256,192,87688,1,8,0:0:0:0:
256,192,88157,1,8,0:0:0:0:
256,192,88425,1,12,0:0:0:0:
256,192,88960,1,0,0:0:0:0:
256,192,89228,1,8,0:0:0:0:
256,192,89496,1,0,0:0:0:0:
256,192,89764,1,0,0:0:0:0:
256,192,89898,1,0,0:0:0:0:
256,192,90032,1,8,0:0:0:0:
256,192,90568,1,0,0:0:0:0:
256,192,90634,1,0,0:0:0:0:
256,192,90835,1,8,0:0:0:0:
256,192,91371,1,0,0:0:0:0:
256,192,91505,1,8,0:0:0:0:
256,192,91639,1,8,0:0:0:0:
256,192,92041,1,0,0:0:0:0:
256,192,92175,1,8,0:0:0:0:
256,192,92443,1,0,0:0:0:0:
256,192,92710,1,8,0:0:0:0:
256,192,92844,1,8,0:0:0:0:
256,192,92978,1,0,0:0:0:0:
256,192,93045,1,0,0:0:0:0:
256,192,93112,1,0,0:0:0:0:
256,192,93179,1,0,0:0:0:0:
256,192,93246,1,8,0:0:0:0:
256,192,93335,1,8,0:0:0:0:
256,192,93425,1,0,0:0:0:0:
256,192,93514,1,8,0:0:0:0:
256,192,93603,1,0,0:0:0:0:
256,192,93693,1,0,0:0:0:0:
256,192,93782,1,12,0:0:0:0:
256,192,94318,1,0,0:0:0:0:
256,192,94585,1,8,0:0:0:0:
256,192,94853,1,4,0:0:0:0:
256,192,95389,1,8,0:0:0:0:
256,192,95925,1,0,0:0:0:0:
256,192,96460,1,0,0:0:0:0:
256,192,96996,1,8,0:0:0:0:
256,192,97800,1,0,0:0:0:0:
256,192,98068,1,12,0:0:0:0:
256,192,98871,1,0,0:0:0:0:
256,192,99139,1,8,0:0:0:0:
256,192,99407,1,8,0:0:0:0:
256,192,99675,1,0,0:0:0:0:
256,192,100166,1,8,0:0:0:0:
256,192,100210,1,8,0:0:0:0:
256,192,100478,1,0,0:0:0:0:
256,192,100545,1,0,0:0:0:0:
256,192,100612,1,0,0:0:0:0:
256,192,100679,1,0,0:0:0:0:
256,192,100746,1,8,0:0:0:0:
256,192,100880,1,0,0:0:0:0:
256,192,101014,1,8,0:0:0:0:
256,192,101103,1,0,0:0:0:0:
256,192,101193,1,0,0:0:0:0:
256,192,101282,1,12,0:0:0:0:
256,192,101460,1,0,0:0:0:0:
256,192,101639,1,0,0:0:0:0:
256,192,101818,1,8,0:0:0:0:
256,192,101907,1,8,0:0:0:0:
256,192,101996,1,0,0:0:0:0:
256,192,102175,1,8,0:0:0:0:
256,192,102353,1,8,0:0:0:0:
256,192,102443,1,0,0:0:0:0:
256,192,102532,1,0,0:0:0:0:
256,192,102710,1,0,0:0:0:0:
256,192,102889,1,12,0:0:0:0:
256,192,103068,1,8,0:0:0:0:
256,192,103157,1,0,0:0:0:0:
256,192,103246,1,8,0:0:0:0:
256,192,103335,1,0,0:0:0:0:
256,192,103425,1,8,0:0:0:0:
256,192,103514,1,0,0:0:0:0:
256,192,103603,1,8,0:0:0:0:
256,192,103693,1,0,0:0:0:0:
256,192,103782,1,8,0:0:0:0:
256,192,103871,1,8,0:0:0:0:
256,192,103960,1,0,0:0:0:0:
256,192,104139,1,8,0:0:0:0:
256,192,104318,1,0,0:0:0:0:
256,192,104407,1,0,0:0:0:0:
256,192,104496,1,12,0:0:0:0:
256,192,104764,1,0,0:0:0:0:
256,192,104898,1,12,0:0:0:0:
256,192,105166,1,0,0:0:0:0:
256,192,105300,1,12,0:0:0:0:
256,192,105568,1,0,0:0:0:0:
256,192,105701,1,8,0:0:0:0:
256,192,105835,1,0,0:0:0:0:
256,192,105969,1,0,0:0:0:0:
256,192,106103,1,12,0:0:0:0:
256,192,106639,1,4,0:0:0:0:
256,192,107175,1,12,0:0:0:0:
256,192,107710,1,12,0:0:0:0:
256,192,107978,1,0,0:0:0:0:
256,192,108112,1,0,0:0:0:0:
256,192,108246,1,8,0:0:0:0:
256,192,108514,1,0,0:0:0:0:
256,192,108581,1,0,0:0:0:0:
256,192,108648,1,0,0:0:0:0:
256,192,108715,1,0,0:0:0:0:
256,192,108782,1,8,0:0:0:0:
256,192,108916,1,0,0:0:0:0:
256,192,109050,1,8,0:0:0:0:
256,192,109184,1,0,0:0:0:0:
256,192,109318,1,8,0:0:0:0:
256,192,109585,1,0,0:0:0:0:
256,192,109719,1,0,0:0:0:0:
256,192,109786,1,0,0:0:0:0:
256,192,109853,1,8,0:0:0:0:
256,192,110121,1,0,0:0:0:0:
256,192,110255,1,0,0:0:0:0:
256,192,110322,1,0,0:0:0:0:
256,192,110389,1,8,0:0:0:0:
256,192,110568,1,0,0:0:0:0:
256,192,110657,1,8,0:0:0:0:
256,192,110746,1,0,0:0:0:0:
256,192,110835,1,0,0:0:0:0:
256,192,110925,1,8,0:0:0:0:
256,192,111193,1,0,0:0:0:0:
256,192,111326,1,0,0:0:0:0:
256,192,111393,1,0,0:0:0:0:
256,192,111460,1,8,0:0:0:0:
256,192,111594,1,0,0:0:0:0:
256,192,111728,1,8,0:0:0:0:
256,192,111862,1,8,0:0:0:0:
256,192,112130,1,8,0:0:0:0:
256,192,112264,1,0,0:0:0:0:
256,192,112331,1,0,0:0:0:0:
256,192,112398,1,0,0:0:0:0:
256,192,112465,1,0,0:0:0:0:
256,192,112532,1,8,0:0:0:0:
256,192,112710,1,0,0:0:0:0:
256,192,112889,1,0,0:0:0:0:
256,192,113068,1,8,0:0:0:0:
256,192,113201,1,8,0:0:0:0:
256,192,113335,1,0,0:0:0:0:
256,192,113469,1,0,0:0:0:0:
256,192,113603,1,8,0:0:0:0:
256,192,113693,1,8,0:0:0:0:
256,192,113782,1,0,0:0:0:0:
256,192,113871,1,8,0:0:0:0:
256,192,113960,1,0,0:0:0:0:
256,192,114050,1,0,0:0:0:0:
256,192,114139,1,12,0:0:0:0:
256,192,114318,1,0,0:0:0:0:
256,192,114407,1,8,0:0:0:0:
256,192,114496,1,0,0:0:0:0:
256,192,114585,1,0,0:0:0:0:
256,192,114675,1,12,0:0:0:0:
256,192,114853,1,8,0:0:0:0:
256,192,114943,1,8,0:0:0:0:
256,192,115032,1,0,0:0:0:0:
256,192,115121,1,0,0:0:0:0:
256,192,115210,1,12,0:0:0:0:
256,192,115389,1,0,0:0:0:0:
256,192,115478,1,8,0:0:0:0:
256,192,115568,1,8,0:0:0:0:
256,192,115657,1,0,0:0:0:0:
256,192,115746,1,12,0:0:0:0:
256,192,115925,1,0,0:0:0:0:
256,192,116014,1,8,0:0:0:0:
256,192,116103,1,0,0:0:0:0:
256,192,116193,1,0,0:0:0:0:
256,192,116282,1,8,0:0:0:0:
256,192,116371,1,0,0:0:0:0:
256,192,116460,1,8,0:0:0:0:
256,192,116550,1,0,0:0:0:0:
256,192,116639,1,8,0:0:0:0:
256,192,116728,1,0,0:0:0:0:
256,192,116818,1,8,0:0:0:0:
256,192,116884,1,8,0:0:0:0:
256,192,116951,1,8,0:0:0:0:
256,192,117018,1,8,0:0:0:0:
256,192,117085,1,0,0:0:0:0:
256,192,117152,1,0,0:0:0:0:
256,192,117219,1,0,0:0:0:0:
256,192,117286,1,0,0:0:0:0:
256,192,117353,1,12,0:0:0:0:
256,192,117487,12,0,118291,0:0:0:0:
256,192,118425,5,8,0:0:0:0:
256,192,118492,1,8,0:0:0:0:
256,192,118559,1,0,0:0:0:0:
256,192,118626,1,0,0:0:0:0:
256,192,118693,1,12,0:0:0:0:
256,192,118826,1,12,0:0:0:0:
256,192,118960,1,4,0:0:0:0:
