osu file format v14

[General]
AudioFilename: audio.mp3
AudioLeadIn: 0
PreviewTime: 659
Countdown: 0
SampleSet: Soft
StackLeniency: 0.2
Mode: 0
LetterboxInBreaks: 0
WidescreenStoryboard: 0

[Editor]
DistanceSpacing: 1.5
BeatDivisor: 4
GridSize: 4
TimelineZoom: 2

[Metadata]
Title:KOROBEINIKI BEATBOX
TitleUnicode:KOROBEINIKI BEATBOX
Artist:Verbalase
ArtistUnicode:Verbalase
Creator:san undertal
Version:T-SPIN TRIPLE
Source:TETRIS
Tags:tetris 99 friends arena battle puyo beat box meme
BeatmapID:1968274
BeatmapSetID:942549

[Difficulty]
HPDrainRate:6
CircleSize:4.4
OverallDifficulty:8
ApproachRate:9.6
SliderMultiplier:2
SliderTickRate:1

[Events]
//Background and Video events
0,0,"tetris.png",0,0
Video,0,"TETRISBEATBOX.mp4"
//Break Periods
//Storyboard Layer 0 (Background)
//Storyboard Layer 1 (Fail)
//Storyboard Layer 2 (Pass)
//Storyboard Layer 3 (Foreground)
//Storyboard Sound Samples

[TimingPoints]
659.538461538461,400,4,2,0,100,1,0
5859,394.736842105263,4,2,0,100,1,0
6253,375,4,2,0,100,1,0
6628,363.636363636364,4,2,0,100,1,0
6628,-45.045045045045,4,2,0,100,0,0
6991,400,4,2,0,100,1,0
8191,405.405405405405,4,2,0,100,1,0
8596,394.736842105263,4,2,0,100,1,0
9385,384.615384615385,4,2,0,100,1,0
12461,361.44578313253,4,2,0,100,1,0
12822,350.877192982456,4,2,0,100,1,0
12822,-34.7222222222222,4,2,0,100,0,0
13172,370.37037037037,4,2,0,100,1,0
13172,-69.4444444444444,4,2,0,100,0,0
13542,-34.7222222222222,4,2,0,100,0,0
13912,-69.4444444444444,4,2,0,100,0,0
15023,-34.7222222222222,4,2,0,100,0,0
15394,357.142857142857,4,2,0,100,1,0
15394,-69.4444444444444,4,2,0,100,0,0
16465,-34.7222222222222,4,2,0,100,0,0
16822,-69.4444444444444,4,2,0,100,0,0
17536,365.853658536585,4,2,0,100,1,0
17536,-69.4444444444444,4,2,0,100,0,0
17901,-34.7222222222222,4,2,0,100,0,0
18267,-69.4444444444444,4,2,0,100,0,0
18816,-36.101083032491,4,2,0,100,0,0
18999,-69.4444444444444,4,2,0,100,0,0
19365,-34.7222222222222,4,2,0,100,0,0
19731,-69.4444444444444,4,2,0,100,0,0
20828,-34.7222222222222,4,2,0,100,0,0
21194,-69.4444444444444,4,2,0,100,0,0
21560,361.44578313253,4,2,0,100,1,0
21560,-69.4444444444444,4,2,0,100,0,0
22282,-34.7222222222222,4,2,0,100,0,0
22463,-69.4444444444444,4,2,0,100,0,0
23005,365.853658536585,4,2,0,100,1,0
23005,-69.4444444444444,4,2,0,100,0,0
23370,361.44578313253,4,2,0,100,1,0
23370,-69.4444444444444,4,2,0,100,0,0
23731,-53.1914893617021,4,2,0,100,0,0
24092,352.941176470588,4,2,0,100,1,0
24621,-33.4448160535117,4,2,0,100,0,0
24974,-69.4444444444444,4,2,0,100,0,0
25503,368.098159509202,4,2,0,100,1,0
25871,379.746835443038,4,2,0,100,1,0
26250,375,4,2,0,100,1,0
26625,392.156862745098,4,2,0,100,1,0
26625,-69.4444444444444,4,2,0,100,0,0
27017,-100,4,2,0,100,0,0
27801,363.636363636364,4,2,0,100,1,0
28255,-69.4444444444444,4,2,0,100,0,0
28528,370.37037037037,4,2,0,100,1,0
28898,384.615384615385,4,2,0,100,1,0
29763,-69.4444444444444,4,2,0,100,0,0
30244,-34.7222222222222,4,2,0,100,0,0
30821,363.636363636364,4,2,0,100,1,0
30821,-69.4444444444444,4,2,0,100,0,0
31184,382.165605095541,4,2,0,100,1,0
31184,-69.4444444444444,4,2,0,100,0,0
31470,-100,4,2,0,100,0,0
32808,-69.4444444444444,4,2,0,100,0,0
33094,-100,4,2,0,100,0,0
34241,-69.4444444444444,4,2,0,100,0,0
34814,-39.2156862745098,4,2,0,100,0,0
35578,-37.593984962406,4,2,0,100,0,0
36343,-181.818181818182,4,2,0,100,0,0
36916,382.165605095541,4,2,0,100,1,0
36916,-60.2409638554217,4,2,0,100,0,0
37298,-75.187969924812,4,2,0,100,0,0
37871,-90.0900900900901,4,2,0,100,0,0
38827,363.636363636364,4,2,0,100,1,0
39190,-50.251256281407,4,2,0,100,0,0
39554,375,4,2,0,100,1,0
39554,-42.9184549356223,4,2,0,100,0,0
39929,379.746835443038,4,2,0,100,1,0
39929,-75.187969924812,4,2,0,100,0,0
40688,-56.4971751412429,4,2,0,100,0,0
41068,-81.9672131147541,4,2,0,100,0,0
41447,-56.4971751412429,4,2,0,100,0,0
42207,-60.2409638554217,4,2,0,100,0,0
42587,-47.6190476190476,4,2,0,100,0,0
42966,-69.4444444444444,4,2,0,100,0,0
43726,-56.4971751412429,4,2,0,100,0,0
44485,384.615384615385,4,2,0,100,1,0
44485,-47.6190476190476,4,2,0,100,0,0
44869,361.44578313253,4,2,0,100,1,0
45230,-50,4,2,0,100,0,0
45591,-60.2409638554217,4,2,0,100,0,0
45953,368.098159509202,4,2,0,100,1,0
45953,-53.1914893617021,4,2,0,100,0,0
47057,382.165605095541,4,2,0,100,1,0
47439,451.127819548872,4,2,0,100,1,0
47439,-75.187969924812,4,2,0,100,0,0
47890,476.190476190476,4,2,0,100,1,0
47890,-53.1914893617021,4,2,0,100,0,0
48366,769.230769230769,4,2,0,100,1,0
48366,-50,4,2,0,100,0,0

[Colours]
Combo1 : 60,236,227
Combo2 : 0,255,64
Combo3 : 255,64,64
Combo4 : 255,123,60
Combo5 : 0,125,251
Combo6 : 255,255,36
Combo7 : 159,72,238

[HitObjects]
256,56,659,5,0,0:0:0:0:
256,168,859,2,0,L|256:219,1,50
159,95,1059,1,0,0:0:0:0:
151,87,1159,2,0,L|114:50,1,50
352,95,1359,1,0,0:0:0:0:
361,87,1459,2,0,L|397:50,1,50
376,214,1659,2,0,L|340:178,1,50
480,192,1859,1,0,0:0:0:0:
480,204,1959,2,0,L|480:255,1,50
312,338,2159,5,0,0:0:0:0:
312,326,2259,2,0,L|312:274,1,50
417,138,2459,2,0,L|453:101,1,50
299,99,2659,1,0,0:0:0:0:
291,91,2759,2,0,L|254:54,1,50
480,204,2959,1,0,0:0:0:0:
472,212,3059,2,0,L|435:248,1,50
216,125,3259,2,0,L|179:88,1,50
32,204,3459,1,0,0:0:0:0:
40,212,3559,2,0,L|76:248,1,50
200,338,3759,5,0,0:0:0:0:
200,326,3859,2,0,L|200:274,1,50
87,102,4059,2,0,L|124:139,1,50
315,221,4259,1,0,0:0:0:0:
307,213,4359,2,0,L|270:176,1,50
15,291,4559,1,0,0:0:0:0:
23,299,4659,2,0,L|60:336,1,50
309,318,4859,2,0,L|272:281,1,50
157,64,5059,1,0,0:0:0:0:
149,56,5159,2,0,L|112:19,1,50
0,72,5359,5,0,0:0:0:0:
0,84,5459,2,0,L|0:136,1,50
193,196,5659,2,0,L|193:144,1,50
315,38,5859,1,0,0:0:0:0:
315,50,5957,2,0,L|315:102,1,50
425,158,6155,1,0,0:0:0:0:
425,146,6253,2,0,L|425:94,1,50
499,43,6440,2,0,L|499:95,1,50
459,283,6628,6,0,B|475:299|475:299|379:283,1,111.000002709961
278,329,6809,2,0,B|294:313|294:313|199:297,1,111.000002709961
72,344,6991,5,0,0:0:0:0:
72,172,7191,2,0,L|72:121,1,50
176,43,7391,1,0,0:0:0:0:
186,49,7491,2,0,L|231:75,1,50
245,203,7691,1,0,0:0:0:0:
235,209,7791,2,0,L|189:235,1,50
96,50,7991,2,0,L|51:24,1,50
345,110,8191,1,0,0:0:0:0:
335,116,8292,2,0,L|289:142,1,50
276,270,8495,5,0,0:0:0:0:
286,276,8596,2,0,L|331:302,1,50
449,238,8793,2,0,L|449:185,1,50
404,321,8990,1,0,0:0:0:0:
404,332,9089,2,0,L|403:383,1,50
193,341,9286,1,0,0:0:0:0:
193,330,9385,2,0,L|193:278,1,50
372,184,9577,2,0,L|371:235,1,50
255,93,9769,1,0,0:0:0:0:
255,82,9865,2,0,L|255:30,1,50
456,72,10058,5,0,0:0:0:0:
446,77,10154,2,0,L|400:102,1,50
178,39,10346,2,0,L|132:64,1,50
282,232,10538,1,0,0:0:0:0:
282,221,10635,2,0,L|282:169,1,50
139,311,10827,1,0,0:0:0:0:
149,316,10923,2,0,L|194:341,1,50
417,278,11115,2,0,L|462:303,1,50
194,218,11308,1,0,0:0:0:0:
183,218,11405,2,0,L|131:217,1,50
286,338,11596,5,0,0:0:0:0:
297,338,11692,2,0,L|348:338,1,50
446,190,11885,2,0,L|394:189,1,50
307,81,12077,1,0,0:0:0:0:
318,81,12173,2,0,L|369:81,1,50
451,0,12365,1,0,0:0:0:0:
440,0,12461,2,0,L|388:0,1,50
314,0,12641,1,0,0:0:0:0:
185,255,12822,6,0,P|128:300|55:277,1,144.000003515625
41,168,12997,2,0,P|98:123|171:146,1,144.000003515625
269,211,13172,6,0,B|257:220|257:220|321:214,1,72.0000017578125
409,206,13357,1,0,0:0:0:0:
111,211,13542,2,0,B|69:194|59:161|59:161|52:195|17:219,1,144.000003515625
70,286,13727,1,0,0:0:0:0:
71,300,13820,1,0,0:0:0:0:
73,336,13912,6,0,P|126:331|162:352,1,72.0000017578125
237,284,14097,2,0,P|280:314|294:353,1,72.0000017578125
485,217,14283,2,0,P|432:212|396:233,1,72.0000017578125
321,165,14468,2,0,P|277:195|263:234,1,72.0000017578125
452,378,14653,6,0,B|461:390|461:390|455:326,1,72.0000017578125
447,238,14838,1,0,0:0:0:0:
213,348,15023,6,0,B|164:343|164:343|151:339|151:339|140:345|140:345|126:340|126:340|71:335,1,144.000003515625
126,263,15209,1,0,0:0:0:0:
133,249,15301,1,0,0:0:0:0:
148,215,15394,2,0,P|161:172|150:128,1,72.0000017578125
25,51,15572,2,0,P|55:83|99:96,1,72.0000017578125
163,52,15751,2,0,P|192:32|228:26,1,72.0000017578125
321,38,15929,2,0,P|353:53|376:80,1,72.0000017578125
449,3,16108,6,0,B|440:-9|440:-9|446:55,1,72.0000017578125
454,143,16286,1,0,0:0:0:0:
253,214,16465,2,0,B|322:189|316:254|401:226,1,144.000003515625
280,293,16644,1,0,0:0:0:0:
276,308,16733,1,0,0:0:0:0:
264,349,16822,2,0,P|222:311|195:308,1,72.0000017578125
104,301,17001,2,0,P|50:318|33:340,1,72.0000017578125
205,87,17179,2,0,P|192:132|198:182,1,72.0000017578125
14,250,17358,2,0,P|27:205|21:155,1,72.0000017578125
15,35,17536,6,0,B|40:27|40:27|105:47,1,72.0000017578125
109,167,17718,1,0,0:0:0:0:
276,49,17901,6,0,B|330:51|330:51|350:42|350:42|360:62|360:62|403:95,1,144.000003515625
351,150,18084,1,0,0:0:0:0:
352,169,18176,1,0,0:0:0:0:
356,208,18267,2,0,P|317:193|280:200,1,72.0000017578125
472,225,18450,2,0,P|465:183|440:155,1,72.0000017578125
311,287,18633,2,0,P|350:302|387:295,1,72.0000017578125
181,213,18816,2,0,B|171:248|171:248|183:350,1,138.500004543686
63,297,18999,6,0,B|72:309|72:309|66:245,1,72.0000017578125
58,157,19182,1,0,0:0:0:0:
14,377,19365,6,0,P|91:357|149:387,1,144.000003515625
220,338,19548,1,0,0:0:0:0:
241,347,19639,1,0,0:0:0:0:
286,366,19731,2,0,P|323:354|375:366,1,72.0000017578125
502,227,19914,2,0,P|473:253|457:304,1,72.0000017578125
268,246,20096,2,0,P|276:207|312:168,1,72.0000017578125
420,68,20279,2,0,P|383:56|331:68,1,72.0000017578125
115,81,20462,6,0,B|103:90|103:90|167:84,1,72.0000017578125
255,76,20645,1,0,0:0:0:0:
17,41,20828,6,0,B|23:112|23:112|32:123|32:123|38:199,1,144.000003515625
28,257,21011,1,0,0:0:0:0:
26,278,21103,1,0,0:0:0:0:
17,318,21194,2,0,P|61:322|90:347,1,72.0000017578125
149,185,21377,2,0,P|185:210|197:246,1,72.0000017578125
319,163,21560,2,0,P|330:187|328:235,1,72.0000017578125
466,213,21740,2,0,P|463:239|437:280,1,72.0000017578125
218,319,21921,6,0,B|206:310|206:310|270:316,1,72.0000017578125
358,324,22102,1,0,0:0:0:0:
91,384,22282,6,0,B|67:345|80:311|80:311|79:291|79:291|92:286|92:286|109:260|148:248,1,144.000003515625
190,237,22463,1,0,0:0:0:0:
206,231,22553,1,0,0:0:0:0:
245,217,22644,2,0,P|266:182|266:142,1,72.0000017578125
129,52,22825,2,0,P|148:87|183:107,1,72.0000017578125
329,34,23005,2,0,P|288:33|253:53,1,72.0000017578125
51,96,23187,2,0,P|39:38|51:7,1,72.0000017578125
110,179,23370,6,0,B|117:206|117:206|108:259,1,72.0000017578125
11,324,23550,2,0,P|53:312|95:325,1,72.0000017578125
185,298,23731,6,0,P|237:313|286:305,1,93.9999985656739
352,263,23912,1,0,0:0:0:0:
373,268,24002,1,0,0:0:0:0:
394,273,24092,1,0,0:0:0:0:
459,149,24268,1,0,0:0:0:0:
480,359,24444,2,0,P|451:346|421:345,1,50
332,348,24621,6,0,P|252:365|205:309,1,149.499997604752
212,240,24797,5,0,0:0:0:0:
208,236,24974,2,0,P|168:226|129:234,1,72.0000017578125
250,166,25150,1,0,0:0:0:0:
251,146,25239,2,0,L|255:54,1,72.0000017578125
257,0,25415,1,0,0:0:0:0:
284,11,25503,6,0,P|316:19|347:16,1,50
420,0,25687,1,0,0:0:0:0:
490,118,25871,6,0,P|467:141|454:170,1,50
431,241,26060,1,0,0:0:0:0:
294,242,26250,6,0,P|284:210|266:184,1,50
217,130,26437,1,0,0:0:0:0:
363,295,26625,5,0,0:0:0:0:
364,312,26723,2,0,L|368:400,1,72.0000017578125
41,263,26919,1,0,0:0:0:0:
68,252,27017,6,0,P|100:244|131:247,1,50
204,263,27213,1,0,0:0:0:0:
286,147,27409,6,0,P|276:178|258:204,1,50
208,259,27605,1,0,0:0:0:0:
268,388,27801,6,0,P|245:364|232:335,1,50
210,264,27982,1,0,0:0:0:0:
68,157,28164,5,0,0:0:0:0:
69,140,28255,2,0,L|73:52,1,72.0000017578125
150,70,28437,1,0,0:0:0:0:
166,87,28528,6,0,P|188:105|214:114,1,50
279,129,28713,1,0,0:0:0:0:
290,249,28898,6,0,P|263:258|242:277,1,50
198,324,29090,1,0,0:0:0:0:
88,275,29282,6,0,P|91:245|87:218,1,50
68,157,29474,1,0,0:0:0:0:
357,184,29667,5,0,0:0:0:0:
374,183,29763,2,0,L|462:179,1,72.0000017578125
479,274,29955,1,0,0:0:0:0:
462,273,30051,2,0,L|374:269,1,72.0000017578125
224,357,30244,6,0,P|196:283|226:216,1,144.000003515625
281,190,30436,1,0,0:0:0:0:
51,93,30628,6,0,P|125:65|192:95,1,144.000003515625
218,150,30820,1,0,0:0:0:0:
445,34,31002,6,0,L|441:112,1,72.0000017578125
394,181,31184,1,0,0:0:0:0:
395,195,31279,2,0,L|399:273,1,72.0000017578125
324,330,31470,1,0,0:0:0:0:
301,309,31566,6,0,P|273:290|243:282,1,50
169,273,31757,1,0,0:0:0:0:
131,137,31948,6,0,P|129:169|137:200,1,50
167,269,32139,1,0,0:0:0:0:
66,369,32330,6,0,P|95:354|117:331,1,50
163,272,32521,1,0,0:0:0:0:
29,192,32712,5,0,0:0:0:0:
28,178,32808,2,0,L|24:102,1,72.0000017578125
145,102,32999,1,0,0:0:0:0:
160,126,33094,6,0,P|173:156|175:187,1,50
172,263,33285,1,0,0:0:0:0:
300,310,33476,6,0,P|318:283|344:265,1,50
411,232,33668,1,0,0:0:0:0:
389,97,33859,6,0,P|355:92|327:79,1,50
265,40,34050,1,0,0:0:0:0:
493,201,34241,5,0,0:0:0:0:
492,216,34336,2,0,L|486:301,1,72.0000017578125
405,384,34527,1,0,0:0:0:0:
404,369,34623,2,0,L|398:284,1,72.0000017578125
247,126,34814,6,0,B|251:186|251:186|243:198|243:198|247:274,1,127.499998297691
253,364,35005,1,0,0:0:0:0:
55,105,35196,6,0,B|88:154|88:154|87:169|87:169|129:233,1,127.499998297691
179,308,35387,1,0,0:0:0:0:
312,60,35578,6,0,P|250:31|191:50,1,132.999994520569
337,149,35769,2,0,P|393:109|406:49,1,132.999994520569
247,126,35961,2,0,P|252:194|298:235,1,132.999994520569
298,235,36343,6,0,P|329:235|354:249,2,55.0000016784668
188,333,36916,6,0,L|186:361,6,27.6666670677185
136,276,37298,6,0,B|124:250|124:250|132:203,1,66.4999972602845
256,216,37489,2,0,B|257:253|257:253|242:278,1,66.4999972602845
195,136,37680,1,0,0:0:0:0:
85,112,37871,6,0,P|53:104|30:81,1,55.5000013549805
170,53,38062,2,0,P|160:21|169:-10,1,55.5000013549805
285,43,38253,2,0,P|307:19|339:10,1,55.5000013549805
432,69,38444,2,0,L|426:140,1,55.5000013549805
397,215,38635,1,0,0:0:0:0:
408,248,38731,1,0,0:0:0:0:
389,277,38827,1,0,0:0:0:0:
400,310,38917,1,0,0:0:0:0:
381,339,39008,1,0,0:0:0:0:
133,259,39190,6,0,B|115:242|86:241|86:241|141:222|193:249|161:309|208:336|271:332|306:314,1,298.500007401467
265,134,39554,6,0,B|246:155|246:155|256:264,1,116.500004666329
356,161,39741,2,0,B|375:140|375:140|365:31,1,116.500004666329
164,144,39929,6,0,L|78:139,1,66.4999972602845
28,89,40118,1,0,0:0:0:0:
36,77,40213,1,0,0:0:0:0:
44,65,40308,2,0,L|137:56,1,66.4999972602845
181,243,40498,1,0,0:0:0:0:
173,231,40593,1,0,0:0:0:0:
165,219,40688,6,0,B|125:213|125:213|112:218|112:218|61:211,1,88.5000028696061
211,320,40878,2,0,B|251:326|251:326|264:321|264:321|315:328,1,88.5000028696061
65,287,41068,2,0,B|39:283|39:283|31:286|31:286|0:281,1,60.9999974868775
254,198,41258,2,0,B|279:201|279:201|287:198|287:198|319:203,1,60.9999974868775
429,366,41447,6,0,B|427:322|427:322|430:317|430:317|427:311|427:311|425:249,1,88.5000028696061
400,195,41637,1,0,0:0:0:0:
413,163,41732,1,0,0:0:0:0:
397,132,41827,1,0,0:0:0:0:
411,100,41922,1,0,0:0:0:0:
394,70,42017,1,0,0:0:0:0:
408,38,42112,1,0,0:0:0:0:
391,8,42207,6,0,P|361:45|316:46,1,83.0000012031555
239,28,42397,1,0,0:0:0:0:
226,24,42492,1,0,0:0:0:0:
128,36,42587,6,0,P|184:34|226:83,1,104.999996795654
321,125,42777,2,0,P|265:123|223:172,1,104.999996795654
202,233,42966,1,0,0:0:0:0:
2,156,43156,6,0,B|90:135|57:197|147:177,1,144.000003515625
30,233,43536,1,0,0:0:0:0:
168,347,43726,6,0,P|148:301|105:278,1,88.5000028696061
267,189,43916,2,0,P|226:159|177:160,1,88.5000028696061
436,352,44106,2,0,P|453:311|491:291,1,88.5000028696061
348,213,44296,2,0,P|383:186|426:188,1,88.5000028696061
484,88,44485,6,0,B|427:95|427:95|363:74,1,104.999996795654
292,44,44677,1,0,0:0:0:0:
259,33,44773,1,0,0:0:0:0:
230,52,44869,1,0,0:0:0:0:
197,41,44959,1,0,0:0:0:0:
168,60,45049,1,0,0:0:0:0:
135,49,45140,1,0,0:0:0:0:
106,68,45230,6,0,B|83:25|2:35|-3:152|102:152|132:122|132:122|155:99|231:101,1,300
291,89,45591,6,0,P|319:127|319:177,1,83.0000012031555
208,259,45772,2,0,P|194:213|211:166,1,83.0000012031555
389,289,45953,6,0,B|348:286|348:286|334:292|334:292|289:288,1,93.9999985656739
157,334,46137,1,0,0:0:0:0:
154,348,46229,1,0,0:0:0:0:
151,362,46321,2,0,B|125:331|125:331|134:265,1,93.9999985656739
271,212,46505,1,0,0:0:0:0:
274,198,46597,1,0,0:0:0:0:
277,184,46689,2,0,B|303:215|303:215|294:281,1,93.9999985656739
115,196,46873,2,0,P|73:185|20:204,1,93.9999985656739
265,92,47057,1,0,0:0:0:0:
298,86,47152,1,0,0:0:0:0:
331,80,47248,1,0,0:0:0:0:
364,74,47343,1,0,0:0:0:0:
397,68,47439,6,0,B|450:59|450:59|419:221,1,199.499991780854
323,304,47890,6,0,B|345:291|370:295|370:295|335:268|267:267|288:368|201:363|150:320,1,281.999995697022
93,169,48366,6,0,B|72:172|72:172|79:212|79:212|39:218|39:218|46:259|46:259|166:238|166:238|159:197|159:197|119:204|119:204|112:165|112:165|93:169,1,400
