osu file format v14

[General]
AudioFilename: audio.mp3
AudioLeadIn: 0
PreviewTime: -1
Countdown: 1
SampleSet: Normal
StackLeniency: 0.7
Mode: 3
LetterboxInBreaks: 0
SpecialStyle: 0
WidescreenStoryboard: 0

[Editor]
DistanceSpacing: 3.4
BeatDivisor: 4
GridSize: 4
TimelineZoom: 1.7

[Metadata]
Title:You are my man
TitleUnicode:You are my man
Artist:Vera Brezneva
ArtistUnicode:Vera Brezneva
Creator:Mr_Pandaria
Version:Love
Source:
Tags:russian
BeatmapID:1887776
BeatmapSetID:904374

[Difficulty]
HPDrainRate:8
CircleSize:4
OverallDifficulty:9
ApproachRate:5
SliderMultiplier:1.4
SliderTickRate:1

[Events]
//Background and Video events
0,0,"devushka_anime_more_bereg_plate_101565_1920x1080.jpg",0,0
//Break Periods
//Storyboard Layer 0 (Background)
//Storyboard Layer 1 (Fail)
//Storyboard Layer 2 (Pass)
//Storyboard Layer 3 (Foreground)
//Storyboard Sound Samples

[TimingPoints]
2097,571.428571428571,4,1,1,29,1,0
29535,-133.333333333333,4,1,1,29,0,0
29856,-83.3333333333333,4,1,1,29,0,0
29964,-100,4,1,1,29,0,0
30678,-133.333333333333,4,1,1,29,0,0
30999,-83.3333333333333,4,1,1,29,0,0
31107,-100,4,1,1,29,0,0
31821,-133.333333333333,4,1,1,29,0,0
32142,-83.3333333333333,4,1,1,29,0,0
32250,-100,4,1,1,29,0,0
34106,-133.333333333333,4,1,1,29,0,0
34428,-83.3333333333333,4,1,1,29,0,0
34535,-100,4,1,1,29,0,0
35249,-133.333333333333,4,1,1,29,0,0
35571,-83.3333333333333,4,1,1,29,0,0
35678,-100,4,1,1,29,0,0
36392,-133.333333333333,4,1,1,29,0,0
36714,-83.3333333333333,4,1,1,29,0,0
36821,-100,4,1,1,29,0,0
38678,-133.333333333333,4,1,1,29,0,0
39000,-83.3333333333333,4,1,1,29,0,0
39107,-100,4,1,1,29,0,0
39821,-133.333333333333,4,1,1,29,0,0
40143,-83.3333333333333,4,1,1,29,0,0
40250,-100,4,1,1,29,0,0
40964,-133.333333333333,4,1,1,29,0,0
41286,-83.3333333333333,4,1,1,29,0,0
41393,-100,4,1,1,29,0,0
43250,-133.333333333333,4,1,1,29,0,0
43572,-83.3333333333333,4,1,1,29,0,0
43679,-100,4,1,1,29,0,0
44393,-133.333333333333,4,1,1,29,0,0
44715,-83.3333333333333,4,1,1,29,0,0
44822,-100,4,1,1,29,0,0
45536,-133.333333333333,4,1,1,29,0,0
45858,-83.3333333333333,4,1,1,29,0,0
45965,-100,4,1,1,29,0,0
98106,-133.333333333333,4,1,1,29,0,0
98427,-83.3333333333333,4,1,1,29,0,0
98535,-100,4,1,1,29,0,0
99249,-133.333333333333,4,1,1,29,0,0
99570,-83.3333333333333,4,1,1,29,0,0
99678,-100,4,1,1,29,0,0
100392,-133.333333333333,4,1,1,29,0,0
100713,-83.3333333333333,4,1,1,29,0,0
100821,-100,4,1,1,29,0,0
102677,-133.333333333333,4,1,1,29,0,0
102999,-83.3333333333333,4,1,1,29,0,0
103106,-100,4,1,1,29,0,0
103820,-133.333333333333,4,1,1,29,0,0
104142,-83.3333333333333,4,1,1,29,0,0
104249,-100,4,1,1,29,0,0
104963,-133.333333333333,4,1,1,29,0,0
105285,-83.3333333333333,4,1,1,29,0,0
105392,-100,4,1,1,29,0,0
107249,-133.333333333333,4,1,1,29,0,0
107571,-83.3333333333333,4,1,1,29,0,0
107678,-100,4,1,1,29,0,0
108392,-133.333333333333,4,1,1,29,0,0
108714,-83.3333333333333,4,1,1,29,0,0
108821,-100,4,1,1,29,0,0
109535,-133.333333333333,4,1,1,29,0,0
109857,-83.3333333333333,4,1,1,29,0,0
109964,-100,4,1,1,29,0,0
111821,-133.333333333333,4,1,1,29,0,0
112143,-83.3333333333333,4,1,1,29,0,0
112250,-100,4,1,1,29,0,0
112964,-133.333333333333,4,1,1,29,0,0
113286,-83.3333333333333,4,1,1,29,0,0
113393,-100,4,1,1,29,0,0
114107,-133.333333333333,4,1,1,29,0,0
114429,-83.3333333333333,4,1,1,29,0,0
114536,-100,4,1,1,29,0,0

[HitObjects]
64,192,2097,5,0,0:0:0:0:
192,192,2239,1,0,0:0:0:0:
320,192,2382,1,0,0:0:0:0:
192,192,2525,1,0,0:0:0:0:
448,192,2525,1,0,0:0:0:0:
64,192,2811,1,0,0:0:0:0:
192,192,2954,1,0,0:0:0:0:
448,192,2954,1,0,0:0:0:0:
320,192,3239,1,0,0:0:0:0:
192,192,3382,1,0,0:0:0:0:
64,192,3525,1,0,0:0:0:0:
320,192,3668,1,0,0:0:0:0:
448,192,3668,1,0,0:0:0:0:
320,192,3954,1,0,0:0:0:0:
64,192,4096,1,0,0:0:0:0:
192,192,4096,1,0,0:0:0:0:
320,192,4382,1,0,0:0:0:0:
448,192,4525,1,0,0:0:0:0:
192,192,4668,1,0,0:0:0:0:
64,192,4811,1,0,0:0:0:0:
320,192,4811,1,0,0:0:0:0:
448,192,5096,1,0,0:0:0:0:
64,192,5239,1,0,0:0:0:0:
320,192,5239,1,0,0:0:0:0:
192,192,5382,1,0,0:0:0:0:
64,192,5525,1,0,0:0:0:0:
192,192,5668,1,0,0:0:0:0:
448,192,5811,1,0,0:0:0:0:
320,192,5954,1,0,0:0:0:0:
192,192,5954,1,0,0:0:0:0:
64,192,6096,1,0,0:0:0:0:
192,192,6239,1,0,0:0:0:0:
448,192,6382,1,0,0:0:0:0:
320,192,6382,1,0,0:0:0:0:
448,192,6668,5,0,0:0:0:0:
192,192,6811,1,0,0:0:0:0:
320,192,6954,1,0,0:0:0:0:
448,192,7096,1,0,0:0:0:0:
64,192,7096,1,0,0:0:0:0:
320,192,7382,1,0,0:0:0:0:
448,192,7525,1,0,0:0:0:0:
64,192,7525,1,0,0:0:0:0:
192,192,7811,1,0,0:0:0:0:
64,192,7954,1,0,0:0:0:0:
192,192,8096,1,0,0:0:0:0:
448,192,8239,1,0,0:0:0:0:
320,192,8239,1,0,0:0:0:0:
64,192,8525,1,0,0:0:0:0:
320,192,8668,1,0,0:0:0:0:
448,192,8668,1,0,0:0:0:0:
320,192,8954,1,0,0:0:0:0:
448,192,9096,1,0,0:0:0:0:
192,192,9239,1,0,0:0:0:0:
320,192,9382,1,0,0:0:0:0:
64,192,9382,1,0,0:0:0:0:
320,192,9668,1,0,0:0:0:0:
448,192,9811,1,0,0:0:0:0:
192,192,9811,1,0,0:0:0:0:
64,192,9954,1,0,0:0:0:0:
320,192,10096,1,0,0:0:0:0:
192,192,10239,1,0,0:0:0:0:
448,192,10382,1,0,0:0:0:0:
192,192,10525,1,0,0:0:0:0:
320,192,10525,1,0,0:0:0:0:
64,192,10668,1,0,0:0:0:0:
192,192,10811,1,0,0:0:0:0:
320,192,10954,1,0,0:0:0:0:
448,192,10954,1,0,0:0:0:0:
448,192,11239,1,0,0:0:0:0:
320,192,11382,1,0,0:0:0:0:
192,192,11525,1,0,0:0:0:0:
64,192,11668,1,0,0:0:0:0:
320,192,11668,1,0,0:0:0:0:
448,192,11954,1,0,0:0:0:0:
192,192,12096,1,0,0:0:0:0:
320,192,12096,1,0,0:0:0:0:
448,192,12382,1,0,0:0:0:0:
320,192,12525,1,0,0:0:0:0:
192,192,12668,1,0,0:0:0:0:
64,192,12811,1,0,0:0:0:0:
320,192,12811,1,0,0:0:0:0:
448,192,13096,1,0,0:0:0:0:
320,192,13239,1,0,0:0:0:0:
192,192,13239,1,0,0:0:0:0:
64,192,13525,1,0,0:0:0:0:
320,192,13668,1,0,0:0:0:0:
192,192,13811,1,0,0:0:0:0:
64,192,13954,1,0,0:0:0:0:
448,192,13954,1,0,0:0:0:0:
192,192,14239,1,0,0:0:0:0:
320,192,14382,1,0,0:0:0:0:
448,192,14382,1,0,0:0:0:0:
64,192,14668,1,0,0:0:0:0:
320,192,14811,1,0,0:0:0:0:
192,192,14954,1,0,0:0:0:0:
64,192,15096,1,0,0:0:0:0:
448,192,15096,1,0,0:0:0:0:
192,192,15382,1,0,0:0:0:0:
320,192,15525,1,0,0:0:0:0:
448,192,15525,1,0,0:0:0:0:
320,192,15811,1,0,0:0:0:0:
192,192,15954,1,0,0:0:0:0:
320,192,16096,1,0,0:0:0:0:
64,192,16239,1,0,0:0:0:0:
192,192,16239,1,0,0:0:0:0:
320,192,16525,1,0,0:0:0:0:
192,192,16668,1,0,0:0:0:0:
448,192,16668,1,0,0:0:0:0:
320,192,16954,1,0,0:0:0:0:
192,192,17096,1,0,0:0:0:0:
320,192,17239,1,0,0:0:0:0:
64,192,17382,1,0,0:0:0:0:
192,192,17382,1,0,0:0:0:0:
320,192,17668,1,0,0:0:0:0:
192,192,17811,1,0,0:0:0:0:
448,192,17811,1,0,0:0:0:0:
192,192,18096,1,0,0:0:0:0:
320,192,18239,1,0,0:0:0:0:
192,192,18382,1,0,0:0:0:0:
320,192,18525,1,0,0:0:0:0:
448,192,18525,1,0,0:0:0:0:
192,192,18811,1,0,0:0:0:0:
64,192,18954,1,0,0:0:0:0:
320,192,18954,1,0,0:0:0:0:
192,192,19239,1,0,0:0:0:0:
320,192,19382,1,0,0:0:0:0:
192,192,19525,1,0,0:0:0:0:
320,192,19668,1,0,0:0:0:0:
448,192,19668,1,0,0:0:0:0:
192,192,19954,1,0,0:0:0:0:
64,192,20096,1,0,0:0:0:0:
320,192,20096,1,0,0:0:0:0:
64,192,20382,1,0,0:0:0:0:
192,192,20382,1,0,0:0:0:0:
448,192,20525,1,0,0:0:0:0:
320,192,20668,1,0,0:0:0:0:
192,192,20811,1,0,0:0:0:0:
448,192,20811,1,0,0:0:0:0:
64,192,20954,1,0,0:0:0:0:
320,192,20954,1,0,0:0:0:0:
192,192,21096,1,0,0:0:0:0:
320,192,21239,1,0,0:0:0:0:
448,192,21239,1,0,0:0:0:0:
64,192,21525,1,0,0:0:0:0:
448,192,21525,1,0,0:0:0:0:
320,192,21668,1,0,0:0:0:0:
192,192,21811,1,0,0:0:0:0:
320,192,21954,1,0,0:0:0:0:
448,192,21954,1,0,0:0:0:0:
64,192,22096,1,0,0:0:0:0:
192,192,22096,1,0,0:0:0:0:
320,192,22239,1,0,0:0:0:0:
192,192,22382,1,0,0:0:0:0:
448,192,22382,1,0,0:0:0:0:
320,192,22668,1,0,0:0:0:0:
448,192,22668,1,0,0:0:0:0:
64,192,22811,1,0,0:0:0:0:
192,192,22954,1,0,0:0:0:0:
64,192,23096,1,0,0:0:0:0:
320,192,23096,1,0,0:0:0:0:
192,192,23239,1,0,0:0:0:0:
448,192,23239,1,0,0:0:0:0:
320,192,23382,1,0,0:0:0:0:
64,192,23525,1,0,0:0:0:0:
192,192,23525,1,0,0:0:0:0:
64,192,23811,1,0,0:0:0:0:
448,192,23811,1,0,0:0:0:0:
192,192,23954,1,0,0:0:0:0:
320,192,24096,1,0,0:0:0:0:
64,192,24239,1,0,0:0:0:0:
192,192,24239,1,0,0:0:0:0:
320,192,24382,1,0,0:0:0:0:
448,192,24382,1,0,0:0:0:0:
192,192,24525,1,0,0:0:0:0:
64,192,24668,1,0,0:0:0:0:
320,192,24668,1,0,0:0:0:0:
192,192,24954,1,0,0:0:0:0:
320,192,24954,1,0,0:0:0:0:
64,192,25096,1,0,0:0:0:0:
192,192,25239,1,0,0:0:0:0:
320,192,25382,1,0,0:0:0:0:
448,192,25382,1,0,0:0:0:0:
64,192,25525,1,0,0:0:0:0:
192,192,25525,1,0,0:0:0:0:
320,192,25668,1,0,0:0:0:0:
192,192,25811,1,0,0:0:0:0:
448,192,25811,1,0,0:0:0:0:
320,192,26096,1,0,0:0:0:0:
448,192,26096,1,0,0:0:0:0:
192,192,26239,1,0,0:0:0:0:
320,192,26382,1,0,0:0:0:0:
64,192,26525,1,0,0:0:0:0:
448,192,26525,1,0,0:0:0:0:
320,192,26668,1,0,0:0:0:0:
192,192,26668,1,0,0:0:0:0:
448,192,26811,1,0,0:0:0:0:
64,192,26954,1,0,0:0:0:0:
192,192,26954,1,0,0:0:0:0:
320,192,27239,1,0,0:0:0:0:
192,192,27239,1,0,0:0:0:0:
448,192,27382,1,0,0:0:0:0:
320,192,27525,1,0,0:0:0:0:
192,192,27668,1,0,0:0:0:0:
64,192,27668,1,0,0:0:0:0:
448,192,27811,1,0,0:0:0:0:
320,192,27811,1,0,0:0:0:0:
192,192,27954,1,0,0:0:0:0:
320,192,28096,1,0,0:0:0:0:
64,192,28096,1,0,0:0:0:0:
192,192,28382,1,0,0:0:0:0:
64,192,28382,1,0,0:0:0:0:
320,192,28525,1,0,0:0:0:0:
192,192,28668,1,0,0:0:0:0:
448,192,28811,1,0,0:0:0:0:
64,192,28811,1,0,0:0:0:0:
192,192,28954,1,0,0:0:0:0:
320,192,28954,1,0,0:0:0:0:
64,192,29096,1,0,0:0:0:0:
448,192,29239,1,0,0:0:0:0:
320,192,29239,1,0,0:0:0:0:
64,192,29525,1,0,0:0:0:0:
192,192,29525,128,0,29954:0:0:0:0:
64,192,29954,1,0,0:0:0:0:
448,192,29954,1,0,0:0:0:0:
192,192,30096,1,0,0:0:0:0:
320,192,30096,1,0,0:0:0:0:
320,192,30382,1,0,0:0:0:0:
192,192,30382,1,0,0:0:0:0:
64,192,30668,1,0,0:0:0:0:
192,192,30668,128,0,31096:0:0:0:0:
64,192,31096,1,0,0:0:0:0:
448,192,31096,1,0,0:0:0:0:
192,192,31239,1,0,0:0:0:0:
320,192,31239,1,0,0:0:0:0:
64,192,31382,1,0,0:0:0:0:
192,192,31525,1,0,0:0:0:0:
320,192,31525,1,0,0:0:0:0:
448,192,31811,1,0,0:0:0:0:
320,192,31811,128,0,32239:0:0:0:0:
192,192,32239,1,0,0:0:0:0:
64,192,32382,1,0,0:0:0:0:
448,192,32382,1,0,0:0:0:0:
192,192,32668,1,0,0:0:0:0:
320,192,32668,1,0,0:0:0:0:
64,192,32954,1,0,0:0:0:0:
192,192,33025,1,0,0:0:0:0:
320,192,33096,1,0,0:0:0:0:
448,192,33239,1,0,0:0:0:0:
320,192,33311,1,0,0:0:0:0:
192,192,33382,1,0,0:0:0:0:
448,192,33525,1,0,0:0:0:0:
64,192,33525,1,0,0:0:0:0:
320,192,33811,1,0,0:0:0:0:
64,192,33811,1,0,0:0:0:0:
192,192,33882,1,0,0:0:0:0:
64,192,33954,1,0,0:0:0:0:
448,192,34096,1,0,0:0:0:0:
192,192,34096,128,0,34525:0:0:0:0:
320,192,34525,1,0,0:0:0:0:
448,192,34525,1,0,0:0:0:0:
64,192,34668,1,0,0:0:0:0:
192,192,34668,1,0,0:0:0:0:
192,192,34954,1,0,0:0:0:0:
64,192,34954,1,0,0:0:0:0:
320,192,35239,128,0,35668:0:0:0:0:
448,192,35239,1,0,0:0:0:0:
64,192,35668,1,0,0:0:0:0:
192,192,35668,1,0,0:0:0:0:
320,192,35811,1,0,0:0:0:0:
448,192,35811,1,0,0:0:0:0:
192,192,35954,1,0,0:0:0:0:
320,192,36096,1,0,0:0:0:0:
448,192,36096,1,0,0:0:0:0:
192,192,36382,128,0,36811:0:0:0:0:
64,192,36382,1,0,0:0:0:0:
64,192,36811,1,0,0:0:0:0:
448,192,36811,1,0,0:0:0:0:
192,192,36954,1,0,0:0:0:0:
320,192,36954,1,0,0:0:0:0:
192,192,37239,1,0,0:0:0:0:
320,192,37239,1,0,0:0:0:0:
448,192,37525,1,0,0:0:0:0:
320,192,37596,1,0,0:0:0:0:
192,192,37668,1,0,0:0:0:0:
320,192,37811,1,0,0:0:0:0:
192,192,37882,1,0,0:0:0:0:
64,192,37954,1,0,0:0:0:0:
448,192,38096,1,0,0:0:0:0:
192,192,38096,1,0,0:0:0:0:
320,192,38382,1,0,0:0:0:0:
192,192,38382,1,0,0:0:0:0:
64,192,38454,1,0,0:0:0:0:
192,192,38525,1,0,0:0:0:0:
448,192,38668,1,0,0:0:0:0:
320,192,38668,128,0,39096:0:0:0:0:
448,192,39096,1,0,0:0:0:0:
64,192,39096,1,0,0:0:0:0:
320,192,39239,1,0,0:0:0:0:
192,192,39239,1,0,0:0:0:0:
192,192,39525,1,0,0:0:0:0:
320,192,39525,1,0,0:0:0:0:
448,192,39811,1,0,0:0:0:0:
320,192,39811,128,0,40239:0:0:0:0:
64,192,40239,1,0,0:0:0:0:
192,192,40239,1,0,0:0:0:0:
448,192,40382,1,0,0:0:0:0:
320,192,40382,1,0,0:0:0:0:
192,192,40454,1,0,0:0:0:0:
64,192,40525,1,0,0:0:0:0:
192,192,40668,1,0,0:0:0:0:
320,192,40668,1,0,0:0:0:0:
320,192,40811,1,0,0:0:0:0:
448,192,40811,1,0,0:0:0:0:
64,192,40954,1,0,0:0:0:0:
192,192,40954,128,0,41382:0:0:0:0:
320,192,41382,1,0,0:0:0:0:
448,192,41525,1,0,0:0:0:0:
64,192,41525,1,0,0:0:0:0:
320,192,41811,1,0,0:0:0:0:
192,192,41811,1,0,0:0:0:0:
64,192,42096,1,0,0:0:0:0:
192,192,42168,1,0,0:0:0:0:
320,192,42239,1,0,0:0:0:0:
192,192,42382,1,0,0:0:0:0:
320,192,42454,1,0,0:0:0:0:
448,192,42525,1,0,0:0:0:0:
64,192,42668,1,0,0:0:0:0:
320,192,42668,1,0,0:0:0:0:
192,192,42954,1,0,0:0:0:0:
448,192,42954,1,0,0:0:0:0:
320,192,43025,1,0,0:0:0:0:
448,192,43096,1,0,0:0:0:0:
64,192,43239,1,0,0:0:0:0:
320,192,43239,128,0,43668:0:0:0:0:
192,192,43668,1,0,0:0:0:0:
64,192,43668,1,0,0:0:0:0:
448,192,43811,1,0,0:0:0:0:
320,192,43811,1,0,0:0:0:0:
320,192,44096,1,0,0:0:0:0:
448,192,44096,1,0,0:0:0:0:
192,192,44382,128,0,44811:0:0:0:0:
64,192,44382,1,0,0:0:0:0:
448,192,44811,1,0,0:0:0:0:
320,192,44811,1,0,0:0:0:0:
192,192,44954,1,0,0:0:0:0:
64,192,44954,1,0,0:0:0:0:
320,192,45025,1,0,0:0:0:0:
448,192,45096,1,0,0:0:0:0:
192,192,45239,1,0,0:0:0:0:
64,192,45239,1,0,0:0:0:0:
192,192,45382,1,0,0:0:0:0:
320,192,45382,1,0,0:0:0:0:
320,192,45525,128,0,45954:0:0:0:0:
448,192,45525,1,0,0:0:0:0:
448,192,45954,1,0,0:0:0:0:
64,192,45954,1,0,0:0:0:0:
320,192,46096,1,0,0:0:0:0:
192,192,46096,1,0,0:0:0:0:
320,192,46382,1,0,0:0:0:0:
192,192,46382,1,0,0:0:0:0:
64,192,46668,1,0,0:0:0:0:
448,192,46668,1,0,0:0:0:0:
64,192,46954,128,0,47025:0:0:0:0:
192,192,47025,128,0,47096:0:0:0:0:
320,192,47096,1,0,0:0:0:0:
448,192,47096,1,0,0:0:0:0:
192,192,47239,1,0,0:0:0:0:
64,192,47382,1,0,0:0:0:0:
192,192,47525,1,0,0:0:0:0:
320,192,47596,1,0,0:0:0:0:
448,192,47668,1,0,0:0:0:0:
64,192,47811,1,0,0:0:0:0:
192,192,47811,1,0,0:0:0:0:
320,192,47811,1,0,0:0:0:0:
64,192,48096,1,0,0:0:0:0:
192,192,48239,1,0,0:0:0:0:
320,192,48239,1,0,0:0:0:0:
448,192,48239,1,0,0:0:0:0:
192,192,48525,1,0,0:0:0:0:
64,192,48668,1,0,0:0:0:0:
320,192,48668,1,0,0:0:0:0:
448,192,48668,1,0,0:0:0:0:
64,192,48954,1,0,0:0:0:0:
192,192,48954,1,0,0:0:0:0:
448,192,48954,1,0,0:0:0:0:
320,192,49096,1,0,0:0:0:0:
64,192,49382,1,0,0:0:0:0:
192,192,49382,1,0,0:0:0:0:
320,192,49382,128,0,49811:0:0:0:0:
64,192,49668,1,0,0:0:0:0:
192,192,49811,1,0,0:0:0:0:
448,192,49811,1,0,0:0:0:0:
192,192,50096,1,0,0:0:0:0:
320,192,50096,1,0,0:0:0:0:
448,192,50096,1,0,0:0:0:0:
448,192,50382,1,0,0:0:0:0:
64,192,50525,1,0,0:0:0:0:
192,192,50525,1,0,0:0:0:0:
320,192,50525,1,0,0:0:0:0:
320,192,50811,1,0,0:0:0:0:
64,192,50954,1,0,0:0:0:0:
192,192,50954,1,0,0:0:0:0:
448,192,50954,1,0,0:0:0:0:
64,192,51239,1,0,0:0:0:0:
320,192,51239,1,0,0:0:0:0:
448,192,51239,1,0,0:0:0:0:
192,192,51382,1,0,0:0:0:0:
192,192,51668,128,0,52096:0:0:0:0:
320,192,51668,1,0,0:0:0:0:
448,192,51668,1,0,0:0:0:0:
64,192,51954,1,0,0:0:0:0:
64,192,52096,1,0,0:0:0:0:
320,192,52096,1,0,0:0:0:0:
448,192,52382,1,0,0:0:0:0:
64,192,52382,1,0,0:0:0:0:
192,192,52382,1,0,0:0:0:0:
64,192,52668,1,0,0:0:0:0:
192,192,52811,1,0,0:0:0:0:
320,192,52811,1,0,0:0:0:0:
448,192,52811,1,0,0:0:0:0:
448,192,53096,1,0,0:0:0:0:
64,192,53239,1,0,0:0:0:0:
192,192,53239,1,0,0:0:0:0:
320,192,53239,1,0,0:0:0:0:
64,192,53525,1,0,0:0:0:0:
448,192,53525,1,0,0:0:0:0:
320,192,53525,1,0,0:0:0:0:
192,192,53668,1,0,0:0:0:0:
192,192,53954,1,0,0:0:0:0:
320,192,53954,1,0,0:0:0:0:
448,192,53954,128,0,54382:0:0:0:0:
192,192,54239,1,0,0:0:0:0:
64,192,54382,1,0,0:0:0:0:
320,192,54382,1,0,0:0:0:0:
64,192,54668,1,0,0:0:0:0:
448,192,54668,1,0,0:0:0:0:
192,192,54668,1,0,0:0:0:0:
448,192,54954,1,0,0:0:0:0:
320,192,55096,1,0,0:0:0:0:
192,192,55096,1,0,0:0:0:0:
64,192,55096,1,0,0:0:0:0:
64,192,55382,1,0,0:0:0:0:
448,192,55525,1,0,0:0:0:0:
320,192,55525,1,0,0:0:0:0:
192,192,55525,1,0,0:0:0:0:
448,192,55811,1,0,0:0:0:0:
64,192,55811,1,0,0:0:0:0:
192,192,55954,1,0,0:0:0:0:
320,192,55954,1,0,0:0:0:0:
448,192,56239,128,0,56668:0:0:0:0:
64,192,56239,1,0,0:0:0:0:
320,192,56525,1,0,0:0:0:0:
320,192,56668,1,0,0:0:0:0:
64,192,56954,1,0,0:0:0:0:
192,192,56954,1,0,0:0:0:0:
448,192,57096,1,0,0:0:0:0:
320,192,57239,1,0,0:0:0:0:
64,192,57382,1,0,0:0:0:0:
192,192,57382,1,0,0:0:0:0:
192,192,57525,1,0,0:0:0:0:
320,192,57525,1,0,0:0:0:0:
448,192,57525,1,0,0:0:0:0:
64,192,57668,1,0,0:0:0:0:
192,192,57811,1,0,0:0:0:0:
320,192,57811,1,0,0:0:0:0:
448,192,57954,1,0,0:0:0:0:
192,192,58096,1,0,0:0:0:0:
320,192,58096,1,0,0:0:0:0:
64,192,58239,1,0,0:0:0:0:
192,192,58382,1,0,0:0:0:0:
448,192,58525,1,0,0:0:0:0:
320,192,58525,1,0,0:0:0:0:
448,192,58668,1,0,0:0:0:0:
192,192,58668,1,0,0:0:0:0:
64,192,58668,1,0,0:0:0:0:
320,192,58811,1,0,0:0:0:0:
192,192,58954,1,0,0:0:0:0:
64,192,58954,1,0,0:0:0:0:
320,192,59096,1,0,0:0:0:0:
448,192,59239,1,0,0:0:0:0:
192,192,59239,1,0,0:0:0:0:
64,192,59382,1,0,0:0:0:0:
192,192,59525,1,0,0:0:0:0:
320,192,59668,1,0,0:0:0:0:
448,192,59668,1,0,0:0:0:0:
320,192,59811,1,0,0:0:0:0:
192,192,59811,1,0,0:0:0:0:
64,192,59811,1,0,0:0:0:0:
448,192,59954,1,0,0:0:0:0:
192,192,60096,1,0,0:0:0:0:
320,192,60096,1,0,0:0:0:0:
64,192,60239,1,0,0:0:0:0:
448,192,60382,1,0,0:0:0:0:
192,192,60382,1,0,0:0:0:0:
64,192,60525,1,0,0:0:0:0:
320,192,60668,1,0,0:0:0:0:
448,192,60811,1,0,0:0:0:0:
192,192,60811,1,0,0:0:0:0:
192,192,60954,1,0,0:0:0:0:
320,192,60954,1,0,0:0:0:0:
64,192,60954,1,0,0:0:0:0:
448,192,61096,1,0,0:0:0:0:
192,192,61239,1,0,0:0:0:0:
320,192,61239,1,0,0:0:0:0:
64,192,61382,1,0,0:0:0:0:
192,192,61525,1,0,0:0:0:0:
320,192,61525,1,0,0:0:0:0:
448,192,61668,1,0,0:0:0:0:
320,192,61811,1,0,0:0:0:0:
64,192,61954,1,0,0:0:0:0:
192,192,61954,1,0,0:0:0:0:
192,192,62096,1,0,0:0:0:0:
320,192,62096,1,0,0:0:0:0:
448,192,62096,1,0,0:0:0:0:
64,192,62239,1,0,0:0:0:0:
192,192,62382,1,0,0:0:0:0:
320,192,62382,1,0,0:0:0:0:
448,192,62525,1,0,0:0:0:0:
64,192,62668,1,0,0:0:0:0:
320,192,62668,1,0,0:0:0:0:
448,192,62811,1,0,0:0:0:0:
192,192,62954,1,0,0:0:0:0:
64,192,63096,1,0,0:0:0:0:
320,192,63096,1,0,0:0:0:0:
192,192,63239,1,0,0:0:0:0:
320,192,63239,1,0,0:0:0:0:
448,192,63239,1,0,0:0:0:0:
64,192,63382,1,0,0:0:0:0:
320,192,63525,1,0,0:0:0:0:
448,192,63525,1,0,0:0:0:0:
192,192,63668,1,0,0:0:0:0:
320,192,63811,1,0,0:0:0:0:
64,192,63811,1,0,0:0:0:0:
448,192,63954,1,0,0:0:0:0:
320,192,64096,1,0,0:0:0:0:
192,192,64239,1,0,0:0:0:0:
448,192,64239,1,0,0:0:0:0:
64,192,64382,1,0,0:0:0:0:
320,192,64382,1,0,0:0:0:0:
192,192,64382,1,0,0:0:0:0:
448,192,64525,1,0,0:0:0:0:
320,192,64668,1,0,0:0:0:0:
64,192,64668,1,0,0:0:0:0:
192,192,64811,1,0,0:0:0:0:
448,192,64954,1,0,0:0:0:0:
320,192,64954,1,0,0:0:0:0:
192,192,65096,1,0,0:0:0:0:
448,192,65239,1,0,0:0:0:0:
320,192,65382,1,0,0:0:0:0:
192,192,65382,1,0,0:0:0:0:
448,192,65525,1,0,0:0:0:0:
192,192,65525,1,0,0:0:0:0:
64,192,65525,1,0,0:0:0:0:
320,192,65668,1,0,0:0:0:0:
64,192,65811,1,0,0:0:0:0:
192,192,65811,1,0,0:0:0:0:
448,192,65954,1,0,0:0:0:0:
64,192,66096,128,0,66239:0:0:0:0:
448,192,66239,128,0,66382:0:0:0:0:
64,192,66382,128,0,66525:0:0:0:0:
448,192,66525,128,0,66668:0:0:0:0:
192,192,66668,128,0,66811:0:0:0:0:
320,192,66811,128,0,66954:0:0:0:0:
192,192,66954,128,0,67096:0:0:0:0:
320,192,67096,128,0,67239:0:0:0:0:
64,192,67239,1,0,0:0:0:0:
192,192,67239,1,0,0:0:0:0:
448,192,67382,1,0,0:0:0:0:
320,192,67525,1,0,0:0:0:0:
64,192,67668,1,0,0:0:0:0:
192,192,67668,1,0,0:0:0:0:
320,192,67811,1,0,0:0:0:0:
448,192,67811,1,0,0:0:0:0:
192,192,67954,1,0,0:0:0:0:
64,192,68096,1,0,0:0:0:0:
320,192,68096,1,0,0:0:0:0:
448,192,68239,1,0,0:0:0:0:
192,192,68382,1,0,0:0:0:0:
320,192,68382,1,0,0:0:0:0:
64,192,68525,1,0,0:0:0:0:
192,192,68668,1,0,0:0:0:0:
320,192,68811,1,0,0:0:0:0:
448,192,68811,1,0,0:0:0:0:
64,192,68954,1,0,0:0:0:0:
192,192,69096,1,0,0:0:0:0:
320,192,69096,1,0,0:0:0:0:
448,192,69239,1,0,0:0:0:0:
64,192,69239,1,0,0:0:0:0:
192,192,69382,1,0,0:0:0:0:
320,192,69525,1,0,0:0:0:0:
448,192,69668,1,0,0:0:0:0:
64,192,69811,1,0,0:0:0:0:
192,192,69811,1,0,0:0:0:0:
320,192,69954,1,0,0:0:0:0:
448,192,69954,1,0,0:0:0:0:
64,192,70096,1,0,0:0:0:0:
192,192,70239,1,0,0:0:0:0:
320,192,70239,1,0,0:0:0:0:
448,192,70382,1,0,0:0:0:0:
64,192,70382,1,0,0:0:0:0:
192,192,70525,1,0,0:0:0:0:
448,192,70668,1,0,0:0:0:0:
320,192,70811,1,0,0:0:0:0:
64,192,70954,1,0,0:0:0:0:
192,192,70954,1,0,0:0:0:0:
448,192,71096,1,0,0:0:0:0:
320,192,71096,1,0,0:0:0:0:
192,192,71239,1,0,0:0:0:0:
448,192,71382,1,0,0:0:0:0:
64,192,71382,1,0,0:0:0:0:
320,192,71525,1,0,0:0:0:0:
192,192,71525,1,0,0:0:0:0:
64,192,71668,1,0,0:0:0:0:
448,192,71668,1,0,0:0:0:0:
320,192,71811,1,0,0:0:0:0:
192,192,71954,1,0,0:0:0:0:
448,192,71954,1,0,0:0:0:0:
64,192,72096,1,0,0:0:0:0:
192,192,72239,1,0,0:0:0:0:
320,192,72239,1,0,0:0:0:0:
64,192,72382,1,0,0:0:0:0:
448,192,72525,1,0,0:0:0:0:
192,192,72525,1,0,0:0:0:0:
64,192,72668,1,0,0:0:0:0:
320,192,72668,1,0,0:0:0:0:
192,192,72811,1,0,0:0:0:0:
448,192,72811,1,0,0:0:0:0:
64,192,72954,1,0,0:0:0:0:
320,192,72954,1,0,0:0:0:0:
192,192,73096,1,0,0:0:0:0:
320,192,73239,1,0,0:0:0:0:
192,192,73382,1,0,0:0:0:0:
448,192,73382,1,0,0:0:0:0:
320,192,73525,1,0,0:0:0:0:
192,192,73668,1,0,0:0:0:0:
64,192,73668,1,0,0:0:0:0:
320,192,73811,1,0,0:0:0:0:
448,192,73811,1,0,0:0:0:0:
64,192,73954,1,0,0:0:0:0:
192,192,74096,1,0,0:0:0:0:
320,192,74239,1,0,0:0:0:0:
192,192,74382,1,0,0:0:0:0:
320,192,74525,1,0,0:0:0:0:
448,192,74525,1,0,0:0:0:0:
192,192,74668,1,0,0:0:0:0:
64,192,74811,1,0,0:0:0:0:
448,192,74811,1,0,0:0:0:0:
192,192,74954,1,0,0:0:0:0:
320,192,74954,1,0,0:0:0:0:
64,192,75096,1,0,0:0:0:0:
192,192,75239,1,0,0:0:0:0:
448,192,75239,1,0,0:0:0:0:
64,192,75382,1,0,0:0:0:0:
192,192,75525,1,0,0:0:0:0:
320,192,75668,1,0,0:0:0:0:
448,192,75668,1,0,0:0:0:0:
192,192,75811,1,0,0:0:0:0:
320,192,75954,1,0,0:0:0:0:
448,192,75954,1,0,0:0:0:0:
192,192,76096,1,0,0:0:0:0:
64,192,76096,1,0,0:0:0:0:
320,192,76239,1,0,0:0:0:0:
448,192,76239,1,0,0:0:0:0:
64,192,76382,1,0,0:0:0:0:
192,192,76525,1,0,0:0:0:0:
448,192,76525,1,0,0:0:0:0:
320,192,76668,1,0,0:0:0:0:
192,192,76811,1,0,0:0:0:0:
448,192,76811,1,0,0:0:0:0:
320,192,76954,1,0,0:0:0:0:
64,192,76954,1,0,0:0:0:0:
448,192,77096,1,0,0:0:0:0:
64,192,77239,1,0,0:0:0:0:
192,192,77239,1,0,0:0:0:0:
320,192,77382,1,0,0:0:0:0:
192,192,77525,1,0,0:0:0:0:
448,192,77525,1,0,0:0:0:0:
448,192,78096,128,0,79811:0:0:0:0:
64,192,79811,1,0,0:0:0:0:
192,192,79954,1,0,0:0:0:0:
320,192,80096,1,0,0:0:0:0:
192,192,80239,1,0,0:0:0:0:
448,192,80239,1,0,0:0:0:0:
64,192,80525,1,0,0:0:0:0:
192,192,80668,1,0,0:0:0:0:
320,192,80668,1,0,0:0:0:0:
448,192,80954,1,0,0:0:0:0:
320,192,81096,1,0,0:0:0:0:
192,192,81239,1,0,0:0:0:0:
64,192,81382,1,0,0:0:0:0:
320,192,81382,1,0,0:0:0:0:
448,192,81668,1,0,0:0:0:0:
320,192,81811,1,0,0:0:0:0:
192,192,81811,1,0,0:0:0:0:
448,192,82096,1,0,0:0:0:0:
192,192,82239,1,0,0:0:0:0:
320,192,82382,1,0,0:0:0:0:
64,192,82525,1,0,0:0:0:0:
448,192,82525,1,0,0:0:0:0:
192,192,82811,1,0,0:0:0:0:
320,192,82954,1,0,0:0:0:0:
448,192,82954,1,0,0:0:0:0:
448,192,83239,1,0,0:0:0:0:
192,192,83382,1,0,0:0:0:0:
320,192,83525,1,0,0:0:0:0:
64,192,83668,1,0,0:0:0:0:
448,192,83668,1,0,0:0:0:0:
320,192,83954,1,0,0:0:0:0:
64,192,84096,1,0,0:0:0:0:
192,192,84096,1,0,0:0:0:0:
320,192,84382,1,0,0:0:0:0:
192,192,84525,1,0,0:0:0:0:
320,192,84668,1,0,0:0:0:0:
64,192,84811,1,0,0:0:0:0:
448,192,84811,1,0,0:0:0:0:
192,192,85096,1,0,0:0:0:0:
64,192,85239,1,0,0:0:0:0:
320,192,85239,1,0,0:0:0:0:
320,192,85525,1,0,0:0:0:0:
192,192,85668,1,0,0:0:0:0:
320,192,85811,1,0,0:0:0:0:
64,192,85954,1,0,0:0:0:0:
448,192,85954,1,0,0:0:0:0:
320,192,86239,1,0,0:0:0:0:
192,192,86382,1,0,0:0:0:0:
448,192,86382,1,0,0:0:0:0:
192,192,86668,1,0,0:0:0:0:
64,192,86811,1,0,0:0:0:0:
192,192,86954,1,0,0:0:0:0:
320,192,87096,1,0,0:0:0:0:
448,192,87096,1,0,0:0:0:0:
192,192,87382,1,0,0:0:0:0:
64,192,87525,1,0,0:0:0:0:
320,192,87525,1,0,0:0:0:0:
320,192,87811,1,0,0:0:0:0:
448,192,87954,1,0,0:0:0:0:
320,192,88096,1,0,0:0:0:0:
64,192,88239,1,0,0:0:0:0:
192,192,88239,1,0,0:0:0:0:
320,192,88525,1,0,0:0:0:0:
192,192,88668,1,0,0:0:0:0:
448,192,88668,1,0,0:0:0:0:
64,192,88954,1,0,0:0:0:0:
192,192,88954,1,0,0:0:0:0:
448,192,89096,1,0,0:0:0:0:
320,192,89239,1,0,0:0:0:0:
192,192,89382,1,0,0:0:0:0:
448,192,89382,1,0,0:0:0:0:
64,192,89525,1,0,0:0:0:0:
320,192,89525,1,0,0:0:0:0:
192,192,89668,1,0,0:0:0:0:
320,192,89811,1,0,0:0:0:0:
448,192,89811,1,0,0:0:0:0:
64,192,90096,1,0,0:0:0:0:
448,192,90096,1,0,0:0:0:0:
320,192,90239,1,0,0:0:0:0:
192,192,90382,1,0,0:0:0:0:
320,192,90525,1,0,0:0:0:0:
448,192,90525,1,0,0:0:0:0:
64,192,90668,1,0,0:0:0:0:
192,192,90668,1,0,0:0:0:0:
320,192,90811,1,0,0:0:0:0:
192,192,90954,1,0,0:0:0:0:
448,192,90954,1,0,0:0:0:0:
320,192,91239,1,0,0:0:0:0:
448,192,91239,1,0,0:0:0:0:
64,192,91382,1,0,0:0:0:0:
192,192,91525,1,0,0:0:0:0:
64,192,91668,1,0,0:0:0:0:
320,192,91668,1,0,0:0:0:0:
192,192,91811,1,0,0:0:0:0:
448,192,91811,1,0,0:0:0:0:
320,192,91954,1,0,0:0:0:0:
64,192,92096,1,0,0:0:0:0:
192,192,92096,1,0,0:0:0:0:
64,192,92382,1,0,0:0:0:0:
448,192,92382,1,0,0:0:0:0:
192,192,92525,1,0,0:0:0:0:
320,192,92668,1,0,0:0:0:0:
64,192,92811,1,0,0:0:0:0:
192,192,92811,1,0,0:0:0:0:
320,192,92954,1,0,0:0:0:0:
448,192,92954,1,0,0:0:0:0:
192,192,93096,1,0,0:0:0:0:
64,192,93239,1,0,0:0:0:0:
320,192,93239,1,0,0:0:0:0:
192,192,93525,1,0,0:0:0:0:
320,192,93525,1,0,0:0:0:0:
64,192,93668,1,0,0:0:0:0:
192,192,93811,1,0,0:0:0:0:
320,192,93954,1,0,0:0:0:0:
448,192,93954,1,0,0:0:0:0:
64,192,94096,1,0,0:0:0:0:
192,192,94096,1,0,0:0:0:0:
320,192,94239,1,0,0:0:0:0:
192,192,94382,1,0,0:0:0:0:
448,192,94382,1,0,0:0:0:0:
320,192,94668,1,0,0:0:0:0:
448,192,94668,1,0,0:0:0:0:
192,192,94811,1,0,0:0:0:0:
320,192,94954,1,0,0:0:0:0:
64,192,95096,1,0,0:0:0:0:
448,192,95096,1,0,0:0:0:0:
320,192,95239,1,0,0:0:0:0:
192,192,95239,1,0,0:0:0:0:
448,192,95382,1,0,0:0:0:0:
64,192,95525,1,0,0:0:0:0:
192,192,95525,1,0,0:0:0:0:
320,192,95811,1,0,0:0:0:0:
192,192,95811,1,0,0:0:0:0:
448,192,95954,1,0,0:0:0:0:
320,192,96096,1,0,0:0:0:0:
192,192,96239,1,0,0:0:0:0:
64,192,96239,1,0,0:0:0:0:
448,192,96382,1,0,0:0:0:0:
320,192,96382,1,0,0:0:0:0:
192,192,96525,1,0,0:0:0:0:
320,192,96668,1,0,0:0:0:0:
64,192,96668,1,0,0:0:0:0:
192,192,96954,1,0,0:0:0:0:
64,192,96954,1,0,0:0:0:0:
320,192,97096,1,0,0:0:0:0:
192,192,97239,1,0,0:0:0:0:
448,192,97382,1,0,0:0:0:0:
64,192,97382,1,0,0:0:0:0:
192,192,97525,1,0,0:0:0:0:
320,192,97525,1,0,0:0:0:0:
64,192,97668,1,0,0:0:0:0:
320,192,97811,1,0,0:0:0:0:
192,192,97811,1,0,0:0:0:0:
448,192,98096,1,0,0:0:0:0:
320,192,98096,128,0,98525:0:0:0:0:
448,192,98525,1,0,0:0:0:0:
64,192,98525,1,0,0:0:0:0:
320,192,98668,1,0,0:0:0:0:
192,192,98668,1,0,0:0:0:0:
192,192,98954,1,0,0:0:0:0:
320,192,98954,1,0,0:0:0:0:
448,192,99239,1,0,0:0:0:0:
320,192,99239,128,0,99668:0:0:0:0:
448,192,99668,1,0,0:0:0:0:
64,192,99668,1,0,0:0:0:0:
320,192,99811,1,0,0:0:0:0:
192,192,99811,1,0,0:0:0:0:
448,192,99954,1,0,0:0:0:0:
320,192,100096,1,0,0:0:0:0:
192,192,100096,1,0,0:0:0:0:
64,192,100382,1,0,0:0:0:0:
192,192,100382,128,0,100811:0:0:0:0:
320,192,100811,1,0,0:0:0:0:
448,192,100954,1,0,0:0:0:0:
64,192,100954,1,0,0:0:0:0:
320,192,101239,1,0,0:0:0:0:
192,192,101239,1,0,0:0:0:0:
448,192,101525,1,0,0:0:0:0:
320,192,101596,1,0,0:0:0:0:
192,192,101668,1,0,0:0:0:0:
64,192,101811,1,0,0:0:0:0:
192,192,101882,1,0,0:0:0:0:
320,192,101954,1,0,0:0:0:0:
64,192,102096,1,0,0:0:0:0:
448,192,102096,1,0,0:0:0:0:
192,192,102382,1,0,0:0:0:0:
448,192,102382,1,0,0:0:0:0:
320,192,102454,1,0,0:0:0:0:
448,192,102525,1,0,0:0:0:0:
64,192,102668,1,0,0:0:0:0:
320,192,102668,128,0,103096:0:0:0:0:
192,192,103096,1,0,0:0:0:0:
64,192,103096,1,0,0:0:0:0:
448,192,103239,1,0,0:0:0:0:
320,192,103239,1,0,0:0:0:0:
320,192,103525,1,0,0:0:0:0:
448,192,103525,1,0,0:0:0:0:
192,192,103811,128,0,104239:0:0:0:0:
64,192,103811,1,0,0:0:0:0:
448,192,104239,1,0,0:0:0:0:
320,192,104239,1,0,0:0:0:0:
192,192,104382,1,0,0:0:0:0:
64,192,104382,1,0,0:0:0:0:
320,192,104525,1,0,0:0:0:0:
192,192,104668,1,0,0:0:0:0:
64,192,104668,1,0,0:0:0:0:
320,192,104954,128,0,105382:0:0:0:0:
448,192,104954,1,0,0:0:0:0:
448,192,105382,1,0,0:0:0:0:
64,192,105382,1,0,0:0:0:0:
320,192,105525,1,0,0:0:0:0:
192,192,105525,1,0,0:0:0:0:
320,192,105811,1,0,0:0:0:0:
192,192,105811,1,0,0:0:0:0:
64,192,106096,1,0,0:0:0:0:
192,192,106168,1,0,0:0:0:0:
320,192,106239,1,0,0:0:0:0:
192,192,106382,1,0,0:0:0:0:
320,192,106454,1,0,0:0:0:0:
448,192,106525,1,0,0:0:0:0:
64,192,106668,1,0,0:0:0:0:
320,192,106668,1,0,0:0:0:0:
192,192,106954,1,0,0:0:0:0:
320,192,106954,1,0,0:0:0:0:
448,192,107025,1,0,0:0:0:0:
320,192,107096,1,0,0:0:0:0:
64,192,107239,1,0,0:0:0:0:
192,192,107239,128,0,107668:0:0:0:0:
64,192,107668,1,0,0:0:0:0:
448,192,107668,1,0,0:0:0:0:
192,192,107811,1,0,0:0:0:0:
320,192,107811,1,0,0:0:0:0:
320,192,108096,1,0,0:0:0:0:
192,192,108096,1,0,0:0:0:0:
64,192,108382,1,0,0:0:0:0:
192,192,108382,128,0,108811:0:0:0:0:
448,192,108811,1,0,0:0:0:0:
320,192,108811,1,0,0:0:0:0:
64,192,108954,1,0,0:0:0:0:
192,192,108954,1,0,0:0:0:0:
320,192,109025,1,0,0:0:0:0:
448,192,109096,1,0,0:0:0:0:
320,192,109239,1,0,0:0:0:0:
192,192,109239,1,0,0:0:0:0:
192,192,109382,1,0,0:0:0:0:
64,192,109382,1,0,0:0:0:0:
448,192,109525,1,0,0:0:0:0:
320,192,109525,128,0,109954:0:0:0:0:
192,192,109954,1,0,0:0:0:0:
64,192,110096,1,0,0:0:0:0:
448,192,110096,1,0,0:0:0:0:
192,192,110382,1,0,0:0:0:0:
320,192,110382,1,0,0:0:0:0:
448,192,110668,1,0,0:0:0:0:
320,192,110739,1,0,0:0:0:0:
192,192,110811,1,0,0:0:0:0:
320,192,110954,1,0,0:0:0:0:
192,192,111025,1,0,0:0:0:0:
64,192,111096,1,0,0:0:0:0:
448,192,111239,1,0,0:0:0:0:
192,192,111239,1,0,0:0:0:0:
320,192,111525,1,0,0:0:0:0:
64,192,111525,1,0,0:0:0:0:
192,192,111596,1,0,0:0:0:0:
64,192,111668,1,0,0:0:0:0:
448,192,111811,1,0,0:0:0:0:
192,192,111811,128,0,112239:0:0:0:0:
320,192,112239,1,0,0:0:0:0:
448,192,112239,1,0,0:0:0:0:
64,192,112382,1,0,0:0:0:0:
192,192,112382,1,0,0:0:0:0:
192,192,112668,1,0,0:0:0:0:
64,192,112668,1,0,0:0:0:0:
320,192,112954,128,0,113382:0:0:0:0:
448,192,112954,1,0,0:0:0:0:
64,192,113382,1,0,0:0:0:0:
192,192,113382,1,0,0:0:0:0:
320,192,113525,1,0,0:0:0:0:
448,192,113525,1,0,0:0:0:0:
192,192,113596,1,0,0:0:0:0:
64,192,113668,1,0,0:0:0:0:
320,192,113811,1,0,0:0:0:0:
448,192,113811,1,0,0:0:0:0:
320,192,113954,1,0,0:0:0:0:
192,192,113954,1,0,0:0:0:0:
192,192,114096,128,0,114525:0:0:0:0:
64,192,114096,1,0,0:0:0:0:
64,192,114525,1,0,0:0:0:0:
448,192,114525,1,0,0:0:0:0:
192,192,114668,1,0,0:0:0:0:
320,192,114668,1,0,0:0:0:0:
192,192,114954,1,0,0:0:0:0:
320,192,114954,1,0,0:0:0:0:
448,192,115239,1,0,0:0:0:0:
64,192,115239,1,0,0:0:0:0:
448,192,115525,128,0,115596:0:0:0:0:
320,192,115596,128,0,115668:0:0:0:0:
192,192,115668,1,0,0:0:0:0:
64,192,115668,1,0,0:0:0:0:
320,192,115811,1,0,0:0:0:0:
448,192,115954,1,0,0:0:0:0:
320,192,116096,1,0,0:0:0:0:
192,192,116168,1,0,0:0:0:0:
64,192,116239,1,0,0:0:0:0:
448,192,116382,1,0,0:0:0:0:
192,192,116382,1,0,0:0:0:0:
320,192,116382,1,0,0:0:0:0:
64,192,116668,1,0,0:0:0:0:
192,192,116811,1,0,0:0:0:0:
320,192,116811,1,0,0:0:0:0:
448,192,116811,1,0,0:0:0:0:
192,192,117096,1,0,0:0:0:0:
64,192,117239,1,0,0:0:0:0:
320,192,117239,1,0,0:0:0:0:
448,192,117239,1,0,0:0:0:0:
64,192,117525,1,0,0:0:0:0:
192,192,117525,1,0,0:0:0:0:
448,192,117525,1,0,0:0:0:0:
320,192,117668,1,0,0:0:0:0:
64,192,117954,1,0,0:0:0:0:
192,192,117954,1,0,0:0:0:0:
320,192,117954,128,0,118382:0:0:0:0:
64,192,118239,1,0,0:0:0:0:
192,192,118382,1,0,0:0:0:0:
448,192,118382,1,0,0:0:0:0:
192,192,118668,1,0,0:0:0:0:
320,192,118668,1,0,0:0:0:0:
448,192,118668,1,0,0:0:0:0:
448,192,118954,1,0,0:0:0:0:
64,192,119096,1,0,0:0:0:0:
192,192,119096,1,0,0:0:0:0:
320,192,119096,1,0,0:0:0:0:
320,192,119382,1,0,0:0:0:0:
64,192,119525,1,0,0:0:0:0:
192,192,119525,1,0,0:0:0:0:
448,192,119525,1,0,0:0:0:0:
64,192,119811,1,0,0:0:0:0:
320,192,119811,1,0,0:0:0:0:
448,192,119811,1,0,0:0:0:0:
192,192,119954,1,0,0:0:0:0:
192,192,120239,128,0,120668:0:0:0:0:
320,192,120239,1,0,0:0:0:0:
448,192,120239,1,0,0:0:0:0:
64,192,120525,1,0,0:0:0:0:
64,192,120668,1,0,0:0:0:0:
320,192,120668,1,0,0:0:0:0:
448,192,120954,1,0,0:0:0:0:
64,192,120954,1,0,0:0:0:0:
192,192,120954,1,0,0:0:0:0:
64,192,121239,1,0,0:0:0:0:
192,192,121382,1,0,0:0:0:0:
320,192,121382,1,0,0:0:0:0:
448,192,121382,1,0,0:0:0:0:
448,192,121668,1,0,0:0:0:0:
64,192,121811,1,0,0:0:0:0:
192,192,121811,1,0,0:0:0:0:
320,192,121811,1,0,0:0:0:0:
64,192,122096,1,0,0:0:0:0:
448,192,122096,1,0,0:0:0:0:
320,192,122096,1,0,0:0:0:0:
192,192,122239,1,0,0:0:0:0:
192,192,122525,1,0,0:0:0:0:
320,192,122525,1,0,0:0:0:0:
448,192,122525,128,0,122954:0:0:0:0:
192,192,122811,1,0,0:0:0:0:
64,192,122954,1,0,0:0:0:0:
320,192,122954,1,0,0:0:0:0:
64,192,123239,1,0,0:0:0:0:
448,192,123239,1,0,0:0:0:0:
192,192,123239,1,0,0:0:0:0:
448,192,123525,1,0,0:0:0:0:
320,192,123668,1,0,0:0:0:0:
192,192,123668,1,0,0:0:0:0:
64,192,123668,1,0,0:0:0:0:
64,192,123954,1,0,0:0:0:0:
448,192,124096,1,0,0:0:0:0:
320,192,124096,1,0,0:0:0:0:
192,192,124096,1,0,0:0:0:0:
448,192,124382,1,0,0:0:0:0:
64,192,124382,1,0,0:0:0:0:
192,192,124525,1,0,0:0:0:0:
320,192,124525,1,0,0:0:0:0:
448,192,124811,128,0,125239:0:0:0:0:
64,192,124811,1,0,0:0:0:0:
320,192,125096,1,0,0:0:0:0:
320,192,125239,1,0,0:0:0:0:
64,192,125525,1,0,0:0:0:0:
192,192,125525,1,0,0:0:0:0:
448,192,125668,1,0,0:0:0:0:
320,192,125811,1,0,0:0:0:0:
64,192,125954,1,0,0:0:0:0:
192,192,125954,1,0,0:0:0:0:
192,192,126096,1,0,0:0:0:0:
320,192,126096,1,0,0:0:0:0:
448,192,126096,1,0,0:0:0:0:
64,192,126239,1,0,0:0:0:0:
192,192,126382,1,0,0:0:0:0:
320,192,126382,1,0,0:0:0:0:
448,192,126525,1,0,0:0:0:0:
192,192,126668,1,0,0:0:0:0:
320,192,126668,1,0,0:0:0:0:
64,192,126811,1,0,0:0:0:0:
192,192,126954,1,0,0:0:0:0:
448,192,127096,1,0,0:0:0:0:
320,192,127096,1,0,0:0:0:0:
448,192,127239,1,0,0:0:0:0:
192,192,127239,1,0,0:0:0:0:
64,192,127239,1,0,0:0:0:0:
320,192,127382,1,0,0:0:0:0:
192,192,127525,1,0,0:0:0:0:
64,192,127525,1,0,0:0:0:0:
320,192,127668,1,0,0:0:0:0:
448,192,127811,1,0,0:0:0:0:
192,192,127811,1,0,0:0:0:0:
64,192,127954,1,0,0:0:0:0:
192,192,128096,1,0,0:0:0:0:
320,192,128239,1,0,0:0:0:0:
448,192,128239,1,0,0:0:0:0:
320,192,128382,1,0,0:0:0:0:
192,192,128382,1,0,0:0:0:0:
64,192,128382,1,0,0:0:0:0:
448,192,128525,1,0,0:0:0:0:
192,192,128668,1,0,0:0:0:0:
320,192,128668,1,0,0:0:0:0:
64,192,128811,1,0,0:0:0:0:
448,192,128954,1,0,0:0:0:0:
192,192,128954,1,0,0:0:0:0:
64,192,129096,1,0,0:0:0:0:
320,192,129239,1,0,0:0:0:0:
448,192,129382,1,0,0:0:0:0:
192,192,129382,1,0,0:0:0:0:
192,192,129525,1,0,0:0:0:0:
320,192,129525,1,0,0:0:0:0:
64,192,129525,1,0,0:0:0:0:
448,192,129668,1,0,0:0:0:0:
192,192,129811,1,0,0:0:0:0:
320,192,129811,1,0,0:0:0:0:
64,192,129954,1,0,0:0:0:0:
192,192,130096,1,0,0:0:0:0:
320,192,130096,1,0,0:0:0:0:
448,192,130239,1,0,0:0:0:0:
320,192,130382,1,0,0:0:0:0:
64,192,130525,1,0,0:0:0:0:
192,192,130525,1,0,0:0:0:0:
192,192,130668,1,0,0:0:0:0:
320,192,130668,1,0,0:0:0:0:
448,192,130668,1,0,0:0:0:0:
64,192,130811,1,0,0:0:0:0:
192,192,130954,1,0,0:0:0:0:
320,192,130954,1,0,0:0:0:0:
448,192,131096,1,0,0:0:0:0:
64,192,131239,1,0,0:0:0:0:
320,192,131239,1,0,0:0:0:0:
448,192,131382,1,0,0:0:0:0:
192,192,131525,1,0,0:0:0:0:
64,192,131668,1,0,0:0:0:0:
320,192,131668,1,0,0:0:0:0:
192,192,131811,1,0,0:0:0:0:
320,192,131811,1,0,0:0:0:0:
448,192,131811,1,0,0:0:0:0:
64,192,131954,1,0,0:0:0:0:
320,192,132096,1,0,0:0:0:0:
448,192,132096,1,0,0:0:0:0:
192,192,132239,1,0,0:0:0:0:
320,192,132382,1,0,0:0:0:0:
64,192,132382,1,0,0:0:0:0:
448,192,132525,1,0,0:0:0:0:
320,192,132668,1,0,0:0:0:0:
192,192,132811,1,0,0:0:0:0:
448,192,132811,1,0,0:0:0:0:
64,192,132954,1,0,0:0:0:0:
320,192,132954,1,0,0:0:0:0:
192,192,132954,1,0,0:0:0:0:
448,192,133096,1,0,0:0:0:0:
320,192,133239,1,0,0:0:0:0:
64,192,133239,1,0,0:0:0:0:
192,192,133382,1,0,0:0:0:0:
448,192,133525,1,0,0:0:0:0:
320,192,133525,1,0,0:0:0:0:
192,192,133668,1,0,0:0:0:0:
448,192,133811,1,0,0:0:0:0:
320,192,133954,1,0,0:0:0:0:
192,192,133954,1,0,0:0:0:0:
448,192,134096,1,0,0:0:0:0:
192,192,134096,1,0,0:0:0:0:
64,192,134096,1,0,0:0:0:0:
320,192,134239,1,0,0:0:0:0:
64,192,134382,1,0,0:0:0:0:
192,192,134382,1,0,0:0:0:0:
448,192,134525,1,0,0:0:0:0:
64,192,134668,128,0,134811:0:0:0:0:
448,192,134811,128,0,134954:0:0:0:0:
64,192,134954,128,0,135096:0:0:0:0:
448,192,135096,128,0,135239:0:0:0:0:
192,192,135239,128,0,135382:0:0:0:0:
320,192,135382,128,0,135525:0:0:0:0:
192,192,135525,128,0,135668:0:0:0:0:
320,192,135668,128,0,135811:0:0:0:0:
64,192,135811,1,0,0:0:0:0:
192,192,135811,1,0,0:0:0:0:
448,192,135954,1,0,0:0:0:0:
320,192,136096,1,0,0:0:0:0:
64,192,136239,1,0,0:0:0:0:
192,192,136239,1,0,0:0:0:0:
320,192,136382,1,0,0:0:0:0:
448,192,136382,1,0,0:0:0:0:
192,192,136525,1,0,0:0:0:0:
64,192,136668,1,0,0:0:0:0:
320,192,136668,1,0,0:0:0:0:
448,192,136811,1,0,0:0:0:0:
192,192,136954,1,0,0:0:0:0:
320,192,136954,1,0,0:0:0:0:
64,192,137096,1,0,0:0:0:0:
192,192,137239,1,0,0:0:0:0:
320,192,137382,1,0,0:0:0:0:
448,192,137382,1,0,0:0:0:0:
64,192,137525,1,0,0:0:0:0:
192,192,137668,1,0,0:0:0:0:
320,192,137668,1,0,0:0:0:0:
448,192,137811,1,0,0:0:0:0:
64,192,137811,1,0,0:0:0:0:
192,192,137954,1,0,0:0:0:0:
320,192,138096,1,0,0:0:0:0:
448,192,138239,1,0,0:0:0:0:
64,192,138382,1,0,0:0:0:0:
192,192,138382,1,0,0:0:0:0:
320,192,138525,1,0,0:0:0:0:
448,192,138525,1,0,0:0:0:0:
64,192,138668,1,0,0:0:0:0:
192,192,138811,1,0,0:0:0:0:
320,192,138811,1,0,0:0:0:0:
448,192,138954,1,0,0:0:0:0:
64,192,138954,1,0,0:0:0:0:
192,192,139096,1,0,0:0:0:0:
448,192,139239,1,0,0:0:0:0:
320,192,139382,1,0,0:0:0:0:
64,192,139525,1,0,0:0:0:0:
192,192,139525,1,0,0:0:0:0:
448,192,139668,1,0,0:0:0:0:
320,192,139668,1,0,0:0:0:0:
192,192,139811,1,0,0:0:0:0:
448,192,139954,1,0,0:0:0:0:
64,192,139954,1,0,0:0:0:0:
320,192,140096,1,0,0:0:0:0:
192,192,140096,1,0,0:0:0:0:
64,192,140239,1,0,0:0:0:0:
448,192,140239,1,0,0:0:0:0:
320,192,140382,1,0,0:0:0:0:
192,192,140525,1,0,0:0:0:0:
448,192,140525,1,0,0:0:0:0:
64,192,140668,1,0,0:0:0:0:
192,192,140811,1,0,0:0:0:0:
320,192,140811,1,0,0:0:0:0:
64,192,140954,1,0,0:0:0:0:
448,192,141096,1,0,0:0:0:0:
192,192,141096,1,0,0:0:0:0:
64,192,141239,1,0,0:0:0:0:
320,192,141239,1,0,0:0:0:0:
192,192,141382,1,0,0:0:0:0:
448,192,141382,1,0,0:0:0:0:
64,192,141525,1,0,0:0:0:0:
320,192,141525,1,0,0:0:0:0:
192,192,141668,1,0,0:0:0:0:
320,192,141811,1,0,0:0:0:0:
192,192,141954,1,0,0:0:0:0:
448,192,141954,1,0,0:0:0:0:
320,192,142096,1,0,0:0:0:0:
192,192,142239,1,0,0:0:0:0:
64,192,142239,1,0,0:0:0:0:
320,192,142382,1,0,0:0:0:0:
448,192,142382,1,0,0:0:0:0:
64,192,142525,1,0,0:0:0:0:
192,192,142668,1,0,0:0:0:0:
320,192,142811,1,0,0:0:0:0:
192,192,142954,1,0,0:0:0:0:
320,192,143096,1,0,0:0:0:0:
448,192,143096,1,0,0:0:0:0:
192,192,143239,1,0,0:0:0:0:
64,192,143382,1,0,0:0:0:0:
448,192,143382,1,0,0:0:0:0:
192,192,143525,1,0,0:0:0:0:
320,192,143525,1,0,0:0:0:0:
64,192,143668,1,0,0:0:0:0:
192,192,143811,1,0,0:0:0:0:
448,192,143811,1,0,0:0:0:0:
64,192,143954,1,0,0:0:0:0:
192,192,144096,1,0,0:0:0:0:
320,192,144239,1,0,0:0:0:0:
448,192,144239,1,0,0:0:0:0:
192,192,144382,1,0,0:0:0:0:
320,192,144525,1,0,0:0:0:0:
448,192,144525,1,0,0:0:0:0:
192,192,144668,1,0,0:0:0:0:
64,192,144668,1,0,0:0:0:0:
320,192,144811,1,0,0:0:0:0:
448,192,144811,1,0,0:0:0:0:
64,192,144954,1,0,0:0:0:0:
192,192,145096,1,0,0:0:0:0:
448,192,145096,1,0,0:0:0:0:
320,192,145239,1,0,0:0:0:0:
192,192,145382,1,0,0:0:0:0:
448,192,145382,1,0,0:0:0:0:
320,192,145525,1,0,0:0:0:0:
64,192,145525,1,0,0:0:0:0:
448,192,145668,1,0,0:0:0:0:
64,192,145811,1,0,0:0:0:0:
192,192,145811,1,0,0:0:0:0:
320,192,145954,1,0,0:0:0:0:
448,192,146096,1,0,0:0:0:0:
192,192,146096,1,0,0:0:0:0:
64,192,146239,1,0,0:0:0:0:
192,192,146382,1,0,0:0:0:0:
320,192,146525,1,0,0:0:0:0:
448,192,146525,1,0,0:0:0:0:
192,192,146668,1,0,0:0:0:0:
320,192,146811,1,0,0:0:0:0:
64,192,146811,1,0,0:0:0:0:
192,192,146954,1,0,0:0:0:0:
448,192,146954,1,0,0:0:0:0:
320,192,147096,1,0,0:0:0:0:
192,192,147239,1,0,0:0:0:0:
64,192,147382,1,0,0:0:0:0:
448,192,147525,1,0,0:0:0:0:
320,192,147525,1,0,0:0:0:0:
192,192,147668,1,0,0:0:0:0:
64,192,147668,1,0,0:0:0:0:
448,192,147811,1,0,0:0:0:0:
320,192,147954,1,0,0:0:0:0:
192,192,147954,1,0,0:0:0:0:
64,192,148096,1,0,0:0:0:0:
448,192,148096,1,0,0:0:0:0:
320,192,148239,1,0,0:0:0:0:
64,192,148382,1,0,0:0:0:0:
192,192,148525,1,0,0:0:0:0:
448,192,148668,1,0,0:0:0:0:
320,192,148668,1,0,0:0:0:0:
64,192,148811,1,0,0:0:0:0:
192,192,148811,1,0,0:0:0:0:
320,192,148954,1,0,0:0:0:0:
64,192,149096,1,0,0:0:0:0:
448,192,149096,1,0,0:0:0:0:
192,192,149239,1,0,0:0:0:0:
320,192,149239,1,0,0:0:0:0:
448,192,149382,1,0,0:0:0:0:
64,192,149382,1,0,0:0:0:0:
192,192,149525,1,0,0:0:0:0:
320,192,149668,1,0,0:0:0:0:
64,192,149668,1,0,0:0:0:0:
448,192,149811,1,0,0:0:0:0:
320,192,149954,1,0,0:0:0:0:
192,192,149954,1,0,0:0:0:0:
448,192,150096,1,0,0:0:0:0:
64,192,150239,1,0,0:0:0:0:
320,192,150239,1,0,0:0:0:0:
448,192,150382,1,0,0:0:0:0:
192,192,150382,1,0,0:0:0:0:
320,192,150525,1,0,0:0:0:0:
64,192,150525,1,0,0:0:0:0:
448,192,150668,1,0,0:0:0:0:
192,192,150668,1,0,0:0:0:0:
320,192,150811,1,0,0:0:0:0:
192,192,150954,1,0,0:0:0:0:
320,192,151096,1,0,0:0:0:0:
64,192,151096,1,0,0:0:0:0:
192,192,151239,1,0,0:0:0:0:
320,192,151382,1,0,0:0:0:0:
448,192,151382,1,0,0:0:0:0:
192,192,151525,1,0,0:0:0:0:
64,192,151525,1,0,0:0:0:0:
448,192,151668,1,0,0:0:0:0:
320,192,151811,1,0,0:0:0:0:
192,192,151954,1,0,0:0:0:0:
320,192,152096,1,0,0:0:0:0:
192,192,152239,1,0,0:0:0:0:
64,192,152239,1,0,0:0:0:0:
320,192,152382,1,0,0:0:0:0:
448,192,152525,1,0,0:0:0:0:
64,192,152525,1,0,0:0:0:0:
320,192,152668,1,0,0:0:0:0:
192,192,152668,1,0,0:0:0:0:
448,192,152811,1,0,0:0:0:0:
320,192,152954,1,0,0:0:0:0:
64,192,152954,1,0,0:0:0:0:
448,192,153096,1,0,0:0:0:0:
320,192,153239,1,0,0:0:0:0:
192,192,153382,1,0,0:0:0:0:
64,192,153382,1,0,0:0:0:0:
320,192,153525,1,0,0:0:0:0:
192,192,153668,1,0,0:0:0:0:
64,192,153668,1,0,0:0:0:0:
320,192,153811,1,0,0:0:0:0:
448,192,153811,1,0,0:0:0:0:
192,192,153954,1,0,0:0:0:0:
64,192,153954,1,0,0:0:0:0:
448,192,154096,1,0,0:0:0:0:
320,192,154239,1,0,0:0:0:0:
64,192,154239,1,0,0:0:0:0:
192,192,154382,1,0,0:0:0:0:
320,192,154525,1,0,0:0:0:0:
64,192,154525,1,0,0:0:0:0:
192,192,154668,1,0,0:0:0:0:
448,192,154668,1,0,0:0:0:0:
64,192,154811,1,0,0:0:0:0:
448,192,154954,1,0,0:0:0:0:
320,192,154954,1,0,0:0:0:0:
192,192,155096,1,0,0:0:0:0:
320,192,155239,1,0,0:0:0:0:
64,192,155239,1,0,0:0:0:0:
64,192,155811,128,0,157525:0:0:0:0:
448,192,157525,1,0,0:0:0:0:
320,192,157668,1,0,0:0:0:0:
192,192,157811,1,0,0:0:0:0:
64,192,157954,1,0,0:0:0:0:
192,192,158239,1,0,0:0:0:0:
64,192,158382,1,0,0:0:0:0:
192,192,158668,1,0,0:0:0:0:
320,192,158811,1,0,0:0:0:0:
192,192,158954,1,0,0:0:0:0:
448,192,159096,1,0,0:0:0:0:
320,192,159382,1,0,0:0:0:0:
448,192,159525,1,0,0:0:0:0:
64,192,159811,1,0,0:0:0:0:
192,192,159954,1,0,0:0:0:0:
320,192,160096,1,0,0:0:0:0:
448,192,160239,1,0,0:0:0:0:
320,192,160525,1,0,0:0:0:0:
448,192,160668,1,0,0:0:0:0:
320,192,160954,1,0,0:0:0:0:
192,192,161096,1,0,0:0:0:0:
320,192,161239,1,0,0:0:0:0:
64,192,161382,1,0,0:0:0:0:
192,192,161668,1,0,0:0:0:0:
64,192,161811,1,0,0:0:0:0:
192,192,162096,1,0,0:0:0:0:
320,192,162239,1,0,0:0:0:0:
448,192,162382,1,0,0:0:0:0:
320,192,162525,1,0,0:0:0:0:
64,192,162811,1,0,0:0:0:0:
192,192,162954,1,0,0:0:0:0:
320,192,163239,1,0,0:0:0:0:
192,192,163382,1,0,0:0:0:0:
64,192,163525,1,0,0:0:0:0:
192,192,163668,1,0,0:0:0:0:
448,192,163954,1,0,0:0:0:0:
320,192,164096,1,0,0:0:0:0:
64,192,164382,1,0,0:0:0:0:
192,192,164525,1,0,0:0:0:0:
448,192,164668,1,0,0:0:0:0:
320,192,164811,1,0,0:0:0:0:
320,192,165096,1,0,0:0:0:0:
192,192,165239,1,0,0:0:0:0:
448,192,165525,1,0,0:0:0:0:
320,192,165668,1,0,0:0:0:0:
64,192,165811,1,0,0:0:0:0:
192,192,165954,1,0,0:0:0:0:
192,192,166239,1,0,0:0:0:0:
320,192,166382,1,0,0:0:0:0:
320,192,166668,1,0,0:0:0:0:
448,192,166668,1,0,0:0:0:0:
192,192,166811,1,0,0:0:0:0:
64,192,166954,1,0,0:0:0:0:
192,192,167096,1,0,0:0:0:0:
320,192,167239,1,0,0:0:0:0:
448,192,167239,1,0,0:0:0:0:
192,192,167382,1,0,0:0:0:0:
64,192,167525,1,0,0:0:0:0:
320,192,167525,1,0,0:0:0:0:
448,192,167811,1,0,0:0:0:0:
320,192,167811,1,0,0:0:0:0:
192,192,167954,1,0,0:0:0:0:
64,192,168096,1,0,0:0:0:0:
192,192,168239,1,0,0:0:0:0:
320,192,168382,1,0,0:0:0:0:
448,192,168382,1,0,0:0:0:0:
192,192,168525,1,0,0:0:0:0:
320,192,168668,1,0,0:0:0:0:
64,192,168668,1,0,0:0:0:0:
64,192,168954,1,0,0:0:0:0:
320,192,168954,1,0,0:0:0:0:
192,192,169096,1,0,0:0:0:0:
320,192,169239,1,0,0:0:0:0:
448,192,169382,1,0,0:0:0:0:
320,192,169525,1,0,0:0:0:0:
192,192,169525,1,0,0:0:0:0:
64,192,169668,1,0,0:0:0:0:
192,192,169811,1,0,0:0:0:0:
448,192,169811,1,0,0:0:0:0:
64,192,170096,1,0,0:0:0:0:
320,192,170096,1,0,0:0:0:0:
192,192,170239,1,0,0:0:0:0:
320,192,170382,1,0,0:0:0:0:
448,192,170525,1,0,0:0:0:0:
192,192,170668,1,0,0:0:0:0:
320,192,170668,1,0,0:0:0:0:
64,192,170811,1,0,0:0:0:0:
192,192,170954,1,0,0:0:0:0:
448,192,170954,1,0,0:0:0:0:
448,192,171239,1,0,0:0:0:0:
64,192,171239,1,0,0:0:0:0:
320,192,171382,1,0,0:0:0:0:
192,192,171525,1,0,0:0:0:0:
64,192,171668,1,0,0:0:0:0:
192,192,171811,1,0,0:0:0:0:
320,192,171811,1,0,0:0:0:0:
64,192,171954,1,0,0:0:0:0:
192,192,172096,1,0,0:0:0:0:
448,192,172096,1,0,0:0:0:0:
448,192,172382,1,0,0:0:0:0:
64,192,172382,1,0,0:0:0:0:
320,192,172525,1,0,0:0:0:0:
192,192,172668,1,0,0:0:0:0:
64,192,172811,1,0,0:0:0:0:
192,192,172954,1,0,0:0:0:0:
320,192,172954,1,0,0:0:0:0:
64,192,173096,1,0,0:0:0:0:
192,192,173239,1,0,0:0:0:0:
448,192,173239,1,0,0:0:0:0:
320,192,173525,1,0,0:0:0:0:
448,192,173525,1,0,0:0:0:0:
320,192,175811,1,0,0:0:0:0:
192,192,176096,1,0,0:0:0:0:
64,192,176096,1,0,0:0:0:0:
320,192,176239,1,0,0:0:0:0:
192,192,176382,1,0,0:0:0:0:
448,192,176382,1,0,0:0:0:0:
64,192,176525,1,0,0:0:0:0:
192,192,176668,1,0,0:0:0:0:
320,192,176668,1,0,0:0:0:0:
320,192,176954,1,0,0:0:0:0:
192,192,177096,1,0,0:0:0:0:
64,192,177096,1,0,0:0:0:0:
448,192,177239,1,0,0:0:0:0:
64,192,177382,1,0,0:0:0:0:
320,192,177382,1,0,0:0:0:0:
192,192,177525,1,0,0:0:0:0:
448,192,177525,1,0,0:0:0:0:
320,192,177668,1,0,0:0:0:0:
448,192,177811,1,0,0:0:0:0:
320,192,177882,1,0,0:0:0:0:
192,192,177954,1,0,0:0:0:0:
320,192,178096,1,0,0:0:0:0:
448,192,178096,1,0,0:0:0:0:
64,192,178239,1,0,0:0:0:0:
192,192,178382,1,0,0:0:0:0:
320,192,178525,1,0,0:0:0:0:
448,192,178525,1,0,0:0:0:0:
64,192,178668,1,0,0:0:0:0:
192,192,178668,1,0,0:0:0:0:
320,192,178668,1,0,0:0:0:0:
448,192,178811,1,0,0:0:0:0:
192,192,178954,1,0,0:0:0:0:
320,192,178954,1,0,0:0:0:0:
64,192,179096,1,0,0:0:0:0:
192,192,179239,1,0,0:0:0:0:
320,192,179239,1,0,0:0:0:0:
448,192,179382,1,0,0:0:0:0:
320,192,179525,1,0,0:0:0:0:
192,192,179668,1,0,0:0:0:0:
64,192,179668,1,0,0:0:0:0:
448,192,179811,1,0,0:0:0:0:
320,192,179811,1,0,0:0:0:0:
64,192,179811,1,0,0:0:0:0:
192,192,179954,1,0,0:0:0:0:
448,192,180096,1,0,0:0:0:0:
320,192,180096,1,0,0:0:0:0:
192,192,180239,1,0,0:0:0:0:
320,192,180382,1,0,0:0:0:0:
64,192,180382,1,0,0:0:0:0:
448,192,180525,1,0,0:0:0:0:
320,192,180668,1,0,0:0:0:0:
64,192,180811,1,0,0:0:0:0:
192,192,180811,1,0,0:0:0:0:
448,192,180954,1,0,0:0:0:0:
320,192,180954,1,0,0:0:0:0:
192,192,180954,1,0,0:0:0:0:
64,192,181096,1,0,0:0:0:0:
192,192,181239,1,0,0:0:0:0:
320,192,181239,1,0,0:0:0:0:
448,192,181382,1,0,0:0:0:0:
320,192,181525,1,0,0:0:0:0:
64,192,181525,1,0,0:0:0:0:
448,192,181668,1,0,0:0:0:0:
192,192,181811,1,0,0:0:0:0:
320,192,181954,1,0,0:0:0:0:
64,192,181954,1,0,0:0:0:0:
448,192,182096,1,0,0:0:0:0:
192,192,182096,1,0,0:0:0:0:
320,192,182096,1,0,0:0:0:0:
64,192,182239,1,0,0:0:0:0:
192,192,182382,1,0,0:0:0:0:
320,192,182382,1,0,0:0:0:0:
448,192,182525,1,0,0:0:0:0:
192,192,182668,1,0,0:0:0:0:
320,192,182668,1,0,0:0:0:0:
64,192,182811,1,0,0:0:0:0:
192,192,182954,1,0,0:0:0:0:
320,192,183096,1,0,0:0:0:0:
448,192,183096,1,0,0:0:0:0:
64,192,183239,1,0,0:0:0:0:
192,192,183239,1,0,0:0:0:0:
320,192,183239,1,0,0:0:0:0:
448,192,183382,1,0,0:0:0:0:
192,192,183525,1,0,0:0:0:0:
320,192,183525,1,0,0:0:0:0:
64,192,183668,1,0,0:0:0:0:
192,192,183811,1,0,0:0:0:0:
448,192,183811,1,0,0:0:0:0:
64,192,183954,1,0,0:0:0:0:
320,192,184096,1,0,0:0:0:0:
192,192,184239,1,0,0:0:0:0:
448,192,184239,1,0,0:0:0:0:
64,192,184382,1,0,0:0:0:0:
192,192,184382,1,0,0:0:0:0:
320,192,184382,1,0,0:0:0:0:
448,192,184525,1,0,0:0:0:0:
64,192,184668,1,0,0:0:0:0:
192,192,184668,1,0,0:0:0:0:
320,192,184811,1,0,0:0:0:0:
448,192,184954,1,0,0:0:0:0:
192,192,184954,1,0,0:0:0:0:
64,192,185096,1,0,0:0:0:0:
192,192,185239,1,0,0:0:0:0:
64,192,185382,1,0,0:0:0:0:
320,192,185382,1,0,0:0:0:0:
320,192,185525,1,0,0:0:0:0:
192,192,185525,1,0,0:0:0:0:
448,192,185525,1,0,0:0:0:0:
64,192,185668,1,0,0:0:0:0:
448,192,185811,1,0,0:0:0:0:
192,192,185811,1,0,0:0:0:0:
320,192,185954,1,0,0:0:0:0:
192,192,186096,1,0,0:0:0:0:
64,192,186096,1,0,0:0:0:0:
320,192,186239,1,0,0:0:0:0:
64,192,186382,1,0,0:0:0:0:
320,192,186525,1,0,0:0:0:0:
192,192,186525,1,0,0:0:0:0:
448,192,186668,1,0,0:0:0:0:
320,192,186668,1,0,0:0:0:0:
64,192,186668,1,0,0:0:0:0:
192,192,186811,1,0,0:0:0:0:
320,192,186954,1,0,0:0:0:0:
448,192,186954,1,0,0:0:0:0:
64,192,187096,1,0,0:0:0:0:
192,192,187239,1,0,0:0:0:0:
320,192,187239,1,0,0:0:0:0:
448,192,187382,1,0,0:0:0:0:
320,192,187525,1,0,0:0:0:0:
64,192,187668,1,0,0:0:0:0:
192,192,187668,1,0,0:0:0:0:
64,192,187811,1,0,0:0:0:0:
192,192,187811,1,0,0:0:0:0:
448,192,187811,1,0,0:0:0:0:
320,192,187954,1,0,0:0:0:0:
192,192,188096,1,0,0:0:0:0:
448,192,188096,1,0,0:0:0:0:
64,192,188239,1,0,0:0:0:0:
192,192,188382,1,0,0:0:0:0:
320,192,188382,1,0,0:0:0:0:
64,192,188525,1,0,0:0:0:0:
192,192,188668,1,0,0:0:0:0:
320,192,188811,1,0,0:0:0:0:
448,192,188811,1,0,0:0:0:0:
64,192,188954,1,0,0:0:0:0:
320,192,188954,1,0,0:0:0:0:
448,192,188954,1,0,0:0:0:0:
192,192,189096,1,0,0:0:0:0:
64,192,189239,1,0,0:0:0:0:
320,192,189239,1,0,0:0:0:0:
448,192,189382,1,0,0:0:0:0:
192,192,189525,1,0,0:0:0:0:
320,192,189525,1,0,0:0:0:0:
64,192,189668,1,0,0:0:0:0:
192,192,189811,1,0,0:0:0:0:
320,192,189954,1,0,0:0:0:0:
448,192,189954,1,0,0:0:0:0:
64,192,190096,1,0,0:0:0:0:
192,192,190096,1,0,0:0:0:0:
320,192,190096,1,0,0:0:0:0:
448,192,190239,1,0,0:0:0:0:
320,192,190382,1,0,0:0:0:0:
192,192,190382,1,0,0:0:0:0:
64,192,190525,1,0,0:0:0:0:
320,192,190668,1,0,0:0:0:0:
448,192,190668,1,0,0:0:0:0:
192,192,190811,1,0,0:0:0:0:
64,192,190954,1,0,0:0:0:0:
192,192,191096,1,0,0:0:0:0:
320,192,191096,1,0,0:0:0:0:
320,192,191239,1,0,0:0:0:0:
448,192,191239,1,0,0:0:0:0:
64,192,191239,1,0,0:0:0:0:
192,192,191382,1,0,0:0:0:0:
320,192,191525,1,0,0:0:0:0:
448,192,191525,1,0,0:0:0:0:
64,192,191668,1,0,0:0:0:0:
192,192,191811,1,0,0:0:0:0:
448,192,191811,1,0,0:0:0:0:
320,192,191954,1,0,0:0:0:0:
192,192,192096,1,0,0:0:0:0:
320,192,192239,1,0,0:0:0:0:
448,192,192239,1,0,0:0:0:0:
64,192,192382,1,0,0:0:0:0:
192,192,192382,1,0,0:0:0:0:
448,192,192382,1,0,0:0:0:0:
320,192,192525,1,0,0:0:0:0:
192,192,192668,1,0,0:0:0:0:
64,192,192668,1,0,0:0:0:0:
448,192,192811,1,0,0:0:0:0:
320,192,192954,1,0,0:0:0:0:
192,192,192954,1,0,0:0:0:0:
64,192,193096,1,0,0:0:0:0:
320,192,193239,1,0,0:0:0:0:
192,192,193382,1,0,0:0:0:0:
64,192,193382,1,0,0:0:0:0:
192,192,193525,1,0,0:0:0:0:
448,192,193525,1,0,0:0:0:0:
320,192,193525,1,0,0:0:0:0:
64,192,193668,1,0,0:0:0:0:
320,192,193811,1,0,0:0:0:0:
448,192,193811,1,0,0:0:0:0:
192,192,193954,1,0,0:0:0:0:
320,192,194096,1,0,0:0:0:0:
448,192,194096,1,0,0:0:0:0:
64,192,194096,1,0,0:0:0:0:
192,192,194239,1,0,0:0:0:0:
64,192,194382,1,0,0:0:0:0:
320,192,194525,1,0,0:0:0:0:
448,192,194525,1,0,0:0:0:0:
192,192,194668,1,0,0:0:0:0:
320,192,194668,1,0,0:0:0:0:
64,192,194668,1,0,0:0:0:0:
448,192,194811,1,0,0:0:0:0:
320,192,194954,1,0,0:0:0:0:
192,192,194954,1,0,0:0:0:0:
64,192,195096,1,0,0:0:0:0:
192,192,195239,1,0,0:0:0:0:
448,192,195239,1,0,0:0:0:0:
320,192,195382,1,0,0:0:0:0:
64,192,195525,1,0,0:0:0:0:
192,192,195668,1,0,0:0:0:0:
320,192,195668,1,0,0:0:0:0:
64,192,195811,1,0,0:0:0:0:
192,192,195811,1,0,0:0:0:0:
448,192,195811,1,0,0:0:0:0:
320,192,195954,1,0,0:0:0:0:
192,192,196096,1,0,0:0:0:0:
448,192,196096,1,0,0:0:0:0:
64,192,196239,1,0,0:0:0:0:
448,192,196382,128,0,196454:0:0:0:0:
192,192,196382,128,0,196454:0:0:0:0:
192,192,196525,128,0,196596:0:0:0:0:
448,192,196525,128,0,196596:0:0:0:0:
192,192,196668,128,0,196739:0:0:0:0:
448,192,196668,128,0,196739:0:0:0:0:
192,192,196811,128,0,196882:0:0:0:0:
448,192,196811,128,0,196882:0:0:0:0:
320,192,196954,128,0,197025:0:0:0:0:
448,192,196954,128,0,197025:0:0:0:0:
320,192,197096,128,0,197168:0:0:0:0:
448,192,197096,128,0,197168:0:0:0:0:
320,192,197239,128,0,197311:0:0:0:0:
448,192,197239,128,0,197311:0:0:0:0:
448,192,197382,128,0,197454:0:0:0:0:
320,192,197382,128,0,197454:0:0:0:0:
64,192,197525,128,0,197596:0:0:0:0:
192,192,197525,128,0,197596:0:0:0:0:
64,192,197668,128,0,197739:0:0:0:0:
192,192,197668,128,0,197739:0:0:0:0:
192,192,197811,128,0,197882:0:0:0:0:
64,192,197811,128,0,197882:0:0:0:0:
64,192,197954,128,0,198025:0:0:0:0:
192,192,197954,128,0,198025:0:0:0:0:
320,192,198096,1,0,0:0:0:0:
448,192,198096,1,0,0:0:0:0:
64,192,198239,1,0,0:0:0:0:
192,192,198382,1,0,0:0:0:0:
320,192,198454,1,0,0:0:0:0:
448,192,198525,1,0,0:0:0:0:
192,192,198668,1,0,0:0:0:0:
64,192,198668,1,0,0:0:0:0:
448,192,198811,1,0,0:0:0:0:
320,192,198954,1,0,0:0:0:0:
192,192,199096,1,0,0:0:0:0:
64,192,199096,1,0,0:0:0:0:
448,192,199239,1,0,0:0:0:0:
320,192,199239,1,0,0:0:0:0:
192,192,199239,1,0,0:0:0:0:
64,192,199382,1,0,0:0:0:0:
320,192,199525,1,0,0:0:0:0:
192,192,199525,1,0,0:0:0:0:
448,192,199668,1,0,0:0:0:0:
320,192,199811,1,0,0:0:0:0:
192,192,199811,1,0,0:0:0:0:
64,192,199954,1,0,0:0:0:0:
192,192,200096,1,0,0:0:0:0:
320,192,200239,1,0,0:0:0:0:
448,192,200239,1,0,0:0:0:0:
64,192,200382,1,0,0:0:0:0:
192,192,200382,1,0,0:0:0:0:
448,192,200382,1,0,0:0:0:0:
320,192,200525,1,0,0:0:0:0:
64,192,200668,1,0,0:0:0:0:
192,192,200668,1,0,0:0:0:0:
320,192,200811,1,0,0:0:0:0:
192,192,200954,1,0,0:0:0:0:
448,192,200954,1,0,0:0:0:0:
64,192,201096,1,0,0:0:0:0:
192,192,201239,1,0,0:0:0:0:
448,192,201382,1,0,0:0:0:0:
320,192,201382,1,0,0:0:0:0:
64,192,201525,1,0,0:0:0:0:
192,192,201525,1,0,0:0:0:0:
320,192,201525,1,0,0:0:0:0:
448,192,201668,1,0,0:0:0:0:
320,192,201811,1,0,0:0:0:0:
192,192,201811,1,0,0:0:0:0:
64,192,201954,1,0,0:0:0:0:
192,192,202096,1,0,0:0:0:0:
448,192,202096,1,0,0:0:0:0:
64,192,202239,1,0,0:0:0:0:
320,192,202382,1,0,0:0:0:0:
192,192,202525,1,0,0:0:0:0:
448,192,202525,1,0,0:0:0:0:
64,192,202668,1,0,0:0:0:0:
320,192,202668,1,0,0:0:0:0:
192,192,202668,1,0,0:0:0:0:
448,192,202811,1,0,0:0:0:0:
320,192,202954,1,0,0:0:0:0:
192,192,202954,1,0,0:0:0:0:
64,192,203096,1,0,0:0:0:0:
320,192,203239,1,0,0:0:0:0:
192,192,203239,1,0,0:0:0:0:
448,192,203382,1,0,0:0:0:0:
320,192,203525,1,0,0:0:0:0:
192,192,203668,1,0,0:0:0:0:
64,192,203668,1,0,0:0:0:0:
448,192,203811,1,0,0:0:0:0:
320,192,203811,1,0,0:0:0:0:
192,192,203811,1,0,0:0:0:0:
64,192,203954,1,0,0:0:0:0:
320,192,204096,1,0,0:0:0:0:
192,192,204096,1,0,0:0:0:0:
448,192,204239,1,0,0:0:0:0:
320,192,204382,1,0,0:0:0:0:
64,192,204382,1,0,0:0:0:0:
448,192,204525,1,0,0:0:0:0:
192,192,204668,1,0,0:0:0:0:
320,192,204811,1,0,0:0:0:0:
64,192,204811,1,0,0:0:0:0:
448,192,204954,1,0,0:0:0:0:
320,192,204954,1,0,0:0:0:0:
192,192,204954,1,0,0:0:0:0:
64,192,205096,1,0,0:0:0:0:
448,192,205239,1,0,0:0:0:0:
320,192,205239,1,0,0:0:0:0:
192,192,205382,1,0,0:0:0:0:
64,192,205525,1,0,0:0:0:0:
320,192,205525,1,0,0:0:0:0:
448,192,205668,1,0,0:0:0:0:
320,192,205811,1,0,0:0:0:0:
448,192,205954,1,0,0:0:0:0:
192,192,205954,1,0,0:0:0:0:
192,192,206096,1,0,0:0:0:0:
320,192,206096,1,0,0:0:0:0:
64,192,206096,1,0,0:0:0:0:
448,192,206239,1,0,0:0:0:0:
64,192,206382,1,0,0:0:0:0:
320,192,206382,1,0,0:0:0:0:
192,192,206525,1,0,0:0:0:0:
320,192,206668,1,0,0:0:0:0:
448,192,206668,1,0,0:0:0:0:
192,192,206811,1,0,0:0:0:0:
448,192,206954,1,0,0:0:0:0:
192,192,207096,1,0,0:0:0:0:
320,192,207096,1,0,0:0:0:0:
64,192,207239,1,0,0:0:0:0:
192,192,207239,1,0,0:0:0:0:
448,192,207239,1,0,0:0:0:0:
320,192,207382,1,0,0:0:0:0:
192,192,207525,1,0,0:0:0:0:
64,192,207525,1,0,0:0:0:0:
448,192,207668,1,0,0:0:0:0:
320,192,207811,1,0,0:0:0:0:
192,192,207811,1,0,0:0:0:0:
64,192,207954,1,0,0:0:0:0:
192,192,208096,1,0,0:0:0:0:
448,192,208239,1,0,0:0:0:0:
320,192,208239,1,0,0:0:0:0:
448,192,208382,1,0,0:0:0:0:
320,192,208382,1,0,0:0:0:0:
64,192,208382,1,0,0:0:0:0:
192,192,208525,1,0,0:0:0:0:
320,192,208668,1,0,0:0:0:0:
64,192,208668,1,0,0:0:0:0:
448,192,208811,1,0,0:0:0:0:
320,192,208954,1,0,0:0:0:0:
192,192,208954,1,0,0:0:0:0:
448,192,209096,1,0,0:0:0:0:
320,192,209239,1,0,0:0:0:0:
192,192,209382,1,0,0:0:0:0:
64,192,209382,1,0,0:0:0:0:
448,192,209525,1,0,0:0:0:0:
192,192,209525,1,0,0:0:0:0:
64,192,209525,1,0,0:0:0:0:
320,192,209668,1,0,0:0:0:0:
448,192,209811,1,0,0:0:0:0:
192,192,209811,1,0,0:0:0:0:
64,192,209954,1,0,0:0:0:0:
320,192,210096,1,0,0:0:0:0:
192,192,210096,1,0,0:0:0:0:
448,192,210239,1,0,0:0:0:0:
320,192,210382,1,0,0:0:0:0:
192,192,210525,1,0,0:0:0:0:
64,192,210525,1,0,0:0:0:0:
448,192,210668,1,0,0:0:0:0:
320,192,210668,1,0,0:0:0:0:
192,192,210668,1,0,0:0:0:0:
64,192,210811,1,0,0:0:0:0:
192,192,210954,1,0,0:0:0:0:
320,192,210954,1,0,0:0:0:0:
448,192,211096,1,0,0:0:0:0:
192,192,211239,1,0,0:0:0:0:
64,192,211239,1,0,0:0:0:0:
320,192,211382,1,0,0:0:0:0:
448,192,211525,1,0,0:0:0:0:
320,192,211668,1,0,0:0:0:0:
192,192,211668,1,0,0:0:0:0:
192,192,211811,1,0,0:0:0:0:
64,192,211811,1,0,0:0:0:0:
448,192,211811,1,0,0:0:0:0:
320,192,211954,1,0,0:0:0:0:
192,192,212096,1,0,0:0:0:0:
64,192,212096,1,0,0:0:0:0:
448,192,212239,1,0,0:0:0:0:
320,192,212382,1,0,0:0:0:0:
64,192,212382,1,0,0:0:0:0:
192,192,212525,1,0,0:0:0:0:
320,192,212668,1,0,0:0:0:0:
192,192,212811,1,0,0:0:0:0:
64,192,212811,1,0,0:0:0:0:
448,192,212954,1,0,0:0:0:0:
320,192,212954,1,0,0:0:0:0:
64,192,212954,1,0,0:0:0:0:
192,192,213096,1,0,0:0:0:0:
320,192,213239,1,0,0:0:0:0:
448,192,213239,1,0,0:0:0:0:
64,192,213382,1,0,0:0:0:0:
192,192,213525,1,0,0:0:0:0:
320,192,213525,1,0,0:0:0:0:
448,192,213668,1,0,0:0:0:0:
192,192,213811,1,0,0:0:0:0:
320,192,213954,1,0,0:0:0:0:
448,192,213954,1,0,0:0:0:0:
320,192,214096,1,0,0:0:0:0:
64,192,214096,1,0,0:0:0:0:
192,192,214096,1,0,0:0:0:0:
448,192,214239,1,0,0:0:0:0:
192,192,214382,1,0,0:0:0:0:
64,192,214382,1,0,0:0:0:0:
320,192,214525,1,0,0:0:0:0:
192,192,214668,1,0,0:0:0:0:
64,192,214668,1,0,0:0:0:0:
448,192,214668,1,0,0:0:0:0:
320,192,214811,1,0,0:0:0:0:
448,192,214954,1,0,0:0:0:0:
192,192,215096,1,0,0:0:0:0:
64,192,215096,1,0,0:0:0:0:
320,192,215239,1,0,0:0:0:0:
192,192,215239,1,0,0:0:0:0:
448,192,215239,1,0,0:0:0:0:
64,192,215382,1,0,0:0:0:0:
192,192,215525,1,0,0:0:0:0:
320,192,215525,1,0,0:0:0:0:
448,192,215668,1,0,0:0:0:0:
320,192,215811,1,0,0:0:0:0:
64,192,215811,1,0,0:0:0:0:
192,192,215954,1,0,0:0:0:0:
448,192,216096,1,0,0:0:0:0:
320,192,216239,1,0,0:0:0:0:
192,192,216239,1,0,0:0:0:0:
448,192,216382,1,0,0:0:0:0:
320,192,216382,1,0,0:0:0:0:
64,192,216382,1,0,0:0:0:0:
192,192,216525,1,0,0:0:0:0:
320,192,216668,1,0,0:0:0:0:
64,192,216668,1,0,0:0:0:0:
448,192,216811,1,0,0:0:0:0:
64,192,216954,128,0,217025:0:0:0:0:
320,192,216954,128,0,217025:0:0:0:0:
320,192,217096,128,0,217168:0:0:0:0:
64,192,217096,128,0,217168:0:0:0:0:
320,192,217239,128,0,217311:0:0:0:0:
64,192,217239,128,0,217311:0:0:0:0:
320,192,217382,128,0,217454:0:0:0:0:
64,192,217382,128,0,217454:0:0:0:0:
192,192,217525,128,0,217596:0:0:0:0:
64,192,217525,128,0,217596:0:0:0:0:
192,192,217668,128,0,217739:0:0:0:0:
64,192,217668,128,0,217739:0:0:0:0:
192,192,217811,128,0,217882:0:0:0:0:
64,192,217811,128,0,217882:0:0:0:0:
64,192,217954,128,0,218025:0:0:0:0:
192,192,217954,128,0,218025:0:0:0:0:
448,192,218096,128,0,218168:0:0:0:0:
320,192,218096,128,0,218168:0:0:0:0:
448,192,218239,128,0,218311:0:0:0:0:
320,192,218239,128,0,218311:0:0:0:0:
320,192,218382,128,0,218454:0:0:0:0:
448,192,218382,128,0,218454:0:0:0:0:
448,192,218525,128,0,218596:0:0:0:0:
320,192,218525,128,0,218596:0:0:0:0:
192,192,218668,1,0,0:0:0:0:
64,192,218668,1,0,0:0:0:0:
448,192,218811,1,0,0:0:0:0:
320,192,218954,1,0,0:0:0:0:
192,192,219025,1,0,0:0:0:0:
64,192,219096,1,0,0:0:0:0:
192,192,219239,1,0,0:0:0:0:
448,192,219239,1,0,0:0:0:0:
320,192,219239,1,0,0:0:0:0:
64,192,219382,1,0,0:0:0:0:
192,192,219525,1,0,0:0:0:0:
320,192,219668,1,0,0:0:0:0:
64,192,219811,1,0,0:0:0:0:
192,192,219811,1,0,0:0:0:0:
448,192,219811,1,0,0:0:0:0:
320,192,219954,1,0,0:0:0:0:
192,192,220096,1,0,0:0:0:0:
64,192,220239,1,0,0:0:0:0:
192,192,220382,1,0,0:0:0:0:
320,192,220382,1,0,0:0:0:0:
448,192,220382,1,0,0:0:0:0:
64,192,220525,1,0,0:0:0:0:
192,192,220668,1,0,0:0:0:0:
320,192,220811,1,0,0:0:0:0:
192,192,220954,1,0,0:0:0:0:
64,192,220954,1,0,0:0:0:0:
448,192,220954,1,0,0:0:0:0:
320,192,221096,1,0,0:0:0:0:
192,192,221239,1,0,0:0:0:0:
448,192,221382,1,0,0:0:0:0:
64,192,221525,1,0,0:0:0:0:
192,192,221525,1,0,0:0:0:0:
320,192,221525,1,0,0:0:0:0:
448,192,221668,1,0,0:0:0:0:
320,192,221811,1,0,0:0:0:0:
192,192,221954,1,0,0:0:0:0:
64,192,222096,1,0,0:0:0:0:
320,192,222096,1,0,0:0:0:0:
448,192,222096,1,0,0:0:0:0:
192,192,222239,1,0,0:0:0:0:
320,192,222382,1,0,0:0:0:0:
448,192,222525,1,0,0:0:0:0:
64,192,222668,1,0,0:0:0:0:
192,192,222668,1,0,0:0:0:0:
320,192,222668,1,0,0:0:0:0:
448,192,222811,1,0,0:0:0:0:
320,192,222954,1,0,0:0:0:0:
192,192,223096,1,0,0:0:0:0:
64,192,223239,1,0,0:0:0:0:
320,192,223239,1,0,0:0:0:0:
448,192,223239,1,0,0:0:0:0:
192,192,223382,1,0,0:0:0:0:
320,192,223525,1,0,0:0:0:0:
64,192,223525,1,0,0:0:0:0:
448,192,223668,1,0,0:0:0:0:
320,192,223811,1,0,0:0:0:0:
64,192,223811,1,0,0:0:0:0:
192,192,223811,1,0,0:0:0:0:
448,192,223954,1,0,0:0:0:0:
320,192,224096,1,0,0:0:0:0:
192,192,224096,1,0,0:0:0:0:
64,192,224239,1,0,0:0:0:0:
320,192,224382,1,0,0:0:0:0:
448,192,224382,1,0,0:0:0:0:
64,192,224525,1,0,0:0:0:0:
192,192,224668,1,0,0:0:0:0:
320,192,224668,1,0,0:0:0:0:
448,192,224811,1,0,0:0:0:0:
64,192,224954,1,0,0:0:0:0:
320,192,224954,1,0,0:0:0:0:
320,192,225096,1,0,0:0:0:0:
192,192,225239,1,0,0:0:0:0:
448,192,225239,1,0,0:0:0:0:
192,192,225382,1,0,0:0:0:0:
320,192,225525,1,0,0:0:0:0:
64,192,225525,1,0,0:0:0:0:
64,192,225668,1,0,0:0:0:0:
320,192,225811,1,0,0:0:0:0:
192,192,225954,1,0,0:0:0:0:
64,192,226096,1,0,0:0:0:0:
448,192,226096,1,0,0:0:0:0:
320,192,226096,1,0,0:0:0:0:
192,192,226239,1,0,0:0:0:0:
448,192,226382,1,0,0:0:0:0:
320,192,226382,1,0,0:0:0:0:
192,192,226525,1,0,0:0:0:0:
320,192,226668,1,0,0:0:0:0:
448,192,226668,1,0,0:0:0:0:
448,192,226811,1,0,0:0:0:0:
192,192,226954,1,0,0:0:0:0:
64,192,226954,1,0,0:0:0:0:
320,192,227096,1,0,0:0:0:0:
448,192,227239,1,0,0:0:0:0:
64,192,227239,1,0,0:0:0:0:
192,192,227239,1,0,0:0:0:0:
320,192,227382,1,0,0:0:0:0:
64,192,227525,1,0,0:0:0:0:
192,192,227525,1,0,0:0:0:0:
320,192,227668,1,0,0:0:0:0:
64,192,227811,128,0,228096:0:0:0:0:
448,192,227811,1,0,0:0:0:0:
192,192,227954,1,0,0:0:0:0:
448,192,228096,128,0,228382:0:0:0:0:
320,192,228239,1,0,0:0:0:0:
64,192,228382,1,0,0:0:0:0:
192,192,228382,1,0,0:0:0:0:
448,192,228525,1,0,0:0:0:0:
320,192,228668,1,0,0:0:0:0:
192,192,228811,1,0,0:0:0:0:
448,192,228954,1,0,0:0:0:0:
320,192,228954,1,0,0:0:0:0:
64,192,228954,1,0,0:0:0:0:
192,192,229096,1,0,0:0:0:0:
320,192,229239,1,0,0:0:0:0:
448,192,229382,1,0,0:0:0:0:
320,192,229525,1,0,0:0:0:0:
192,192,229525,1,0,0:0:0:0:
64,192,229525,1,0,0:0:0:0:
448,192,229668,1,0,0:0:0:0:
320,192,229811,1,0,0:0:0:0:
192,192,229954,1,0,0:0:0:0:
320,192,230096,1,0,0:0:0:0:
448,192,230096,1,0,0:0:0:0:
64,192,230096,1,0,0:0:0:0:
192,192,230239,1,0,0:0:0:0:
320,192,230382,1,0,0:0:0:0:
64,192,230525,1,0,0:0:0:0:
448,192,230668,1,0,0:0:0:0:
320,192,230668,1,0,0:0:0:0:
192,192,230668,1,0,0:0:0:0:
64,192,230811,1,0,0:0:0:0:
192,192,230954,1,0,0:0:0:0:
320,192,231096,1,0,0:0:0:0:
448,192,231239,1,0,0:0:0:0:
192,192,231239,1,0,0:0:0:0:
64,192,231239,1,0,0:0:0:0:
320,192,231382,1,0,0:0:0:0:
192,192,231525,1,0,0:0:0:0:
64,192,231668,1,0,0:0:0:0:
448,192,231811,1,0,0:0:0:0:
320,192,231811,1,0,0:0:0:0:
192,192,231811,1,0,0:0:0:0:
64,192,231954,1,0,0:0:0:0:
192,192,232096,1,0,0:0:0:0:
320,192,232239,1,0,0:0:0:0:
448,192,232382,1,0,0:0:0:0:
192,192,232382,1,0,0:0:0:0:
64,192,232382,1,0,0:0:0:0:
320,192,232525,1,0,0:0:0:0:
192,192,232668,1,0,0:0:0:0:
448,192,232668,1,0,0:0:0:0:
64,192,232811,1,0,0:0:0:0:
192,192,232954,1,0,0:0:0:0:
448,192,232954,1,0,0:0:0:0:
320,192,232954,1,0,0:0:0:0:
64,192,233096,1,0,0:0:0:0:
192,192,233239,1,0,0:0:0:0:
320,192,233239,1,0,0:0:0:0:
448,192,233382,1,0,0:0:0:0:
192,192,233525,1,0,0:0:0:0:
64,192,233525,1,0,0:0:0:0:
448,192,233668,1,0,0:0:0:0:
320,192,233811,1,0,0:0:0:0:
192,192,233811,1,0,0:0:0:0:
64,192,233954,1,0,0:0:0:0:
448,192,234096,1,0,0:0:0:0:
192,192,234096,1,0,0:0:0:0:
192,192,234239,1,0,0:0:0:0:
320,192,234382,1,0,0:0:0:0:
64,192,234382,1,0,0:0:0:0:
320,192,234525,1,0,0:0:0:0:
192,192,234668,1,0,0:0:0:0:
448,192,234668,1,0,0:0:0:0:
448,192,234811,1,0,0:0:0:0:
192,192,234954,1,0,0:0:0:0:
320,192,235096,1,0,0:0:0:0:
448,192,235239,1,0,0:0:0:0:
64,192,235239,1,0,0:0:0:0:
192,192,235239,1,0,0:0:0:0:
320,192,235382,1,0,0:0:0:0:
64,192,235525,1,0,0:0:0:0:
192,192,235525,1,0,0:0:0:0:
320,192,235668,1,0,0:0:0:0:
192,192,235811,1,0,0:0:0:0:
64,192,235811,1,0,0:0:0:0:
64,192,235954,1,0,0:0:0:0:
320,192,236096,1,0,0:0:0:0:
448,192,236096,1,0,0:0:0:0:
192,192,236239,1,0,0:0:0:0:
64,192,236382,1,0,0:0:0:0:
448,192,236382,1,0,0:0:0:0:
320,192,236382,1,0,0:0:0:0:
192,192,236525,1,0,0:0:0:0:
448,192,236668,1,0,0:0:0:0:
320,192,236668,1,0,0:0:0:0:
192,192,236811,1,0,0:0:0:0:
448,192,236954,128,0,237239:0:0:0:0:
64,192,236954,1,0,0:0:0:0:
320,192,237096,1,0,0:0:0:0:
64,192,237239,128,0,237525:0:0:0:0:
192,192,237382,1,0,0:0:0:0:
320,192,237525,128,0,239811:0:0:0:0:
448,192,237525,128,0,242096:0:0:0:0:
