osu file format v14

[General]
AudioFilename: audio.mp3
AudioLeadIn: 0
PreviewTime: -1
Countdown: 1
SampleSet: None
StackLeniency: 0.7
Mode: 0
LetterboxInBreaks: 0
WidescreenStoryboard: 0

[Editor]
DistanceSpacing: 0.8
BeatDivisor: 1
GridSize: 32
TimelineZoom: 1

[Metadata]
Title:Set Free
TitleUnicode:Set Free
Artist:Veorra
ArtistUnicode:Veorra
Creator:LIAMID
Version:Easy
Source:
Tags:
BeatmapID:1579474
BeatmapSetID:749938

[Difficulty]
HPDrainRate:5
CircleSize:5
OverallDifficulty:5
ApproachRate:5
SliderMultiplier:1.4
SliderTickRate:1

[Events]
//Background and Video events
0,0,"RUBY.jpg",0,0
//Break Periods
2,9781,17056
2,142069,147176
//Storyboard Layer 0 (Background)
//Storyboard Layer 1 (Fail)
//Storyboard Layer 2 (Pass)
//Storyboard Layer 3 (Foreground)
//Storyboard Sound Samples

[TimingPoints]
5244.21686746988,722.89156626506,4,1,0,100,1,0

[HitObjects]
128,96,906,5,8,0:0:0:0:
288,128,1629,1,8,0:0:0:0:
256,224,3798,1,8,0:0:0:0:
448,128,5244,1,8,0:0:0:0:
224,160,6690,1,0,0:0:0:0:
448,128,8135,1,0,0:0:0:0:
224,160,9581,1,0,0:0:0:0:
224,128,18256,5,0,0:0:0:0:
448,128,19702,1,8,0:0:0:0:
256,192,21147,1,8,0:0:0:0:
416,64,22593,1,8,0:0:0:0:
256,224,24039,1,8,0:0:0:0:
64,160,25485,1,8,0:0:0:0:
256,224,26930,1,8,0:0:0:0:
480,192,28376,1,8,0:0:0:0:
256,160,29822,1,8,0:0:0:0:
160,160,30545,1,8,0:0:0:0:
384,256,31991,1,8,0:0:0:0:
160,192,33436,1,8,0:0:0:0:
384,96,34882,1,0,0:0:0:0:
96,224,37051,1,0,0:0:0:0:
288,192,38497,1,0,0:0:0:0:
96,224,39943,1,0,0:0:0:0:
288,224,41388,1,0,0:0:0:0:
96,192,42834,1,0,0:0:0:0:
288,192,44280,1,0,0:0:0:0:
64,224,46449,1,0,0:0:0:0:
256,192,48617,12,0,52232,0:0:0:0:
96,96,53677,6,0,B|224:224|160:160|0:224|-160:160|160:288|160:288,11,420
224,256,77533,1,0,0:0:0:0:
320,160,79702,1,0,0:0:0:0:
32,160,81870,1,0,0:0:0:0:
192,128,82593,1,0,0:0:0:0:
352,288,84039,1,0,0:0:0:0:
192,192,85485,1,0,0:0:0:0:
480,64,87653,1,0,0:0:0:0:
288,160,89099,1,0,0:0:0:0:
480,224,90545,1,0,0:0:0:0:
224,192,91991,1,0,0:0:0:0:
448,64,93436,1,0,0:0:0:0:
224,192,94882,1,0,0:0:0:0:
288,192,97051,1,0,0:0:0:0:
96,192,98497,1,0,0:0:0:0:
256,224,99943,1,0,0:0:0:0:
96,192,100665,1,0,0:0:0:0:
384,64,102834,1,0,0:0:0:0:
256,192,104280,1,0,0:0:0:0:
96,96,105726,1,0,0:0:0:0:
224,288,107171,1,0,0:0:0:0:
384,288,107894,1,0,0:0:0:0:
224,192,110786,1,0,0:0:0:0:
416,192,112232,1,0,0:0:0:0:
160,160,113677,1,0,0:0:0:0:
96,288,114400,1,0,0:0:0:0:
288,192,115846,1,0,0:0:0:0:
0,160,118015,1,0,0:0:0:0:
160,160,119461,1,0,0:0:0:0:
384,224,120906,1,0,0:0:0:0:
128,128,122352,1,0,0:0:0:0:
384,256,123798,1,0,0:0:0:0:
96,128,125967,1,0,0:0:0:0:
256,192,126690,1,0,0:0:0:0:
224,224,128858,1,0,0:0:0:0:
480,224,130304,1,0,0:0:0:0:
224,160,131750,1,0,0:0:0:0:
64,96,134641,2,0,B|224:160|288:128|160:256|320:320,5,280
64,96,148376,5,0,0:0:0:0:
256,160,149822,1,0,0:0:0:0:
32,160,151268,1,0,0:0:0:0:
256,224,152714,1,0,0:0:0:0:
96,256,153436,1,0,0:0:0:0:
352,192,154882,1,0,0:0:0:0:
160,256,156328,1,0,0:0:0:0:
256,0,157774,1,0,0:0:0:0:
128,224,159220,1,0,0:0:0:0:
416,160,161388,1,0,0:0:0:0:
192,160,162834,1,0,0:0:0:0:
352,288,164280,1,0,0:0:0:0:
128,288,165726,1,0,0:0:0:0:
384,96,167894,1,0,0:0:0:0:
160,128,169340,1,0,0:0:0:0:
320,352,170786,1,0,0:0:0:0:
416,128,172232,1,0,0:0:0:0:
256,256,173677,1,0,0:0:0:0:
128,320,174400,1,0,0:0:0:0:
352,160,175846,1,0,0:0:0:0:
64,160,177292,1,0,0:0:0:0:
288,320,178738,1,0,0:0:0:0:
32,128,180906,1,0,0:0:0:0:
192,224,182352,1,0,0:0:0:0:
416,224,183798,1,0,0:0:0:0:
192,288,185244,1,0,0:0:0:0:
96,64,186690,1,0,0:0:0:0:
