osu file format v14

[General]
AudioFilename: winnipeg is fucking over.mp3
AudioLeadIn: 0
PreviewTime: 71045
Countdown: 0
SampleSet: Drum
StackLeniency: 0.7
Mode: 3
LetterboxInBreaks: 0
SpecialStyle: 0
WidescreenStoryboard: 0

[Editor]
DistanceSpacing: 0.8
BeatDivisor: 4
GridSize: 32
TimelineZoom: 2.2

[Metadata]
Title:WINNIPEG IS FUCKING OVER
TitleUnicode:WINNIPEG IS FUCKING OVER
Artist:Venetian Snares
ArtistUnicode:Venetian Snares
Creator:riktoi
Version:FROZEN
Source:
Tags:Electronic English Instrumental winnipeg is a frozen shithole aaron funk Sublight Records vsnares breakcore gabber idm
BeatmapID:1905201
BeatmapSetID:911975

[Difficulty]
HPDrainRate:8.8
CircleSize:4
OverallDifficulty:8.2
ApproachRate:5
SliderMultiplier:1.4
SliderTickRate:1

[Events]
//Background and Video events
0,0,"winnipeg.jpg",0,0
//Break Periods
//Storyboard Layer 0 (Background)
//Storyboard Layer 1 (Fail)
//Storyboard Layer 2 (Pass)
//Storyboard Layer 3 (Foreground)
//Storyboard Layer 4 (Overlay)
//Storyboard Sound Samples

[TimingPoints]
2513,244.897959,7,3,1,100,1,0
84798,-100,4,3,1,100,0,1
112227,-100,4,3,1,100,0,0
167084,-100,4,3,1,100,0,1
194512,-100,4,3,1,100,0,0
264431,244.897959183673,5,3,1,100,1,0
266879,244.897959183673,4,3,1,100,1,0
272757,244.897959183673,5,3,1,100,1,0
277655,244.897959,7,3,1,100,1,1
290512,-100,7,3,1,100,0,0
291369,-100,7,3,1,100,0,1
305083,-100,7,3,1,100,0,0
318797,-100,7,3,1,100,0,1
324797,-100,7,3,1,100,0,0
325654,-100,7,3,1,100,0,1
328226,-100,7,3,1,100,0,0
329083,-100,7,3,1,100,0,1
331654,-100,7,3,1,100,0,0
332512,-100,7,3,1,100,0,1
336767,-100,7,3,1,100,0,0
339369,-100,7,3,1,100,0,1
341940,-100,7,3,1,100,0,0
342797,-100,7,3,1,100,0,1
345369,-100,7,3,1,100,0,0
346226,-100,7,3,1,100,0,1
359083,-100,7,3,1,100,0,0

[HitObjects]
192,192,2513,5,0,0:0:0:0:
448,192,2513,1,0,0:0:0:0:
448,192,3002,1,0,0:0:0:0:
192,192,3002,1,0,0:0:0:0:
448,192,3492,1,0,0:0:0:0:
192,192,3982,1,0,0:0:0:0:
448,192,4472,1,0,0:0:0:0:
192,192,4961,1,0,0:0:0:0:
448,192,5451,1,0,0:0:0:0:
192,192,5941,1,0,0:0:0:0:
448,192,6431,1,0,0:0:0:0:
320,192,8145,128,0,8359:0:0:0:0:
320,192,8421,128,0,8635:0:0:0:0:
320,192,8696,128,0,8972:0:0:0:0:
448,192,9370,1,0,0:0:0:0:
448,192,9492,1,0,0:0:0:0:
448,192,9615,1,0,0:0:0:0:
192,192,9737,128,0,10349:0:0:0:0:
64,192,10349,128,0,11788:0:0:0:0:
320,192,11788,1,0,0:0:0:0:
192,192,11972,1,0,0:0:0:0:
448,192,12064,1,0,0:0:0:0:
64,192,12186,1,0,0:0:0:0:
320,192,12431,1,0,0:0:0:0:
192,192,12676,1,0,0:0:0:0:
448,192,12921,1,0,0:0:0:0:
320,192,13166,1,0,0:0:0:0:
448,192,13257,1,0,0:0:0:0:
192,192,13472,1,0,0:0:0:0:
64,192,13717,1,0,0:0:0:0:
192,192,13961,1,0,0:0:0:0:
320,192,14145,1,0,0:0:0:0:
448,192,14268,1,0,0:0:0:0:
320,192,14390,1,0,0:0:0:0:
64,192,14604,1,0,0:0:0:0:
320,192,14880,5,0,0:0:0:0:
64,192,15155,1,0,0:0:0:0:
320,192,15247,1,0,0:0:0:0:
192,192,15339,1,0,0:0:0:0:
192,192,15492,1,0,0:0:0:0:
64,192,15859,1,0,0:0:0:0:
448,192,16104,1,0,0:0:0:0:
448,192,16227,1,0,0:0:0:0:
192,192,16227,1,0,0:0:0:0:
448,192,16472,1,0,0:0:0:0:
192,192,16472,1,0,0:0:0:0:
448,192,16717,1,0,0:0:0:0:
192,192,16717,1,0,0:0:0:0:
448,192,16961,1,0,0:0:0:0:
448,192,17206,1,0,0:0:0:0:
448,192,17941,1,0,0:0:0:0:
192,192,17941,1,0,0:0:0:0:
448,192,18186,1,0,0:0:0:0:
192,192,18186,1,0,0:0:0:0:
320,192,18431,1,0,0:0:0:0:
64,192,18553,1,0,0:0:0:0:
320,192,18676,1,0,0:0:0:0:
320,192,18921,1,0,0:0:0:0:
448,192,19533,1,0,0:0:0:0:
192,192,19533,1,0,0:0:0:0:
448,192,19655,1,0,0:0:0:0:
192,192,19655,1,0,0:0:0:0:
448,192,19900,1,0,0:0:0:0:
192,192,19900,1,0,0:0:0:0:
448,192,20145,1,0,0:0:0:0:
192,192,20145,1,0,0:0:0:0:
448,192,20390,1,0,0:0:0:0:
448,192,20635,1,0,0:0:0:0:
448,192,21370,1,0,0:0:0:0:
192,192,21370,1,0,0:0:0:0:
448,192,21615,1,0,0:0:0:0:
192,192,21615,1,0,0:0:0:0:
320,192,21859,1,0,0:0:0:0:
64,192,21982,1,0,0:0:0:0:
320,192,22104,1,0,0:0:0:0:
320,192,22349,1,0,0:0:0:0:
448,192,22961,1,0,0:0:0:0:
448,192,23084,1,0,0:0:0:0:
192,192,23084,1,0,0:0:0:0:
448,192,23329,1,0,0:0:0:0:
192,192,23329,1,0,0:0:0:0:
448,192,23574,1,0,0:0:0:0:
192,192,23574,1,0,0:0:0:0:
448,192,23819,1,0,0:0:0:0:
448,192,24064,1,0,0:0:0:0:
448,192,24798,1,0,0:0:0:0:
192,192,24798,1,0,0:0:0:0:
448,192,25043,1,0,0:0:0:0:
192,192,25043,1,0,0:0:0:0:
320,192,25288,1,0,0:0:0:0:
64,192,25410,1,0,0:0:0:0:
448,192,25533,1,0,0:0:0:0:
192,192,25533,1,0,0:0:0:0:
448,192,25778,1,0,0:0:0:0:
192,192,25778,1,0,0:0:0:0:
320,192,26023,1,0,0:0:0:0:
64,192,26145,1,0,0:0:0:0:
448,192,26390,1,0,0:0:0:0:
192,192,26390,1,0,0:0:0:0:
448,192,26512,1,0,0:0:0:0:
192,192,26512,1,0,0:0:0:0:
448,192,26757,1,0,0:0:0:0:
192,192,26757,1,0,0:0:0:0:
320,192,27002,1,0,0:0:0:0:
64,192,27125,1,0,0:0:0:0:
192,192,27247,1,0,0:0:0:0:
448,192,27370,1,0,0:0:0:0:
448,192,27492,1,0,0:0:0:0:
192,192,27615,1,0,0:0:0:0:
448,192,27737,1,0,0:0:0:0:
192,192,27859,1,0,0:0:0:0:
192,192,27982,1,0,0:0:0:0:
192,192,28104,1,0,0:0:0:0:
448,192,28227,1,0,0:0:0:0:
192,192,28227,1,0,0:0:0:0:
448,192,28472,1,0,0:0:0:0:
192,192,28472,1,0,0:0:0:0:
320,192,28717,1,0,0:0:0:0:
64,192,28839,1,0,0:0:0:0:
320,192,28961,1,0,0:0:0:0:
320,192,29206,1,0,0:0:0:0:
448,192,29574,1,0,0:0:0:0:
192,192,29574,1,0,0:0:0:0:
448,192,29819,1,0,0:0:0:0:
192,192,29819,1,0,0:0:0:0:
448,192,29941,1,0,0:0:0:0:
192,192,29941,1,0,0:0:0:0:
64,192,29941,1,0,0:0:0:0:
448,192,30186,1,0,0:0:0:0:
192,192,30186,1,0,0:0:0:0:
448,192,30431,1,0,0:0:0:0:
192,192,30431,1,0,0:0:0:0:
448,192,30676,1,0,0:0:0:0:
448,192,30921,1,0,0:0:0:0:
448,192,31166,1,0,0:0:0:0:
192,192,31166,1,0,0:0:0:0:
448,192,31410,1,0,0:0:0:0:
448,192,31533,1,0,0:0:0:0:
192,192,31533,1,0,0:0:0:0:
448,192,31655,1,0,0:0:0:0:
192,192,31655,1,0,0:0:0:0:
448,192,31900,1,0,0:0:0:0:
192,192,31900,1,0,0:0:0:0:
320,192,32145,1,0,0:0:0:0:
64,192,32268,1,0,0:0:0:0:
320,192,32390,1,0,0:0:0:0:
320,192,32635,1,0,0:0:0:0:
448,192,33247,1,0,0:0:0:0:
320,192,33247,1,0,0:0:0:0:
192,192,33247,1,0,0:0:0:0:
448,192,33370,1,0,0:0:0:0:
192,192,33370,1,0,0:0:0:0:
64,192,33370,1,0,0:0:0:0:
448,192,33615,1,0,0:0:0:0:
192,192,33615,1,0,0:0:0:0:
320,192,33859,1,0,0:0:0:0:
64,192,33982,1,0,0:0:0:0:
192,192,34104,1,0,0:0:0:0:
192,192,34472,1,0,0:0:0:0:
192,192,34717,1,0,0:0:0:0:
192,192,34961,1,0,0:0:0:0:
448,192,35084,1,0,0:0:0:0:
192,192,35084,1,0,0:0:0:0:
448,192,35329,1,0,0:0:0:0:
192,192,35329,1,0,0:0:0:0:
320,192,35574,1,0,0:0:0:0:
64,192,35696,1,0,0:0:0:0:
192,192,35819,1,0,0:0:0:0:
448,192,35941,1,0,0:0:0:0:
448,192,36064,1,0,0:0:0:0:
192,192,36186,1,0,0:0:0:0:
448,192,36308,1,0,0:0:0:0:
192,192,36431,1,0,0:0:0:0:
192,192,36553,1,0,0:0:0:0:
192,192,36676,1,0,0:0:0:0:
448,192,36798,1,0,0:0:0:0:
192,192,36798,1,0,0:0:0:0:
448,192,37043,1,0,0:0:0:0:
192,192,37043,1,0,0:0:0:0:
320,192,37288,1,0,0:0:0:0:
64,192,37410,1,0,0:0:0:0:
192,192,37533,1,0,0:0:0:0:
192,192,37900,1,0,0:0:0:0:
192,192,38145,1,0,0:0:0:0:
448,192,38268,1,0,0:0:0:0:
192,192,38268,1,0,0:0:0:0:
448,192,38390,1,0,0:0:0:0:
192,192,38390,1,0,0:0:0:0:
448,192,38512,1,0,0:0:0:0:
192,192,38512,1,0,0:0:0:0:
448,192,38757,1,0,0:0:0:0:
192,192,38757,1,0,0:0:0:0:
320,192,39002,1,0,0:0:0:0:
64,192,39125,1,0,0:0:0:0:
192,192,39247,1,0,0:0:0:0:
448,192,39370,1,0,0:0:0:0:
448,192,39492,1,0,0:0:0:0:
192,192,39615,1,0,0:0:0:0:
448,192,39737,1,0,0:0:0:0:
192,192,39859,1,0,0:0:0:0:
192,192,39982,1,0,0:0:0:0:
192,192,40104,1,0,0:0:0:0:
448,192,40227,1,0,0:0:0:0:
192,192,40227,1,0,0:0:0:0:
448,192,40472,1,0,0:0:0:0:
192,192,40472,1,0,0:0:0:0:
448,192,40717,1,0,0:0:0:0:
192,192,40717,1,0,0:0:0:0:
448,192,40961,1,0,0:0:0:0:
192,192,40961,1,0,0:0:0:0:
448,192,41206,1,0,0:0:0:0:
192,192,41206,1,0,0:0:0:0:
448,192,41451,1,0,0:0:0:0:
192,192,41451,1,0,0:0:0:0:
320,192,41574,1,0,0:0:0:0:
192,192,41635,1,0,0:0:0:0:
320,192,41696,1,0,0:0:0:0:
448,192,41819,1,0,0:0:0:0:
192,192,41819,1,0,0:0:0:0:
448,192,41941,1,0,0:0:0:0:
192,192,41941,1,0,0:0:0:0:
448,192,42186,1,0,0:0:0:0:
192,192,42186,1,0,0:0:0:0:
448,192,42431,1,0,0:0:0:0:
192,192,42431,1,0,0:0:0:0:
448,192,42676,1,0,0:0:0:0:
448,192,42921,1,0,0:0:0:0:
448,192,43166,1,0,0:0:0:0:
448,192,43655,1,0,0:0:0:0:
192,192,43655,1,0,0:0:0:0:
448,192,43900,1,0,0:0:0:0:
192,192,43900,1,0,0:0:0:0:
64,192,44023,1,0,0:0:0:0:
448,192,44268,1,0,0:0:0:0:
192,192,44268,1,0,0:0:0:0:
448,192,44390,1,0,0:0:0:0:
192,192,44390,1,0,0:0:0:0:
64,192,44635,1,0,0:0:0:0:
448,192,44880,1,0,0:0:0:0:
192,192,44880,1,0,0:0:0:0:
192,192,45002,1,0,0:0:0:0:
64,192,45125,1,0,0:0:0:0:
448,192,45247,1,0,0:0:0:0:
192,192,45247,1,0,0:0:0:0:
448,192,45370,1,0,0:0:0:0:
192,192,45370,1,0,0:0:0:0:
448,192,45615,1,0,0:0:0:0:
192,192,45615,1,0,0:0:0:0:
64,192,45737,1,0,0:0:0:0:
448,192,45982,1,0,0:0:0:0:
192,192,45982,1,0,0:0:0:0:
448,192,46104,1,0,0:0:0:0:
192,192,46104,1,0,0:0:0:0:
64,192,46349,1,0,0:0:0:0:
448,192,46594,1,0,0:0:0:0:
192,192,46594,1,0,0:0:0:0:
448,192,46717,1,0,0:0:0:0:
64,192,46839,1,0,0:0:0:0:
448,192,46961,1,0,0:0:0:0:
192,192,46961,1,0,0:0:0:0:
448,192,47084,1,0,0:0:0:0:
192,192,47084,1,0,0:0:0:0:
448,192,47329,1,0,0:0:0:0:
192,192,47329,1,0,0:0:0:0:
64,192,47451,1,0,0:0:0:0:
448,192,47696,1,0,0:0:0:0:
192,192,47696,1,0,0:0:0:0:
448,192,47819,1,0,0:0:0:0:
192,192,47819,1,0,0:0:0:0:
64,192,48064,1,0,0:0:0:0:
448,192,48308,1,0,0:0:0:0:
192,192,48308,1,0,0:0:0:0:
192,192,48431,1,0,0:0:0:0:
64,192,48553,1,0,0:0:0:0:
448,192,48676,1,0,0:0:0:0:
192,192,48676,1,0,0:0:0:0:
448,192,48798,1,0,0:0:0:0:
192,192,48798,1,0,0:0:0:0:
448,192,49043,1,0,0:0:0:0:
192,192,49043,1,0,0:0:0:0:
64,192,49166,1,0,0:0:0:0:
448,192,49410,1,0,0:0:0:0:
192,192,49410,1,0,0:0:0:0:
448,192,49533,1,0,0:0:0:0:
192,192,49533,1,0,0:0:0:0:
64,192,49778,1,0,0:0:0:0:
448,192,50023,1,0,0:0:0:0:
192,192,50023,1,0,0:0:0:0:
448,192,50145,1,0,0:0:0:0:
64,192,50268,1,0,0:0:0:0:
448,192,50390,1,0,0:0:0:0:
192,192,50390,1,0,0:0:0:0:
448,192,50512,1,0,0:0:0:0:
192,192,50512,1,0,0:0:0:0:
448,192,50757,1,0,0:0:0:0:
192,192,50757,1,0,0:0:0:0:
64,192,50880,1,0,0:0:0:0:
448,192,51125,1,0,0:0:0:0:
192,192,51125,1,0,0:0:0:0:
448,192,51247,1,0,0:0:0:0:
192,192,51247,1,0,0:0:0:0:
64,192,51492,1,0,0:0:0:0:
448,192,51737,1,0,0:0:0:0:
192,192,51737,1,0,0:0:0:0:
192,192,51859,1,0,0:0:0:0:
320,192,51982,1,0,0:0:0:0:
448,192,52104,1,0,0:0:0:0:
192,192,52104,1,0,0:0:0:0:
448,192,52227,1,0,0:0:0:0:
192,192,52227,1,0,0:0:0:0:
448,192,52472,1,0,0:0:0:0:
192,192,52472,1,0,0:0:0:0:
64,192,52594,1,0,0:0:0:0:
448,192,52839,1,0,0:0:0:0:
192,192,52839,1,0,0:0:0:0:
448,192,52961,1,0,0:0:0:0:
192,192,52961,1,0,0:0:0:0:
64,192,53206,1,0,0:0:0:0:
448,192,53451,1,0,0:0:0:0:
192,192,53451,1,0,0:0:0:0:
448,192,53574,1,0,0:0:0:0:
320,192,53696,1,0,0:0:0:0:
448,192,53819,1,0,0:0:0:0:
192,192,53819,1,0,0:0:0:0:
448,192,53941,1,0,0:0:0:0:
192,192,53941,1,0,0:0:0:0:
320,192,54186,1,0,0:0:0:0:
192,192,54308,1,0,0:0:0:0:
448,192,54431,1,0,0:0:0:0:
192,192,54431,1,0,0:0:0:0:
192,192,54676,1,0,0:0:0:0:
448,192,54798,1,0,0:0:0:0:
64,192,54921,1,0,0:0:0:0:
320,192,55043,1,0,0:0:0:0:
448,192,55166,1,0,0:0:0:0:
192,192,55288,1,0,0:0:0:0:
320,192,55410,1,0,0:0:0:0:
64,192,55533,1,0,0:0:0:0:
448,192,55655,1,0,0:0:0:0:
192,192,55655,1,0,0:0:0:0:
320,192,55778,1,0,0:0:0:0:
448,192,55900,1,0,0:0:0:0:
192,192,55900,1,0,0:0:0:0:
64,192,56023,1,0,0:0:0:0:
448,192,56145,1,0,0:0:0:0:
192,192,56145,1,0,0:0:0:0:
448,192,56390,1,0,0:0:0:0:
448,192,56512,1,0,0:0:0:0:
192,192,56635,1,0,0:0:0:0:
320,192,56757,1,0,0:0:0:0:
64,192,56880,1,0,0:0:0:0:
448,192,57002,1,0,0:0:0:0:
192,192,57125,1,0,0:0:0:0:
192,192,57247,1,0,0:0:0:0:
320,192,57370,1,0,0:0:0:0:
448,192,57492,1,0,0:0:0:0:
320,192,57492,1,0,0:0:0:0:
448,192,57615,1,0,0:0:0:0:
320,192,57615,1,0,0:0:0:0:
192,192,57737,1,0,0:0:0:0:
320,192,57798,1,0,0:0:0:0:
448,192,57859,1,0,0:0:0:0:
320,192,57921,1,0,0:0:0:0:
448,192,57982,1,0,0:0:0:0:
192,192,57982,1,0,0:0:0:0:
192,192,58288,1,0,0:0:0:0:
64,192,58319,1,0,0:0:0:0:
448,192,58349,1,0,0:0:0:0:
320,192,58349,1,0,0:0:0:0:
320,192,58594,1,0,0:0:0:0:
192,192,58594,1,0,0:0:0:0:
320,192,58717,1,0,0:0:0:0:
192,192,58961,1,0,0:0:0:0:
64,192,58961,1,0,0:0:0:0:
320,192,59023,1,0,0:0:0:0:
448,192,59084,1,0,0:0:0:0:
448,192,59206,1,0,0:0:0:0:
192,192,59329,1,0,0:0:0:0:
192,192,59451,1,0,0:0:0:0:
64,192,59512,1,0,0:0:0:0:
320,192,59574,1,0,0:0:0:0:
448,192,59635,1,0,0:0:0:0:
320,192,59696,1,0,0:0:0:0:
448,192,59757,1,0,0:0:0:0:
192,192,59819,1,0,0:0:0:0:
64,192,59819,1,0,0:0:0:0:
320,192,59941,1,0,0:0:0:0:
192,192,59972,1,0,0:0:0:0:
64,192,60002,1,0,0:0:0:0:
320,192,60033,1,0,0:0:0:0:
448,192,60064,1,0,0:0:0:0:
192,192,60125,1,0,0:0:0:0:
448,192,60186,1,0,0:0:0:0:
192,192,60247,1,0,0:0:0:0:
320,192,60308,1,0,0:0:0:0:
64,192,60370,1,0,0:0:0:0:
448,192,60431,1,0,0:0:0:0:
192,192,60492,1,0,0:0:0:0:
64,192,60553,1,0,0:0:0:0:
448,192,60676,1,0,0:0:0:0:
320,192,60676,1,0,0:0:0:0:
64,192,60798,1,0,0:0:0:0:
320,192,60921,1,0,0:0:0:0:
192,192,60921,1,0,0:0:0:0:
320,192,61043,1,0,0:0:0:0:
192,192,61043,1,0,0:0:0:0:
64,192,61166,1,0,0:0:0:0:
320,192,61227,1,0,0:0:0:0:
448,192,61257,1,0,0:0:0:0:
192,192,61288,1,0,0:0:0:0:
448,192,61410,1,0,0:0:0:0:
320,192,61410,1,0,0:0:0:0:
64,192,61533,1,0,0:0:0:0:
192,192,61564,1,0,0:0:0:0:
448,192,61594,1,0,0:0:0:0:
320,192,61625,1,0,0:0:0:0:
192,192,61655,1,0,0:0:0:0:
64,192,61686,1,0,0:0:0:0:
320,192,61717,1,0,0:0:0:0:
448,192,61778,1,0,0:0:0:0:
192,192,61778,1,0,0:0:0:0:
448,192,61900,1,0,0:0:0:0:
192,192,61900,1,0,0:0:0:0:
192,192,62023,1,0,0:0:0:0:
64,192,62023,1,0,0:0:0:0:
320,192,62145,1,0,0:0:0:0:
192,192,62268,1,0,0:0:0:0:
320,192,62298,1,0,0:0:0:0:
448,192,62329,1,0,0:0:0:0:
64,192,62359,1,0,0:0:0:0:
320,192,62390,1,0,0:0:0:0:
192,192,62390,1,0,0:0:0:0:
448,192,62512,1,0,0:0:0:0:
192,192,62635,1,0,0:0:0:0:
448,192,62757,1,0,0:0:0:0:
320,192,62757,1,0,0:0:0:0:
448,192,62880,1,0,0:0:0:0:
320,192,62880,1,0,0:0:0:0:
192,192,63002,1,0,0:0:0:0:
320,192,63064,1,0,0:0:0:0:
192,192,63125,1,0,0:0:0:0:
64,192,63125,1,0,0:0:0:0:
448,192,63247,1,0,0:0:0:0:
320,192,63247,1,0,0:0:0:0:
192,192,63308,1,0,0:0:0:0:
320,192,63370,1,0,0:0:0:0:
320,192,63492,1,0,0:0:0:0:
64,192,63492,1,0,0:0:0:0:
320,192,63615,1,0,0:0:0:0:
64,192,63615,1,0,0:0:0:0:
320,192,63737,1,0,0:0:0:0:
64,192,63737,1,0,0:0:0:0:
192,192,63859,1,0,0:0:0:0:
320,192,63982,1,0,0:0:0:0:
192,192,64104,1,0,0:0:0:0:
64,192,64104,1,0,0:0:0:0:
448,192,64227,1,0,0:0:0:0:
192,192,64227,1,0,0:0:0:0:
64,192,64227,1,0,0:0:0:0:
448,192,64472,1,0,0:0:0:0:
192,192,64472,1,0,0:0:0:0:
64,192,64472,1,0,0:0:0:0:
192,192,64717,1,0,0:0:0:0:
64,192,64778,1,0,0:0:0:0:
448,192,64839,1,0,0:0:0:0:
320,192,64839,1,0,0:0:0:0:
448,192,65206,1,0,0:0:0:0:
192,192,65206,1,0,0:0:0:0:
192,192,65451,1,0,0:0:0:0:
64,192,65451,1,0,0:0:0:0:
448,192,65574,1,0,0:0:0:0:
448,192,65819,1,0,0:0:0:0:
320,192,65819,1,0,0:0:0:0:
192,192,65941,1,0,0:0:0:0:
320,192,66064,1,0,0:0:0:0:
192,192,66125,1,0,0:0:0:0:
320,192,66186,1,0,0:0:0:0:
64,192,66247,1,0,0:0:0:0:
320,192,66308,1,0,0:0:0:0:
192,192,66308,1,0,0:0:0:0:
192,192,66431,1,0,0:0:0:0:
320,192,66492,1,0,0:0:0:0:
192,192,66553,1,0,0:0:0:0:
320,192,66615,1,0,0:0:0:0:
448,192,66676,1,0,0:0:0:0:
64,192,66798,1,0,0:0:0:0:
192,192,66921,1,0,0:0:0:0:
448,192,66982,1,0,0:0:0:0:
192,192,67043,1,0,0:0:0:0:
448,192,67104,1,0,0:0:0:0:
64,192,67166,1,0,0:0:0:0:
192,192,67227,1,0,0:0:0:0:
64,192,67288,1,0,0:0:0:0:
192,192,67349,1,0,0:0:0:0:
320,192,67410,1,0,0:0:0:0:
448,192,67533,1,0,0:0:0:0:
320,192,67564,1,0,0:0:0:0:
64,192,67594,1,0,0:0:0:0:
192,192,67625,1,0,0:0:0:0:
320,192,67655,1,0,0:0:0:0:
448,192,67778,1,0,0:0:0:0:
320,192,67778,1,0,0:0:0:0:
448,192,67900,1,0,0:0:0:0:
320,192,67900,1,0,0:0:0:0:
192,192,68023,1,0,0:0:0:0:
64,192,68145,1,0,0:0:0:0:
192,192,68268,1,0,0:0:0:0:
64,192,68268,1,0,0:0:0:0:
320,192,68390,128,0,68574:0:0:0:0:
64,192,68574,1,0,0:0:0:0:
448,192,68635,1,0,0:0:0:0:
192,192,68635,1,0,0:0:0:0:
448,192,68757,1,0,0:0:0:0:
192,192,68757,1,0,0:0:0:0:
448,192,68880,1,0,0:0:0:0:
320,192,68880,1,0,0:0:0:0:
192,192,69002,1,0,0:0:0:0:
320,192,69125,1,0,0:0:0:0:
192,192,69155,1,0,0:0:0:0:
64,192,69186,1,0,0:0:0:0:
448,192,69217,1,0,0:0:0:0:
320,192,69247,1,0,0:0:0:0:
192,192,69247,1,0,0:0:0:0:
64,192,69308,1,0,0:0:0:0:
448,192,69370,1,0,0:0:0:0:
192,192,69492,1,0,0:0:0:0:
448,192,69615,1,0,0:0:0:0:
320,192,69615,1,0,0:0:0:0:
448,192,69737,1,0,0:0:0:0:
320,192,69737,1,0,0:0:0:0:
192,192,69798,1,0,0:0:0:0:
320,192,69859,1,0,0:0:0:0:
192,192,69921,1,0,0:0:0:0:
320,192,69982,1,0,0:0:0:0:
64,192,69982,1,0,0:0:0:0:
448,192,70104,1,0,0:0:0:0:
192,192,70104,1,0,0:0:0:0:
320,192,70166,1,0,0:0:0:0:
448,192,70227,1,0,0:0:0:0:
64,192,70227,1,0,0:0:0:0:
448,192,70349,1,0,0:0:0:0:
64,192,70349,1,0,0:0:0:0:
448,192,70472,1,0,0:0:0:0:
64,192,70472,1,0,0:0:0:0:
320,192,70594,1,0,0:0:0:0:
192,192,70594,1,0,0:0:0:0:
320,192,70717,1,0,0:0:0:0:
192,192,70717,1,0,0:0:0:0:
320,192,70839,1,0,0:0:0:0:
64,192,70839,1,0,0:0:0:0:
448,192,70961,1,0,0:0:0:0:
64,192,70961,1,0,0:0:0:0:
320,192,71023,1,0,0:0:0:0:
448,192,71084,1,0,0:0:0:0:
192,192,71084,1,0,0:0:0:0:
64,192,71084,1,0,0:0:0:0:
64,192,71206,1,0,0:0:0:0:
448,192,71329,1,0,0:0:0:0:
320,192,71329,1,0,0:0:0:0:
192,192,71329,1,0,0:0:0:0:
320,192,71451,1,0,0:0:0:0:
64,192,71574,1,0,0:0:0:0:
448,192,71696,1,0,0:0:0:0:
320,192,71696,1,0,0:0:0:0:
192,192,71696,1,0,0:0:0:0:
448,192,71819,1,0,0:0:0:0:
320,192,71819,1,0,0:0:0:0:
192,192,71819,1,0,0:0:0:0:
64,192,71941,1,0,0:0:0:0:
320,192,72064,1,0,0:0:0:0:
64,192,72186,1,0,0:0:0:0:
448,192,72308,1,0,0:0:0:0:
192,192,72308,1,0,0:0:0:0:
64,192,72308,1,0,0:0:0:0:
192,192,72431,1,0,0:0:0:0:
64,192,72553,1,0,0:0:0:0:
448,192,72676,1,0,0:0:0:0:
320,192,72676,1,0,0:0:0:0:
192,192,72676,1,0,0:0:0:0:
448,192,72798,1,0,0:0:0:0:
192,192,72798,1,0,0:0:0:0:
64,192,72798,1,0,0:0:0:0:
64,192,72921,1,0,0:0:0:0:
448,192,73043,1,0,0:0:0:0:
320,192,73043,1,0,0:0:0:0:
192,192,73043,1,0,0:0:0:0:
320,192,73166,1,0,0:0:0:0:
64,192,73288,1,0,0:0:0:0:
448,192,73410,1,0,0:0:0:0:
320,192,73410,1,0,0:0:0:0:
192,192,73410,1,0,0:0:0:0:
448,192,73533,1,0,0:0:0:0:
320,192,73533,1,0,0:0:0:0:
192,192,73533,1,0,0:0:0:0:
64,192,73655,1,0,0:0:0:0:
320,192,73778,1,0,0:0:0:0:
64,192,73900,1,0,0:0:0:0:
448,192,74023,1,0,0:0:0:0:
192,192,74023,1,0,0:0:0:0:
64,192,74023,1,0,0:0:0:0:
448,192,74145,1,0,0:0:0:0:
64,192,74268,1,0,0:0:0:0:
448,192,74390,1,0,0:0:0:0:
320,192,74390,1,0,0:0:0:0:
192,192,74390,1,0,0:0:0:0:
448,192,74512,1,0,0:0:0:0:
192,192,74512,1,0,0:0:0:0:
64,192,74512,1,0,0:0:0:0:
64,192,74635,1,0,0:0:0:0:
448,192,74757,1,0,0:0:0:0:
320,192,74757,1,0,0:0:0:0:
192,192,74757,1,0,0:0:0:0:
320,192,74880,1,0,0:0:0:0:
64,192,75002,1,0,0:0:0:0:
448,192,75125,1,0,0:0:0:0:
320,192,75125,1,0,0:0:0:0:
192,192,75125,1,0,0:0:0:0:
448,192,75247,1,0,0:0:0:0:
320,192,75247,1,0,0:0:0:0:
192,192,75247,1,0,0:0:0:0:
64,192,75370,1,0,0:0:0:0:
320,192,75492,1,0,0:0:0:0:
64,192,75615,1,0,0:0:0:0:
448,192,75737,1,0,0:0:0:0:
192,192,75737,1,0,0:0:0:0:
64,192,75737,1,0,0:0:0:0:
192,192,75859,1,0,0:0:0:0:
64,192,75982,1,0,0:0:0:0:
448,192,76104,1,0,0:0:0:0:
320,192,76104,1,0,0:0:0:0:
192,192,76104,1,0,0:0:0:0:
448,192,76227,1,0,0:0:0:0:
192,192,76227,1,0,0:0:0:0:
64,192,76227,1,0,0:0:0:0:
64,192,76349,1,0,0:0:0:0:
448,192,76472,1,0,0:0:0:0:
320,192,76472,1,0,0:0:0:0:
192,192,76472,1,0,0:0:0:0:
320,192,76594,1,0,0:0:0:0:
64,192,76717,1,0,0:0:0:0:
448,192,76839,1,0,0:0:0:0:
320,192,76839,1,0,0:0:0:0:
192,192,76839,1,0,0:0:0:0:
448,192,76961,1,0,0:0:0:0:
320,192,76961,1,0,0:0:0:0:
192,192,76961,1,0,0:0:0:0:
64,192,77084,1,0,0:0:0:0:
320,192,77206,1,0,0:0:0:0:
320,192,77329,1,0,0:0:0:0:
448,192,77451,1,0,0:0:0:0:
320,192,77451,1,0,0:0:0:0:
192,192,77574,1,0,0:0:0:0:
320,192,77635,1,0,0:0:0:0:
192,192,77696,1,0,0:0:0:0:
64,192,77727,1,0,0:0:0:0:
320,192,77757,1,0,0:0:0:0:
192,192,77788,1,0,0:0:0:0:
448,192,77819,1,0,0:0:0:0:
448,192,77941,1,0,0:0:0:0:
192,192,77941,1,0,0:0:0:0:
64,192,77941,1,0,0:0:0:0:
448,192,78186,1,0,0:0:0:0:
192,192,78186,1,0,0:0:0:0:
64,192,78186,1,0,0:0:0:0:
320,192,78431,1,0,0:0:0:0:
192,192,78492,1,0,0:0:0:0:
448,192,78553,1,0,0:0:0:0:
320,192,78553,1,0,0:0:0:0:
192,192,78676,1,0,0:0:0:0:
448,192,78798,1,0,0:0:0:0:
320,192,78921,1,0,0:0:0:0:
192,192,78921,1,0,0:0:0:0:
192,192,79166,1,0,0:0:0:0:
64,192,79166,1,0,0:0:0:0:
320,192,79288,1,0,0:0:0:0:
192,192,79533,1,0,0:0:0:0:
64,192,79533,1,0,0:0:0:0:
320,192,79594,1,0,0:0:0:0:
448,192,79655,1,0,0:0:0:0:
448,192,79778,1,0,0:0:0:0:
192,192,79900,1,0,0:0:0:0:
320,192,79961,1,0,0:0:0:0:
192,192,80023,1,0,0:0:0:0:
320,192,80145,1,0,0:0:0:0:
448,192,80206,1,0,0:0:0:0:
320,192,80268,1,0,0:0:0:0:
448,192,80329,1,0,0:0:0:0:
192,192,80390,1,0,0:0:0:0:
192,192,80512,1,0,0:0:0:0:
320,192,80635,1,0,0:0:0:0:
192,192,80696,1,0,0:0:0:0:
320,192,80757,1,0,0:0:0:0:
192,192,80819,1,0,0:0:0:0:
448,192,80880,1,0,0:0:0:0:
64,192,80941,1,0,0:0:0:0:
448,192,81002,1,0,0:0:0:0:
64,192,81064,1,0,0:0:0:0:
320,192,81125,1,0,0:0:0:0:
192,192,81125,1,0,0:0:0:0:
64,192,81247,1,0,0:0:0:0:
192,192,81278,1,0,0:0:0:0:
448,192,81308,1,0,0:0:0:0:
320,192,81339,1,0,0:0:0:0:
64,192,81370,1,0,0:0:0:0:
448,192,81492,1,0,0:0:0:0:
320,192,81492,1,0,0:0:0:0:
448,192,81615,1,0,0:0:0:0:
320,192,81615,1,0,0:0:0:0:
192,192,81737,1,0,0:0:0:0:
192,192,81859,1,0,0:0:0:0:
320,192,81982,1,0,0:0:0:0:
192,192,82043,1,0,0:0:0:0:
64,192,82074,1,0,0:0:0:0:
448,192,82104,1,0,0:0:0:0:
320,192,82135,1,0,0:0:0:0:
192,192,82166,1,0,0:0:0:0:
64,192,82196,1,0,0:0:0:0:
320,192,82227,1,0,0:0:0:0:
192,192,82349,1,0,0:0:0:0:
64,192,82349,1,0,0:0:0:0:
192,192,82472,1,0,0:0:0:0:
64,192,82472,1,0,0:0:0:0:
320,192,82594,1,0,0:0:0:0:
192,192,82655,1,0,0:0:0:0:
320,192,82717,1,0,0:0:0:0:
64,192,82839,1,0,0:0:0:0:
192,192,82870,1,0,0:0:0:0:
320,192,82900,1,0,0:0:0:0:
448,192,82931,1,0,0:0:0:0:
192,192,82961,1,0,0:0:0:0:
64,192,82961,1,0,0:0:0:0:
320,192,83084,1,0,0:0:0:0:
192,192,83206,1,0,0:0:0:0:
448,192,83329,1,0,0:0:0:0:
320,192,83329,1,0,0:0:0:0:
448,192,83451,1,0,0:0:0:0:
320,192,83451,1,0,0:0:0:0:
192,192,83574,1,0,0:0:0:0:
320,192,83635,1,0,0:0:0:0:
192,192,83696,1,0,0:0:0:0:
64,192,83696,1,0,0:0:0:0:
448,192,83819,1,0,0:0:0:0:
320,192,83819,1,0,0:0:0:0:
192,192,83880,1,0,0:0:0:0:
320,192,83941,1,0,0:0:0:0:
320,192,84064,1,0,0:0:0:0:
64,192,84064,1,0,0:0:0:0:
320,192,84186,1,0,0:0:0:0:
64,192,84186,1,0,0:0:0:0:
320,192,84308,1,0,0:0:0:0:
64,192,84308,1,0,0:0:0:0:
448,192,84431,1,0,0:0:0:0:
192,192,84431,1,0,0:0:0:0:
64,192,84492,1,0,0:0:0:0:
448,192,84553,1,0,0:0:0:0:
192,192,84553,1,0,0:0:0:0:
320,192,84615,1,0,0:0:0:0:
448,192,84676,1,0,0:0:0:0:
64,192,84676,1,0,0:0:0:0:
192,192,84706,1,0,0:0:0:0:
320,192,84737,1,0,0:0:0:0:
448,192,84798,1,0,0:0:0:0:
64,192,84798,1,0,0:0:0:0:
64,192,84921,1,0,0:0:0:0:
448,192,85043,1,0,0:0:0:0:
320,192,85043,1,0,0:0:0:0:
192,192,85043,1,0,0:0:0:0:
320,192,85166,1,0,0:0:0:0:
64,192,85288,1,0,0:0:0:0:
448,192,85410,1,0,0:0:0:0:
320,192,85410,1,0,0:0:0:0:
192,192,85410,1,0,0:0:0:0:
448,192,85533,1,0,0:0:0:0:
320,192,85533,1,0,0:0:0:0:
192,192,85533,1,0,0:0:0:0:
64,192,85655,1,0,0:0:0:0:
320,192,85778,1,0,0:0:0:0:
64,192,85900,1,0,0:0:0:0:
448,192,86023,1,0,0:0:0:0:
192,192,86023,1,0,0:0:0:0:
64,192,86023,1,0,0:0:0:0:
192,192,86145,1,0,0:0:0:0:
64,192,86268,1,0,0:0:0:0:
448,192,86390,1,0,0:0:0:0:
320,192,86390,1,0,0:0:0:0:
192,192,86390,1,0,0:0:0:0:
448,192,86512,1,0,0:0:0:0:
192,192,86512,1,0,0:0:0:0:
64,192,86512,1,0,0:0:0:0:
64,192,86635,1,0,0:0:0:0:
448,192,86757,1,0,0:0:0:0:
320,192,86757,1,0,0:0:0:0:
192,192,86757,1,0,0:0:0:0:
320,192,86880,1,0,0:0:0:0:
64,192,87002,1,0,0:0:0:0:
448,192,87125,1,0,0:0:0:0:
320,192,87125,1,0,0:0:0:0:
192,192,87125,1,0,0:0:0:0:
448,192,87247,1,0,0:0:0:0:
320,192,87247,1,0,0:0:0:0:
192,192,87247,1,0,0:0:0:0:
64,192,87370,1,0,0:0:0:0:
320,192,87492,1,0,0:0:0:0:
64,192,87615,1,0,0:0:0:0:
448,192,87737,1,0,0:0:0:0:
192,192,87737,1,0,0:0:0:0:
64,192,87737,1,0,0:0:0:0:
448,192,87859,1,0,0:0:0:0:
64,192,87982,1,0,0:0:0:0:
448,192,88104,1,0,0:0:0:0:
320,192,88104,1,0,0:0:0:0:
192,192,88104,1,0,0:0:0:0:
448,192,88227,1,0,0:0:0:0:
192,192,88227,1,0,0:0:0:0:
64,192,88227,1,0,0:0:0:0:
64,192,88349,1,0,0:0:0:0:
448,192,88472,1,0,0:0:0:0:
320,192,88472,1,0,0:0:0:0:
192,192,88472,1,0,0:0:0:0:
320,192,88594,1,0,0:0:0:0:
64,192,88717,1,0,0:0:0:0:
448,192,88839,1,0,0:0:0:0:
320,192,88839,1,0,0:0:0:0:
192,192,88839,1,0,0:0:0:0:
448,192,88961,1,0,0:0:0:0:
320,192,88961,1,0,0:0:0:0:
192,192,88961,1,0,0:0:0:0:
64,192,89084,1,0,0:0:0:0:
320,192,89206,1,0,0:0:0:0:
64,192,89329,1,0,0:0:0:0:
448,192,89451,1,0,0:0:0:0:
192,192,89451,1,0,0:0:0:0:
64,192,89451,1,0,0:0:0:0:
192,192,89574,1,0,0:0:0:0:
64,192,89696,1,0,0:0:0:0:
448,192,89819,1,0,0:0:0:0:
320,192,89819,1,0,0:0:0:0:
192,192,89819,1,0,0:0:0:0:
448,192,89941,1,0,0:0:0:0:
192,192,89941,1,0,0:0:0:0:
64,192,89941,1,0,0:0:0:0:
64,192,90064,1,0,0:0:0:0:
448,192,90186,1,0,0:0:0:0:
320,192,90186,1,0,0:0:0:0:
192,192,90186,1,0,0:0:0:0:
320,192,90308,1,0,0:0:0:0:
64,192,90431,1,0,0:0:0:0:
448,192,90553,1,0,0:0:0:0:
320,192,90553,1,0,0:0:0:0:
192,192,90553,1,0,0:0:0:0:
448,192,90676,1,0,0:0:0:0:
320,192,90676,1,0,0:0:0:0:
192,192,90676,1,0,0:0:0:0:
64,192,90798,1,0,0:0:0:0:
320,192,90921,1,0,0:0:0:0:
320,192,91043,1,0,0:0:0:0:
448,192,91166,1,0,0:0:0:0:
192,192,91166,1,0,0:0:0:0:
192,192,91288,1,0,0:0:0:0:
64,192,91288,1,0,0:0:0:0:
320,192,91410,1,0,0:0:0:0:
192,192,91533,1,0,0:0:0:0:
64,192,91533,1,0,0:0:0:0:
448,192,91655,1,0,0:0:0:0:
192,192,91655,1,0,0:0:0:0:
64,192,91655,1,0,0:0:0:0:
64,192,91778,1,0,0:0:0:0:
448,192,91900,1,0,0:0:0:0:
320,192,91900,1,0,0:0:0:0:
192,192,91900,1,0,0:0:0:0:
320,192,92023,1,0,0:0:0:0:
64,192,92145,1,0,0:0:0:0:
448,192,92268,1,0,0:0:0:0:
320,192,92268,1,0,0:0:0:0:
192,192,92268,1,0,0:0:0:0:
448,192,92390,1,0,0:0:0:0:
320,192,92390,1,0,0:0:0:0:
192,192,92390,1,0,0:0:0:0:
64,192,92512,1,0,0:0:0:0:
320,192,92635,1,0,0:0:0:0:
64,192,92757,1,0,0:0:0:0:
448,192,92880,1,0,0:0:0:0:
192,192,92880,1,0,0:0:0:0:
64,192,92880,1,0,0:0:0:0:
192,192,93002,1,0,0:0:0:0:
64,192,93125,1,0,0:0:0:0:
448,192,93247,1,0,0:0:0:0:
320,192,93247,1,0,0:0:0:0:
192,192,93247,1,0,0:0:0:0:
448,192,93370,1,0,0:0:0:0:
192,192,93370,1,0,0:0:0:0:
64,192,93370,1,0,0:0:0:0:
64,192,93492,1,0,0:0:0:0:
448,192,93615,1,0,0:0:0:0:
320,192,93615,1,0,0:0:0:0:
192,192,93615,1,0,0:0:0:0:
320,192,93737,1,0,0:0:0:0:
64,192,93859,1,0,0:0:0:0:
448,192,93982,1,0,0:0:0:0:
320,192,93982,1,0,0:0:0:0:
192,192,93982,1,0,0:0:0:0:
448,192,94104,1,0,0:0:0:0:
320,192,94104,1,0,0:0:0:0:
192,192,94104,1,0,0:0:0:0:
64,192,94227,1,0,0:0:0:0:
320,192,94349,1,0,0:0:0:0:
64,192,94472,1,0,0:0:0:0:
448,192,94594,1,0,0:0:0:0:
192,192,94594,1,0,0:0:0:0:
64,192,94594,1,0,0:0:0:0:
448,192,94717,1,0,0:0:0:0:
64,192,94839,1,0,0:0:0:0:
448,192,94961,1,0,0:0:0:0:
320,192,94961,1,0,0:0:0:0:
192,192,94961,1,0,0:0:0:0:
448,192,95084,1,0,0:0:0:0:
192,192,95084,1,0,0:0:0:0:
64,192,95084,1,0,0:0:0:0:
64,192,95206,1,0,0:0:0:0:
448,192,95329,1,0,0:0:0:0:
320,192,95329,1,0,0:0:0:0:
192,192,95329,1,0,0:0:0:0:
320,192,95451,1,0,0:0:0:0:
64,192,95574,1,0,0:0:0:0:
448,192,95696,1,0,0:0:0:0:
320,192,95696,1,0,0:0:0:0:
192,192,95696,1,0,0:0:0:0:
448,192,95819,1,0,0:0:0:0:
320,192,95819,1,0,0:0:0:0:
192,192,95819,1,0,0:0:0:0:
64,192,95941,1,0,0:0:0:0:
320,192,96064,1,0,0:0:0:0:
64,192,96186,1,0,0:0:0:0:
448,192,96308,1,0,0:0:0:0:
192,192,96308,1,0,0:0:0:0:
64,192,96308,1,0,0:0:0:0:
192,192,96431,1,0,0:0:0:0:
64,192,96553,1,0,0:0:0:0:
448,192,96676,1,0,0:0:0:0:
320,192,96676,1,0,0:0:0:0:
192,192,96676,1,0,0:0:0:0:
448,192,96798,1,0,0:0:0:0:
192,192,96798,1,0,0:0:0:0:
64,192,96798,1,0,0:0:0:0:
64,192,96921,1,0,0:0:0:0:
448,192,97043,1,0,0:0:0:0:
320,192,97043,1,0,0:0:0:0:
192,192,97043,1,0,0:0:0:0:
320,192,97166,1,0,0:0:0:0:
64,192,97288,1,0,0:0:0:0:
448,192,97410,1,0,0:0:0:0:
320,192,97410,1,0,0:0:0:0:
192,192,97410,1,0,0:0:0:0:
448,192,97533,1,0,0:0:0:0:
320,192,97533,1,0,0:0:0:0:
192,192,97533,1,0,0:0:0:0:
64,192,97655,1,0,0:0:0:0:
320,192,97778,1,0,0:0:0:0:
192,192,97900,1,0,0:0:0:0:
448,192,98023,1,0,0:0:0:0:
320,192,98023,1,0,0:0:0:0:
192,192,98023,1,0,0:0:0:0:
448,192,98268,1,0,0:0:0:0:
320,192,98268,1,0,0:0:0:0:
192,192,98268,1,0,0:0:0:0:
448,192,98512,1,0,0:0:0:0:
192,192,98512,1,0,0:0:0:0:
64,192,98512,1,0,0:0:0:0:
64,192,98635,1,0,0:0:0:0:
448,192,98757,1,0,0:0:0:0:
320,192,98757,1,0,0:0:0:0:
192,192,98757,1,0,0:0:0:0:
320,192,98880,1,0,0:0:0:0:
64,192,99002,1,0,0:0:0:0:
448,192,99125,1,0,0:0:0:0:
320,192,99125,1,0,0:0:0:0:
192,192,99125,1,0,0:0:0:0:
448,192,99247,1,0,0:0:0:0:
320,192,99247,1,0,0:0:0:0:
192,192,99247,1,0,0:0:0:0:
64,192,99370,1,0,0:0:0:0:
320,192,99492,1,0,0:0:0:0:
64,192,99615,1,0,0:0:0:0:
448,192,99737,1,0,0:0:0:0:
192,192,99737,1,0,0:0:0:0:
64,192,99737,1,0,0:0:0:0:
192,192,99859,1,0,0:0:0:0:
64,192,99982,1,0,0:0:0:0:
448,192,100104,1,0,0:0:0:0:
320,192,100104,1,0,0:0:0:0:
192,192,100104,1,0,0:0:0:0:
448,192,100227,1,0,0:0:0:0:
192,192,100227,1,0,0:0:0:0:
64,192,100227,1,0,0:0:0:0:
64,192,100349,1,0,0:0:0:0:
448,192,100472,1,0,0:0:0:0:
320,192,100472,1,0,0:0:0:0:
192,192,100472,1,0,0:0:0:0:
320,192,100594,1,0,0:0:0:0:
64,192,100717,1,0,0:0:0:0:
448,192,100839,1,0,0:0:0:0:
320,192,100839,1,0,0:0:0:0:
192,192,100839,1,0,0:0:0:0:
448,192,100961,1,0,0:0:0:0:
320,192,100961,1,0,0:0:0:0:
192,192,100961,1,0,0:0:0:0:
64,192,101084,1,0,0:0:0:0:
320,192,101206,1,0,0:0:0:0:
64,192,101329,1,0,0:0:0:0:
448,192,101451,1,0,0:0:0:0:
192,192,101451,1,0,0:0:0:0:
64,192,101451,1,0,0:0:0:0:
448,192,101574,1,0,0:0:0:0:
64,192,101696,1,0,0:0:0:0:
448,192,101819,1,0,0:0:0:0:
320,192,101819,1,0,0:0:0:0:
192,192,101819,1,0,0:0:0:0:
448,192,101941,1,0,0:0:0:0:
192,192,101941,1,0,0:0:0:0:
64,192,101941,1,0,0:0:0:0:
64,192,102064,1,0,0:0:0:0:
448,192,102186,1,0,0:0:0:0:
320,192,102186,1,0,0:0:0:0:
192,192,102186,1,0,0:0:0:0:
320,192,102308,1,0,0:0:0:0:
64,192,102431,1,0,0:0:0:0:
448,192,102553,1,0,0:0:0:0:
320,192,102553,1,0,0:0:0:0:
192,192,102553,1,0,0:0:0:0:
448,192,102676,1,0,0:0:0:0:
320,192,102676,1,0,0:0:0:0:
192,192,102676,1,0,0:0:0:0:
64,192,102798,1,0,0:0:0:0:
320,192,102921,1,0,0:0:0:0:
64,192,103043,1,0,0:0:0:0:
448,192,103166,1,0,0:0:0:0:
192,192,103166,1,0,0:0:0:0:
64,192,103166,1,0,0:0:0:0:
192,192,103288,1,0,0:0:0:0:
64,192,103410,1,0,0:0:0:0:
448,192,103533,1,0,0:0:0:0:
320,192,103533,1,0,0:0:0:0:
192,192,103533,1,0,0:0:0:0:
448,192,103655,1,0,0:0:0:0:
192,192,103655,1,0,0:0:0:0:
64,192,103655,1,0,0:0:0:0:
64,192,103778,1,0,0:0:0:0:
448,192,103900,1,0,0:0:0:0:
320,192,103900,1,0,0:0:0:0:
192,192,103900,1,0,0:0:0:0:
320,192,104023,1,0,0:0:0:0:
64,192,104145,1,0,0:0:0:0:
448,192,104268,1,0,0:0:0:0:
320,192,104268,1,0,0:0:0:0:
192,192,104268,1,0,0:0:0:0:
448,192,104390,1,0,0:0:0:0:
320,192,104390,1,0,0:0:0:0:
192,192,104390,1,0,0:0:0:0:
64,192,104512,1,0,0:0:0:0:
320,192,104635,1,0,0:0:0:0:
192,192,104757,1,0,0:0:0:0:
192,192,104880,1,0,0:0:0:0:
64,192,104880,1,0,0:0:0:0:
320,192,105002,1,0,0:0:0:0:
448,192,105002,1,0,0:0:0:0:
192,192,105125,1,0,0:0:0:0:
64,192,105125,1,0,0:0:0:0:
448,192,105247,1,0,0:0:0:0:
320,192,105247,1,0,0:0:0:0:
448,192,105370,1,0,0:0:0:0:
192,192,105370,1,0,0:0:0:0:
64,192,105370,1,0,0:0:0:0:
64,192,105492,1,0,0:0:0:0:
448,192,105615,1,0,0:0:0:0:
320,192,105615,1,0,0:0:0:0:
192,192,105615,1,0,0:0:0:0:
320,192,105737,1,0,0:0:0:0:
64,192,105859,1,0,0:0:0:0:
448,192,105982,1,0,0:0:0:0:
320,192,105982,1,0,0:0:0:0:
192,192,105982,1,0,0:0:0:0:
448,192,106104,1,0,0:0:0:0:
320,192,106104,1,0,0:0:0:0:
192,192,106104,1,0,0:0:0:0:
64,192,106227,1,0,0:0:0:0:
320,192,106349,1,0,0:0:0:0:
64,192,106472,1,0,0:0:0:0:
448,192,106594,1,0,0:0:0:0:
192,192,106594,1,0,0:0:0:0:
64,192,106594,1,0,0:0:0:0:
192,192,106717,1,0,0:0:0:0:
64,192,106839,1,0,0:0:0:0:
448,192,106961,1,0,0:0:0:0:
320,192,106961,1,0,0:0:0:0:
192,192,106961,1,0,0:0:0:0:
448,192,107084,1,0,0:0:0:0:
192,192,107084,1,0,0:0:0:0:
64,192,107084,1,0,0:0:0:0:
64,192,107206,1,0,0:0:0:0:
448,192,107329,1,0,0:0:0:0:
320,192,107329,1,0,0:0:0:0:
192,192,107329,1,0,0:0:0:0:
320,192,107451,1,0,0:0:0:0:
64,192,107574,1,0,0:0:0:0:
448,192,107696,1,0,0:0:0:0:
320,192,107696,1,0,0:0:0:0:
192,192,107696,1,0,0:0:0:0:
448,192,107819,1,0,0:0:0:0:
320,192,107819,1,0,0:0:0:0:
192,192,107819,1,0,0:0:0:0:
64,192,107941,1,0,0:0:0:0:
320,192,108064,1,0,0:0:0:0:
64,192,108186,1,0,0:0:0:0:
448,192,108308,1,0,0:0:0:0:
192,192,108308,1,0,0:0:0:0:
64,192,108308,1,0,0:0:0:0:
448,192,108431,1,0,0:0:0:0:
64,192,108553,1,0,0:0:0:0:
448,192,108676,1,0,0:0:0:0:
320,192,108676,1,0,0:0:0:0:
192,192,108676,1,0,0:0:0:0:
448,192,108798,1,0,0:0:0:0:
192,192,108798,1,0,0:0:0:0:
64,192,108798,1,0,0:0:0:0:
64,192,108921,1,0,0:0:0:0:
448,192,109043,1,0,0:0:0:0:
320,192,109043,1,0,0:0:0:0:
192,192,109043,1,0,0:0:0:0:
320,192,109166,1,0,0:0:0:0:
64,192,109288,1,0,0:0:0:0:
448,192,109410,1,0,0:0:0:0:
320,192,109410,1,0,0:0:0:0:
192,192,109410,1,0,0:0:0:0:
448,192,109533,1,0,0:0:0:0:
320,192,109533,1,0,0:0:0:0:
192,192,109533,1,0,0:0:0:0:
64,192,109655,1,0,0:0:0:0:
320,192,109778,1,0,0:0:0:0:
64,192,109900,1,0,0:0:0:0:
448,192,110023,1,0,0:0:0:0:
192,192,110023,1,0,0:0:0:0:
64,192,110023,1,0,0:0:0:0:
192,192,110145,1,0,0:0:0:0:
64,192,110268,1,0,0:0:0:0:
448,192,110390,1,0,0:0:0:0:
320,192,110390,1,0,0:0:0:0:
192,192,110390,1,0,0:0:0:0:
448,192,110512,1,0,0:0:0:0:
192,192,110512,1,0,0:0:0:0:
64,192,110512,1,0,0:0:0:0:
64,192,110635,1,0,0:0:0:0:
448,192,110757,1,0,0:0:0:0:
320,192,110757,1,0,0:0:0:0:
192,192,110757,1,0,0:0:0:0:
320,192,110880,1,0,0:0:0:0:
64,192,111002,1,0,0:0:0:0:
448,192,111125,1,0,0:0:0:0:
320,192,111125,1,0,0:0:0:0:
192,192,111125,1,0,0:0:0:0:
448,192,111247,1,0,0:0:0:0:
320,192,111247,1,0,0:0:0:0:
192,192,111247,1,0,0:0:0:0:
64,192,111370,1,0,0:0:0:0:
320,192,111492,1,0,0:0:0:0:
192,192,111615,1,0,0:0:0:0:
448,192,111737,1,0,0:0:0:0:
320,192,111737,1,0,0:0:0:0:
192,192,111859,1,0,0:0:0:0:
320,192,111921,1,0,0:0:0:0:
64,192,111982,1,0,0:0:0:0:
192,192,112012,1,0,0:0:0:0:
320,192,112043,1,0,0:0:0:0:
448,192,112074,1,0,0:0:0:0:
64,192,112104,1,0,0:0:0:0:
192,192,112135,1,0,0:0:0:0:
320,192,112166,1,0,0:0:0:0:
64,192,112196,1,0,0:0:0:0:
448,192,112227,1,0,0:0:0:0:
192,192,112227,1,0,0:0:0:0:
448,192,112594,1,0,0:0:0:0:
192,192,112594,1,0,0:0:0:0:
64,192,112594,1,0,0:0:0:0:
448,192,112961,1,0,0:0:0:0:
192,192,112961,1,0,0:0:0:0:
64,192,112961,1,0,0:0:0:0:
192,192,113696,1,0,0:0:0:0:
64,192,113819,1,0,0:0:0:0:
448,192,113941,1,0,0:0:0:0:
192,192,113941,1,0,0:0:0:0:
64,192,113941,1,0,0:0:0:0:
448,192,114308,1,0,0:0:0:0:
192,192,114308,1,0,0:0:0:0:
64,192,114308,1,0,0:0:0:0:
448,192,114676,1,0,0:0:0:0:
192,192,114676,1,0,0:0:0:0:
64,192,114676,1,0,0:0:0:0:
192,192,115410,1,0,0:0:0:0:
320,192,115533,1,0,0:0:0:0:
192,192,115655,1,0,0:0:0:0:
64,192,115717,1,0,0:0:0:0:
192,192,115778,1,0,0:0:0:0:
192,192,115900,1,0,0:0:0:0:
192,192,116023,1,0,0:0:0:0:
64,192,116268,1,0,0:0:0:0:
192,192,116329,1,0,0:0:0:0:
448,192,116390,1,0,0:0:0:0:
320,192,116390,1,0,0:0:0:0:
192,192,116635,1,0,0:0:0:0:
448,192,116880,1,0,0:0:0:0:
320,192,116880,1,0,0:0:0:0:
192,192,117125,1,0,0:0:0:0:
64,192,117247,1,0,0:0:0:0:
320,192,117370,1,0,0:0:0:0:
192,192,117370,1,0,0:0:0:0:
320,192,117737,1,0,0:0:0:0:
192,192,117737,1,0,0:0:0:0:
320,192,118104,1,0,0:0:0:0:
192,192,118104,1,0,0:0:0:0:
320,192,118839,1,0,0:0:0:0:
448,192,119084,1,0,0:0:0:0:
192,192,119084,1,0,0:0:0:0:
320,192,119329,1,0,0:0:0:0:
448,192,119451,1,0,0:0:0:0:
192,192,119451,1,0,0:0:0:0:
320,192,119696,1,0,0:0:0:0:
192,192,119819,1,0,0:0:0:0:
192,192,120064,1,0,0:0:0:0:
192,192,120186,1,0,0:0:0:0:
192,192,120308,1,0,0:0:0:0:
192,192,120431,1,0,0:0:0:0:
320,192,120553,1,0,0:0:0:0:
448,192,120676,1,0,0:0:0:0:
448,192,120798,1,0,0:0:0:0:
192,192,120798,1,0,0:0:0:0:
64,192,120798,1,0,0:0:0:0:
192,192,121043,1,0,0:0:0:0:
448,192,121166,1,0,0:0:0:0:
192,192,121166,1,0,0:0:0:0:
192,192,121410,1,0,0:0:0:0:
320,192,121533,1,0,0:0:0:0:
320,192,121655,1,0,0:0:0:0:
448,192,121778,1,0,0:0:0:0:
320,192,121900,1,0,0:0:0:0:
192,192,122023,1,0,0:0:0:0:
320,192,122084,1,0,0:0:0:0:
192,192,122145,1,0,0:0:0:0:
320,192,122268,1,0,0:0:0:0:
448,192,122390,1,0,0:0:0:0:
320,192,122512,1,0,0:0:0:0:
192,192,122512,1,0,0:0:0:0:
448,192,122757,1,0,0:0:0:0:
320,192,122757,1,0,0:0:0:0:
448,192,122880,1,0,0:0:0:0:
320,192,122880,1,0,0:0:0:0:
64,192,123002,1,0,0:0:0:0:
320,192,123064,1,0,0:0:0:0:
64,192,123125,1,0,0:0:0:0:
448,192,123186,1,0,0:0:0:0:
320,192,123247,1,0,0:0:0:0:
192,192,123247,1,0,0:0:0:0:
320,192,123492,1,0,0:0:0:0:
192,192,123737,1,0,0:0:0:0:
64,192,123737,1,0,0:0:0:0:
448,192,123982,1,0,0:0:0:0:
192,192,124012,1,0,0:0:0:0:
320,192,124043,1,0,0:0:0:0:
64,192,124074,1,0,0:0:0:0:
448,192,124104,1,0,0:0:0:0:
192,192,124135,1,0,0:0:0:0:
64,192,124166,1,0,0:0:0:0:
320,192,124196,1,0,0:0:0:0:
448,192,124227,1,0,0:0:0:0:
192,192,124227,1,0,0:0:0:0:
448,192,124594,1,0,0:0:0:0:
192,192,124839,1,0,0:0:0:0:
320,192,124870,1,0,0:0:0:0:
448,192,124900,1,0,0:0:0:0:
320,192,124961,1,0,0:0:0:0:
192,192,125023,1,0,0:0:0:0:
64,192,125084,1,0,0:0:0:0:
320,192,125206,1,0,0:0:0:0:
192,192,125206,1,0,0:0:0:0:
320,192,125329,1,0,0:0:0:0:
192,192,125329,1,0,0:0:0:0:
448,192,125451,1,0,0:0:0:0:
320,192,125451,1,0,0:0:0:0:
192,192,125512,1,0,0:0:0:0:
64,192,125574,1,0,0:0:0:0:
192,192,125696,1,0,0:0:0:0:
64,192,125696,1,0,0:0:0:0:
320,192,125757,1,0,0:0:0:0:
192,192,125819,1,0,0:0:0:0:
320,192,125880,1,0,0:0:0:0:
448,192,125941,1,0,0:0:0:0:
192,192,125941,1,0,0:0:0:0:
64,192,125941,1,0,0:0:0:0:
320,192,126002,1,0,0:0:0:0:
448,192,126064,1,0,0:0:0:0:
320,192,126186,1,0,0:0:0:0:
192,192,126186,1,0,0:0:0:0:
448,192,126308,1,0,0:0:0:0:
192,192,126308,1,0,0:0:0:0:
64,192,126308,1,0,0:0:0:0:
320,192,126370,1,0,0:0:0:0:
192,192,126431,1,0,0:0:0:0:
64,192,126492,1,0,0:0:0:0:
448,192,126553,1,0,0:0:0:0:
320,192,126553,1,0,0:0:0:0:
448,192,126676,1,0,0:0:0:0:
192,192,126676,1,0,0:0:0:0:
64,192,126676,1,0,0:0:0:0:
448,192,126798,1,0,0:0:0:0:
320,192,126798,1,0,0:0:0:0:
192,192,126798,1,0,0:0:0:0:
64,192,126859,1,0,0:0:0:0:
448,192,126921,1,0,0:0:0:0:
320,192,126921,1,0,0:0:0:0:
192,192,126921,1,0,0:0:0:0:
448,192,127043,1,0,0:0:0:0:
448,192,127166,1,0,0:0:0:0:
192,192,127288,1,0,0:0:0:0:
64,192,127288,1,0,0:0:0:0:
320,192,127410,1,0,0:0:0:0:
192,192,127472,1,0,0:0:0:0:
448,192,127533,1,0,0:0:0:0:
320,192,127533,1,0,0:0:0:0:
448,192,127655,1,0,0:0:0:0:
192,192,127655,1,0,0:0:0:0:
64,192,127655,1,0,0:0:0:0:
320,192,128023,1,0,0:0:0:0:
192,192,128023,1,0,0:0:0:0:
448,192,128268,1,0,0:0:0:0:
320,192,128268,1,0,0:0:0:0:
448,192,128390,1,0,0:0:0:0:
64,192,128390,1,0,0:0:0:0:
448,192,128512,1,0,0:0:0:0:
64,192,128512,1,0,0:0:0:0:
64,192,129002,1,0,0:0:0:0:
448,192,129125,1,0,0:0:0:0:
192,192,129247,1,0,0:0:0:0:
320,192,129370,1,0,0:0:0:0:
192,192,129370,1,0,0:0:0:0:
448,192,129492,1,0,0:0:0:0:
64,192,129492,1,0,0:0:0:0:
320,192,129553,1,0,0:0:0:0:
192,192,129553,1,0,0:0:0:0:
448,192,129676,1,0,0:0:0:0:
64,192,129676,1,0,0:0:0:0:
320,192,129737,1,0,0:0:0:0:
192,192,129737,1,0,0:0:0:0:
448,192,129859,1,0,0:0:0:0:
64,192,129859,1,0,0:0:0:0:
320,192,129921,1,0,0:0:0:0:
192,192,129921,1,0,0:0:0:0:
448,192,130043,1,0,0:0:0:0:
64,192,130043,1,0,0:0:0:0:
192,192,130104,1,0,0:0:0:0:
320,192,130227,1,0,0:0:0:0:
448,192,130288,1,0,0:0:0:0:
192,192,130288,1,0,0:0:0:0:
192,192,130410,1,0,0:0:0:0:
320,192,130472,1,0,0:0:0:0:
64,192,130472,1,0,0:0:0:0:
64,192,130594,1,0,0:0:0:0:
192,192,130655,1,0,0:0:0:0:
320,192,130717,1,0,0:0:0:0:
448,192,130778,1,0,0:0:0:0:
320,192,130839,1,0,0:0:0:0:
192,192,130839,1,0,0:0:0:0:
448,192,131084,1,0,0:0:0:0:
192,192,131084,1,0,0:0:0:0:
64,192,131084,1,0,0:0:0:0:
192,192,131206,1,0,0:0:0:0:
448,192,131329,1,0,0:0:0:0:
320,192,131329,1,0,0:0:0:0:
192,192,131451,1,0,0:0:0:0:
320,192,131574,1,0,0:0:0:0:
320,192,131696,1,0,0:0:0:0:
192,192,131819,1,0,0:0:0:0:
64,192,131819,1,0,0:0:0:0:
320,192,131941,1,0,0:0:0:0:
192,192,131941,1,0,0:0:0:0:
320,192,132186,1,0,0:0:0:0:
192,192,132186,1,0,0:0:0:0:
320,192,132308,1,0,0:0:0:0:
192,192,132308,1,0,0:0:0:0:
320,192,132553,1,0,0:0:0:0:
192,192,132553,1,0,0:0:0:0:
448,192,132798,1,0,0:0:0:0:
192,192,132798,1,0,0:0:0:0:
64,192,132798,1,0,0:0:0:0:
448,192,133166,1,0,0:0:0:0:
320,192,133166,1,0,0:0:0:0:
192,192,133410,1,0,0:0:0:0:
320,192,133441,1,0,0:0:0:0:
448,192,133472,1,0,0:0:0:0:
64,192,133533,1,0,0:0:0:0:
320,192,133594,1,0,0:0:0:0:
64,192,133655,1,0,0:0:0:0:
192,192,133778,1,0,0:0:0:0:
320,192,133900,1,0,0:0:0:0:
192,192,133900,1,0,0:0:0:0:
448,192,134023,1,0,0:0:0:0:
320,192,134023,1,0,0:0:0:0:
192,192,134084,1,0,0:0:0:0:
64,192,134145,1,0,0:0:0:0:
192,192,134268,1,0,0:0:0:0:
64,192,134268,1,0,0:0:0:0:
192,192,134390,1,0,0:0:0:0:
320,192,134451,1,0,0:0:0:0:
448,192,134512,1,0,0:0:0:0:
192,192,134512,1,0,0:0:0:0:
64,192,134512,1,0,0:0:0:0:
320,192,134635,1,0,0:0:0:0:
64,192,134696,1,0,0:0:0:0:
448,192,134757,1,0,0:0:0:0:
320,192,134757,1,0,0:0:0:0:
448,192,134880,1,0,0:0:0:0:
192,192,134880,1,0,0:0:0:0:
64,192,134880,1,0,0:0:0:0:
320,192,134941,1,0,0:0:0:0:
192,192,135002,1,0,0:0:0:0:
320,192,135064,1,0,0:0:0:0:
448,192,135125,1,0,0:0:0:0:
192,192,135125,1,0,0:0:0:0:
64,192,135125,1,0,0:0:0:0:
320,192,135247,1,0,0:0:0:0:
192,192,135308,1,0,0:0:0:0:
448,192,135370,1,0,0:0:0:0:
320,192,135370,1,0,0:0:0:0:
448,192,135492,1,0,0:0:0:0:
192,192,135492,1,0,0:0:0:0:
64,192,135492,1,0,0:0:0:0:
320,192,135553,1,0,0:0:0:0:
192,192,135615,1,0,0:0:0:0:
320,192,135676,1,0,0:0:0:0:
448,192,135737,1,0,0:0:0:0:
192,192,135737,1,0,0:0:0:0:
64,192,135737,1,0,0:0:0:0:
320,192,135859,1,0,0:0:0:0:
192,192,135921,1,0,0:0:0:0:
448,192,135982,1,0,0:0:0:0:
320,192,135982,1,0,0:0:0:0:
448,192,136104,1,0,0:0:0:0:
192,192,136104,1,0,0:0:0:0:
64,192,136104,1,0,0:0:0:0:
448,192,136227,1,0,0:0:0:0:
192,192,136227,1,0,0:0:0:0:
64,192,136227,1,0,0:0:0:0:
320,192,136349,1,0,0:0:0:0:
192,192,136410,1,0,0:0:0:0:
448,192,136472,1,0,0:0:0:0:
320,192,136472,1,0,0:0:0:0:
448,192,136594,1,0,0:0:0:0:
192,192,136594,1,0,0:0:0:0:
64,192,136594,1,0,0:0:0:0:
320,192,136717,1,0,0:0:0:0:
192,192,136778,1,0,0:0:0:0:
448,192,136839,1,0,0:0:0:0:
320,192,136839,1,0,0:0:0:0:
448,192,136961,1,0,0:0:0:0:
320,192,136961,1,0,0:0:0:0:
192,192,136961,1,0,0:0:0:0:
448,192,137145,1,0,0:0:0:0:
320,192,137145,1,0,0:0:0:0:
192,192,137145,1,0,0:0:0:0:
448,192,137329,1,0,0:0:0:0:
320,192,137329,1,0,0:0:0:0:
192,192,137329,1,0,0:0:0:0:
448,192,137512,1,0,0:0:0:0:
320,192,137512,1,0,0:0:0:0:
192,192,137512,1,0,0:0:0:0:
192,192,137696,1,0,0:0:0:0:
192,192,137880,1,0,0:0:0:0:
192,192,138064,1,0,0:0:0:0:
192,192,138247,1,0,0:0:0:0:
192,192,138431,1,0,0:0:0:0:
192,192,138553,1,0,0:0:0:0:
320,192,138676,1,0,0:0:0:0:
192,192,138676,1,0,0:0:0:0:
320,192,138798,1,0,0:0:0:0:
64,192,138921,1,0,0:0:0:0:
192,192,139043,1,0,0:0:0:0:
448,192,139166,1,0,0:0:0:0:
320,192,139166,1,0,0:0:0:0:
192,192,139288,1,0,0:0:0:0:
320,192,139349,1,0,0:0:0:0:
192,192,139380,1,0,0:0:0:0:
64,192,139410,1,0,0:0:0:0:
448,192,139441,1,0,0:0:0:0:
320,192,139472,1,0,0:0:0:0:
192,192,139502,1,0,0:0:0:0:
64,192,139533,1,0,0:0:0:0:
448,192,139564,1,0,0:0:0:0:
320,192,139594,1,0,0:0:0:0:
192,192,139625,1,0,0:0:0:0:
64,192,139655,1,0,0:0:0:0:
320,192,139778,1,0,0:0:0:0:
448,192,139900,1,0,0:0:0:0:
320,192,139900,1,0,0:0:0:0:
320,192,140023,1,0,0:0:0:0:
192,192,140084,1,0,0:0:0:0:
320,192,140145,1,0,0:0:0:0:
64,192,140206,1,0,0:0:0:0:
320,192,140268,1,0,0:0:0:0:
192,192,140268,1,0,0:0:0:0:
448,192,140390,1,0,0:0:0:0:
64,192,140390,1,0,0:0:0:0:
320,192,140512,1,0,0:0:0:0:
448,192,140635,1,0,0:0:0:0:
192,192,140635,1,0,0:0:0:0:
64,192,140635,1,0,0:0:0:0:
448,192,140880,1,0,0:0:0:0:
192,192,140880,1,0,0:0:0:0:
64,192,140880,1,0,0:0:0:0:
448,192,141125,1,0,0:0:0:0:
192,192,141125,1,0,0:0:0:0:
64,192,141125,1,0,0:0:0:0:
448,192,141370,1,0,0:0:0:0:
192,192,141370,1,0,0:0:0:0:
192,192,141492,1,0,0:0:0:0:
448,192,141615,1,0,0:0:0:0:
320,192,141615,1,0,0:0:0:0:
320,192,141737,1,0,0:0:0:0:
192,192,141798,1,0,0:0:0:0:
320,192,141859,1,0,0:0:0:0:
448,192,141921,1,0,0:0:0:0:
320,192,141982,1,0,0:0:0:0:
192,192,141982,1,0,0:0:0:0:
448,192,142104,1,0,0:0:0:0:
192,192,142227,1,0,0:0:0:0:
64,192,142227,1,0,0:0:0:0:
320,192,142288,1,0,0:0:0:0:
448,192,142349,1,0,0:0:0:0:
64,192,142349,1,0,0:0:0:0:
448,192,142472,1,0,0:0:0:0:
192,192,142533,1,0,0:0:0:0:
64,192,142533,1,0,0:0:0:0:
192,192,142655,1,0,0:0:0:0:
64,192,142655,1,0,0:0:0:0:
448,192,142717,1,0,0:0:0:0:
320,192,142717,1,0,0:0:0:0:
320,192,142900,1,0,0:0:0:0:
192,192,142961,1,0,0:0:0:0:
64,192,142961,1,0,0:0:0:0:
448,192,143084,1,0,0:0:0:0:
192,192,143084,1,0,0:0:0:0:
64,192,143084,1,0,0:0:0:0:
320,192,143268,1,0,0:0:0:0:
192,192,143329,1,0,0:0:0:0:
64,192,143329,1,0,0:0:0:0:
320,192,143451,1,0,0:0:0:0:
192,192,143512,1,0,0:0:0:0:
320,192,143574,1,0,0:0:0:0:
192,192,143635,1,0,0:0:0:0:
448,192,143696,1,0,0:0:0:0:
320,192,143696,1,0,0:0:0:0:
192,192,143819,1,0,0:0:0:0:
448,192,143880,1,0,0:0:0:0:
192,192,143941,1,0,0:0:0:0:
64,192,143941,1,0,0:0:0:0:
448,192,144064,1,0,0:0:0:0:
192,192,144064,1,0,0:0:0:0:
64,192,144064,1,0,0:0:0:0:
448,192,144308,1,0,0:0:0:0:
192,192,144308,1,0,0:0:0:0:
320,192,144370,1,0,0:0:0:0:
192,192,144431,1,0,0:0:0:0:
64,192,144492,1,0,0:0:0:0:
448,192,144553,1,0,0:0:0:0:
192,192,144553,1,0,0:0:0:0:
320,192,144615,1,0,0:0:0:0:
192,192,144676,1,0,0:0:0:0:
64,192,144676,1,0,0:0:0:0:
448,192,144798,1,0,0:0:0:0:
192,192,144798,1,0,0:0:0:0:
64,192,144798,1,0,0:0:0:0:
320,192,144921,1,0,0:0:0:0:
448,192,145043,1,0,0:0:0:0:
320,192,145043,1,0,0:0:0:0:
320,192,145166,1,0,0:0:0:0:
192,192,145227,1,0,0:0:0:0:
320,192,145288,1,0,0:0:0:0:
64,192,145349,1,0,0:0:0:0:
320,192,145410,1,0,0:0:0:0:
192,192,145410,1,0,0:0:0:0:
448,192,145533,1,0,0:0:0:0:
64,192,145533,1,0,0:0:0:0:
320,192,145655,1,0,0:0:0:0:
320,192,145778,1,0,0:0:0:0:
192,192,145778,1,0,0:0:0:0:
448,192,146268,1,0,0:0:0:0:
320,192,146268,1,0,0:0:0:0:
320,192,146451,1,0,0:0:0:0:
64,192,146482,1,0,0:0:0:0:
448,192,146512,1,0,0:0:0:0:
192,192,146512,1,0,0:0:0:0:
320,192,146635,1,0,0:0:0:0:
448,192,146757,1,0,0:0:0:0:
320,192,146757,1,0,0:0:0:0:
320,192,146880,1,0,0:0:0:0:
192,192,146941,1,0,0:0:0:0:
320,192,147002,1,0,0:0:0:0:
64,192,147064,1,0,0:0:0:0:
320,192,147125,1,0,0:0:0:0:
192,192,147125,1,0,0:0:0:0:
448,192,147247,1,0,0:0:0:0:
64,192,147247,1,0,0:0:0:0:
320,192,147370,1,0,0:0:0:0:
448,192,147492,1,0,0:0:0:0:
192,192,147492,1,0,0:0:0:0:
64,192,147492,1,0,0:0:0:0:
448,192,147737,1,0,0:0:0:0:
192,192,147737,1,0,0:0:0:0:
64,192,147737,1,0,0:0:0:0:
448,192,147982,1,0,0:0:0:0:
192,192,147982,1,0,0:0:0:0:
64,192,147982,1,0,0:0:0:0:
448,192,148227,1,0,0:0:0:0:
192,192,148227,1,0,0:0:0:0:
64,192,148227,1,0,0:0:0:0:
192,192,148349,1,0,0:0:0:0:
448,192,148472,1,0,0:0:0:0:
320,192,148472,1,0,0:0:0:0:
320,192,148594,1,0,0:0:0:0:
192,192,148655,1,0,0:0:0:0:
320,192,148717,1,0,0:0:0:0:
448,192,148778,1,0,0:0:0:0:
320,192,148839,1,0,0:0:0:0:
192,192,148839,1,0,0:0:0:0:
448,192,148961,1,0,0:0:0:0:
320,192,148961,1,0,0:0:0:0:
64,192,148961,1,0,0:0:0:0:
320,192,149206,1,0,0:0:0:0:
192,192,149206,1,0,0:0:0:0:
64,192,149206,1,0,0:0:0:0:
448,192,149451,1,0,0:0:0:0:
192,192,149451,1,0,0:0:0:0:
64,192,149451,1,0,0:0:0:0:
448,192,149696,1,0,0:0:0:0:
320,192,149696,1,0,0:0:0:0:
192,192,149757,1,0,0:0:0:0:
320,192,149819,1,0,0:0:0:0:
64,192,149880,1,0,0:0:0:0:
448,192,149941,1,0,0:0:0:0:
320,192,149941,1,0,0:0:0:0:
192,192,149941,1,0,0:0:0:0:
320,192,150125,1,0,0:0:0:0:
192,192,150186,1,0,0:0:0:0:
64,192,150186,1,0,0:0:0:0:
448,192,150308,1,0,0:0:0:0:
320,192,150308,1,0,0:0:0:0:
192,192,150308,1,0,0:0:0:0:
448,192,150553,1,0,0:0:0:0:
320,192,150553,1,0,0:0:0:0:
192,192,150553,1,0,0:0:0:0:
448,192,150798,1,0,0:0:0:0:
320,192,150798,1,0,0:0:0:0:
192,192,150798,1,0,0:0:0:0:
448,192,151043,1,0,0:0:0:0:
320,192,151043,1,0,0:0:0:0:
192,192,151043,1,0,0:0:0:0:
448,192,151288,1,0,0:0:0:0:
320,192,151288,1,0,0:0:0:0:
192,192,151288,1,0,0:0:0:0:
448,192,151410,1,0,0:0:0:0:
320,192,151410,1,0,0:0:0:0:
192,192,151410,1,0,0:0:0:0:
448,192,151655,1,0,0:0:0:0:
320,192,151655,1,0,0:0:0:0:
192,192,151655,1,0,0:0:0:0:
320,192,151778,1,0,0:0:0:0:
448,192,151900,1,0,0:0:0:0:
320,192,151900,1,0,0:0:0:0:
320,192,152023,1,0,0:0:0:0:
192,192,152084,1,0,0:0:0:0:
320,192,152145,1,0,0:0:0:0:
64,192,152206,1,0,0:0:0:0:
320,192,152268,1,0,0:0:0:0:
192,192,152268,1,0,0:0:0:0:
448,192,152390,1,0,0:0:0:0:
64,192,152390,1,0,0:0:0:0:
320,192,152512,1,0,0:0:0:0:
192,192,152635,1,0,0:0:0:0:
64,192,152635,1,0,0:0:0:0:
320,192,152727,1,0,0:0:0:0:
448,192,152727,1,0,0:0:0:0:
192,192,152819,1,0,0:0:0:0:
64,192,152819,1,0,0:0:0:0:
448,192,152910,1,0,0:0:0:0:
320,192,152910,1,0,0:0:0:0:
320,192,153002,1,0,0:0:0:0:
192,192,153002,1,0,0:0:0:0:
192,192,153094,1,0,0:0:0:0:
448,192,153186,1,0,0:0:0:0:
320,192,153186,1,0,0:0:0:0:
192,192,153278,1,0,0:0:0:0:
64,192,153278,1,0,0:0:0:0:
448,192,153370,1,0,0:0:0:0:
192,192,153370,1,0,0:0:0:0:
64,192,153370,1,0,0:0:0:0:
192,192,153492,1,0,0:0:0:0:
448,192,153615,1,0,0:0:0:0:
320,192,153615,1,0,0:0:0:0:
64,192,153737,1,0,0:0:0:0:
192,192,153859,1,0,0:0:0:0:
320,192,153982,1,0,0:0:0:0:
192,192,154104,1,0,0:0:0:0:
64,192,154104,1,0,0:0:0:0:
448,192,154227,1,0,0:0:0:0:
448,192,154349,1,0,0:0:0:0:
192,192,154349,1,0,0:0:0:0:
64,192,154349,1,0,0:0:0:0:
320,192,154472,1,0,0:0:0:0:
448,192,154594,1,0,0:0:0:0:
320,192,154594,1,0,0:0:0:0:
320,192,154717,1,0,0:0:0:0:
448,192,154839,1,0,0:0:0:0:
192,192,154839,1,0,0:0:0:0:
64,192,154839,1,0,0:0:0:0:
192,192,154961,1,0,0:0:0:0:
64,192,154961,1,0,0:0:0:0:
448,192,155084,1,0,0:0:0:0:
192,192,155084,1,0,0:0:0:0:
64,192,155084,1,0,0:0:0:0:
448,192,155206,1,0,0:0:0:0:
192,192,155237,1,0,0:0:0:0:
320,192,155268,1,0,0:0:0:0:
64,192,155298,1,0,0:0:0:0:
448,192,155329,1,0,0:0:0:0:
192,192,155451,1,0,0:0:0:0:
320,192,155574,1,0,0:0:0:0:
192,192,155696,1,0,0:0:0:0:
448,192,155819,1,0,0:0:0:0:
320,192,155819,1,0,0:0:0:0:
320,192,155941,1,0,0:0:0:0:
192,192,155941,1,0,0:0:0:0:
64,192,156002,1,0,0:0:0:0:
448,192,156064,1,0,0:0:0:0:
320,192,156064,1,0,0:0:0:0:
192,192,156064,1,0,0:0:0:0:
192,192,156186,1,0,0:0:0:0:
64,192,156247,1,0,0:0:0:0:
448,192,156308,1,0,0:0:0:0:
320,192,156308,1,0,0:0:0:0:
192,192,156431,1,0,0:0:0:0:
448,192,156553,1,0,0:0:0:0:
192,192,156553,1,0,0:0:0:0:
64,192,156553,1,0,0:0:0:0:
448,192,156676,1,0,0:0:0:0:
320,192,156676,1,0,0:0:0:0:
448,192,156798,1,0,0:0:0:0:
192,192,156798,1,0,0:0:0:0:
64,192,156798,1,0,0:0:0:0:
192,192,156921,1,0,0:0:0:0:
448,192,157043,1,0,0:0:0:0:
320,192,157043,1,0,0:0:0:0:
64,192,157166,1,0,0:0:0:0:
320,192,157288,1,0,0:0:0:0:
64,192,157410,1,0,0:0:0:0:
320,192,157472,1,0,0:0:0:0:
192,192,157533,1,0,0:0:0:0:
64,192,157533,1,0,0:0:0:0:
192,192,157655,1,0,0:0:0:0:
448,192,157778,1,0,0:0:0:0:
192,192,157778,1,0,0:0:0:0:
64,192,157778,1,0,0:0:0:0:
448,192,157900,1,0,0:0:0:0:
192,192,158023,1,0,0:0:0:0:
64,192,158023,1,0,0:0:0:0:
192,192,158145,1,0,0:0:0:0:
448,192,158268,1,0,0:0:0:0:
192,192,158268,1,0,0:0:0:0:
64,192,158268,1,0,0:0:0:0:
448,192,158390,1,0,0:0:0:0:
320,192,158390,1,0,0:0:0:0:
448,192,158512,1,0,0:0:0:0:
192,192,158512,1,0,0:0:0:0:
64,192,158512,1,0,0:0:0:0:
64,192,158635,1,0,0:0:0:0:
448,192,158757,1,0,0:0:0:0:
320,192,158757,1,0,0:0:0:0:
320,192,158880,1,0,0:0:0:0:
320,192,159002,1,0,0:0:0:0:
192,192,159125,1,0,0:0:0:0:
448,192,159247,1,0,0:0:0:0:
448,192,159370,1,0,0:0:0:0:
320,192,159370,1,0,0:0:0:0:
64,192,159431,1,0,0:0:0:0:
320,192,159492,1,0,0:0:0:0:
192,192,159492,1,0,0:0:0:0:
448,192,159615,1,0,0:0:0:0:
192,192,159676,1,0,0:0:0:0:
64,192,159676,1,0,0:0:0:0:
192,192,159859,1,0,0:0:0:0:
64,192,159859,1,0,0:0:0:0:
192,192,160043,1,0,0:0:0:0:
448,192,160104,1,0,0:0:0:0:
320,192,160104,1,0,0:0:0:0:
64,192,160166,1,0,0:0:0:0:
448,192,160227,1,0,0:0:0:0:
320,192,160227,1,0,0:0:0:0:
192,192,160227,1,0,0:0:0:0:
448,192,160349,1,0,0:0:0:0:
192,192,160349,1,0,0:0:0:0:
448,192,160472,1,0,0:0:0:0:
320,192,160472,1,0,0:0:0:0:
192,192,160594,1,0,0:0:0:0:
320,192,160717,1,0,0:0:0:0:
320,192,160839,1,0,0:0:0:0:
448,192,160900,1,0,0:0:0:0:
192,192,160961,1,0,0:0:0:0:
64,192,160961,1,0,0:0:0:0:
192,192,161084,1,0,0:0:0:0:
448,192,161206,1,0,0:0:0:0:
192,192,161206,1,0,0:0:0:0:
64,192,161206,1,0,0:0:0:0:
448,192,161329,1,0,0:0:0:0:
448,192,161451,1,0,0:0:0:0:
320,192,161451,1,0,0:0:0:0:
64,192,161574,1,0,0:0:0:0:
448,192,161696,1,0,0:0:0:0:
192,192,161696,1,0,0:0:0:0:
64,192,161696,1,0,0:0:0:0:
448,192,161819,1,0,0:0:0:0:
320,192,161819,1,0,0:0:0:0:
448,192,161941,1,0,0:0:0:0:
192,192,161941,1,0,0:0:0:0:
64,192,161941,1,0,0:0:0:0:
192,192,162064,1,0,0:0:0:0:
192,192,162186,1,0,0:0:0:0:
64,192,162186,1,0,0:0:0:0:
448,192,162308,1,0,0:0:0:0:
320,192,162308,1,0,0:0:0:0:
192,192,162431,1,0,0:0:0:0:
192,192,162553,1,0,0:0:0:0:
320,192,162676,1,0,0:0:0:0:
320,192,162798,1,0,0:0:0:0:
448,192,162859,1,0,0:0:0:0:
320,192,162921,1,0,0:0:0:0:
192,192,162921,1,0,0:0:0:0:
192,192,163104,1,0,0:0:0:0:
64,192,163104,1,0,0:0:0:0:
320,192,163288,1,0,0:0:0:0:
192,192,163288,1,0,0:0:0:0:
448,192,163472,1,0,0:0:0:0:
192,192,163472,1,0,0:0:0:0:
448,192,163655,1,0,0:0:0:0:
192,192,163655,1,0,0:0:0:0:
64,192,163655,1,0,0:0:0:0:
320,192,163717,1,0,0:0:0:0:
448,192,163778,1,0,0:0:0:0:
192,192,163900,1,0,0:0:0:0:
64,192,163900,1,0,0:0:0:0:
320,192,164023,1,0,0:0:0:0:
192,192,164084,1,0,0:0:0:0:
448,192,164145,1,0,0:0:0:0:
320,192,164145,1,0,0:0:0:0:
64,192,164206,1,0,0:0:0:0:
320,192,164268,1,0,0:0:0:0:
192,192,164268,1,0,0:0:0:0:
448,192,164390,1,0,0:0:0:0:
320,192,164390,1,0,0:0:0:0:
64,192,164451,1,0,0:0:0:0:
320,192,164512,1,0,0:0:0:0:
192,192,164512,1,0,0:0:0:0:
192,192,164635,1,0,0:0:0:0:
64,192,164635,1,0,0:0:0:0:
448,192,164880,1,0,0:0:0:0:
192,192,164880,1,0,0:0:0:0:
64,192,164880,1,0,0:0:0:0:
192,192,165002,1,0,0:0:0:0:
320,192,165064,1,0,0:0:0:0:
448,192,165125,1,0,0:0:0:0:
192,192,165125,1,0,0:0:0:0:
64,192,165186,1,0,0:0:0:0:
448,192,165247,1,0,0:0:0:0:
320,192,165247,1,0,0:0:0:0:
448,192,165370,1,0,0:0:0:0:
192,192,165370,1,0,0:0:0:0:
64,192,165370,1,0,0:0:0:0:
192,192,165492,1,0,0:0:0:0:
448,192,165615,1,0,0:0:0:0:
320,192,165615,1,0,0:0:0:0:
192,192,165737,1,0,0:0:0:0:
320,192,165798,1,0,0:0:0:0:
192,192,165859,1,0,0:0:0:0:
448,192,165921,1,0,0:0:0:0:
320,192,165982,1,0,0:0:0:0:
192,192,165982,1,0,0:0:0:0:
448,192,166104,1,0,0:0:0:0:
64,192,166104,1,0,0:0:0:0:
320,192,166227,1,0,0:0:0:0:
192,192,166349,1,0,0:0:0:0:
64,192,166349,1,0,0:0:0:0:
320,192,166594,1,0,0:0:0:0:
448,192,166839,1,0,0:0:0:0:
320,192,166839,1,0,0:0:0:0:
448,192,167084,1,0,0:0:0:0:
192,192,167084,1,0,0:0:0:0:
64,192,167084,1,0,0:0:0:0:
192,192,167206,1,0,0:0:0:0:
448,192,167329,1,0,0:0:0:0:
192,192,167329,1,0,0:0:0:0:
64,192,167329,1,0,0:0:0:0:
448,192,167451,1,0,0:0:0:0:
448,192,167574,1,0,0:0:0:0:
192,192,167574,1,0,0:0:0:0:
64,192,167574,1,0,0:0:0:0:
192,192,167696,1,0,0:0:0:0:
448,192,167819,1,0,0:0:0:0:
192,192,167819,1,0,0:0:0:0:
64,192,167819,1,0,0:0:0:0:
448,192,167941,1,0,0:0:0:0:
448,192,168064,1,0,0:0:0:0:
192,192,168064,1,0,0:0:0:0:
64,192,168064,1,0,0:0:0:0:
192,192,168186,1,0,0:0:0:0:
448,192,168308,1,0,0:0:0:0:
192,192,168308,1,0,0:0:0:0:
64,192,168308,1,0,0:0:0:0:
64,192,168431,1,0,0:0:0:0:
448,192,168553,1,0,0:0:0:0:
192,192,168553,1,0,0:0:0:0:
64,192,168553,1,0,0:0:0:0:
448,192,168676,1,0,0:0:0:0:
448,192,168798,1,0,0:0:0:0:
192,192,168798,1,0,0:0:0:0:
64,192,168798,1,0,0:0:0:0:
320,192,168921,1,0,0:0:0:0:
448,192,169043,1,0,0:0:0:0:
192,192,169043,1,0,0:0:0:0:
64,192,169043,1,0,0:0:0:0:
320,192,169166,1,0,0:0:0:0:
448,192,169288,1,0,0:0:0:0:
192,192,169288,1,0,0:0:0:0:
64,192,169288,1,0,0:0:0:0:
320,192,169410,1,0,0:0:0:0:
448,192,169533,1,0,0:0:0:0:
192,192,169533,1,0,0:0:0:0:
64,192,169533,1,0,0:0:0:0:
64,192,169655,1,0,0:0:0:0:
448,192,169778,1,0,0:0:0:0:
320,192,169778,1,0,0:0:0:0:
192,192,169778,1,0,0:0:0:0:
448,192,169900,1,0,0:0:0:0:
448,192,170023,1,0,0:0:0:0:
320,192,170023,1,0,0:0:0:0:
192,192,170023,1,0,0:0:0:0:
448,192,170145,1,0,0:0:0:0:
448,192,170268,1,0,0:0:0:0:
320,192,170268,1,0,0:0:0:0:
192,192,170268,1,0,0:0:0:0:
448,192,170390,1,0,0:0:0:0:
448,192,170512,1,0,0:0:0:0:
192,192,170512,1,0,0:0:0:0:
64,192,170512,1,0,0:0:0:0:
192,192,170635,1,0,0:0:0:0:
448,192,170757,1,0,0:0:0:0:
192,192,170757,1,0,0:0:0:0:
64,192,170757,1,0,0:0:0:0:
448,192,170880,1,0,0:0:0:0:
448,192,171002,1,0,0:0:0:0:
192,192,171002,1,0,0:0:0:0:
64,192,171002,1,0,0:0:0:0:
192,192,171125,1,0,0:0:0:0:
448,192,171247,1,0,0:0:0:0:
192,192,171247,1,0,0:0:0:0:
64,192,171247,1,0,0:0:0:0:
448,192,171370,1,0,0:0:0:0:
448,192,171492,1,0,0:0:0:0:
192,192,171492,1,0,0:0:0:0:
64,192,171492,1,0,0:0:0:0:
192,192,171615,1,0,0:0:0:0:
448,192,171737,1,0,0:0:0:0:
192,192,171737,1,0,0:0:0:0:
64,192,171737,1,0,0:0:0:0:
64,192,171859,1,0,0:0:0:0:
448,192,171982,1,0,0:0:0:0:
192,192,171982,1,0,0:0:0:0:
64,192,171982,1,0,0:0:0:0:
448,192,172104,1,0,0:0:0:0:
448,192,172227,1,0,0:0:0:0:
192,192,172227,1,0,0:0:0:0:
64,192,172227,1,0,0:0:0:0:
320,192,172349,1,0,0:0:0:0:
448,192,172472,1,0,0:0:0:0:
192,192,172472,1,0,0:0:0:0:
64,192,172472,1,0,0:0:0:0:
320,192,172594,1,0,0:0:0:0:
448,192,172717,1,0,0:0:0:0:
192,192,172717,1,0,0:0:0:0:
64,192,172717,1,0,0:0:0:0:
320,192,172839,1,0,0:0:0:0:
448,192,172961,1,0,0:0:0:0:
192,192,172961,1,0,0:0:0:0:
64,192,172961,1,0,0:0:0:0:
64,192,173084,1,0,0:0:0:0:
448,192,173206,1,0,0:0:0:0:
320,192,173206,1,0,0:0:0:0:
192,192,173206,1,0,0:0:0:0:
448,192,173329,1,0,0:0:0:0:
448,192,173451,1,0,0:0:0:0:
320,192,173451,1,0,0:0:0:0:
192,192,173451,1,0,0:0:0:0:
448,192,173574,1,0,0:0:0:0:
448,192,173696,1,0,0:0:0:0:
320,192,173696,1,0,0:0:0:0:
192,192,173696,1,0,0:0:0:0:
448,192,173819,1,0,0:0:0:0:
448,192,173941,1,0,0:0:0:0:
192,192,173941,1,0,0:0:0:0:
64,192,173941,1,0,0:0:0:0:
192,192,174064,1,0,0:0:0:0:
448,192,174186,1,0,0:0:0:0:
192,192,174186,1,0,0:0:0:0:
64,192,174186,1,0,0:0:0:0:
448,192,174308,1,0,0:0:0:0:
448,192,174431,1,0,0:0:0:0:
192,192,174431,1,0,0:0:0:0:
64,192,174431,1,0,0:0:0:0:
192,192,174553,1,0,0:0:0:0:
448,192,174676,1,0,0:0:0:0:
192,192,174676,1,0,0:0:0:0:
64,192,174676,1,0,0:0:0:0:
448,192,174798,1,0,0:0:0:0:
448,192,174921,1,0,0:0:0:0:
192,192,174921,1,0,0:0:0:0:
64,192,174921,1,0,0:0:0:0:
192,192,175043,1,0,0:0:0:0:
448,192,175166,1,0,0:0:0:0:
192,192,175166,1,0,0:0:0:0:
64,192,175166,1,0,0:0:0:0:
64,192,175288,1,0,0:0:0:0:
448,192,175410,1,0,0:0:0:0:
192,192,175410,1,0,0:0:0:0:
64,192,175410,1,0,0:0:0:0:
448,192,175533,1,0,0:0:0:0:
448,192,175655,1,0,0:0:0:0:
192,192,175655,1,0,0:0:0:0:
64,192,175655,1,0,0:0:0:0:
320,192,175778,1,0,0:0:0:0:
448,192,175900,1,0,0:0:0:0:
192,192,175900,1,0,0:0:0:0:
64,192,175900,1,0,0:0:0:0:
320,192,176023,1,0,0:0:0:0:
448,192,176145,1,0,0:0:0:0:
192,192,176145,1,0,0:0:0:0:
64,192,176145,1,0,0:0:0:0:
320,192,176268,1,0,0:0:0:0:
448,192,176390,1,0,0:0:0:0:
192,192,176390,1,0,0:0:0:0:
64,192,176390,1,0,0:0:0:0:
64,192,176512,1,0,0:0:0:0:
448,192,176635,1,0,0:0:0:0:
320,192,176635,1,0,0:0:0:0:
192,192,176635,1,0,0:0:0:0:
448,192,176757,1,0,0:0:0:0:
448,192,176880,1,0,0:0:0:0:
320,192,176880,1,0,0:0:0:0:
192,192,176880,1,0,0:0:0:0:
448,192,177002,1,0,0:0:0:0:
448,192,177125,1,0,0:0:0:0:
320,192,177125,1,0,0:0:0:0:
192,192,177125,1,0,0:0:0:0:
448,192,177247,1,0,0:0:0:0:
448,192,177370,1,0,0:0:0:0:
192,192,177370,1,0,0:0:0:0:
64,192,177370,1,0,0:0:0:0:
192,192,177492,1,0,0:0:0:0:
448,192,177615,1,0,0:0:0:0:
192,192,177615,1,0,0:0:0:0:
64,192,177615,1,0,0:0:0:0:
448,192,177737,1,0,0:0:0:0:
448,192,177859,1,0,0:0:0:0:
192,192,177859,1,0,0:0:0:0:
64,192,177859,1,0,0:0:0:0:
192,192,177982,1,0,0:0:0:0:
448,192,178104,1,0,0:0:0:0:
192,192,178104,1,0,0:0:0:0:
64,192,178104,1,0,0:0:0:0:
448,192,178227,1,0,0:0:0:0:
448,192,178349,1,0,0:0:0:0:
192,192,178349,1,0,0:0:0:0:
64,192,178349,1,0,0:0:0:0:
192,192,178472,1,0,0:0:0:0:
448,192,178594,1,0,0:0:0:0:
192,192,178594,1,0,0:0:0:0:
64,192,178594,1,0,0:0:0:0:
64,192,178717,1,0,0:0:0:0:
448,192,178839,1,0,0:0:0:0:
192,192,178839,1,0,0:0:0:0:
64,192,178839,1,0,0:0:0:0:
448,192,178961,1,0,0:0:0:0:
448,192,179084,1,0,0:0:0:0:
192,192,179084,1,0,0:0:0:0:
64,192,179084,1,0,0:0:0:0:
320,192,179206,1,0,0:0:0:0:
448,192,179329,1,0,0:0:0:0:
192,192,179329,1,0,0:0:0:0:
64,192,179329,1,0,0:0:0:0:
320,192,179451,1,0,0:0:0:0:
192,192,179574,1,0,0:0:0:0:
192,192,179696,1,0,0:0:0:0:
320,192,179819,1,0,0:0:0:0:
320,192,179941,1,0,0:0:0:0:
448,192,180064,1,0,0:0:0:0:
192,192,180064,1,0,0:0:0:0:
448,192,180308,1,0,0:0:0:0:
192,192,180553,1,0,0:0:0:0:
448,192,180798,1,0,0:0:0:0:
192,192,180798,1,0,0:0:0:0:
64,192,180798,1,0,0:0:0:0:
192,192,180921,1,0,0:0:0:0:
448,192,181043,1,0,0:0:0:0:
320,192,181043,1,0,0:0:0:0:
192,192,181043,1,0,0:0:0:0:
448,192,181166,1,0,0:0:0:0:
448,192,181288,1,0,0:0:0:0:
192,192,181288,1,0,0:0:0:0:
64,192,181288,1,0,0:0:0:0:
192,192,181410,1,0,0:0:0:0:
448,192,181533,1,0,0:0:0:0:
320,192,181533,1,0,0:0:0:0:
192,192,181533,1,0,0:0:0:0:
64,192,181655,1,0,0:0:0:0:
448,192,181778,1,0,0:0:0:0:
192,192,181778,1,0,0:0:0:0:
64,192,181778,1,0,0:0:0:0:
320,192,181839,1,0,0:0:0:0:
192,192,181900,1,0,0:0:0:0:
320,192,181961,1,0,0:0:0:0:
448,192,182023,1,0,0:0:0:0:
192,192,182023,1,0,0:0:0:0:
64,192,182023,1,0,0:0:0:0:
64,192,182145,1,0,0:0:0:0:
192,192,182268,1,0,0:0:0:0:
320,192,182390,1,0,0:0:0:0:
448,192,182512,1,0,0:0:0:0:
192,192,182512,1,0,0:0:0:0:
64,192,182512,1,0,0:0:0:0:
64,192,182635,1,0,0:0:0:0:
448,192,182757,1,0,0:0:0:0:
320,192,182757,1,0,0:0:0:0:
192,192,182757,1,0,0:0:0:0:
64,192,182880,1,0,0:0:0:0:
448,192,183002,1,0,0:0:0:0:
192,192,183002,1,0,0:0:0:0:
64,192,183002,1,0,0:0:0:0:
64,192,183125,1,0,0:0:0:0:
448,192,183247,1,0,0:0:0:0:
320,192,183247,1,0,0:0:0:0:
192,192,183247,1,0,0:0:0:0:
64,192,183370,1,0,0:0:0:0:
448,192,183492,1,0,0:0:0:0:
192,192,183492,1,0,0:0:0:0:
320,192,183553,1,0,0:0:0:0:
448,192,183615,1,0,0:0:0:0:
192,192,183615,1,0,0:0:0:0:
320,192,183676,1,0,0:0:0:0:
448,192,183737,1,0,0:0:0:0:
192,192,183737,1,0,0:0:0:0:
64,192,183798,1,0,0:0:0:0:
448,192,183859,1,0,0:0:0:0:
192,192,183859,1,0,0:0:0:0:
64,192,183921,1,0,0:0:0:0:
448,192,183982,1,0,0:0:0:0:
320,192,183982,1,0,0:0:0:0:
192,192,184043,1,0,0:0:0:0:
64,192,184043,1,0,0:0:0:0:
448,192,184104,1,0,0:0:0:0:
320,192,184104,1,0,0:0:0:0:
64,192,184166,1,0,0:0:0:0:
448,192,184227,1,0,0:0:0:0:
192,192,184227,1,0,0:0:0:0:
320,192,184349,1,0,0:0:0:0:
192,192,184349,1,0,0:0:0:0:
448,192,184472,1,0,0:0:0:0:
192,192,184472,1,0,0:0:0:0:
64,192,184533,1,0,0:0:0:0:
448,192,184594,1,0,0:0:0:0:
320,192,184594,1,0,0:0:0:0:
64,192,184655,1,0,0:0:0:0:
448,192,184717,1,0,0:0:0:0:
192,192,184717,1,0,0:0:0:0:
320,192,184839,1,0,0:0:0:0:
192,192,184839,1,0,0:0:0:0:
448,192,184961,1,0,0:0:0:0:
448,192,185084,1,0,0:0:0:0:
448,192,185206,1,0,0:0:0:0:
192,192,185206,1,0,0:0:0:0:
320,192,185329,1,0,0:0:0:0:
192,192,185329,1,0,0:0:0:0:
448,192,185451,1,0,0:0:0:0:
192,192,185451,1,0,0:0:0:0:
64,192,185512,1,0,0:0:0:0:
448,192,185574,1,0,0:0:0:0:
320,192,185574,1,0,0:0:0:0:
64,192,185635,1,0,0:0:0:0:
448,192,185696,1,0,0:0:0:0:
192,192,185696,1,0,0:0:0:0:
320,192,185819,1,0,0:0:0:0:
192,192,185819,1,0,0:0:0:0:
448,192,185941,1,0,0:0:0:0:
192,192,185941,1,0,0:0:0:0:
64,192,185941,1,0,0:0:0:0:
64,192,186064,1,0,0:0:0:0:
448,192,186186,1,0,0:0:0:0:
320,192,186186,1,0,0:0:0:0:
192,192,186186,1,0,0:0:0:0:
64,192,186308,1,0,0:0:0:0:
448,192,186431,1,0,0:0:0:0:
192,192,186431,1,0,0:0:0:0:
64,192,186431,1,0,0:0:0:0:
64,192,186553,1,0,0:0:0:0:
320,192,186615,1,0,0:0:0:0:
448,192,186676,1,0,0:0:0:0:
192,192,186676,1,0,0:0:0:0:
64,192,186676,1,0,0:0:0:0:
64,192,186798,1,0,0:0:0:0:
320,192,186859,1,0,0:0:0:0:
448,192,186921,1,0,0:0:0:0:
192,192,186921,1,0,0:0:0:0:
64,192,186921,1,0,0:0:0:0:
448,192,187043,1,0,0:0:0:0:
448,192,187166,1,0,0:0:0:0:
320,192,187166,1,0,0:0:0:0:
192,192,187166,1,0,0:0:0:0:
448,192,187288,1,0,0:0:0:0:
448,192,187410,1,0,0:0:0:0:
320,192,187410,1,0,0:0:0:0:
192,192,187410,1,0,0:0:0:0:
448,192,187533,1,0,0:0:0:0:
448,192,187655,1,0,0:0:0:0:
320,192,187655,1,0,0:0:0:0:
192,192,187655,1,0,0:0:0:0:
448,192,187778,1,0,0:0:0:0:
320,192,187778,1,0,0:0:0:0:
192,192,187778,1,0,0:0:0:0:
448,192,187900,1,0,0:0:0:0:
320,192,187900,1,0,0:0:0:0:
192,192,187900,1,0,0:0:0:0:
448,192,188023,1,0,0:0:0:0:
320,192,188023,1,0,0:0:0:0:
192,192,188023,1,0,0:0:0:0:
448,192,188145,1,0,0:0:0:0:
320,192,188145,1,0,0:0:0:0:
192,192,188206,1,0,0:0:0:0:
64,192,188206,1,0,0:0:0:0:
448,192,188268,1,0,0:0:0:0:
320,192,188268,1,0,0:0:0:0:
192,192,188390,1,0,0:0:0:0:
64,192,188390,1,0,0:0:0:0:
448,192,188451,1,0,0:0:0:0:
320,192,188451,1,0,0:0:0:0:
192,192,188512,1,0,0:0:0:0:
64,192,188512,1,0,0:0:0:0:
448,192,188635,1,0,0:0:0:0:
192,192,188635,1,0,0:0:0:0:
64,192,188635,1,0,0:0:0:0:
192,192,188757,1,0,0:0:0:0:
448,192,188880,1,0,0:0:0:0:
320,192,188880,1,0,0:0:0:0:
192,192,188880,1,0,0:0:0:0:
64,192,189002,1,0,0:0:0:0:
448,192,189125,1,0,0:0:0:0:
192,192,189125,1,0,0:0:0:0:
64,192,189125,1,0,0:0:0:0:
320,192,189247,1,0,0:0:0:0:
448,192,189370,1,0,0:0:0:0:
320,192,189370,1,0,0:0:0:0:
192,192,189370,1,0,0:0:0:0:
320,192,189492,1,0,0:0:0:0:
64,192,189492,1,0,0:0:0:0:
448,192,189615,1,0,0:0:0:0:
192,192,189615,1,0,0:0:0:0:
320,192,189737,1,0,0:0:0:0:
64,192,189737,1,0,0:0:0:0:
448,192,189859,1,0,0:0:0:0:
192,192,189859,1,0,0:0:0:0:
320,192,189921,1,0,0:0:0:0:
64,192,189982,1,0,0:0:0:0:
448,192,190104,1,0,0:0:0:0:
192,192,190104,1,0,0:0:0:0:
448,192,190227,1,0,0:0:0:0:
192,192,190227,1,0,0:0:0:0:
448,192,190349,1,0,0:0:0:0:
64,192,190349,1,0,0:0:0:0:
448,192,190472,1,0,0:0:0:0:
448,192,190594,1,0,0:0:0:0:
64,192,190594,1,0,0:0:0:0:
448,192,190717,1,0,0:0:0:0:
448,192,190839,1,0,0:0:0:0:
64,192,190839,1,0,0:0:0:0:
448,192,190961,1,0,0:0:0:0:
448,192,191084,1,0,0:0:0:0:
192,192,191084,1,0,0:0:0:0:
64,192,191084,1,0,0:0:0:0:
192,192,191206,1,0,0:0:0:0:
448,192,191329,1,0,0:0:0:0:
448,192,191451,1,0,0:0:0:0:
448,192,191574,1,0,0:0:0:0:
192,192,191574,1,0,0:0:0:0:
64,192,191574,1,0,0:0:0:0:
192,192,191696,1,0,0:0:0:0:
448,192,191819,1,0,0:0:0:0:
448,192,191941,1,0,0:0:0:0:
448,192,192064,1,0,0:0:0:0:
192,192,192064,1,0,0:0:0:0:
64,192,192064,1,0,0:0:0:0:
192,192,192186,1,0,0:0:0:0:
448,192,192308,1,0,0:0:0:0:
192,192,192308,1,0,0:0:0:0:
64,192,192308,1,0,0:0:0:0:
64,192,192431,1,0,0:0:0:0:
448,192,192553,1,0,0:0:0:0:
192,192,192553,1,0,0:0:0:0:
64,192,192553,1,0,0:0:0:0:
320,192,192676,1,0,0:0:0:0:
448,192,192798,1,0,0:0:0:0:
192,192,192798,1,0,0:0:0:0:
64,192,192798,1,0,0:0:0:0:
448,192,192921,1,0,0:0:0:0:
192,192,192921,1,0,0:0:0:0:
64,192,192921,1,0,0:0:0:0:
192,192,193043,1,0,0:0:0:0:
192,192,193166,1,0,0:0:0:0:
192,192,193288,1,0,0:0:0:0:
320,192,193410,1,0,0:0:0:0:
192,192,193533,1,0,0:0:0:0:
320,192,193655,1,0,0:0:0:0:
320,192,193778,1,0,0:0:0:0:
64,192,193778,1,0,0:0:0:0:
192,192,193839,1,0,0:0:0:0:
448,192,193900,1,0,0:0:0:0:
192,192,193961,1,0,0:0:0:0:
320,192,194023,1,0,0:0:0:0:
64,192,194023,1,0,0:0:0:0:
448,192,194084,1,0,0:0:0:0:
192,192,194145,1,0,0:0:0:0:
448,192,194206,1,0,0:0:0:0:
320,192,194268,1,0,0:0:0:0:
64,192,194268,1,0,0:0:0:0:
192,192,194329,1,0,0:0:0:0:
320,192,194390,1,0,0:0:0:0:
192,192,194451,1,0,0:0:0:0:
448,192,194512,1,0,0:0:0:0:
320,192,194512,1,0,0:0:0:0:
64,192,194512,1,0,0:0:0:0:
448,192,194757,1,0,0:0:0:0:
192,192,194757,1,0,0:0:0:0:
320,192,195002,1,0,0:0:0:0:
320,192,195247,1,0,0:0:0:0:
448,192,195492,1,0,0:0:0:0:
192,192,195492,1,0,0:0:0:0:
448,192,195615,1,0,0:0:0:0:
192,192,195615,1,0,0:0:0:0:
448,192,195737,1,0,0:0:0:0:
192,192,195737,1,0,0:0:0:0:
448,192,195859,1,0,0:0:0:0:
192,192,195859,1,0,0:0:0:0:
448,192,195982,1,0,0:0:0:0:
192,192,195982,1,0,0:0:0:0:
448,192,196227,1,0,0:0:0:0:
192,192,196227,1,0,0:0:0:0:
320,192,196349,1,0,0:0:0:0:
64,192,196349,1,0,0:0:0:0:
192,192,196472,1,0,0:0:0:0:
320,192,196594,1,0,0:0:0:0:
64,192,196594,1,0,0:0:0:0:
320,192,196717,1,0,0:0:0:0:
64,192,196717,1,0,0:0:0:0:
320,192,196961,1,0,0:0:0:0:
64,192,196961,1,0,0:0:0:0:
448,192,197941,1,0,0:0:0:0:
192,192,197941,1,0,0:0:0:0:
448,192,198186,1,0,0:0:0:0:
192,192,198186,1,0,0:0:0:0:
448,192,198431,1,0,0:0:0:0:
192,192,198431,1,0,0:0:0:0:
448,192,198676,1,0,0:0:0:0:
448,192,198921,1,0,0:0:0:0:
448,192,199166,1,0,0:0:0:0:
448,192,199655,1,0,0:0:0:0:
192,192,199655,1,0,0:0:0:0:
448,192,199900,1,0,0:0:0:0:
448,192,200268,1,0,0:0:0:0:
448,192,201247,1,0,0:0:0:0:
448,192,201370,1,0,0:0:0:0:
448,192,201615,1,0,0:0:0:0:
448,192,201859,1,0,0:0:0:0:
448,192,202104,1,0,0:0:0:0:
448,192,202349,1,0,0:0:0:0:
448,192,203084,1,0,0:0:0:0:
448,192,203329,1,0,0:0:0:0:
448,192,203696,1,0,0:0:0:0:
448,192,204676,1,0,0:0:0:0:
448,192,204798,1,0,0:0:0:0:
448,192,205043,1,0,0:0:0:0:
448,192,205288,1,0,0:0:0:0:
448,192,205533,1,0,0:0:0:0:
320,192,206145,128,0,206757:0:0:0:0:
192,192,206757,128,0,207247:0:0:0:0:
320,192,207247,128,0,207492:0:0:0:0:
320,192,207737,1,0,0:0:0:0:
448,192,208227,128,0,208410:0:0:0:0:
448,192,208655,128,0,208778:0:0:0:0:
448,192,209084,128,0,209390:0:0:0:0:
448,192,209574,128,0,210186:0:0:0:0:
320,192,210186,128,0,210676:0:0:0:0:
448,192,210676,128,0,210921:0:0:0:0:
192,192,212084,1,0,0:0:0:0:
192,192,212512,128,0,212757:0:0:0:0:
192,192,213002,128,0,213370:0:0:0:0:
192,192,213553,1,0,0:0:0:0:
192,192,214043,5,0,0:0:0:0:
448,192,215084,1,0,0:0:0:0:
192,192,215084,1,0,0:0:0:0:
448,192,215329,1,0,0:0:0:0:
192,192,215329,1,0,0:0:0:0:
448,192,215574,1,0,0:0:0:0:
192,192,215574,1,0,0:0:0:0:
448,192,215819,1,0,0:0:0:0:
448,192,216064,1,0,0:0:0:0:
448,192,216431,1,0,0:0:0:0:
448,192,216553,1,0,0:0:0:0:
448,192,217043,1,0,0:0:0:0:
448,192,217166,1,0,0:0:0:0:
448,192,217410,1,0,0:0:0:0:
320,192,218512,128,0,218696:0:0:0:0:
64,192,218880,128,0,219125:0:0:0:0:
64,192,219370,128,0,219737:0:0:0:0:
64,192,219982,128,0,220472:0:0:0:0:
192,192,220472,128,0,220961:0:0:0:0:
192,192,221941,1,0,0:0:0:0:
192,192,222186,1,0,0:0:0:0:
320,192,222431,1,0,0:0:0:0:
64,192,222676,1,0,0:0:0:0:
192,192,222921,1,0,0:0:0:0:
64,192,223166,1,0,0:0:0:0:
320,192,223410,1,0,0:0:0:0:
320,192,223533,1,0,0:0:0:0:
320,192,223655,1,0,0:0:0:0:
320,192,223900,1,0,0:0:0:0:
320,192,224145,1,0,0:0:0:0:
448,192,224558,1,0,0:0:0:0:
320,192,224635,1,0,0:0:0:0:
64,192,224711,1,0,0:0:0:0:
192,192,224788,1,0,0:0:0:0:
448,192,224865,1,0,0:0:0:0:
320,192,224941,1,0,0:0:0:0:
192,192,225018,1,0,0:0:0:0:
448,192,225094,1,0,0:0:0:0:
320,192,225431,128,0,225615:0:0:0:0:
320,192,225859,128,0,225982:0:0:0:0:
320,192,226227,128,0,226594:0:0:0:0:
320,192,226778,128,0,227206:0:0:0:0:
192,192,227206,1,0,0:0:0:0:
448,192,227757,1,0,0:0:0:0:
64,192,228247,1,0,0:0:0:0:
448,192,228798,128,0,229288:0:0:0:0:
320,192,228798,128,0,229288:0:0:0:0:
192,192,228798,128,0,229288:0:0:0:0:
64,192,229288,128,0,229533:0:0:0:0:
64,192,229655,128,0,229961:0:0:0:0:
64,192,230206,128,0,230819:0:0:0:0:
192,192,230819,128,0,231002:0:0:0:0:
192,192,231247,1,0,0:0:0:0:
448,192,231308,1,0,0:0:0:0:
320,192,231354,1,0,0:0:0:0:
192,192,231416,1,0,0:0:0:0:
64,192,231461,1,0,0:0:0:0:
320,192,231523,1,0,0:0:0:0:
448,192,231584,1,0,0:0:0:0:
448,192,232349,128,0,232472:0:0:0:0:
448,192,232717,128,0,232900:0:0:0:0:
448,192,233145,128,0,233451:0:0:0:0:
448,192,233635,128,0,234186:0:0:0:0:
320,192,234186,1,0,0:0:0:0:
192,192,234262,1,0,0:0:0:0:
64,192,234308,1,0,0:0:0:0:
320,192,234339,1,0,0:0:0:0:
448,192,234385,1,0,0:0:0:0:
192,192,234416,1,0,0:0:0:0:
320,192,234461,1,0,0:0:0:0:
64,192,234492,1,0,0:0:0:0:
448,192,234523,1,0,0:0:0:0:
192,192,234553,1,0,0:0:0:0:
320,192,234599,1,0,0:0:0:0:
448,192,234737,128,0,235166:0:0:0:0:
320,192,235594,1,0,0:0:0:0:
192,192,235655,128,0,235839:0:0:0:0:
192,192,236023,128,0,236268:0:0:0:0:
320,192,236145,1,0,0:0:0:0:
192,192,236512,128,0,236880:0:0:0:0:
320,192,236635,1,0,0:0:0:0:
448,192,236880,1,0,0:0:0:0:
320,192,236972,1,0,0:0:0:0:
192,192,237094,1,0,0:0:0:0:
448,192,237217,1,0,0:0:0:0:
320,192,237339,1,0,0:0:0:0:
192,192,237461,1,0,0:0:0:0:
64,192,237584,1,0,0:0:0:0:
448,192,237706,1,0,0:0:0:0:
192,192,237768,1,0,0:0:0:0:
320,192,237890,1,0,0:0:0:0:
448,192,238074,1,0,0:0:0:0:
192,192,238135,1,0,0:0:0:0:
320,192,238227,1,0,0:0:0:0:
64,192,238380,1,0,0:0:0:0:
448,192,238472,1,0,0:0:0:0:
192,192,238533,1,0,0:0:0:0:
320,192,238594,1,0,0:0:0:0:
448,192,238686,1,0,0:0:0:0:
448,192,238808,1,0,0:0:0:0:
192,192,238870,1,0,0:0:0:0:
320,192,239053,1,0,0:0:0:0:
448,192,239206,1,0,0:0:0:0:
320,192,239359,1,0,0:0:0:0:
192,192,239482,1,0,0:0:0:0:
64,192,239635,1,0,0:0:0:0:
192,192,239788,1,0,0:0:0:0:
320,192,239910,1,0,0:0:0:0:
448,192,240033,1,0,0:0:0:0:
320,192,240155,1,0,0:0:0:0:
192,192,240278,1,0,0:0:0:0:
64,192,240370,1,0,0:0:0:0:
448,192,240461,1,0,0:0:0:0:
320,192,240553,1,0,0:0:0:0:
192,192,240645,1,0,0:0:0:0:
64,192,240717,1,0,0:0:0:0:
320,192,240798,1,0,0:0:0:0:
192,192,240880,1,0,0:0:0:0:
64,192,240961,1,0,0:0:0:0:
320,192,241043,1,0,0:0:0:0:
192,192,241104,1,0,0:0:0:0:
448,192,241181,1,0,0:0:0:0:
320,192,241257,1,0,0:0:0:0:
64,192,241319,1,0,0:0:0:0:
192,192,241380,1,0,0:0:0:0:
320,192,241451,1,0,0:0:0:0:
448,192,241512,1,0,0:0:0:0:
192,192,241574,1,0,0:0:0:0:
320,192,241635,1,0,0:0:0:0:
448,192,241701,1,0,0:0:0:0:
192,192,241778,1,0,0:0:0:0:
448,192,241839,1,0,0:0:0:0:
320,192,241916,1,0,0:0:0:0:
64,192,241977,1,0,0:0:0:0:
320,192,242038,1,0,0:0:0:0:
448,192,242099,1,0,0:0:0:0:
192,192,242160,1,0,0:0:0:0:
320,192,242222,1,0,0:0:0:0:
448,192,242283,1,0,0:0:0:0:
320,192,242344,1,0,0:0:0:0:
192,192,242405,1,0,0:0:0:0:
64,192,242467,1,0,0:0:0:0:
320,192,242528,1,0,0:0:0:0:
448,192,242589,1,0,0:0:0:0:
64,192,242650,1,0,0:0:0:0:
320,192,242711,1,0,0:0:0:0:
448,192,242773,1,0,0:0:0:0:
192,192,242834,1,0,0:0:0:0:
320,192,242895,1,0,0:0:0:0:
448,192,242956,1,0,0:0:0:0:
192,192,243018,1,0,0:0:0:0:
64,192,243079,1,0,0:0:0:0:
320,192,243140,1,0,0:0:0:0:
192,192,243217,1,0,0:0:0:0:
448,192,243278,1,0,0:0:0:0:
320,192,243354,1,0,0:0:0:0:
448,192,243431,1,0,0:0:0:0:
192,192,243492,1,0,0:0:0:0:
448,192,243553,1,0,0:0:0:0:
192,192,243615,1,0,0:0:0:0:
320,192,243691,1,0,0:0:0:0:
448,192,243768,1,0,0:0:0:0:
192,192,243844,1,0,0:0:0:0:
448,192,243921,1,0,0:0:0:0:
192,192,243997,1,0,0:0:0:0:
320,192,244074,1,0,0:0:0:0:
192,192,244150,1,0,0:0:0:0:
64,192,244227,1,0,0:0:0:0:
448,192,244303,1,0,0:0:0:0:
192,192,244395,1,0,0:0:0:0:
448,192,244487,1,0,0:0:0:0:
64,192,244579,1,0,0:0:0:0:
448,192,244671,1,0,0:0:0:0:
192,192,244778,1,0,0:0:0:0:
448,192,244839,1,0,0:0:0:0:
320,192,244946,1,0,0:0:0:0:
192,192,245053,1,0,0:0:0:0:
448,192,245145,1,0,0:0:0:0:
320,192,245252,1,0,0:0:0:0:
192,192,245314,1,0,0:0:0:0:
448,192,245405,1,0,0:0:0:0:
448,192,245528,1,0,0:0:0:0:
448,192,245650,1,0,0:0:0:0:
448,192,245773,1,0,0:0:0:0:
448,192,245926,1,0,0:0:0:0:
448,192,246079,1,0,0:0:0:0:
448,192,246247,1,0,0:0:0:0:
448,192,246416,1,0,0:0:0:0:
448,192,246584,1,0,0:0:0:0:
448,192,246768,1,0,0:0:0:0:
448,192,246967,1,0,0:0:0:0:
448,192,247150,1,0,0:0:0:0:
448,192,247365,1,0,0:0:0:0:
448,192,247594,1,0,0:0:0:0:
192,192,247824,1,0,0:0:0:0:
448,192,247885,1,0,0:0:0:0:
192,192,248115,1,0,0:0:0:0:
448,192,248176,5,0,0:0:0:0:
192,192,248359,1,0,0:0:0:0:
448,192,248467,1,0,0:0:0:0:
192,192,248635,1,0,0:0:0:0:
448,192,248757,1,0,0:0:0:0:
192,192,249064,1,0,0:0:0:0:
448,192,249370,1,0,0:0:0:0:
192,192,249370,1,0,0:0:0:0:
64,192,249370,1,0,0:0:0:0:
448,192,249615,1,0,0:0:0:0:
192,192,249615,1,0,0:0:0:0:
448,192,249859,1,0,0:0:0:0:
320,192,249859,1,0,0:0:0:0:
192,192,249859,1,0,0:0:0:0:
192,192,250104,1,0,0:0:0:0:
448,192,250349,1,0,0:0:0:0:
192,192,250349,1,0,0:0:0:0:
448,192,250472,1,0,0:0:0:0:
192,192,250472,1,0,0:0:0:0:
448,192,250594,1,0,0:0:0:0:
192,192,250594,1,0,0:0:0:0:
448,192,250717,1,0,0:0:0:0:
192,192,250717,1,0,0:0:0:0:
448,192,250839,1,0,0:0:0:0:
192,192,250839,1,0,0:0:0:0:
448,192,251084,1,0,0:0:0:0:
192,192,251084,1,0,0:0:0:0:
320,192,251206,1,0,0:0:0:0:
64,192,251206,1,0,0:0:0:0:
192,192,251329,1,0,0:0:0:0:
320,192,251451,1,0,0:0:0:0:
64,192,251451,1,0,0:0:0:0:
320,192,251574,1,0,0:0:0:0:
64,192,251574,1,0,0:0:0:0:
320,192,251819,1,0,0:0:0:0:
64,192,251819,1,0,0:0:0:0:
448,192,252798,1,0,0:0:0:0:
192,192,252798,1,0,0:0:0:0:
320,192,252921,1,0,0:0:0:0:
64,192,252921,1,0,0:0:0:0:
448,192,253043,1,0,0:0:0:0:
192,192,253043,1,0,0:0:0:0:
320,192,253166,1,0,0:0:0:0:
64,192,253166,1,0,0:0:0:0:
320,192,253288,1,0,0:0:0:0:
64,192,253288,1,0,0:0:0:0:
320,192,253533,1,0,0:0:0:0:
64,192,253533,1,0,0:0:0:0:
448,192,254512,1,0,0:0:0:0:
192,192,254512,1,0,0:0:0:0:
320,192,254635,1,0,0:0:0:0:
64,192,254635,1,0,0:0:0:0:
448,192,254757,1,0,0:0:0:0:
192,192,254757,1,0,0:0:0:0:
320,192,254880,1,0,0:0:0:0:
64,192,254880,1,0,0:0:0:0:
320,192,255002,1,0,0:0:0:0:
64,192,255002,1,0,0:0:0:0:
320,192,255247,1,0,0:0:0:0:
64,192,255247,1,0,0:0:0:0:
192,192,255492,1,0,0:0:0:0:
448,192,255553,1,0,0:0:0:0:
64,192,255615,1,0,0:0:0:0:
448,192,255676,1,0,0:0:0:0:
192,192,255737,1,0,0:0:0:0:
64,192,255798,1,0,0:0:0:0:
320,192,255859,1,0,0:0:0:0:
64,192,255921,1,0,0:0:0:0:
448,192,255982,1,0,0:0:0:0:
192,192,255982,1,0,0:0:0:0:
320,192,256043,1,0,0:0:0:0:
448,192,256104,1,0,0:0:0:0:
320,192,256166,1,0,0:0:0:0:
448,192,256227,1,0,0:0:0:0:
192,192,256227,1,0,0:0:0:0:
64,192,256227,1,0,0:0:0:0:
448,192,256472,1,0,0:0:0:0:
192,192,256472,1,0,0:0:0:0:
448,192,256717,1,0,0:0:0:0:
320,192,256717,1,0,0:0:0:0:
192,192,256717,1,0,0:0:0:0:
192,192,256961,1,0,0:0:0:0:
448,192,257206,1,0,0:0:0:0:
192,192,257206,1,0,0:0:0:0:
448,192,257329,1,0,0:0:0:0:
192,192,257329,1,0,0:0:0:0:
448,192,257451,1,0,0:0:0:0:
192,192,257451,1,0,0:0:0:0:
448,192,257574,1,0,0:0:0:0:
192,192,257574,1,0,0:0:0:0:
448,192,257696,1,0,0:0:0:0:
192,192,257696,1,0,0:0:0:0:
448,192,257941,1,0,0:0:0:0:
192,192,257941,1,0,0:0:0:0:
320,192,258064,1,0,0:0:0:0:
64,192,258064,1,0,0:0:0:0:
192,192,258186,1,0,0:0:0:0:
320,192,258308,1,0,0:0:0:0:
64,192,258308,1,0,0:0:0:0:
320,192,258431,1,0,0:0:0:0:
64,192,258431,1,0,0:0:0:0:
320,192,258676,1,0,0:0:0:0:
64,192,258676,1,0,0:0:0:0:
448,192,259655,1,0,0:0:0:0:
64,192,259655,1,0,0:0:0:0:
320,192,259778,1,0,0:0:0:0:
192,192,259778,1,0,0:0:0:0:
448,192,259900,1,0,0:0:0:0:
64,192,259900,1,0,0:0:0:0:
320,192,260023,1,0,0:0:0:0:
192,192,260023,1,0,0:0:0:0:
448,192,260145,1,0,0:0:0:0:
64,192,260145,1,0,0:0:0:0:
448,192,260390,1,0,0:0:0:0:
64,192,260390,1,0,0:0:0:0:
448,192,261370,1,0,0:0:0:0:
192,192,261370,1,0,0:0:0:0:
320,192,261492,1,0,0:0:0:0:
64,192,261492,1,0,0:0:0:0:
448,192,261615,1,0,0:0:0:0:
192,192,261615,1,0,0:0:0:0:
320,192,261737,1,0,0:0:0:0:
64,192,261737,1,0,0:0:0:0:
320,192,261859,1,0,0:0:0:0:
64,192,261859,1,0,0:0:0:0:
320,192,262104,1,0,0:0:0:0:
64,192,262104,1,0,0:0:0:0:
192,192,262349,1,0,0:0:0:0:
448,192,262410,1,0,0:0:0:0:
64,192,262472,1,0,0:0:0:0:
448,192,262533,1,0,0:0:0:0:
192,192,262594,1,0,0:0:0:0:
64,192,262655,1,0,0:0:0:0:
320,192,262717,1,0,0:0:0:0:
64,192,262778,1,0,0:0:0:0:
448,192,262839,1,0,0:0:0:0:
192,192,262839,1,0,0:0:0:0:
320,192,262900,1,0,0:0:0:0:
448,192,262961,1,0,0:0:0:0:
320,192,263023,1,0,0:0:0:0:
448,192,263084,1,0,0:0:0:0:
192,192,263084,1,0,0:0:0:0:
64,192,263084,1,0,0:0:0:0:
448,192,263329,1,0,0:0:0:0:
192,192,263329,1,0,0:0:0:0:
448,192,263574,1,0,0:0:0:0:
320,192,263574,1,0,0:0:0:0:
192,192,263574,1,0,0:0:0:0:
192,192,263819,1,0,0:0:0:0:
448,192,264064,1,0,0:0:0:0:
192,192,264064,1,0,0:0:0:0:
448,192,264186,1,0,0:0:0:0:
192,192,264186,1,0,0:0:0:0:
448,192,264308,1,0,0:0:0:0:
192,192,264308,1,0,0:0:0:0:
64,192,264431,1,0,0:0:0:0:
192,192,264431,1,0,0:0:0:0:
448,192,264431,1,0,0:0:0:0:
192,192,264675,1,0,0:0:0:0:
448,192,264675,1,0,0:0:0:0:
192,192,264920,1,0,0:0:0:0:
320,192,264920,1,0,0:0:0:0:
448,192,264920,1,0,0:0:0:0:
192,192,265165,1,0,0:0:0:0:
192,192,265410,1,0,0:0:0:0:
448,192,265410,1,0,0:0:0:0:
192,192,265533,1,0,0:0:0:0:
448,192,265533,1,0,0:0:0:0:
64,192,265655,1,0,0:0:0:0:
192,192,265655,1,0,0:0:0:0:
448,192,265655,1,0,0:0:0:0:
192,192,265900,1,0,0:0:0:0:
448,192,265900,1,0,0:0:0:0:
192,192,266145,1,0,0:0:0:0:
320,192,266145,1,0,0:0:0:0:
448,192,266145,1,0,0:0:0:0:
192,192,266390,1,0,0:0:0:0:
192,192,266635,1,0,0:0:0:0:
448,192,266635,1,0,0:0:0:0:
192,192,266757,1,0,0:0:0:0:
448,192,266757,1,0,0:0:0:0:
448,192,266879,1,0,0:0:0:0:
192,192,266879,1,0,0:0:0:0:
64,192,266879,1,0,0:0:0:0:
448,192,267123,1,0,0:0:0:0:
192,192,267123,1,0,0:0:0:0:
448,192,267368,1,0,0:0:0:0:
320,192,267368,1,0,0:0:0:0:
192,192,267368,1,0,0:0:0:0:
192,192,267613,1,0,0:0:0:0:
448,192,267858,1,0,0:0:0:0:
192,192,267858,1,0,0:0:0:0:
64,192,267858,1,0,0:0:0:0:
448,192,268103,1,0,0:0:0:0:
192,192,268103,1,0,0:0:0:0:
448,192,268348,1,0,0:0:0:0:
320,192,268348,1,0,0:0:0:0:
192,192,268348,1,0,0:0:0:0:
192,192,268593,1,0,0:0:0:0:
448,192,268838,1,0,0:0:0:0:
192,192,268838,1,0,0:0:0:0:
64,192,268838,1,0,0:0:0:0:
448,192,269083,1,0,0:0:0:0:
192,192,269083,1,0,0:0:0:0:
448,192,269327,1,0,0:0:0:0:
192,192,269327,1,0,0:0:0:0:
64,192,269327,1,0,0:0:0:0:
448,192,269572,1,0,0:0:0:0:
192,192,269572,1,0,0:0:0:0:
448,192,269817,1,0,0:0:0:0:
192,192,269817,1,0,0:0:0:0:
64,192,269817,1,0,0:0:0:0:
448,192,270062,1,0,0:0:0:0:
192,192,270062,1,0,0:0:0:0:
448,192,270307,1,0,0:0:0:0:
192,192,270307,1,0,0:0:0:0:
64,192,270307,1,0,0:0:0:0:
448,192,270552,1,0,0:0:0:0:
192,192,270552,1,0,0:0:0:0:
448,192,270797,1,0,0:0:0:0:
192,192,270797,1,0,0:0:0:0:
64,192,270797,1,0,0:0:0:0:
448,192,271042,1,0,0:0:0:0:
192,192,271042,1,0,0:0:0:0:
64,192,271042,1,0,0:0:0:0:
448,192,271287,1,0,0:0:0:0:
192,192,271287,1,0,0:0:0:0:
64,192,271287,1,0,0:0:0:0:
448,192,271532,1,0,0:0:0:0:
192,192,271532,1,0,0:0:0:0:
64,192,271532,1,0,0:0:0:0:
448,192,271776,1,0,0:0:0:0:
192,192,271776,1,0,0:0:0:0:
64,192,271776,1,0,0:0:0:0:
448,192,271899,1,0,0:0:0:0:
192,192,271899,1,0,0:0:0:0:
64,192,271899,1,0,0:0:0:0:
448,192,272021,1,0,0:0:0:0:
192,192,272021,1,0,0:0:0:0:
64,192,272021,1,0,0:0:0:0:
448,192,272144,1,0,0:0:0:0:
192,192,272144,1,0,0:0:0:0:
64,192,272144,1,0,0:0:0:0:
448,192,272266,1,0,0:0:0:0:
192,192,272266,1,0,0:0:0:0:
64,192,272266,1,0,0:0:0:0:
448,192,272389,1,0,0:0:0:0:
192,192,272389,1,0,0:0:0:0:
64,192,272389,1,0,0:0:0:0:
448,192,272511,1,0,0:0:0:0:
192,192,272511,1,0,0:0:0:0:
64,192,272511,1,0,0:0:0:0:
448,192,272634,1,0,0:0:0:0:
192,192,272634,1,0,0:0:0:0:
64,192,272634,1,0,0:0:0:0:
64,192,272757,1,0,0:0:0:0:
192,192,272757,1,0,0:0:0:0:
320,192,272818,1,0,0:0:0:0:
448,192,272818,1,0,0:0:0:0:
64,192,272879,1,0,0:0:0:0:
192,192,272879,1,0,0:0:0:0:
320,192,272940,1,0,0:0:0:0:
448,192,272940,1,0,0:0:0:0:
64,192,273001,1,0,0:0:0:0:
192,192,273001,1,0,0:0:0:0:
320,192,273063,1,0,0:0:0:0:
448,192,273063,1,0,0:0:0:0:
64,192,273124,1,0,0:0:0:0:
192,192,273124,1,0,0:0:0:0:
320,192,273185,1,0,0:0:0:0:
448,192,273185,1,0,0:0:0:0:
64,192,273246,1,0,0:0:0:0:
192,192,273246,1,0,0:0:0:0:
320,192,273308,1,0,0:0:0:0:
448,192,273308,1,0,0:0:0:0:
64,192,273369,1,0,0:0:0:0:
192,192,273369,1,0,0:0:0:0:
320,192,273430,1,0,0:0:0:0:
448,192,273430,1,0,0:0:0:0:
64,192,273491,1,0,0:0:0:0:
192,192,273491,1,0,0:0:0:0:
320,192,273552,1,0,0:0:0:0:
448,192,273552,1,0,0:0:0:0:
64,192,273614,1,0,0:0:0:0:
192,192,273614,1,0,0:0:0:0:
320,192,273675,1,0,0:0:0:0:
448,192,273675,1,0,0:0:0:0:
64,192,273736,1,0,0:0:0:0:
192,192,273736,1,0,0:0:0:0:
320,192,273797,1,0,0:0:0:0:
448,192,273797,1,0,0:0:0:0:
64,192,273859,1,0,0:0:0:0:
192,192,273859,1,0,0:0:0:0:
320,192,273920,1,0,0:0:0:0:
448,192,273920,1,0,0:0:0:0:
64,192,273981,1,0,0:0:0:0:
192,192,273981,1,0,0:0:0:0:
320,192,274042,1,0,0:0:0:0:
448,192,274042,1,0,0:0:0:0:
64,192,274103,1,0,0:0:0:0:
192,192,274103,1,0,0:0:0:0:
320,192,274165,1,0,0:0:0:0:
448,192,274165,1,0,0:0:0:0:
64,192,274226,1,0,0:0:0:0:
192,192,274226,1,0,0:0:0:0:
320,192,274287,1,0,0:0:0:0:
448,192,274287,1,0,0:0:0:0:
64,192,274348,1,0,0:0:0:0:
192,192,274348,1,0,0:0:0:0:
320,192,274410,1,0,0:0:0:0:
448,192,274410,1,0,0:0:0:0:
64,192,274471,1,0,0:0:0:0:
192,192,274471,1,0,0:0:0:0:
320,192,274532,1,0,0:0:0:0:
448,192,274532,1,0,0:0:0:0:
64,192,274593,1,0,0:0:0:0:
192,192,274593,1,0,0:0:0:0:
320,192,274654,1,0,0:0:0:0:
448,192,274654,1,0,0:0:0:0:
64,192,274716,1,0,0:0:0:0:
192,192,274716,1,0,0:0:0:0:
320,192,274777,1,0,0:0:0:0:
448,192,274777,1,0,0:0:0:0:
64,192,274838,1,0,0:0:0:0:
192,192,274838,1,0,0:0:0:0:
320,192,274899,1,0,0:0:0:0:
448,192,274899,1,0,0:0:0:0:
64,192,274961,1,0,0:0:0:0:
192,192,274961,1,0,0:0:0:0:
320,192,275022,1,0,0:0:0:0:
448,192,275022,1,0,0:0:0:0:
64,192,275083,1,0,0:0:0:0:
192,192,275083,1,0,0:0:0:0:
320,192,275144,1,0,0:0:0:0:
448,192,275144,1,0,0:0:0:0:
64,192,275205,1,0,0:0:0:0:
192,192,275205,1,0,0:0:0:0:
64,192,275695,1,0,0:0:0:0:
448,192,276185,1,0,0:0:0:0:
64,192,276675,1,0,0:0:0:0:
448,192,277165,1,0,0:0:0:0:
448,192,277655,1,0,0:0:0:0:
192,192,277655,1,0,0:0:0:0:
64,192,277655,1,0,0:0:0:0:
320,192,277777,1,0,0:0:0:0:
448,192,277899,1,0,0:0:0:0:
320,192,277899,1,0,0:0:0:0:
192,192,277899,1,0,0:0:0:0:
320,192,278022,1,0,0:0:0:0:
448,192,278144,1,0,0:0:0:0:
192,192,278144,1,0,0:0:0:0:
64,192,278144,1,0,0:0:0:0:
448,192,278267,1,0,0:0:0:0:
192,192,278267,1,0,0:0:0:0:
64,192,278267,1,0,0:0:0:0:
448,192,278389,1,0,0:0:0:0:
320,192,278389,1,0,0:0:0:0:
192,192,278389,1,0,0:0:0:0:
448,192,278512,1,0,0:0:0:0:
192,192,278512,1,0,0:0:0:0:
64,192,278512,1,0,0:0:0:0:
448,192,278634,1,0,0:0:0:0:
320,192,278634,1,0,0:0:0:0:
192,192,278634,1,0,0:0:0:0:
192,192,278757,1,0,0:0:0:0:
448,192,278879,1,0,0:0:0:0:
320,192,278879,1,0,0:0:0:0:
192,192,278879,1,0,0:0:0:0:
320,192,279001,1,0,0:0:0:0:
448,192,279124,1,0,0:0:0:0:
192,192,279124,1,0,0:0:0:0:
64,192,279124,1,0,0:0:0:0:
448,192,279246,1,0,0:0:0:0:
192,192,279246,1,0,0:0:0:0:
64,192,279246,1,0,0:0:0:0:
448,192,279369,1,0,0:0:0:0:
320,192,279369,1,0,0:0:0:0:
192,192,279369,1,0,0:0:0:0:
64,192,279491,1,0,0:0:0:0:
448,192,279614,1,0,0:0:0:0:
192,192,279614,1,0,0:0:0:0:
64,192,279614,1,0,0:0:0:0:
320,192,279736,1,0,0:0:0:0:
448,192,279859,1,0,0:0:0:0:
448,192,279981,1,0,0:0:0:0:
192,192,279981,1,0,0:0:0:0:
64,192,279981,1,0,0:0:0:0:
448,192,280103,1,0,0:0:0:0:
192,192,280103,1,0,0:0:0:0:
64,192,280103,1,0,0:0:0:0:
320,192,280226,1,0,0:0:0:0:
448,192,280348,1,0,0:0:0:0:
320,192,280348,1,0,0:0:0:0:
320,192,280471,1,0,0:0:0:0:
192,192,280532,1,0,0:0:0:0:
320,192,280593,1,0,0:0:0:0:
64,192,280654,1,0,0:0:0:0:
320,192,280716,1,0,0:0:0:0:
192,192,280716,1,0,0:0:0:0:
192,192,280838,1,0,0:0:0:0:
320,192,280899,1,0,0:0:0:0:
192,192,280961,1,0,0:0:0:0:
64,192,280961,1,0,0:0:0:0:
448,192,281083,1,0,0:0:0:0:
192,192,281083,1,0,0:0:0:0:
64,192,281083,1,0,0:0:0:0:
320,192,281206,1,0,0:0:0:0:
448,192,281328,1,0,0:0:0:0:
320,192,281328,1,0,0:0:0:0:
192,192,281328,1,0,0:0:0:0:
320,192,281450,1,0,0:0:0:0:
192,192,281573,1,0,0:0:0:0:
448,192,281695,1,0,0:0:0:0:
192,192,281695,1,0,0:0:0:0:
64,192,281695,1,0,0:0:0:0:
448,192,281818,1,0,0:0:0:0:
192,192,281818,1,0,0:0:0:0:
64,192,281818,1,0,0:0:0:0:
320,192,281940,1,0,0:0:0:0:
448,192,282063,1,0,0:0:0:0:
320,192,282063,1,0,0:0:0:0:
448,192,282185,1,0,0:0:0:0:
320,192,282185,1,0,0:0:0:0:
448,192,282308,1,0,0:0:0:0:
320,192,282308,1,0,0:0:0:0:
192,192,282430,1,0,0:0:0:0:
320,192,282491,1,0,0:0:0:0:
192,192,282552,1,0,0:0:0:0:
448,192,282614,1,0,0:0:0:0:
320,192,282675,1,0,0:0:0:0:
192,192,282675,1,0,0:0:0:0:
448,192,282797,1,0,0:0:0:0:
192,192,282797,1,0,0:0:0:0:
64,192,282797,1,0,0:0:0:0:
320,192,282920,1,0,0:0:0:0:
448,192,283042,1,0,0:0:0:0:
320,192,283042,1,0,0:0:0:0:
192,192,283042,1,0,0:0:0:0:
320,192,283165,1,0,0:0:0:0:
448,192,283287,1,0,0:0:0:0:
448,192,283410,1,0,0:0:0:0:
192,192,283410,1,0,0:0:0:0:
64,192,283410,1,0,0:0:0:0:
448,192,283532,1,0,0:0:0:0:
192,192,283532,1,0,0:0:0:0:
64,192,283532,1,0,0:0:0:0:
320,192,283654,1,0,0:0:0:0:
448,192,283777,1,0,0:0:0:0:
320,192,283777,1,0,0:0:0:0:
192,192,283899,1,0,0:0:0:0:
64,192,283899,1,0,0:0:0:0:
320,192,284022,1,0,0:0:0:0:
64,192,284083,1,0,0:0:0:0:
320,192,284144,1,0,0:0:0:0:
192,192,284144,1,0,0:0:0:0:
320,192,284267,1,0,0:0:0:0:
192,192,284267,1,0,0:0:0:0:
448,192,284389,1,0,0:0:0:0:
320,192,284389,1,0,0:0:0:0:
448,192,284512,1,0,0:0:0:0:
192,192,284512,1,0,0:0:0:0:
64,192,284512,1,0,0:0:0:0:
320,192,284634,1,0,0:0:0:0:
448,192,284757,1,0,0:0:0:0:
320,192,284757,1,0,0:0:0:0:
192,192,284757,1,0,0:0:0:0:
320,192,284879,1,0,0:0:0:0:
448,192,285001,1,0,0:0:0:0:
192,192,285001,1,0,0:0:0:0:
64,192,285001,1,0,0:0:0:0:
448,192,285124,1,0,0:0:0:0:
320,192,285124,1,0,0:0:0:0:
192,192,285124,1,0,0:0:0:0:
448,192,285246,1,0,0:0:0:0:
192,192,285246,1,0,0:0:0:0:
64,192,285246,1,0,0:0:0:0:
448,192,285369,1,0,0:0:0:0:
320,192,285369,1,0,0:0:0:0:
192,192,285369,1,0,0:0:0:0:
448,192,285491,1,0,0:0:0:0:
192,192,285491,1,0,0:0:0:0:
64,192,285491,1,0,0:0:0:0:
64,192,285614,1,0,0:0:0:0:
448,192,285736,1,0,0:0:0:0:
320,192,285736,1,0,0:0:0:0:
192,192,285736,1,0,0:0:0:0:
64,192,285859,1,0,0:0:0:0:
448,192,285981,1,0,0:0:0:0:
320,192,285981,1,0,0:0:0:0:
192,192,285981,1,0,0:0:0:0:
448,192,286103,1,0,0:0:0:0:
320,192,286103,1,0,0:0:0:0:
192,192,286103,1,0,0:0:0:0:
448,192,286226,1,0,0:0:0:0:
192,192,286226,1,0,0:0:0:0:
64,192,286226,1,0,0:0:0:0:
448,192,286348,1,0,0:0:0:0:
192,192,286348,1,0,0:0:0:0:
64,192,286348,1,0,0:0:0:0:
448,192,286471,1,0,0:0:0:0:
320,192,286471,1,0,0:0:0:0:
192,192,286471,1,0,0:0:0:0:
448,192,286593,1,0,0:0:0:0:
320,192,286593,1,0,0:0:0:0:
192,192,286593,1,0,0:0:0:0:
448,192,286716,1,0,0:0:0:0:
192,192,286716,1,0,0:0:0:0:
64,192,286716,1,0,0:0:0:0:
64,192,286838,1,0,0:0:0:0:
320,192,286899,1,0,0:0:0:0:
448,192,286961,1,0,0:0:0:0:
192,192,286961,1,0,0:0:0:0:
64,192,286961,1,0,0:0:0:0:
320,192,287083,1,0,0:0:0:0:
448,192,287206,1,0,0:0:0:0:
320,192,287206,1,0,0:0:0:0:
448,192,287328,1,0,0:0:0:0:
192,192,287328,1,0,0:0:0:0:
64,192,287328,1,0,0:0:0:0:
320,192,287389,1,0,0:0:0:0:
192,192,287450,1,0,0:0:0:0:
448,192,287512,1,0,0:0:0:0:
320,192,287573,1,0,0:0:0:0:
192,192,287573,1,0,0:0:0:0:
448,192,287695,1,0,0:0:0:0:
192,192,287695,1,0,0:0:0:0:
64,192,287695,1,0,0:0:0:0:
320,192,287757,1,0,0:0:0:0:
192,192,287818,1,0,0:0:0:0:
64,192,287818,1,0,0:0:0:0:
448,192,287940,1,0,0:0:0:0:
192,192,287940,1,0,0:0:0:0:
64,192,287940,1,0,0:0:0:0:
320,192,288063,1,0,0:0:0:0:
448,192,288185,1,0,0:0:0:0:
320,192,288185,1,0,0:0:0:0:
192,192,288185,1,0,0:0:0:0:
320,192,288308,1,0,0:0:0:0:
192,192,288430,1,0,0:0:0:0:
448,192,288552,1,0,0:0:0:0:
192,192,288552,1,0,0:0:0:0:
64,192,288552,1,0,0:0:0:0:
448,192,288675,1,0,0:0:0:0:
192,192,288675,1,0,0:0:0:0:
64,192,288675,1,0,0:0:0:0:
320,192,288797,1,0,0:0:0:0:
448,192,288920,1,0,0:0:0:0:
320,192,288920,1,0,0:0:0:0:
320,192,289042,1,0,0:0:0:0:
192,192,289103,1,0,0:0:0:0:
448,192,289165,1,0,0:0:0:0:
64,192,289226,1,0,0:0:0:0:
320,192,289287,1,0,0:0:0:0:
192,192,289287,1,0,0:0:0:0:
192,192,289410,1,0,0:0:0:0:
320,192,289471,1,0,0:0:0:0:
192,192,289532,1,0,0:0:0:0:
64,192,289532,1,0,0:0:0:0:
448,192,289654,1,0,0:0:0:0:
192,192,289654,1,0,0:0:0:0:
64,192,289654,1,0,0:0:0:0:
320,192,289777,1,0,0:0:0:0:
448,192,289899,1,0,0:0:0:0:
320,192,289899,1,0,0:0:0:0:
192,192,289899,1,0,0:0:0:0:
320,192,290022,1,0,0:0:0:0:
192,192,290144,1,0,0:0:0:0:
448,192,290267,1,0,0:0:0:0:
192,192,290267,1,0,0:0:0:0:
64,192,290267,1,0,0:0:0:0:
448,192,290389,1,0,0:0:0:0:
192,192,290389,1,0,0:0:0:0:
64,192,290389,1,0,0:0:0:0:
320,192,290450,1,0,0:0:0:0:
192,192,290512,1,0,0:0:0:0:
64,192,290512,1,0,0:0:0:0:
320,192,290695,1,0,0:0:0:0:
448,192,290787,1,0,0:0:0:0:
192,192,290940,1,0,0:0:0:0:
64,192,291124,1,0,0:0:0:0:
192,192,291154,1,0,0:0:0:0:
448,192,291185,1,0,0:0:0:0:
320,192,291216,1,0,0:0:0:0:
64,192,291246,1,0,0:0:0:0:
192,192,291277,1,0,0:0:0:0:
320,192,291308,1,0,0:0:0:0:
64,192,291338,1,0,0:0:0:0:
448,192,291369,1,0,0:0:0:0:
192,192,291369,1,0,0:0:0:0:
192,192,291491,1,0,0:0:0:0:
448,192,291614,1,0,0:0:0:0:
320,192,291614,1,0,0:0:0:0:
192,192,291614,1,0,0:0:0:0:
448,192,291736,1,0,0:0:0:0:
448,192,291859,1,0,0:0:0:0:
192,192,291859,1,0,0:0:0:0:
64,192,291859,1,0,0:0:0:0:
448,192,291981,1,0,0:0:0:0:
320,192,291981,1,0,0:0:0:0:
192,192,291981,1,0,0:0:0:0:
448,192,292103,1,0,0:0:0:0:
192,192,292103,1,0,0:0:0:0:
64,192,292103,1,0,0:0:0:0:
448,192,292226,1,0,0:0:0:0:
320,192,292226,1,0,0:0:0:0:
192,192,292226,1,0,0:0:0:0:
448,192,292348,1,0,0:0:0:0:
192,192,292348,1,0,0:0:0:0:
64,192,292348,1,0,0:0:0:0:
192,192,292471,1,0,0:0:0:0:
448,192,292593,1,0,0:0:0:0:
320,192,292593,1,0,0:0:0:0:
192,192,292593,1,0,0:0:0:0:
320,192,292716,1,0,0:0:0:0:
448,192,292838,1,0,0:0:0:0:
320,192,292838,1,0,0:0:0:0:
64,192,292838,1,0,0:0:0:0:
320,192,292961,1,0,0:0:0:0:
448,192,292961,1,0,0:0:0:0:
64,192,292961,1,0,0:0:0:0:
448,192,293083,1,0,0:0:0:0:
192,192,293083,1,0,0:0:0:0:
64,192,293083,1,0,0:0:0:0:
192,192,293206,1,0,0:0:0:0:
448,192,293328,1,0,0:0:0:0:
320,192,293328,1,0,0:0:0:0:
192,192,293328,1,0,0:0:0:0:
448,192,293450,1,0,0:0:0:0:
448,192,293573,1,0,0:0:0:0:
320,192,293573,1,0,0:0:0:0:
192,192,293573,1,0,0:0:0:0:
448,192,293695,1,0,0:0:0:0:
320,192,293695,1,0,0:0:0:0:
192,192,293695,1,0,0:0:0:0:
448,192,293818,1,0,0:0:0:0:
320,192,293818,1,0,0:0:0:0:
192,192,293818,1,0,0:0:0:0:
448,192,293940,1,0,0:0:0:0:
320,192,293940,1,0,0:0:0:0:
64,192,293940,1,0,0:0:0:0:
448,192,294063,1,0,0:0:0:0:
192,192,294063,1,0,0:0:0:0:
64,192,294063,1,0,0:0:0:0:
320,192,294185,1,0,0:0:0:0:
192,192,294185,1,0,0:0:0:0:
64,192,294185,1,0,0:0:0:0:
448,192,294308,1,0,0:0:0:0:
320,192,294308,1,0,0:0:0:0:
192,192,294308,1,0,0:0:0:0:
448,192,294430,1,0,0:0:0:0:
320,192,294430,1,0,0:0:0:0:
64,192,294430,1,0,0:0:0:0:
448,192,294552,1,0,0:0:0:0:
320,192,294552,1,0,0:0:0:0:
192,192,294552,1,0,0:0:0:0:
448,192,294675,1,0,0:0:0:0:
320,192,294675,1,0,0:0:0:0:
192,192,294675,1,0,0:0:0:0:
448,192,294797,1,0,0:0:0:0:
192,192,294797,1,0,0:0:0:0:
64,192,294797,1,0,0:0:0:0:
448,192,294920,1,0,0:0:0:0:
320,192,294920,1,0,0:0:0:0:
64,192,294920,1,0,0:0:0:0:
448,192,295042,1,0,0:0:0:0:
192,192,295042,1,0,0:0:0:0:
64,192,295042,1,0,0:0:0:0:
448,192,295165,1,0,0:0:0:0:
320,192,295165,1,0,0:0:0:0:
192,192,295165,1,0,0:0:0:0:
448,192,295287,1,0,0:0:0:0:
192,192,295287,1,0,0:0:0:0:
320,192,295410,1,0,0:0:0:0:
192,192,295532,1,0,0:0:0:0:
320,192,295654,1,0,0:0:0:0:
448,192,295777,1,0,0:0:0:0:
320,192,295777,1,0,0:0:0:0:
448,192,295899,1,0,0:0:0:0:
320,192,295899,1,0,0:0:0:0:
448,192,296022,1,0,0:0:0:0:
320,192,296022,1,0,0:0:0:0:
320,192,296144,1,0,0:0:0:0:
192,192,296144,1,0,0:0:0:0:
192,192,296267,1,0,0:0:0:0:
192,192,296389,1,0,0:0:0:0:
448,192,296512,1,0,0:0:0:0:
192,192,296512,1,0,0:0:0:0:
64,192,296512,1,0,0:0:0:0:
448,192,296634,1,0,0:0:0:0:
320,192,296634,1,0,0:0:0:0:
64,192,296634,1,0,0:0:0:0:
448,192,296757,1,0,0:0:0:0:
192,192,296757,1,0,0:0:0:0:
64,192,296757,1,0,0:0:0:0:
320,192,296879,1,0,0:0:0:0:
192,192,296879,1,0,0:0:0:0:
192,192,297001,1,0,0:0:0:0:
192,192,297124,1,0,0:0:0:0:
448,192,297246,1,0,0:0:0:0:
192,192,297369,1,0,0:0:0:0:
320,192,297491,1,0,0:0:0:0:
192,192,297614,1,0,0:0:0:0:
320,192,297736,1,0,0:0:0:0:
320,192,297859,1,0,0:0:0:0:
192,192,297981,1,0,0:0:0:0:
448,192,298103,1,0,0:0:0:0:
448,192,298226,1,0,0:0:0:0:
192,192,298226,1,0,0:0:0:0:
64,192,298226,1,0,0:0:0:0:
192,192,298348,1,0,0:0:0:0:
448,192,298471,1,0,0:0:0:0:
320,192,298471,1,0,0:0:0:0:
192,192,298471,1,0,0:0:0:0:
448,192,298593,1,0,0:0:0:0:
448,192,298716,1,0,0:0:0:0:
192,192,298716,1,0,0:0:0:0:
64,192,298716,1,0,0:0:0:0:
320,192,298838,1,0,0:0:0:0:
448,192,298961,1,0,0:0:0:0:
320,192,298961,1,0,0:0:0:0:
192,192,298961,1,0,0:0:0:0:
64,192,299083,1,0,0:0:0:0:
448,192,299206,1,0,0:0:0:0:
320,192,299206,1,0,0:0:0:0:
192,192,299206,1,0,0:0:0:0:
192,192,299328,1,0,0:0:0:0:
448,192,299450,1,0,0:0:0:0:
320,192,299450,1,0,0:0:0:0:
192,192,299450,1,0,0:0:0:0:
320,192,299573,1,0,0:0:0:0:
448,192,299695,1,0,0:0:0:0:
192,192,299695,1,0,0:0:0:0:
64,192,299695,1,0,0:0:0:0:
448,192,299818,1,0,0:0:0:0:
320,192,299818,1,0,0:0:0:0:
192,192,299818,1,0,0:0:0:0:
448,192,299940,1,0,0:0:0:0:
192,192,299940,1,0,0:0:0:0:
64,192,299940,1,0,0:0:0:0:
192,192,300063,1,0,0:0:0:0:
448,192,300185,1,0,0:0:0:0:
320,192,300185,1,0,0:0:0:0:
192,192,300185,1,0,0:0:0:0:
448,192,300308,1,0,0:0:0:0:
448,192,300430,1,0,0:0:0:0:
320,192,300430,1,0,0:0:0:0:
192,192,300430,1,0,0:0:0:0:
448,192,300552,1,0,0:0:0:0:
448,192,300675,1,0,0:0:0:0:
192,192,300675,1,0,0:0:0:0:
64,192,300675,1,0,0:0:0:0:
320,192,300797,1,0,0:0:0:0:
448,192,300920,1,0,0:0:0:0:
320,192,300920,1,0,0:0:0:0:
192,192,300920,1,0,0:0:0:0:
320,192,301042,1,0,0:0:0:0:
448,192,301165,1,0,0:0:0:0:
192,192,301165,1,0,0:0:0:0:
64,192,301165,1,0,0:0:0:0:
320,192,301287,1,0,0:0:0:0:
448,192,301410,1,0,0:0:0:0:
192,192,301410,1,0,0:0:0:0:
64,192,301410,1,0,0:0:0:0:
448,192,301532,1,0,0:0:0:0:
192,192,301532,1,0,0:0:0:0:
64,192,301532,1,0,0:0:0:0:
448,192,301654,1,0,0:0:0:0:
192,192,301654,1,0,0:0:0:0:
64,192,301654,1,0,0:0:0:0:
192,192,301777,1,0,0:0:0:0:
448,192,301899,1,0,0:0:0:0:
320,192,301930,1,0,0:0:0:0:
192,192,301961,1,0,0:0:0:0:
64,192,301991,1,0,0:0:0:0:
448,192,302022,1,0,0:0:0:0:
192,192,302144,1,0,0:0:0:0:
320,192,302267,1,0,0:0:0:0:
448,192,302389,1,0,0:0:0:0:
192,192,302389,1,0,0:0:0:0:
64,192,302389,1,0,0:0:0:0:
320,192,302512,1,0,0:0:0:0:
448,192,302634,1,0,0:0:0:0:
320,192,302634,1,0,0:0:0:0:
192,192,302634,1,0,0:0:0:0:
64,192,302757,1,0,0:0:0:0:
448,192,302879,1,0,0:0:0:0:
192,192,302879,1,0,0:0:0:0:
64,192,302879,1,0,0:0:0:0:
192,192,303001,1,0,0:0:0:0:
448,192,303124,1,0,0:0:0:0:
192,192,303124,1,0,0:0:0:0:
64,192,303124,1,0,0:0:0:0:
448,192,303246,1,0,0:0:0:0:
320,192,303246,1,0,0:0:0:0:
192,192,303246,1,0,0:0:0:0:
448,192,303369,1,0,0:0:0:0:
192,192,303369,1,0,0:0:0:0:
64,192,303369,1,0,0:0:0:0:
192,192,303491,1,0,0:0:0:0:
448,192,303614,1,0,0:0:0:0:
320,192,303614,1,0,0:0:0:0:
192,192,303614,1,0,0:0:0:0:
320,192,303736,1,0,0:0:0:0:
448,192,303859,1,0,0:0:0:0:
192,192,303859,1,0,0:0:0:0:
64,192,303859,1,0,0:0:0:0:
64,192,303981,1,0,0:0:0:0:
448,192,304103,1,0,0:0:0:0:
192,192,304103,1,0,0:0:0:0:
64,192,304103,1,0,0:0:0:0:
192,192,304226,1,0,0:0:0:0:
448,192,304348,1,0,0:0:0:0:
320,192,304348,1,0,0:0:0:0:
192,192,304348,1,0,0:0:0:0:
320,192,304471,1,0,0:0:0:0:
64,192,304593,1,0,0:0:0:0:
448,192,304716,1,0,0:0:0:0:
192,192,304838,1,0,0:0:0:0:
320,192,304961,1,0,0:0:0:0:
448,192,305083,1,0,0:0:0:0:
192,192,305083,1,0,0:0:0:0:
64,192,305083,1,0,0:0:0:0:
320,192,305206,1,0,0:0:0:0:
448,192,305328,1,0,0:0:0:0:
192,192,305328,1,0,0:0:0:0:
320,192,305450,1,0,0:0:0:0:
448,192,305573,1,0,0:0:0:0:
64,192,305573,1,0,0:0:0:0:
64,192,305695,1,0,0:0:0:0:
448,192,305818,1,0,0:0:0:0:
320,192,305818,1,0,0:0:0:0:
320,192,305940,1,0,0:0:0:0:
448,192,306063,1,0,0:0:0:0:
192,192,306063,1,0,0:0:0:0:
320,192,306185,1,0,0:0:0:0:
192,192,306185,1,0,0:0:0:0:
448,192,306308,1,0,0:0:0:0:
64,192,306430,1,0,0:0:0:0:
320,192,306552,1,0,0:0:0:0:
192,192,306675,1,0,0:0:0:0:
448,192,306797,1,0,0:0:0:0:
192,192,306797,1,0,0:0:0:0:
64,192,306797,1,0,0:0:0:0:
320,192,306920,1,0,0:0:0:0:
448,192,307042,1,0,0:0:0:0:
192,192,307042,1,0,0:0:0:0:
320,192,307165,1,0,0:0:0:0:
192,192,307287,1,0,0:0:0:0:
448,192,307410,1,0,0:0:0:0:
448,192,307532,1,0,0:0:0:0:
192,192,307532,1,0,0:0:0:0:
192,192,307654,1,0,0:0:0:0:
192,192,307777,1,0,0:0:0:0:
320,192,307899,1,0,0:0:0:0:
448,192,308022,1,0,0:0:0:0:
192,192,308022,1,0,0:0:0:0:
448,192,308144,1,0,0:0:0:0:
192,192,308267,1,0,0:0:0:0:
64,192,308267,1,0,0:0:0:0:
320,192,308389,1,0,0:0:0:0:
448,192,308512,1,0,0:0:0:0:
192,192,308512,1,0,0:0:0:0:
64,192,308512,1,0,0:0:0:0:
192,192,308634,1,0,0:0:0:0:
320,192,308757,1,0,0:0:0:0:
448,192,308757,1,0,0:0:0:0:
448,192,308879,1,0,0:0:0:0:
192,192,309001,1,0,0:0:0:0:
64,192,309001,1,0,0:0:0:0:
64,192,309124,1,0,0:0:0:0:
448,192,309246,1,0,0:0:0:0:
192,192,309246,1,0,0:0:0:0:
448,192,309369,1,0,0:0:0:0:
320,192,309491,1,0,0:0:0:0:
192,192,309491,1,0,0:0:0:0:
192,192,309614,1,0,0:0:0:0:
64,192,309614,1,0,0:0:0:0:
320,192,309736,1,0,0:0:0:0:
448,192,309859,1,0,0:0:0:0:
192,192,309859,1,0,0:0:0:0:
320,192,309981,1,0,0:0:0:0:
64,192,309981,1,0,0:0:0:0:
320,192,310103,1,0,0:0:0:0:
192,192,310103,1,0,0:0:0:0:
448,192,310226,1,0,0:0:0:0:
192,192,310226,1,0,0:0:0:0:
64,192,310226,1,0,0:0:0:0:
320,192,310348,1,0,0:0:0:0:
192,192,310471,1,0,0:0:0:0:
64,192,310471,1,0,0:0:0:0:
192,192,310593,1,0,0:0:0:0:
448,192,310716,1,0,0:0:0:0:
320,192,310716,1,0,0:0:0:0:
448,192,310838,1,0,0:0:0:0:
320,192,310961,1,0,0:0:0:0:
192,192,310961,1,0,0:0:0:0:
192,192,311083,1,0,0:0:0:0:
448,192,311206,1,0,0:0:0:0:
320,192,311206,1,0,0:0:0:0:
448,192,311328,1,0,0:0:0:0:
192,192,311328,1,0,0:0:0:0:
320,192,311450,1,0,0:0:0:0:
64,192,311450,1,0,0:0:0:0:
192,192,311573,1,0,0:0:0:0:
64,192,311573,1,0,0:0:0:0:
448,192,311695,1,0,0:0:0:0:
320,192,311695,1,0,0:0:0:0:
192,192,311818,1,0,0:0:0:0:
64,192,311818,1,0,0:0:0:0:
448,192,311940,1,0,0:0:0:0:
192,192,311940,1,0,0:0:0:0:
64,192,311940,1,0,0:0:0:0:
320,192,312063,1,0,0:0:0:0:
64,192,312185,1,0,0:0:0:0:
192,192,312185,1,0,0:0:0:0:
192,192,312308,1,0,0:0:0:0:
448,192,312430,1,0,0:0:0:0:
64,192,312430,1,0,0:0:0:0:
448,192,312552,1,0,0:0:0:0:
448,192,312675,1,0,0:0:0:0:
192,192,312675,1,0,0:0:0:0:
64,192,312675,1,0,0:0:0:0:
192,192,312797,1,0,0:0:0:0:
448,192,312920,1,0,0:0:0:0:
320,192,312920,1,0,0:0:0:0:
64,192,313042,1,0,0:0:0:0:
320,192,313165,1,0,0:0:0:0:
320,192,313287,1,0,0:0:0:0:
192,192,313410,1,0,0:0:0:0:
64,192,313410,1,0,0:0:0:0:
448,192,313532,1,0,0:0:0:0:
320,192,313532,1,0,0:0:0:0:
448,192,313654,1,0,0:0:0:0:
192,192,313654,1,0,0:0:0:0:
64,192,313654,1,0,0:0:0:0:
320,192,313777,1,0,0:0:0:0:
192,192,313899,1,0,0:0:0:0:
320,192,314022,1,0,0:0:0:0:
192,192,314144,1,0,0:0:0:0:
448,192,314267,1,0,0:0:0:0:
192,192,314389,1,0,0:0:0:0:
192,192,314512,1,0,0:0:0:0:
448,192,314634,1,0,0:0:0:0:
320,192,314634,1,0,0:0:0:0:
320,192,314757,1,0,0:0:0:0:
192,192,314757,1,0,0:0:0:0:
64,192,314879,1,0,0:0:0:0:
448,192,315001,1,0,0:0:0:0:
192,192,315001,1,0,0:0:0:0:
320,192,315124,1,0,0:0:0:0:
192,192,315124,1,0,0:0:0:0:
320,192,315246,1,0,0:0:0:0:
64,192,315246,1,0,0:0:0:0:
448,192,315369,1,0,0:0:0:0:
192,192,315369,1,0,0:0:0:0:
64,192,315369,1,0,0:0:0:0:
320,192,315491,1,0,0:0:0:0:
192,192,315614,1,0,0:0:0:0:
64,192,315614,1,0,0:0:0:0:
192,192,315736,1,0,0:0:0:0:
448,192,315859,1,0,0:0:0:0:
192,192,315859,1,0,0:0:0:0:
64,192,315859,1,0,0:0:0:0:
320,192,315981,1,0,0:0:0:0:
448,192,316103,1,0,0:0:0:0:
448,192,316226,1,0,0:0:0:0:
448,192,316348,1,0,0:0:0:0:
448,192,316471,1,0,0:0:0:0:
320,192,316593,1,0,0:0:0:0:
192,192,316593,1,0,0:0:0:0:
320,192,316716,1,0,0:0:0:0:
192,192,316716,1,0,0:0:0:0:
448,192,316838,1,0,0:0:0:0:
64,192,316838,1,0,0:0:0:0:
320,192,316961,1,0,0:0:0:0:
64,192,316961,1,0,0:0:0:0:
448,192,317083,1,0,0:0:0:0:
192,192,317083,1,0,0:0:0:0:
64,192,317083,1,0,0:0:0:0:
320,192,317206,1,0,0:0:0:0:
192,192,317328,1,0,0:0:0:0:
64,192,317328,1,0,0:0:0:0:
64,192,317450,1,0,0:0:0:0:
448,192,317573,1,0,0:0:0:0:
320,192,317573,1,0,0:0:0:0:
320,192,317695,1,0,0:0:0:0:
448,192,317818,1,0,0:0:0:0:
192,192,317818,1,0,0:0:0:0:
192,192,317940,1,0,0:0:0:0:
64,192,318552,1,0,0:0:0:0:
192,192,318583,1,0,0:0:0:0:
448,192,318614,1,0,0:0:0:0:
320,192,318644,1,0,0:0:0:0:
64,192,318675,1,0,0:0:0:0:
192,192,318706,1,0,0:0:0:0:
320,192,318736,1,0,0:0:0:0:
64,192,318767,1,0,0:0:0:0:
448,192,318797,1,0,0:0:0:0:
192,192,318797,1,0,0:0:0:0:
448,192,318920,1,0,0:0:0:0:
320,192,318920,1,0,0:0:0:0:
448,192,319042,1,0,0:0:0:0:
320,192,319042,1,0,0:0:0:0:
192,192,319042,1,0,0:0:0:0:
192,192,319165,1,0,0:0:0:0:
64,192,319165,1,0,0:0:0:0:
448,192,319287,1,0,0:0:0:0:
320,192,319287,1,0,0:0:0:0:
192,192,319348,1,0,0:0:0:0:
64,192,319348,1,0,0:0:0:0:
448,192,319410,1,0,0:0:0:0:
320,192,319410,1,0,0:0:0:0:
448,192,319532,1,0,0:0:0:0:
192,192,319532,1,0,0:0:0:0:
64,192,319532,1,0,0:0:0:0:
192,192,319654,1,0,0:0:0:0:
64,192,319654,1,0,0:0:0:0:
448,192,319777,1,0,0:0:0:0:
320,192,319777,1,0,0:0:0:0:
192,192,319777,1,0,0:0:0:0:
320,192,319899,1,0,0:0:0:0:
64,192,319899,1,0,0:0:0:0:
448,192,319961,1,0,0:0:0:0:
192,192,319961,1,0,0:0:0:0:
320,192,320022,1,0,0:0:0:0:
64,192,320022,1,0,0:0:0:0:
192,192,320144,1,0,0:0:0:0:
320,192,320267,1,0,0:0:0:0:
192,192,320267,1,0,0:0:0:0:
64,192,320267,1,0,0:0:0:0:
192,192,320389,1,0,0:0:0:0:
448,192,320512,1,0,0:0:0:0:
192,192,320512,1,0,0:0:0:0:
64,192,320512,1,0,0:0:0:0:
448,192,320634,1,0,0:0:0:0:
320,192,320634,1,0,0:0:0:0:
448,192,320757,1,0,0:0:0:0:
320,192,320757,1,0,0:0:0:0:
192,192,320757,1,0,0:0:0:0:
192,192,320879,1,0,0:0:0:0:
64,192,320879,1,0,0:0:0:0:
448,192,321001,1,0,0:0:0:0:
320,192,321001,1,0,0:0:0:0:
192,192,321063,1,0,0:0:0:0:
64,192,321063,1,0,0:0:0:0:
448,192,321124,1,0,0:0:0:0:
320,192,321124,1,0,0:0:0:0:
448,192,321246,1,0,0:0:0:0:
192,192,321246,1,0,0:0:0:0:
64,192,321246,1,0,0:0:0:0:
192,192,321369,1,0,0:0:0:0:
64,192,321369,1,0,0:0:0:0:
448,192,321491,1,0,0:0:0:0:
320,192,321491,1,0,0:0:0:0:
192,192,321491,1,0,0:0:0:0:
320,192,321614,1,0,0:0:0:0:
64,192,321614,1,0,0:0:0:0:
448,192,321675,1,0,0:0:0:0:
192,192,321675,1,0,0:0:0:0:
320,192,321736,1,0,0:0:0:0:
64,192,321736,1,0,0:0:0:0:
192,192,321859,1,0,0:0:0:0:
320,192,321981,1,0,0:0:0:0:
192,192,321981,1,0,0:0:0:0:
64,192,321981,1,0,0:0:0:0:
192,192,322103,1,0,0:0:0:0:
448,192,322226,1,0,0:0:0:0:
192,192,322226,1,0,0:0:0:0:
64,192,322226,1,0,0:0:0:0:
448,192,322348,1,0,0:0:0:0:
320,192,322348,1,0,0:0:0:0:
448,192,322471,1,0,0:0:0:0:
320,192,322471,1,0,0:0:0:0:
192,192,322471,1,0,0:0:0:0:
192,192,322593,1,0,0:0:0:0:
64,192,322593,1,0,0:0:0:0:
448,192,322716,1,0,0:0:0:0:
320,192,322716,1,0,0:0:0:0:
192,192,322777,1,0,0:0:0:0:
64,192,322777,1,0,0:0:0:0:
448,192,322838,1,0,0:0:0:0:
320,192,322838,1,0,0:0:0:0:
448,192,322961,1,0,0:0:0:0:
192,192,322961,1,0,0:0:0:0:
64,192,322961,1,0,0:0:0:0:
192,192,323083,1,0,0:0:0:0:
64,192,323083,1,0,0:0:0:0:
448,192,323206,1,0,0:0:0:0:
320,192,323206,1,0,0:0:0:0:
192,192,323206,1,0,0:0:0:0:
320,192,323328,1,0,0:0:0:0:
64,192,323328,1,0,0:0:0:0:
448,192,323389,1,0,0:0:0:0:
192,192,323389,1,0,0:0:0:0:
320,192,323450,1,0,0:0:0:0:
64,192,323450,1,0,0:0:0:0:
192,192,323573,1,0,0:0:0:0:
320,192,323695,1,0,0:0:0:0:
192,192,323695,1,0,0:0:0:0:
64,192,323695,1,0,0:0:0:0:
192,192,323818,1,0,0:0:0:0:
448,192,323940,1,0,0:0:0:0:
192,192,323940,1,0,0:0:0:0:
64,192,323940,1,0,0:0:0:0:
320,192,324063,1,0,0:0:0:0:
448,192,324185,1,0,0:0:0:0:
320,192,324185,1,0,0:0:0:0:
192,192,324185,1,0,0:0:0:0:
192,192,324308,1,0,0:0:0:0:
64,192,324308,1,0,0:0:0:0:
448,192,324430,1,0,0:0:0:0:
192,192,324430,1,0,0:0:0:0:
64,192,324430,1,0,0:0:0:0:
192,192,324552,1,0,0:0:0:0:
64,192,324552,1,0,0:0:0:0:
320,192,324675,1,0,0:0:0:0:
192,192,324675,1,0,0:0:0:0:
64,192,324675,1,0,0:0:0:0:
320,192,324797,1,0,0:0:0:0:
192,192,324797,1,0,0:0:0:0:
448,192,324920,1,0,0:0:0:0:
320,192,324981,1,0,0:0:0:0:
192,192,324981,1,0,0:0:0:0:
320,192,325103,1,0,0:0:0:0:
192,192,325165,1,0,0:0:0:0:
64,192,325165,1,0,0:0:0:0:
320,192,325287,1,0,0:0:0:0:
192,192,325348,1,0,0:0:0:0:
320,192,325410,1,0,0:0:0:0:
448,192,325532,1,0,0:0:0:0:
448,192,325654,1,0,0:0:0:0:
192,192,325654,1,0,0:0:0:0:
64,192,325654,1,0,0:0:0:0:
448,192,325777,1,0,0:0:0:0:
320,192,325777,1,0,0:0:0:0:
448,192,325899,1,0,0:0:0:0:
320,192,325899,1,0,0:0:0:0:
192,192,325899,1,0,0:0:0:0:
192,192,326022,1,0,0:0:0:0:
64,192,326022,1,0,0:0:0:0:
448,192,326144,1,0,0:0:0:0:
320,192,326144,1,0,0:0:0:0:
192,192,326206,1,0,0:0:0:0:
64,192,326206,1,0,0:0:0:0:
448,192,326267,1,0,0:0:0:0:
320,192,326267,1,0,0:0:0:0:
448,192,326389,1,0,0:0:0:0:
192,192,326389,1,0,0:0:0:0:
64,192,326389,1,0,0:0:0:0:
192,192,326512,1,0,0:0:0:0:
64,192,326512,1,0,0:0:0:0:
448,192,326634,1,0,0:0:0:0:
320,192,326634,1,0,0:0:0:0:
192,192,326634,1,0,0:0:0:0:
320,192,326757,1,0,0:0:0:0:
64,192,326757,1,0,0:0:0:0:
448,192,326818,1,0,0:0:0:0:
192,192,326818,1,0,0:0:0:0:
320,192,326879,1,0,0:0:0:0:
64,192,326879,1,0,0:0:0:0:
192,192,327001,1,0,0:0:0:0:
320,192,327124,1,0,0:0:0:0:
192,192,327124,1,0,0:0:0:0:
64,192,327124,1,0,0:0:0:0:
192,192,327246,1,0,0:0:0:0:
448,192,327369,1,0,0:0:0:0:
192,192,327369,1,0,0:0:0:0:
64,192,327369,1,0,0:0:0:0:
320,192,327491,1,0,0:0:0:0:
448,192,327614,1,0,0:0:0:0:
320,192,327614,1,0,0:0:0:0:
192,192,327614,1,0,0:0:0:0:
192,192,327736,1,0,0:0:0:0:
64,192,327736,1,0,0:0:0:0:
448,192,327859,1,0,0:0:0:0:
192,192,327859,1,0,0:0:0:0:
64,192,327859,1,0,0:0:0:0:
448,192,327981,1,0,0:0:0:0:
320,192,327981,1,0,0:0:0:0:
448,192,328103,1,0,0:0:0:0:
320,192,328103,1,0,0:0:0:0:
192,192,328103,1,0,0:0:0:0:
320,192,328226,1,0,0:0:0:0:
192,192,328226,1,0,0:0:0:0:
448,192,328348,1,0,0:0:0:0:
320,192,328410,1,0,0:0:0:0:
192,192,328410,1,0,0:0:0:0:
320,192,328532,1,0,0:0:0:0:
192,192,328593,1,0,0:0:0:0:
64,192,328593,1,0,0:0:0:0:
320,192,328716,1,0,0:0:0:0:
192,192,328777,1,0,0:0:0:0:
320,192,328838,1,0,0:0:0:0:
448,192,328961,1,0,0:0:0:0:
448,192,329083,1,0,0:0:0:0:
192,192,329083,1,0,0:0:0:0:
64,192,329083,1,0,0:0:0:0:
448,192,329206,1,0,0:0:0:0:
320,192,329206,1,0,0:0:0:0:
448,192,329328,1,0,0:0:0:0:
320,192,329328,1,0,0:0:0:0:
192,192,329328,1,0,0:0:0:0:
192,192,329450,1,0,0:0:0:0:
64,192,329450,1,0,0:0:0:0:
448,192,329573,1,0,0:0:0:0:
320,192,329573,1,0,0:0:0:0:
192,192,329634,1,0,0:0:0:0:
64,192,329634,1,0,0:0:0:0:
448,192,329695,1,0,0:0:0:0:
320,192,329695,1,0,0:0:0:0:
448,192,329818,1,0,0:0:0:0:
192,192,329818,1,0,0:0:0:0:
64,192,329818,1,0,0:0:0:0:
192,192,329940,1,0,0:0:0:0:
64,192,329940,1,0,0:0:0:0:
448,192,330063,1,0,0:0:0:0:
320,192,330063,1,0,0:0:0:0:
192,192,330063,1,0,0:0:0:0:
320,192,330185,1,0,0:0:0:0:
64,192,330185,1,0,0:0:0:0:
448,192,330246,1,0,0:0:0:0:
192,192,330246,1,0,0:0:0:0:
320,192,330308,1,0,0:0:0:0:
64,192,330308,1,0,0:0:0:0:
192,192,330430,1,0,0:0:0:0:
320,192,330552,1,0,0:0:0:0:
192,192,330552,1,0,0:0:0:0:
64,192,330552,1,0,0:0:0:0:
192,192,330675,1,0,0:0:0:0:
448,192,330797,1,0,0:0:0:0:
192,192,330797,1,0,0:0:0:0:
64,192,330797,1,0,0:0:0:0:
320,192,330920,1,0,0:0:0:0:
448,192,331042,1,0,0:0:0:0:
320,192,331042,1,0,0:0:0:0:
192,192,331042,1,0,0:0:0:0:
192,192,331165,1,0,0:0:0:0:
64,192,331165,1,0,0:0:0:0:
448,192,331287,1,0,0:0:0:0:
192,192,331287,1,0,0:0:0:0:
64,192,331287,1,0,0:0:0:0:
448,192,331410,1,0,0:0:0:0:
320,192,331410,1,0,0:0:0:0:
448,192,331532,1,0,0:0:0:0:
320,192,331532,1,0,0:0:0:0:
192,192,331532,1,0,0:0:0:0:
320,192,331654,1,0,0:0:0:0:
192,192,331654,1,0,0:0:0:0:
64,192,331716,1,0,0:0:0:0:
448,192,331777,1,0,0:0:0:0:
320,192,331792,1,0,0:0:0:0:
64,192,331838,1,0,0:0:0:0:
192,192,331853,1,0,0:0:0:0:
448,192,331899,1,0,0:0:0:0:
320,192,331915,1,0,0:0:0:0:
64,192,331961,1,0,0:0:0:0:
192,192,331976,1,0,0:0:0:0:
448,192,332022,1,0,0:0:0:0:
320,192,332037,1,0,0:0:0:0:
64,192,332083,1,0,0:0:0:0:
192,192,332098,1,0,0:0:0:0:
448,192,332144,1,0,0:0:0:0:
64,192,332206,1,0,0:0:0:0:
320,192,332267,1,0,0:0:0:0:
192,192,332328,1,0,0:0:0:0:
448,192,332389,1,0,0:0:0:0:
320,192,332420,1,0,0:0:0:0:
64,192,332450,1,0,0:0:0:0:
448,192,332512,1,0,0:0:0:0:
192,192,332512,1,0,0:0:0:0:
448,192,332634,1,0,0:0:0:0:
320,192,332634,1,0,0:0:0:0:
448,192,332757,1,0,0:0:0:0:
320,192,332757,1,0,0:0:0:0:
192,192,332757,1,0,0:0:0:0:
192,192,332879,1,0,0:0:0:0:
64,192,332879,1,0,0:0:0:0:
448,192,333001,1,0,0:0:0:0:
320,192,333001,1,0,0:0:0:0:
192,192,333063,1,0,0:0:0:0:
64,192,333063,1,0,0:0:0:0:
448,192,333124,1,0,0:0:0:0:
320,192,333124,1,0,0:0:0:0:
448,192,333246,1,0,0:0:0:0:
192,192,333246,1,0,0:0:0:0:
64,192,333246,1,0,0:0:0:0:
192,192,333369,1,0,0:0:0:0:
64,192,333369,1,0,0:0:0:0:
448,192,333491,1,0,0:0:0:0:
320,192,333491,1,0,0:0:0:0:
192,192,333491,1,0,0:0:0:0:
320,192,333614,1,0,0:0:0:0:
64,192,333614,1,0,0:0:0:0:
448,192,333675,1,0,0:0:0:0:
192,192,333675,1,0,0:0:0:0:
320,192,333736,1,0,0:0:0:0:
64,192,333736,1,0,0:0:0:0:
192,192,333859,1,0,0:0:0:0:
320,192,333981,1,0,0:0:0:0:
192,192,333981,1,0,0:0:0:0:
64,192,333981,1,0,0:0:0:0:
192,192,334103,1,0,0:0:0:0:
448,192,334226,1,0,0:0:0:0:
192,192,334226,1,0,0:0:0:0:
64,192,334226,1,0,0:0:0:0:
448,192,334348,1,0,0:0:0:0:
320,192,334348,1,0,0:0:0:0:
448,192,334471,1,0,0:0:0:0:
320,192,334471,1,0,0:0:0:0:
192,192,334471,1,0,0:0:0:0:
192,192,334593,1,0,0:0:0:0:
64,192,334593,1,0,0:0:0:0:
448,192,334716,1,0,0:0:0:0:
320,192,334716,1,0,0:0:0:0:
192,192,334777,1,0,0:0:0:0:
64,192,334777,1,0,0:0:0:0:
448,192,334838,1,0,0:0:0:0:
320,192,334838,1,0,0:0:0:0:
448,192,334961,1,0,0:0:0:0:
192,192,334961,1,0,0:0:0:0:
64,192,334961,1,0,0:0:0:0:
192,192,335083,1,0,0:0:0:0:
64,192,335083,1,0,0:0:0:0:
320,192,335206,1,0,0:0:0:0:
192,192,335206,1,0,0:0:0:0:
448,192,335328,1,0,0:0:0:0:
64,192,335328,1,0,0:0:0:0:
320,192,335389,1,0,0:0:0:0:
192,192,335389,1,0,0:0:0:0:
448,192,335450,1,0,0:0:0:0:
64,192,335450,1,0,0:0:0:0:
320,192,335573,1,0,0:0:0:0:
192,192,335573,1,0,0:0:0:0:
192,192,335695,1,0,0:0:0:0:
64,192,335695,1,0,0:0:0:0:
448,192,335818,1,0,0:0:0:0:
320,192,335818,1,0,0:0:0:0:
192,192,335818,1,0,0:0:0:0:
448,192,335940,1,0,0:0:0:0:
192,192,335940,1,0,0:0:0:0:
64,192,335940,1,0,0:0:0:0:
448,192,336063,1,0,0:0:0:0:
320,192,336063,1,0,0:0:0:0:
448,192,336185,1,0,0:0:0:0:
320,192,336185,1,0,0:0:0:0:
192,192,336185,1,0,0:0:0:0:
192,192,336308,1,0,0:0:0:0:
64,192,336308,1,0,0:0:0:0:
448,192,336430,1,0,0:0:0:0:
320,192,336430,1,0,0:0:0:0:
192,192,336491,1,0,0:0:0:0:
64,192,336491,1,0,0:0:0:0:
448,192,336552,1,0,0:0:0:0:
320,192,336552,1,0,0:0:0:0:
448,192,336675,1,0,0:0:0:0:
192,192,336675,1,0,0:0:0:0:
64,192,336675,1,0,0:0:0:0:
192,192,336767,1,0,0:0:0:0:
64,192,336767,1,0,0:0:0:0:
448,192,336859,1,0,0:0:0:0:
320,192,336859,1,0,0:0:0:0:
192,192,336950,1,0,0:0:0:0:
64,192,336950,1,0,0:0:0:0:
448,192,337042,1,0,0:0:0:0:
320,192,337042,1,0,0:0:0:0:
192,192,337134,1,0,0:0:0:0:
64,192,337134,1,0,0:0:0:0:
448,192,337226,1,0,0:0:0:0:
320,192,337226,1,0,0:0:0:0:
320,192,337348,1,0,0:0:0:0:
192,192,337410,1,0,0:0:0:0:
64,192,337410,1,0,0:0:0:0:
448,192,337654,1,0,0:0:0:0:
192,192,337654,1,0,0:0:0:0:
64,192,337654,1,0,0:0:0:0:
448,192,337777,1,0,0:0:0:0:
192,192,337777,1,0,0:0:0:0:
64,192,337777,1,0,0:0:0:0:
448,192,337899,1,0,0:0:0:0:
192,192,337899,1,0,0:0:0:0:
64,192,337899,1,0,0:0:0:0:
320,192,338022,1,0,0:0:0:0:
192,192,338022,1,0,0:0:0:0:
64,192,338022,1,0,0:0:0:0:
448,192,338144,1,0,0:0:0:0:
320,192,338144,1,0,0:0:0:0:
64,192,338144,1,0,0:0:0:0:
448,192,338267,1,0,0:0:0:0:
320,192,338267,1,0,0:0:0:0:
192,192,338267,1,0,0:0:0:0:
448,192,338389,1,0,0:0:0:0:
320,192,338389,1,0,0:0:0:0:
192,192,338389,1,0,0:0:0:0:
192,192,338512,1,0,0:0:0:0:
64,192,338512,1,0,0:0:0:0:
320,192,338634,1,0,0:0:0:0:
192,192,338695,1,0,0:0:0:0:
64,192,338695,1,0,0:0:0:0:
64,192,338818,1,0,0:0:0:0:
320,192,338879,1,0,0:0:0:0:
192,192,338879,1,0,0:0:0:0:
320,192,339001,1,0,0:0:0:0:
192,192,339063,1,0,0:0:0:0:
448,192,339124,1,0,0:0:0:0:
192,192,339246,1,0,0:0:0:0:
448,192,339369,1,0,0:0:0:0:
192,192,339369,1,0,0:0:0:0:
64,192,339369,1,0,0:0:0:0:
448,192,339491,1,0,0:0:0:0:
320,192,339491,1,0,0:0:0:0:
448,192,339614,1,0,0:0:0:0:
320,192,339614,1,0,0:0:0:0:
192,192,339614,1,0,0:0:0:0:
192,192,339736,1,0,0:0:0:0:
64,192,339736,1,0,0:0:0:0:
448,192,339859,1,0,0:0:0:0:
320,192,339859,1,0,0:0:0:0:
192,192,339920,1,0,0:0:0:0:
64,192,339920,1,0,0:0:0:0:
448,192,339981,1,0,0:0:0:0:
320,192,339981,1,0,0:0:0:0:
448,192,340103,1,0,0:0:0:0:
192,192,340103,1,0,0:0:0:0:
64,192,340103,1,0,0:0:0:0:
192,192,340226,1,0,0:0:0:0:
64,192,340226,1,0,0:0:0:0:
448,192,340348,1,0,0:0:0:0:
320,192,340348,1,0,0:0:0:0:
192,192,340348,1,0,0:0:0:0:
320,192,340471,1,0,0:0:0:0:
64,192,340471,1,0,0:0:0:0:
448,192,340532,1,0,0:0:0:0:
192,192,340532,1,0,0:0:0:0:
320,192,340593,1,0,0:0:0:0:
64,192,340593,1,0,0:0:0:0:
192,192,340716,1,0,0:0:0:0:
320,192,340838,1,0,0:0:0:0:
192,192,340838,1,0,0:0:0:0:
64,192,340838,1,0,0:0:0:0:
192,192,340961,1,0,0:0:0:0:
448,192,341083,1,0,0:0:0:0:
320,192,341083,1,0,0:0:0:0:
192,192,341083,1,0,0:0:0:0:
448,192,341206,1,0,0:0:0:0:
320,192,341206,1,0,0:0:0:0:
192,192,341206,1,0,0:0:0:0:
448,192,341328,1,0,0:0:0:0:
320,192,341328,1,0,0:0:0:0:
192,192,341328,1,0,0:0:0:0:
192,192,341450,1,0,0:0:0:0:
64,192,341450,1,0,0:0:0:0:
320,192,341573,1,0,0:0:0:0:
448,192,341573,1,0,0:0:0:0:
192,192,341573,1,0,0:0:0:0:
192,192,341695,1,0,0:0:0:0:
64,192,341695,1,0,0:0:0:0:
448,192,341818,1,0,0:0:0:0:
192,192,341818,1,0,0:0:0:0:
64,192,341818,1,0,0:0:0:0:
320,192,341940,1,0,0:0:0:0:
192,192,341940,1,0,0:0:0:0:
448,192,342001,1,0,0:0:0:0:
64,192,342063,1,0,0:0:0:0:
448,192,342124,1,0,0:0:0:0:
320,192,342124,1,0,0:0:0:0:
192,192,342185,1,0,0:0:0:0:
320,192,342246,1,0,0:0:0:0:
192,192,342308,1,0,0:0:0:0:
64,192,342308,1,0,0:0:0:0:
320,192,342430,1,0,0:0:0:0:
448,192,342552,1,0,0:0:0:0:
192,192,342675,1,0,0:0:0:0:
448,192,342797,1,0,0:0:0:0:
192,192,342797,1,0,0:0:0:0:
64,192,342797,1,0,0:0:0:0:
448,192,342920,1,0,0:0:0:0:
320,192,342920,1,0,0:0:0:0:
448,192,343042,1,0,0:0:0:0:
320,192,343042,1,0,0:0:0:0:
192,192,343042,1,0,0:0:0:0:
192,192,343165,1,0,0:0:0:0:
64,192,343165,1,0,0:0:0:0:
448,192,343287,1,0,0:0:0:0:
320,192,343287,1,0,0:0:0:0:
192,192,343348,1,0,0:0:0:0:
64,192,343348,1,0,0:0:0:0:
448,192,343410,1,0,0:0:0:0:
320,192,343410,1,0,0:0:0:0:
448,192,343532,1,0,0:0:0:0:
192,192,343532,1,0,0:0:0:0:
64,192,343532,1,0,0:0:0:0:
192,192,343654,1,0,0:0:0:0:
64,192,343654,1,0,0:0:0:0:
448,192,343777,1,0,0:0:0:0:
320,192,343777,1,0,0:0:0:0:
192,192,343777,1,0,0:0:0:0:
320,192,343899,1,0,0:0:0:0:
64,192,343899,1,0,0:0:0:0:
448,192,343961,1,0,0:0:0:0:
192,192,343961,1,0,0:0:0:0:
320,192,344022,1,0,0:0:0:0:
64,192,344022,1,0,0:0:0:0:
192,192,344144,1,0,0:0:0:0:
320,192,344267,1,0,0:0:0:0:
192,192,344267,1,0,0:0:0:0:
64,192,344267,1,0,0:0:0:0:
192,192,344389,1,0,0:0:0:0:
448,192,344512,1,0,0:0:0:0:
192,192,344512,1,0,0:0:0:0:
64,192,344512,1,0,0:0:0:0:
320,192,344634,1,0,0:0:0:0:
448,192,344757,1,0,0:0:0:0:
320,192,344757,1,0,0:0:0:0:
192,192,344757,1,0,0:0:0:0:
192,192,344879,1,0,0:0:0:0:
64,192,344879,1,0,0:0:0:0:
448,192,345001,1,0,0:0:0:0:
192,192,345001,1,0,0:0:0:0:
64,192,345001,1,0,0:0:0:0:
448,192,345124,1,0,0:0:0:0:
320,192,345124,1,0,0:0:0:0:
448,192,345246,1,0,0:0:0:0:
320,192,345246,1,0,0:0:0:0:
192,192,345246,1,0,0:0:0:0:
192,192,345369,1,0,0:0:0:0:
64,192,345369,1,0,0:0:0:0:
448,192,345430,1,0,0:0:0:0:
320,192,345430,1,0,0:0:0:0:
192,192,345491,1,0,0:0:0:0:
64,192,345491,1,0,0:0:0:0:
448,192,345583,1,0,0:0:0:0:
320,192,345583,1,0,0:0:0:0:
192,192,345675,1,0,0:0:0:0:
64,192,345675,1,0,0:0:0:0:
448,192,345767,1,0,0:0:0:0:
320,192,345767,1,0,0:0:0:0:
192,192,345859,1,0,0:0:0:0:
64,192,345859,1,0,0:0:0:0:
448,192,345981,1,0,0:0:0:0:
192,192,346103,1,0,0:0:0:0:
448,192,346226,1,0,0:0:0:0:
192,192,346226,1,0,0:0:0:0:
64,192,346226,1,0,0:0:0:0:
448,192,346348,1,0,0:0:0:0:
320,192,346348,1,0,0:0:0:0:
448,192,346471,1,0,0:0:0:0:
320,192,346471,1,0,0:0:0:0:
192,192,346471,1,0,0:0:0:0:
192,192,346593,1,0,0:0:0:0:
64,192,346593,1,0,0:0:0:0:
448,192,346716,1,0,0:0:0:0:
320,192,346716,1,0,0:0:0:0:
192,192,346777,1,0,0:0:0:0:
64,192,346777,1,0,0:0:0:0:
448,192,346838,1,0,0:0:0:0:
320,192,346838,1,0,0:0:0:0:
448,192,346961,1,0,0:0:0:0:
192,192,346961,1,0,0:0:0:0:
64,192,346961,1,0,0:0:0:0:
192,192,347083,1,0,0:0:0:0:
64,192,347083,1,0,0:0:0:0:
448,192,347206,1,0,0:0:0:0:
320,192,347206,1,0,0:0:0:0:
192,192,347206,1,0,0:0:0:0:
320,192,347328,1,0,0:0:0:0:
64,192,347328,1,0,0:0:0:0:
448,192,347389,1,0,0:0:0:0:
192,192,347389,1,0,0:0:0:0:
320,192,347450,1,0,0:0:0:0:
64,192,347450,1,0,0:0:0:0:
192,192,347573,1,0,0:0:0:0:
320,192,347695,1,0,0:0:0:0:
192,192,347695,1,0,0:0:0:0:
64,192,347695,1,0,0:0:0:0:
192,192,347818,1,0,0:0:0:0:
448,192,347940,1,0,0:0:0:0:
192,192,347940,1,0,0:0:0:0:
64,192,347940,1,0,0:0:0:0:
448,192,348063,1,0,0:0:0:0:
320,192,348063,1,0,0:0:0:0:
448,192,348185,1,0,0:0:0:0:
320,192,348185,1,0,0:0:0:0:
192,192,348185,1,0,0:0:0:0:
192,192,348308,1,0,0:0:0:0:
64,192,348308,1,0,0:0:0:0:
448,192,348430,1,0,0:0:0:0:
320,192,348430,1,0,0:0:0:0:
192,192,348491,1,0,0:0:0:0:
64,192,348491,1,0,0:0:0:0:
448,192,348552,1,0,0:0:0:0:
320,192,348552,1,0,0:0:0:0:
448,192,348675,1,0,0:0:0:0:
192,192,348675,1,0,0:0:0:0:
64,192,348675,1,0,0:0:0:0:
192,192,348797,1,0,0:0:0:0:
64,192,348797,1,0,0:0:0:0:
448,192,348920,1,0,0:0:0:0:
320,192,348920,1,0,0:0:0:0:
192,192,348920,1,0,0:0:0:0:
320,192,349042,1,0,0:0:0:0:
64,192,349042,1,0,0:0:0:0:
448,192,349103,1,0,0:0:0:0:
192,192,349103,1,0,0:0:0:0:
320,192,349165,1,0,0:0:0:0:
64,192,349165,1,0,0:0:0:0:
192,192,349287,1,0,0:0:0:0:
448,192,349410,1,0,0:0:0:0:
320,192,349410,1,0,0:0:0:0:
192,192,349410,1,0,0:0:0:0:
448,192,349532,1,0,0:0:0:0:
320,192,349532,1,0,0:0:0:0:
192,192,349532,1,0,0:0:0:0:
448,192,349654,1,0,0:0:0:0:
192,192,349654,1,0,0:0:0:0:
64,192,349654,1,0,0:0:0:0:
448,192,349777,1,0,0:0:0:0:
320,192,349777,1,0,0:0:0:0:
448,192,349899,1,0,0:0:0:0:
320,192,349899,1,0,0:0:0:0:
192,192,349899,1,0,0:0:0:0:
192,192,350022,1,0,0:0:0:0:
64,192,350022,1,0,0:0:0:0:
448,192,350144,1,0,0:0:0:0:
320,192,350144,1,0,0:0:0:0:
192,192,350206,1,0,0:0:0:0:
64,192,350206,1,0,0:0:0:0:
448,192,350267,1,0,0:0:0:0:
320,192,350267,1,0,0:0:0:0:
448,192,350389,1,0,0:0:0:0:
192,192,350389,1,0,0:0:0:0:
64,192,350389,1,0,0:0:0:0:
192,192,350512,1,0,0:0:0:0:
64,192,350512,1,0,0:0:0:0:
448,192,350634,1,0,0:0:0:0:
320,192,350634,1,0,0:0:0:0:
192,192,350634,1,0,0:0:0:0:
320,192,350757,1,0,0:0:0:0:
64,192,350757,1,0,0:0:0:0:
448,192,350818,1,0,0:0:0:0:
192,192,350818,1,0,0:0:0:0:
320,192,350879,1,0,0:0:0:0:
64,192,350879,1,0,0:0:0:0:
192,192,351001,1,0,0:0:0:0:
320,192,351124,1,0,0:0:0:0:
192,192,351124,1,0,0:0:0:0:
64,192,351124,1,0,0:0:0:0:
192,192,351246,1,0,0:0:0:0:
448,192,351369,1,0,0:0:0:0:
192,192,351369,1,0,0:0:0:0:
64,192,351369,1,0,0:0:0:0:
448,192,351491,1,0,0:0:0:0:
320,192,351491,1,0,0:0:0:0:
448,192,351614,1,0,0:0:0:0:
320,192,351614,1,0,0:0:0:0:
192,192,351614,1,0,0:0:0:0:
192,192,351736,1,0,0:0:0:0:
64,192,351736,1,0,0:0:0:0:
448,192,351859,1,0,0:0:0:0:
320,192,351859,1,0,0:0:0:0:
192,192,351920,1,0,0:0:0:0:
64,192,351920,1,0,0:0:0:0:
448,192,351981,1,0,0:0:0:0:
320,192,351981,1,0,0:0:0:0:
448,192,352103,1,0,0:0:0:0:
192,192,352103,1,0,0:0:0:0:
64,192,352103,1,0,0:0:0:0:
192,192,352226,1,0,0:0:0:0:
64,192,352226,1,0,0:0:0:0:
448,192,352348,1,0,0:0:0:0:
320,192,352348,1,0,0:0:0:0:
192,192,352348,1,0,0:0:0:0:
320,192,352471,1,0,0:0:0:0:
64,192,352471,1,0,0:0:0:0:
448,192,352532,1,0,0:0:0:0:
192,192,352532,1,0,0:0:0:0:
320,192,352593,1,0,0:0:0:0:
64,192,352593,1,0,0:0:0:0:
448,192,352716,1,0,0:0:0:0:
320,192,352716,1,0,0:0:0:0:
192,192,352716,1,0,0:0:0:0:
320,192,352838,1,0,0:0:0:0:
192,192,352838,1,0,0:0:0:0:
64,192,352838,1,0,0:0:0:0:
448,192,352961,1,0,0:0:0:0:
320,192,352961,1,0,0:0:0:0:
192,192,352961,1,0,0:0:0:0:
448,192,353083,1,0,0:0:0:0:
192,192,353083,1,0,0:0:0:0:
64,192,353083,1,0,0:0:0:0:
448,192,353206,1,0,0:0:0:0:
320,192,353206,1,0,0:0:0:0:
448,192,353328,1,0,0:0:0:0:
320,192,353328,1,0,0:0:0:0:
192,192,353328,1,0,0:0:0:0:
192,192,353450,1,0,0:0:0:0:
64,192,353450,1,0,0:0:0:0:
448,192,353573,1,0,0:0:0:0:
320,192,353573,1,0,0:0:0:0:
192,192,353634,1,0,0:0:0:0:
64,192,353634,1,0,0:0:0:0:
448,192,353695,1,0,0:0:0:0:
320,192,353695,1,0,0:0:0:0:
448,192,353818,1,0,0:0:0:0:
192,192,353818,1,0,0:0:0:0:
64,192,353818,1,0,0:0:0:0:
192,192,353940,1,0,0:0:0:0:
64,192,353940,1,0,0:0:0:0:
448,192,354063,1,0,0:0:0:0:
320,192,354063,1,0,0:0:0:0:
192,192,354063,1,0,0:0:0:0:
320,192,354185,1,0,0:0:0:0:
64,192,354185,1,0,0:0:0:0:
448,192,354246,1,0,0:0:0:0:
192,192,354246,1,0,0:0:0:0:
320,192,354308,1,0,0:0:0:0:
64,192,354308,1,0,0:0:0:0:
192,192,354430,1,0,0:0:0:0:
320,192,354552,1,0,0:0:0:0:
192,192,354552,1,0,0:0:0:0:
64,192,354552,1,0,0:0:0:0:
192,192,354675,1,0,0:0:0:0:
448,192,354797,1,0,0:0:0:0:
192,192,354797,1,0,0:0:0:0:
64,192,354797,1,0,0:0:0:0:
448,192,354920,1,0,0:0:0:0:
320,192,354920,1,0,0:0:0:0:
448,192,355042,1,0,0:0:0:0:
320,192,355042,1,0,0:0:0:0:
192,192,355042,1,0,0:0:0:0:
192,192,355165,1,0,0:0:0:0:
64,192,355165,1,0,0:0:0:0:
448,192,355287,1,0,0:0:0:0:
320,192,355287,1,0,0:0:0:0:
192,192,355348,1,0,0:0:0:0:
64,192,355348,1,0,0:0:0:0:
448,192,355410,1,0,0:0:0:0:
320,192,355410,1,0,0:0:0:0:
448,192,355532,1,0,0:0:0:0:
192,192,355532,1,0,0:0:0:0:
64,192,355532,1,0,0:0:0:0:
192,192,355654,1,0,0:0:0:0:
64,192,355654,1,0,0:0:0:0:
320,192,355777,1,0,0:0:0:0:
192,192,355777,1,0,0:0:0:0:
448,192,355899,1,0,0:0:0:0:
64,192,355899,1,0,0:0:0:0:
320,192,355961,1,0,0:0:0:0:
192,192,355961,1,0,0:0:0:0:
448,192,356022,1,0,0:0:0:0:
64,192,356022,1,0,0:0:0:0:
320,192,356144,1,0,0:0:0:0:
192,192,356144,1,0,0:0:0:0:
192,192,356267,1,0,0:0:0:0:
64,192,356267,1,0,0:0:0:0:
448,192,356389,1,0,0:0:0:0:
320,192,356389,1,0,0:0:0:0:
192,192,356389,1,0,0:0:0:0:
448,192,356512,1,0,0:0:0:0:
192,192,356512,1,0,0:0:0:0:
64,192,356512,1,0,0:0:0:0:
448,192,356634,1,0,0:0:0:0:
320,192,356634,1,0,0:0:0:0:
448,192,356757,1,0,0:0:0:0:
320,192,356757,1,0,0:0:0:0:
192,192,356757,1,0,0:0:0:0:
192,192,356879,1,0,0:0:0:0:
64,192,356879,1,0,0:0:0:0:
448,192,357001,1,0,0:0:0:0:
320,192,357001,1,0,0:0:0:0:
192,192,357063,1,0,0:0:0:0:
64,192,357063,1,0,0:0:0:0:
448,192,357124,1,0,0:0:0:0:
320,192,357124,1,0,0:0:0:0:
448,192,357246,1,0,0:0:0:0:
192,192,357246,1,0,0:0:0:0:
64,192,357246,1,0,0:0:0:0:
192,192,357369,1,0,0:0:0:0:
64,192,357369,1,0,0:0:0:0:
448,192,357491,1,0,0:0:0:0:
320,192,357491,1,0,0:0:0:0:
192,192,357491,1,0,0:0:0:0:
320,192,357614,1,0,0:0:0:0:
64,192,357614,1,0,0:0:0:0:
448,192,357675,1,0,0:0:0:0:
192,192,357675,1,0,0:0:0:0:
320,192,357736,1,0,0:0:0:0:
64,192,357736,1,0,0:0:0:0:
192,192,357859,1,0,0:0:0:0:
320,192,357981,1,0,0:0:0:0:
192,192,357981,1,0,0:0:0:0:
64,192,357981,1,0,0:0:0:0:
192,192,358103,1,0,0:0:0:0:
448,192,358226,1,0,0:0:0:0:
192,192,358226,1,0,0:0:0:0:
64,192,358226,1,0,0:0:0:0:
448,192,358348,1,0,0:0:0:0:
320,192,358348,1,0,0:0:0:0:
448,192,358471,1,0,0:0:0:0:
320,192,358471,1,0,0:0:0:0:
192,192,358471,1,0,0:0:0:0:
192,192,358593,1,0,0:0:0:0:
64,192,358593,1,0,0:0:0:0:
448,192,358716,1,0,0:0:0:0:
320,192,358716,1,0,0:0:0:0:
192,192,358777,1,0,0:0:0:0:
64,192,358777,1,0,0:0:0:0:
448,192,358838,1,0,0:0:0:0:
320,192,358838,1,0,0:0:0:0:
448,192,358961,1,0,0:0:0:0:
192,192,358961,1,0,0:0:0:0:
64,192,358961,1,0,0:0:0:0:
192,192,359083,1,0,0:0:0:0:
64,192,359083,1,0,0:0:0:0:
320,192,359221,1,0,0:0:0:0:
448,192,359328,1,0,0:0:0:0:
192,192,359466,1,0,0:0:0:0:
320,192,359573,1,0,0:0:0:0:
64,192,359711,1,0,0:0:0:0:
320,192,359818,1,0,0:0:0:0:
448,192,359940,1,0,0:0:0:0:
320,192,359940,1,0,0:0:0:0:
192,192,359940,1,0,0:0:0:0:
448,192,360185,1,0,0:0:0:0:
320,192,360185,1,0,0:0:0:0:
192,192,360185,1,0,0:0:0:0:
448,192,360430,1,0,0:0:0:0:
320,192,360430,1,0,0:0:0:0:
192,192,360430,1,0,0:0:0:0:
448,192,360675,1,0,0:0:0:0:
320,192,360675,1,0,0:0:0:0:
192,192,360675,1,0,0:0:0:0:
448,192,360920,1,0,0:0:0:0:
320,192,360920,1,0,0:0:0:0:
192,192,360920,1,0,0:0:0:0:
448,192,361165,1,0,0:0:0:0:
320,192,361165,1,0,0:0:0:0:
192,192,361165,1,0,0:0:0:0:
448,192,361410,1,0,0:0:0:0:
320,192,361410,1,0,0:0:0:0:
192,192,361410,1,0,0:0:0:0:
448,192,361654,1,0,0:0:0:0:
320,192,361654,1,0,0:0:0:0:
192,192,361654,1,0,0:0:0:0:
448,192,361899,1,0,0:0:0:0:
320,192,361899,1,0,0:0:0:0:
192,192,361899,1,0,0:0:0:0:
448,192,362144,1,0,0:0:0:0:
320,192,362144,1,0,0:0:0:0:
192,192,362144,1,0,0:0:0:0:
448,192,362389,1,0,0:0:0:0:
320,192,362389,1,0,0:0:0:0:
192,192,362389,1,0,0:0:0:0:
448,192,362634,1,0,0:0:0:0:
320,192,362634,1,0,0:0:0:0:
192,192,362634,1,0,0:0:0:0:
448,192,362879,1,0,0:0:0:0:
320,192,362879,1,0,0:0:0:0:
192,192,362879,1,0,0:0:0:0:
448,192,363124,1,0,0:0:0:0:
320,192,363124,1,0,0:0:0:0:
192,192,363124,1,0,0:0:0:0:
448,192,363246,1,0,0:0:0:0:
320,192,363246,1,0,0:0:0:0:
192,192,363246,1,0,0:0:0:0:
448,192,363369,1,0,0:0:0:0:
320,192,363369,1,0,0:0:0:0:
192,192,363369,1,0,0:0:0:0:
448,192,363614,1,0,0:0:0:0:
320,192,363614,1,0,0:0:0:0:
192,192,363614,1,0,0:0:0:0:
448,192,363859,1,0,0:0:0:0:
320,192,363859,1,0,0:0:0:0:
192,192,363859,1,0,0:0:0:0:
448,192,364103,1,0,0:0:0:0:
320,192,364103,1,0,0:0:0:0:
192,192,364103,1,0,0:0:0:0:
448,192,364348,1,0,0:0:0:0:
320,192,364348,1,0,0:0:0:0:
192,192,364348,1,0,0:0:0:0:
192,192,364593,1,0,0:0:0:0:
192,192,364838,1,0,0:0:0:0:
448,192,365083,1,0,0:0:0:0:
320,192,365083,1,0,0:0:0:0:
192,192,365083,1,0,0:0:0:0:
192,192,365328,1,0,0:0:0:0:
448,192,365573,1,0,0:0:0:0:
320,192,365573,1,0,0:0:0:0:
192,192,365573,1,0,0:0:0:0:
192,192,365818,1,0,0:0:0:0:
448,192,366063,1,0,0:0:0:0:
320,192,366063,1,0,0:0:0:0:
192,192,366063,1,0,0:0:0:0:
448,192,366185,1,0,0:0:0:0:
320,192,366185,1,0,0:0:0:0:
192,192,366185,1,0,0:0:0:0:
192,192,366308,1,0,0:0:0:0:
192,192,366552,1,0,0:0:0:0:
192,192,366675,1,0,0:0:0:0:
448,192,366797,1,0,0:0:0:0:
320,192,366797,1,0,0:0:0:0:
192,192,366797,1,0,0:0:0:0:
192,192,367287,1,0,0:0:0:0:
448,192,367532,1,0,0:0:0:0:
320,192,367532,1,0,0:0:0:0:
192,192,367532,1,0,0:0:0:0:
448,192,367777,1,0,0:0:0:0:
320,192,367777,1,0,0:0:0:0:
192,192,367777,1,0,0:0:0:0:
448,192,368267,1,0,0:0:0:0:
320,192,368267,1,0,0:0:0:0:
192,192,368267,1,0,0:0:0:0:
448,192,368512,1,0,0:0:0:0:
320,192,368512,1,0,0:0:0:0:
192,192,368512,1,0,0:0:0:0:
448,192,368757,1,0,0:0:0:0:
320,192,368757,1,0,0:0:0:0:
192,192,368757,1,0,0:0:0:0:
192,192,369001,1,0,0:0:0:0:
192,192,369246,1,0,0:0:0:0:
448,192,369491,1,0,0:0:0:0:
320,192,369491,1,0,0:0:0:0:
192,192,369491,1,0,0:0:0:0:
448,192,370226,1,0,0:0:0:0:
320,192,370226,1,0,0:0:0:0:
192,192,370226,1,0,0:0:0:0:
448,192,370471,1,0,0:0:0:0:
320,192,370471,1,0,0:0:0:0:
192,192,370471,1,0,0:0:0:0:
448,192,370716,1,0,0:0:0:0:
320,192,370716,1,0,0:0:0:0:
192,192,370716,1,0,0:0:0:0:
448,192,370961,1,0,0:0:0:0:
320,192,370961,1,0,0:0:0:0:
192,192,370961,1,0,0:0:0:0:
448,192,371206,1,0,0:0:0:0:
320,192,371206,1,0,0:0:0:0:
192,192,371206,1,0,0:0:0:0:
448,192,371450,1,0,0:0:0:0:
320,192,371450,1,0,0:0:0:0:
192,192,371450,1,0,0:0:0:0:
448,192,371940,1,0,0:0:0:0:
320,192,371940,1,0,0:0:0:0:
192,192,371940,1,0,0:0:0:0:
448,192,372185,1,0,0:0:0:0:
320,192,372185,1,0,0:0:0:0:
192,192,372185,1,0,0:0:0:0:
448,192,372675,1,0,0:0:0:0:
320,192,372675,1,0,0:0:0:0:
192,192,372675,1,0,0:0:0:0:
448,192,373165,1,0,0:0:0:0:
320,192,373165,1,0,0:0:0:0:
192,192,373165,1,0,0:0:0:0:
448,192,373287,1,0,0:0:0:0:
320,192,373287,1,0,0:0:0:0:
192,192,373287,1,0,0:0:0:0:
448,192,373410,1,0,0:0:0:0:
320,192,373410,1,0,0:0:0:0:
192,192,373410,1,0,0:0:0:0:
448,192,373654,1,0,0:0:0:0:
320,192,373654,1,0,0:0:0:0:
192,192,373654,1,0,0:0:0:0:
448,192,375369,1,0,0:0:0:0:
320,192,375369,1,0,0:0:0:0:
448,192,377083,1,0,0:0:0:0:
448,192,378797,1,0,0:0:0:0:
