osu file format v14

[General]
AudioFilename: audio.mp3
AudioLeadIn: 0
PreviewTime: 85631
Countdown: 0
SampleSet: Soft
StackLeniency: 0.3
Mode: 0
LetterboxInBreaks: 0
WidescreenStoryboard: 1

[Editor]
Bookmarks: 21443,64300
DistanceSpacing: 1.2
BeatDivisor: 4
GridSize: 4
TimelineZoom: 1

[Metadata]
Title:Too Far Across
TitleUnicode:Too Far Across
Artist:Venetian Snares
ArtistUnicode:Venetian Snares
Creator:Mortem
Version:Normal
Source:
Tags:my love is a bulldozer aaron funk breakcore chill sad plucked guitar electronic idm
BeatmapID:1850826
BeatmapSetID:885542

[Difficulty]
HPDrainRate:3
CircleSize:4
OverallDifficulty:4
ApproachRate:5
SliderMultiplier:0.8
SliderTickRate:1

[Events]
//Background and Video events
0,0,"background.jpg",0,0
//Break Periods
//Storyboard Layer 0 (Background)
//Storyboard Layer 1 (Fail)
//Storyboard Layer 2 (Pass)
//Storyboard Layer 3 (Foreground)
//Storyboard Layer 4 (Overlay)
//Storyboard Sound Samples

[TimingPoints]
51,535.714285714286,5,2,1,40,1,0
37283,-100,5,2,1,5,0,0
37551,-100,5,2,1,40,0,0
58711,-100,5,2,1,5,0,0
58979,-100,5,2,1,40,0,0
66747,-100,5,2,1,5,0,0
67015,-100,5,2,1,40,0,0
77461,-100,5,2,1,5,0,0
77729,-100,5,2,1,40,0,0
85775,535.714285714286,5,2,1,40,1,1
106132,-100,5,2,1,40,0,0
106266,-100,5,2,1,35,0,0
107203,-100,5,2,1,25,0,0
108275,-100,5,2,1,15,0,0
109346,-100,5,2,1,5,0,0

[Colours]
Combo1 : 90,64,37
Combo2 : 219,209,166
Combo3 : 149,132,62
SliderBorder : 160,160,160
SliderTrackOverride : 80,80,80

[HitObjects]
133,119,51,5,4,0:0:0:0:
133,119,1122,2,0,P|138:163|129:200,1,80,0|0,0:0|0:0,0:0:0:0:
75,276,2193,1,0,0:0:0:0:
157,325,2729,6,0,B|197:345|231:314|231:314|270:284|313:310,1,160,4|0,0:0|0:0,0:0:0:0:
387,255,4336,1,0,0:0:0:0:
359,163,4872,1,0,0:0:0:0:
424,92,5408,6,0,P|377:67|281:105,1,160,4|0,0:0|0:0,0:0:0:0:
192,135,7015,1,0,0:0:0:0:
105,93,7551,1,0,0:0:0:0:
31,154,8086,5,4,0:0:0:0:
31,154,10765,5,4,0:0:0:0:
173,282,11836,2,0,P|219:297|255:293,1,80,0|0,0:0|0:0,0:0:0:0:
330,241,12908,1,0,0:0:0:0:
423,262,13443,6,0,B|437:228|419:182|419:182|401:138|418:99,1,160,4|0,0:0|0:0,0:0:0:0:
337,49,15051,1,0,0:0:0:0:
246,80,15586,1,0,0:0:0:0:
153,52,16122,5,4,0:0:0:0:
81,204,17059,1,0,0:0:0:0:
81,204,17193,2,0,P|100:238|135:255,1,80,0|0,0:0|0:0,0:0:0:0:
217,204,18265,1,0,0:0:0:0:
296,257,18801,5,4,0:0:0:0:
296,257,21479,6,0,P|311:229|281:111,1,160,4|0,0:0|0:0,0:0:0:0:
191,78,23086,2,0,P|157:95|111:94,1,80,0|0,0:0|0:0,0:0:0:0:
47,163,24158,6,0,P|30:194|68:307,1,160,4|0,0:0|0:0,0:0:0:0:
159,289,25765,1,0,0:0:0:0:
244,332,26301,1,0,0:0:0:0:
334,299,26836,6,0,P|327:270|340:216,1,80,4|0,0:0|0:0,0:0:0:0:
268,153,27908,2,0,P|233:169|190:164,1,80,0|0,0:0|0:0,0:0:0:0:
111,113,28979,1,0,0:0:0:0:
54,190,29515,5,4,0:0:0:0:
54,190,31122,1,2,0:0:0:0:
54,190,32193,6,0,P|97:215|197:175,1,160,4|0,0:0|0:0,0:0:0:0:
269,120,33801,2,0,P|306:140|345:143,1,80,0|0,0:0|0:0,0:0:0:0:
423,195,34872,6,0,P|416:231|423:280,1,80,4|0,0:0|0:0,0:0:0:0:
341,327,35943,1,0,0:0:0:0:
256,281,36479,1,0,0:0:0:0:
168,320,37015,2,0,P|142:322|105:311,1,60,0|0,0:0|0:0,0:0:0:0:
88,301,37551,6,0,P|100:251|69:149,1,160,4|0,0:0|0:0,0:0:0:0:
133,78,39158,2,0,P|182:97|214:89,1,80,0|0,0:0|0:0,0:0:0:0:
293,49,40229,5,4,0:0:0:0:
293,49,42908,6,0,P|288:93|352:162,1,140,4|0,0:0|0:0,0:0:0:0:
370,167,43979,2,0,P|401:173|456:161,1,80,0|0,0:0|0:0,0:0:0:0:
508,89,45051,1,0,0:0:0:0:
430,33,45586,6,0,P|398:50|353:50,1,80,4|0,0:0|0:0,0:0:0:0:
258,50,46658,2,0,P|218:49|182:67,1,80,0|0,0:0|0:0,0:0:0:0:
106,126,47729,1,0,0:0:0:0:
60,210,48265,6,0,P|69:244|71:270,2,60,4|0|0,0:0|0:0|0:0,0:0:0:0:
89,172,49336,2,0,P|129:185|171:184,1,80,0|0,0:0|0:0,0:0:0:0:
248,133,50408,1,0,0:0:0:0:
335,171,50943,5,4,0:0:0:0:
335,171,52551,2,0,P|340:218|311:284,1,120,2|2,0:0|0:0,0:0:0:0:
265,296,53622,6,0,P|187:275|110:301,1,160,4|0,0:0|0:0,0:0:0:0:
47,228,55229,1,0,0:0:0:0:
111,157,55765,1,0,0:0:0:0:
64,73,56301,6,0,P|110:61|147:66,1,80,4|0,0:0|0:0,0:0:0:0:
227,108,57372,1,0,0:0:0:0:
319,81,57908,1,0,0:0:0:0:
402,128,58443,2,0,P|394:162|397:192,1,60,0|0,0:0|0:0,0:0:0:0:
403,209,58979,6,0,P|356:237|327:235,1,80,4|0,0:0|0:0,0:0:0:0:
250,185,60051,2,0,P|203:157|174:159,1,80,0|0,0:0|0:0,0:0:0:0:
89,190,61122,1,0,0:0:0:0:
55,280,61658,5,4,0:0:0:0:
55,280,64336,6,0,P|93:300|138:296,1,80,4|0,0:0|0:0,0:0:0:0:
222,275,65408,2,0,P|260:255|313:255,1,80,0|0,0:0|0:0,0:0:0:0:
379,300,66479,2,0,P|393:264|392:231,1,60,0|0,0:0|0:0,0:0:0:0:
377,225,67015,6,0,P|364:184|375:141,1,80,4|0,0:0|0:0,0:0:0:0:
303,80,68086,2,0,P|263:85|225:75,1,80,0|0,0:0|0:0,0:0:0:0:
132,101,69158,1,0,0:0:0:0:
77,180,69693,6,0,P|90:220|78:270,1,80,4|0,0:0|0:0,0:0:0:0:
177,281,70765,2,0,P|164:241|176:191,1,80,0|0,0:0|0:0,0:0:0:0:
228,128,71836,1,0,0:0:0:0:
311,176,72372,5,4,0:0:0:0:
311,176,73979,1,2,0:0:0:0:
311,176,75051,6,0,P|317:222|310:263,1,80,4|0,0:0|0:0,0:0:0:0:
226,212,76122,2,0,P|180:218|139:211,1,80,0|0,0:0|0:0,0:0:0:0:
64,164,77193,2,0,P|60:134|67:93,1,60,0|0,0:0|0:0,0:0:0:0:
81,88,77729,6,0,P|117:101|168:98,1,80,4|0,0:0|0:0,0:0:0:0:
245,59,78801,1,0,0:0:0:0:
334,93,79336,1,0,0:0:0:0:
358,185,79872,1,0,0:0:0:0:
296,259,80408,6,0,P|253:254|203:265,1,80,4|0,0:0|0:0,0:0:0:0:
149,192,81479,2,0,P|154:149|143:99,1,80,0|0,0:0|0:0,0:0:0:0:
77,47,82551,1,0,0:0:0:0:
20,124,83086,5,4,0:0:0:0:
20,124,85775,6,0,P|32:166|26:207,1,80,4|0,0:0|0:0,0:0:0:0:
85,278,86846,1,0,0:0:0:0:
174,242,87382,1,0,0:0:0:0:
264,273,87917,1,0,0:0:0:0:
355,243,88453,6,0,P|351:207|373:150,1,80,4|0,0:0|0:0,0:0:0:0:
455,138,89525,2,0,P|459:174|437:231,1,80,0|0,0:0|0:0,0:0:0:0:
364,265,90596,1,0,0:0:0:0:
268,269,91132,6,0,P|221:256|129:323,1,160,4|0,0:0|0:0,0:0:0:0:
56,255,92739,1,0,0:0:0:0:
82,162,93275,1,0,0:0:0:0:
56,69,93810,6,0,P|81:61|125:73,1,60,4|2,0:0|0:1,0:0:0:0:
134,78,94346,2,0,P|162:86|191:80,1,60,2|2,0:1|0:1,0:0:0:0:
215,75,94882,2,0,P|243:66|272:72,1,60,2|2,0:1|0:1,0:0:0:0:
295,80,95417,1,2,0:1:0:0:
295,80,96489,6,0,P|288:139|295:158,1,80,4|0,0:0|0:0,0:0:0:0:
384,123,97560,2,0,P|391:161|377:206,1,80,0|0,0:0|0:0,0:0:0:0:
311,268,98632,1,0,0:0:0:0:
215,258,99167,6,0,P|184:250|148:253,1,60,4|2,0:0|0:1,0:0:0:0:
138,234,99703,2,0,P|146:199|143:167,1,60,2|2,0:1|0:1,0:0:0:0:
160,156,100239,2,0,P|194:166|227:158,1,60,2|2,0:1|0:1,0:0:0:0:
242,154,100775,2,0,P|292:140|335:147,1,80,2|0,0:1|0:0,0:0:0:0:
401,191,101846,5,4,0:0:0:0:
401,191,102917,2,0,P|391:243|402:272,1,80,0|0,0:0|0:0,0:0:0:0:
343,346,103989,1,0,0:0:0:0:
254,309,104525,6,0,P|229:303|191:307,1,60,4|2,0:0|0:1,0:0:0:0:
172,314,105060,2,0,P|142:317|113:310,1,60,2|2,0:1|0:1,0:0:0:0:
90,301,105596,2,0,P|101:277|97:214,1,80,2|2,0:1|0:1,0:0:0:0:
256,192,106266,12,0,109882,0:0:0:0:
