osu file format v14

[General]
AudioFilename: audio.mp3
AudioLeadIn: 0
PreviewTime: 85631
Countdown: 0
SampleSet: Soft
StackLeniency: 0.3
Mode: 0
LetterboxInBreaks: 0
WidescreenStoryboard: 1

[Editor]
Bookmarks: 21443,64300
DistanceSpacing: 0.8
BeatDivisor: 4
GridSize: 4
TimelineZoom: 1

[Metadata]
Title:Too Far Across
TitleUnicode:Too Far Across
Artist:Venetian Snares
ArtistUnicode:Venetian Snares
Creator:Mortem
Version:Hard
Source:
Tags:my love is a bulldozer aaron funk breakcore chill sad plucked guitar electronic idm
BeatmapID:1850825
BeatmapSetID:885542

[Difficulty]
HPDrainRate:5.5
CircleSize:5.5
OverallDifficulty:5
ApproachRate:7.5
SliderMultiplier:1.1
SliderTickRate:1

[Events]
//Background and Video events
0,0,"background.jpg",0,0
//Break Periods
//Storyboard Layer 0 (Background)
//Storyboard Layer 1 (Fail)
//Storyboard Layer 2 (Pass)
//Storyboard Layer 3 (Foreground)
//Storyboard Layer 4 (Overlay)
//Storyboard Sound Samples

[TimingPoints]
51,535.714285714286,5,2,1,40,1,0
31926,-100,5,2,1,5,0,0
31992,-100,5,2,1,15,0,0
32059,-100,5,2,1,25,0,0
32126,-100,5,2,1,35,0,0
32193,-100,5,2,1,40,0,0
35140,-100,5,2,1,5,0,0
35408,-100,5,2,1,40,0,0
37283,-100,5,2,1,5,0,0
37551,-100,5,2,1,40,0,0
44247,-100,5,2,1,5,0,0
44515,-100,5,2,1,40,0,0
45854,-100,5,2,1,5,0,0
46122,-100,5,2,1,40,0,0
58711,-100,5,2,1,5,0,0
58979,-100,5,2,1,40,0,0
59247,-100,5,2,1,5,0,0
59515,-100,5,2,1,40,0,0
66747,-100,5,2,1,5,0,0
67015,-100,5,2,1,40,0,0
69426,-100,5,2,1,5,0,0
69693,-100,5,2,1,40,0,0
74783,-100,5,2,1,5,0,0
74850,-100,5,2,1,15,0,0
74917,-100,5,2,1,25,0,0
74984,-100,5,2,1,35,0,0
75051,-100,5,2,1,40,0,0
80140,-100,5,2,1,5,0,0
80408,-100,5,2,1,40,0,0
85775,535.714285714286,5,2,1,40,1,1
85775,-80,5,2,1,40,0,1
87114,-80,5,2,1,5,0,1
87382,-80,5,2,1,40,0,1
90864,-80,5,2,1,5,0,1
91132,-80,5,2,1,40,0,1
97828,-80,5,2,1,5,0,1
98096,-80,5,2,1,40,0,1
102114,-80,5,2,1,5,0,1
102382,-80,5,2,1,40,0,1
106132,-80,5,2,1,40,0,0
106266,-80,5,2,1,35,0,0
107203,-80,5,2,1,25,0,0
108275,-80,5,2,1,15,0,0
109346,-80,5,2,1,5,0,0

[Colours]
Combo1 : 139,118,73
Combo2 : 210,202,159
Combo3 : 203,180,126
SliderBorder : 160,160,160
SliderTrackOverride : 80,80,80

[HitObjects]
404,116,51,5,4,0:0:0:0:
404,116,1122,2,0,P|416:152|378:230,1,110
320,267,2193,1,0,0:0:0:0:
160,191,2729,5,4,0:0:0:0:
160,191,3801,2,0,B|192:169|229:213|267:188,1,110
332,131,4872,1,0,0:0:0:0:
439,270,5408,5,4,0:0:0:0:
439,270,6479,2,0,B|449:240|437:210|437:210|426:182|442:148,1,110
377,97,7551,1,0,0:0:0:0:
226,188,8086,5,4,0:0:0:0:
226,188,10765,5,4,0:0:0:0:
226,188,11836,2,0,P|181:155|112:166,2,110
344,318,13443,5,4,0:0:0:0:
344,317,14515,2,0,P|389:350|458:339,2,110
257,163,16122,5,4,0:0:0:0:
140,263,17059,1,0,0:0:0:0:
140,263,17193,2,0,P|144:209|115:152,1,110
175,89,18265,1,0,0:0:0:0:
287,224,18801,5,4,0:0:0:0:
287,224,21479,5,4,0:0:0:0:
433,321,22551,2,0,P|454:270|438:214,1,110
382,152,23622,1,0,0:0:0:0:
219,85,24158,6,0,B|175:116|117:74|117:74|102:138|40:141,1,220,4|0,0:0|0:0,0:0:0:0:
8,222,25765,1,0,0:0:0:0:
45,301,26301,1,0,0:0:0:0:
212,247,26836,6,0,P|321:221|424:283,1,220,4|0,0:0|0:0,0:0:0:0:
472,204,28443,1,0,0:0:0:0:
444,120,28979,1,0,0:0:0:0:
280,55,29515,5,4,0:0:0:0:
280,55,31122,2,0,L|266:69,2,13.75,2|0|0,0:0|0:0|0:0,0:0:0:0:
477,168,31926,2,2,L|500:165,2,13.75
451,207,32193,6,0,P|415:232|348:114,1,220,4|0,0:0|0:0,0:0:0:0:
272,65,33801,2,0,P|257:95|181:125,1,110
255,289,34872,6,0,P|297:284|345:292,1,82.5,4|0,0:0|0:0,0:0:0:0:
379,299,35408,2,0,P|364:271|380:193,1,110
335,119,36479,1,0,0:0:0:0:
253,151,37015,2,0,P|225:160|169:155,1,82.5
135,180,37551,6,0,P|152:208|137:284,1,110,4|0,0:0|0:0,0:0:0:0:
201,342,38622,2,0,P|238:333|308:345,1,110
354,270,39693,1,0,0:0:0:0:
258,122,40229,5,4,0:0:0:0:
258,122,42908,5,4,0:0:0:0:
159,240,43845,1,0,0:0:0:0:
159,240,43979,2,0,P|150:276|165:325,1,82.5
178,332,44515,2,0,P|230:323|289:336,1,110
410,210,45586,6,0,P|407:176|422:129,1,82.5,4|0,0:0|0:0,0:0:0:0:
407,112,46122,2,0,P|368:131|297:126,1,110
229,79,47193,1,0,0:0:0:0:
157,130,47729,1,0,0:0:0:0:
261,272,48265,6,0,P|303:275|349:255,2,82.5,4|0|0,0:0|0:0|0:0,0:0:0:0:
234,237,49336,2,0,P|243:202|224:125,1,110
157,77,50408,1,0,0:0:0:0:
26,194,50943,5,4,0:0:0:0:
26,194,52551,2,2,L|23:214,2,13.75
210,74,53354,1,2,0:0:0:0:
266,141,53622,6,0,P|331:156|388:38,1,220,4|0,0:0|0:0,0:0:0:0:
306,70,55229,2,0,P|249:66|201:98,1,110
73,209,56301,6,0,P|83:244|53:315,2,110,4|0|0,0:0|0:0|0:0,0:0:0:0:
123,137,57908,1,0,0:0:0:0:
185,198,58443,2,0,P|231:209|269:195,1,82.5
304,180,58979,6,0,P|317:218|317:264,1,82.5,4|0,0:0|0:0,0:0:0:0:
326,280,59515,2,0,P|357:286|435:251,2,110
255,327,61122,1,0,0:0:0:0:
140,193,61658,5,4,0:0:0:0:
140,193,64336,6,0,P|172:156|172:92,1,110,4|0,0:0|0:0,0:0:0:0:
262,97,65408,2,0,P|262:150|295:192,1,110
339,116,66479,2,0,P|366:140|381:188,1,82.5
360,222,67015,6,0,P|347:263|373:332,1,110,4|0,0:0|0:0,0:0:0:0:
285,358,68086,1,0,0:0:0:0:
235,285,68622,1,0,0:0:0:0:
148,267,69158,2,0,P|111:276|61:268,1,82.5
44,233,69693,6,0,P|66:187|58:124,1,110,4|0,0:0|0:0,0:0:0:0:
122,67,70765,2,0,P|168:89|231:81,1,110
306,49,71836,1,0,0:0:0:0:
409,191,72372,5,4,0:0:0:0:
409,191,73979,2,0,L|415:206,2,13.75,2|0|0,0:0|0:0|0:0,0:0:0:0:
232,58,74783,2,2,L|224:34,2,13.75
203,91,75051,6,0,P|207:130|166:195,1,110,4|0,0:0|0:0,0:0:0:0:
112,254,76122,1,0,0:0:0:0:
172,318,76658,2,0,P|224:305|284:320,1,110
384,176,77729,6,4,P|380:138|422:68,1,110,4|0,0:0|0:0,0:0:0:0:
331,40,78801,2,0,P|309:68|237:83,1,110
164,129,79872,2,0,P|177:171|172:214,1,82.5
197,246,80408,6,0,P|251:240|309:263,2,110,4|0|0,0:0|0:0|0:0,0:0:0:0:
110,263,82015,1,0,0:0:0:0:
79,180,82551,1,0,0:0:0:0:
220,76,83086,5,4,0:0:0:0:
220,76,85775,6,0,P|287:77|341:128,1,137.5,4|0,0:0|0:0,0:0:0:0:
349,231,86846,2,0,P|382:261|450:262,1,103.125
462,253,87382,2,0,P|449:192|486:108,1,137.5
257,66,88453,6,0,P|230:93|128:91,1,137.5,4|0,0:0|0:0,0:0:0:0:
46,160,89525,2,0,P|13:197|27:285,1,137.5
124,321,90596,2,0,P|174:310|231:327,1,103.125
272,296,91132,6,0,P|254:249|284:159,1,137.5,4|0,0:0|0:0,0:0:0:0:
345,81,92203,1,0,0:0:0:0:
432,148,92739,1,0,0:0:0:0:
378,244,93275,1,0,0:0:0:0:
174,325,93810,5,4,0:0:0:0:
76,191,94212,1,2,0:1:0:0:
76,191,94346,1,2,0:1:0:0:
189,70,94748,1,2,0:1:0:0:
189,70,94882,1,2,0:1:0:0:
301,190,95283,1,2,0:1:0:0:
301,190,95417,1,2,0:1:0:0:
301,190,96489,6,0,P|298:129|339:66,1,137.5,4|0,0:0|0:0,0:0:0:0:
405,153,97560,2,0,P|425:199|419:250,1,103.125
408,275,98096,2,0,P|377:315|293:323,1,137.5
168,144,99167,6,0,P|133:158|64:141,1,103.125,4|2,0:0|0:1,0:0:0:0:
54,168,99703,2,0,P|68:203|51:272,1,103.125,2|2,0:1|0:1,0:0:0:0:
46,291,100239,1,2,0:1:0:0:
116,333,100641,1,2,0:1:0:0:
116,333,100775,2,0,P|186:318|261:338,1,137.5,2|0,0:1|0:0,0:0:0:0:
419,193,101846,6,0,P|407:148|429:85,1,103.125,4|0,0:0|0:0,0:0:0:0:
406,71,102382,2,0,P|365:92|277:68,1,137.5
192,137,103453,1,0,0:0:0:0:
84,161,103989,1,0,0:0:0:0:
255,299,104525,5,4,0:0:0:0:
465,191,104926,1,2,0:1:0:0:
465,191,105060,1,2,0:1:0:0:
257,76,105462,1,2,0:1:0:0:
257,76,105596,1,2,0:1:0:0:
255,299,106132,5,2,0:1:0:0:
256,192,106266,12,0,109882,0:0:0:0:
