osu file format v14

[General]
AudioFilename: audio.mp3
AudioLeadIn: 0
PreviewTime: 155209
Countdown: 0
SampleSet: None
StackLeniency: 0.8
Mode: 0
LetterboxInBreaks: 0
WidescreenStoryboard: 1

[Editor]
Bookmarks: 23398,23829,24001,24174,24346,24519,39347,77968,87623,97278,116588,135899,155209,193830,213140,251761,271071
DistanceSpacing: 1.7
BeatDivisor: 4
GridSize: 4
TimelineZoom: 2.800005

[Metadata]
Title:Szerencstlen
TitleUnicode:Szerencsétlen
Artist:Venetian Snares
ArtistUnicode:Venetian Snares
Creator:orinel
Version:den0core
Source:
Tags:breakcore electronic Rossz Csillag Alatt Született
BeatmapID:1282109
BeatmapSetID:606956

[Difficulty]
HPDrainRate:5
CircleSize:4.1
OverallDifficulty:8.8
ApproachRate:9.2
SliderMultiplier:1.74
SliderTickRate:1

[Events]
//Background and Video events
0,0,"fog-covered-fir-forest-photography-hd-wallpaper-1920x1080-3465-1366x768.jpg",0,0
//Break Periods
//Storyboard Layer 0 (Background)
//Storyboard Layer 1 (Fail)
//Storyboard Layer 2 (Pass)
//Storyboard Layer 3 (Foreground)
//Storyboard Sound Samples

[TimingPoints]
726,344.827586206897,7,3,1,100,1,0
5553,-100,7,2,1,10,0,0
9691,-133.333333333333,7,2,1,10,0,0
10381,-100,7,2,1,10,0,0
16932,-133.333333333333,7,2,1,10,0,0
17622,-100,7,2,1,10,0,0
39347,-100,7,3,1,30,0,0
39347.5909422667,344.827586206897,7,3,1,40,1,0
41416,-100,7,3,1,30,0,0
53140,-66.6666666666667,7,3,1,10,0,0
53571,-100,4,3,1,40,0,0
56761,-66.6666666666667,4,3,1,40,0,0
56933,-100,4,3,1,40,0,0
57623,-66.6666666666667,4,3,1,40,0,0
57968,-66.6666666666667,4,3,1,10,0,0
58399,-100,4,3,1,40,0,0
58657,-100,4,3,1,40,0,0
65382,-66.6666666666667,4,3,1,40,0,0
65554,-100,4,3,1,40,0,0
66416,-66.6666666666667,4,3,1,40,0,0
66588,-100,4,3,1,40,0,0
67278,-66.6666666666667,4,3,1,40,0,0
67623,-100,4,3,1,40,0,0
67968,-66.6666666666667,4,3,1,40,0,0
68140,-100,4,3,1,40,0,0
72451,-66.6666666666667,4,3,1,40,0,0
72795,-100,4,3,1,40,0,0
76071,-66.6666666666667,4,3,1,40,0,0
76416,-100,4,3,1,40,0,0
77623,-100,4,2,1,40,0,0
77968,-100,4,2,1,40,0,0
78313,-100,4,2,1,30,0,0
78485,-100,4,2,1,20,0,0
78657,-100,4,2,1,10,0,0
80037,-100,4,2,1,10,0,0
80209,-100,4,2,1,15,0,0
80382,-100,4,2,1,20,0,0
80554,-100,4,2,1,25,0,0
80726,-100,4,2,1,30,0,0
80899,-100,4,3,1,40,0,0
82968,-100,4,2,1,40,0,0
83140,-133.333333333333,4,2,1,30,0,0
83313,-100,4,2,1,25,0,0
83485,-200,4,2,1,20,0,0
83657,-100,4,2,1,15,0,0
83830,-100,4,2,1,10,0,0
84175,-100,4,3,1,20,0,0
84864,-100,4,3,1,10,0,0
85209,-100,4,2,1,40,0,0
85382,-100,4,2,1,30,0,0
85554,-133.333333333333,4,2,1,25,0,0
85726,-100,4,2,1,20,0,0
85899,-200,4,2,1,15,0,0
86071,-100,4,2,1,10,0,0
86588,-100,4,3,1,40,0,0
93485,-125,4,3,1,40,0,0
93830,-100,4,2,1,40,0,0
94864,-100,4,3,1,40,0,0
99347,-100,4,2,1,20,0,0
99951,-166.666666666667,7,3,1,20,0,0
101071,-100,4,3,1,40,0,0
101675,-100,4,3,1,20,0,0
106933,-100,4,3,1,40,0,0
109692,-100,4,3,1,20,0,0
110640,-100,4,3,1,27,0,0
111416,-100,4,3,1,34,0,0
111761,-100,4,3,1,40,0,0
115295,-100,4,3,1,40,0,0
120037,-66.6666666666667,4,3,1,10,0,0
120123,-66.6666666666667,4,3,1,15,0,0
120209,-66.6666666666667,4,3,1,20,0,0
120295,-66.6666666666667,4,3,1,30,0,0
120382,-66.6666666666667,4,3,1,40,0,0
120468,-100,4,3,1,40,0,0
128313,-83.3333333333333,4,3,1,60,0,0
128657,-66.6666666666667,4,3,1,40,0,0
128916,-83.3333333333333,4,3,1,40,0,0
129520,-100,4,3,1,40,0,0
138313,-133.333333333333,4,3,1,40,0,0
138830,-100,4,3,1,40,0,0
139347,-66.6666666666667,4,3,1,40,0,0
139778,-100,4,3,1,40,0,0
142451,-133.333333333333,4,3,1,40,0,0
142795,-100,4,3,1,40,0,0
145209,-66.6666666666667,4,3,1,40,0,0
145554,-100,4,3,1,40,0,0
148657,-66.6666666666667,4,3,1,40,0,0
150037,-100,4,3,1,40,0,0
151588,-66.6666666666667,4,3,1,40,0,0
152106,-100,4,3,1,20,0,0
152364,-100,4,3,1,40,0,0
156933,-133.333333333333,4,2,1,10,0,0
165813,-200,4,2,1,10,0,0
173226,-133.333333333333,4,2,1,10,0,0
174175,-200,4,2,1,10,0,0
176847,-133.333333333333,4,2,1,10,0,0
179002,-200,4,2,1,10,0,0
180468,-133.333333333333,4,2,1,10,0,0
182106,-200,4,2,1,10,0,0
184606,-133.333333333333,4,2,1,10,0,0
189002,-200,4,2,1,10,0,0
193830,-100,4,3,1,40,0,0
194175,-200,4,2,1,40,0,0
194347,-200,4,2,1,25,0,0
194520,-200,4,2,1,10,0,0
196416,-133.333333333333,4,2,1,25,0,0
196761,-100,4,3,1,40,0,0
199002,-200,4,2,1,40,0,0
199175,-200,4,2,1,30,0,0
199347,-200,4,2,1,20,0,0
199520,-200,4,2,1,10,0,0
200382,-100,4,3,1,40,0,0
204692,-200,4,2,1,10,0,0
205209,-100,4,3,1,40,0,0
206244,-100,4,3,1,40,0,0
210554,-100,4,3,1,5,0,0
210726,-100,4,3,1,60,0,0
213140,-100,4,3,1,60,0,1
216244,-66.6666666666667,4,3,1,60,0,1
217623,-100,4,3,1,60,0,1
220899,-66.6666666666667,4,3,1,60,0,1
221071,-100,4,3,1,60,0,1
222106,-100,4,3,1,60,0,1
222278,-66.6666666666667,4,3,1,60,0,1
222623,-100,4,3,1,60,0,1
225209,-66.6666666666667,4,3,1,60,0,1
225382,-133.333333333333,4,3,1,60,0,1
225899,-100,4,3,1,60,0,1
230554,-66.6666666666667,4,3,1,60,0,1
230899,-76.9230769230769,4,3,1,60,0,1
231761,-100,4,3,1,60,0,1
235899,-66.6666666666667,4,3,1,60,0,1
236244,-100,4,3,1,60,0,1
238830,-66.6666666666667,4,3,1,60,0,1
239002,-100,4,2,1,60,0,1
239347,-100,4,3,1,60,0,1
241933,-66.6666666666667,4,3,1,60,0,1
242106,-100,4,3,1,60,0,1
242451,-66.6666666666667,4,3,1,60,0,1
242795,-100,4,3,1,60,0,1
243830,-133.333333333333,4,3,1,60,0,1
244347,-100,4,3,1,60,0,1
245726,-66.6666666666667,4,3,1,60,0,1
246588,-100,4,3,1,60,0,1
248140,-66.6666666666667,4,3,1,60,0,1
248657,-100,4,3,1,60,0,1
249864,-66.6666666666667,4,3,1,60,0,1
250209,-100,4,3,1,60,0,1
252278,-66.6666666666667,4,3,1,60,0,1
253140,-100,4,3,1,60,0,1
255899,-66.6666666666667,4,3,1,60,0,1
256588,-100,4,3,1,60,0,1
256933,-66.6666666666667,4,3,1,60,0,1
257278,-100,4,3,1,60,0,1
257537,-76.9230769230769,4,3,1,60,0,1
258313,-100,4,3,1,60,0,1
259520,-66.6666666666667,4,3,1,60,0,1
259692,-100,4,3,1,60,0,1
261244,-66.6666666666667,4,3,1,60,0,1
262451,-100,4,3,1,60,0,1
263140,-76.9230769230769,4,3,1,60,0,1
264520,-100,4,3,1,60,0,1
265382,-66.6666666666667,4,3,1,60,0,1
265899,-100,4,3,1,60,0,1
267968,-76.9230769230769,4,3,1,60,0,1
269347,-100,4,3,1,60,0,1
271071,-133.333333333333,4,3,1,30,0,0

[HitObjects]
186,85,5553,6,0,P|187:107|194:128,2,43.5
267,235,6243,1,0,0:0:0:0:
267,235,6932,1,0,0:0:0:0:
333,121,7105,1,0,0:0:0:0:
126,183,7277,2,0,P|80:185|31:170,1,87
344,272,7967,6,0,P|350:252|351:229,2,43.5
94,161,9691,6,0,P|77:198|76:234,1,65.2500024890901
73,261,10381,2,0,B|40:245|34:208|34:208|32:174|48:139|79:127|79:127|105:118|127:124|140:141|140:141|148:154|147:170|135:183|135:183|124:194|103:192|91:180|91:180|89:168|99:156,1,348
238,299,11415,6,0,B|282:332|325:318|350:290|350:290|373:266|412:252|454:260|454:260|492:278|490:304|490:304|489:323|477:330|477:330|459:342|440:332|440:332|425:320|425:305|425:305|422:286|450:260|454:214|425:187,1,522
281,98,12794,2,0,P|294:139|321:172,1,87
97,94,14519,6,0,P|77:88|54:87,7,43.5
205,182,15208,1,0,0:0:0:0:
454,54,15898,6,0,P|427:61|403:81,1,43.5
380,59,16070,2,0,P|361:78|350:107,1,43.5
321,106,16243,2,0,P|314:132|319:163,1,43.5
366,208,16415,6,0,P|342:222|311:227,1,43.5
319,305,16588,2,0,P|298:298|280:287,1,43.5
213,329,16760,2,0,P|204:309|201:287,1,43.5
119,232,16932,2,0,P|167:196|237:195,1,130.50000497818
442,321,17622,6,0,P|448:341|460:359,27,43.5
449,237,20036,1,0,0:0:0:0:
298,81,20381,6,0,P|274:85|251:98,1,43.5
218,157,20553,2,0,P|236:144|249:127,1,43.5
143,99,20726,6,0,P|125:114|111:137,1,43.5
114,204,20898,2,0,P|123:184|125:162,1,43.5
33,205,21070,6,0,B|38:247|57:283|119:301|161:268|161:268|179:256|190:240|207:230|207:230|236:212|270:224|283:253|283:253|294:277|286:305|264:319|264:319|231:338|186:321|177:288|181:266|189:251,1,522
372,64,22450,6,0,P|365:85|353:103,1,43.5
306,153,22622,2,0,P|326:148|345:136,1,43.5
289,44,22794,6,0,P|266:42|245:48,1,43.5
180,95,22966,2,0,P|165:111|157:132,1,43.5
169,214,23139,2,0,B|182:232|208:236|237:230|254:195|236:163|236:163|215:131|173:115|118:122|89:180|89:180|80:200|81:222,1,348
83,246,23915,2,0,L|95:298,1,43.5
174,305,24044,6,0,L|185:354,1,43.5
247,257,24217,2,0,L|259:309,1,43.5
338,316,24389,2,0,L|349:365,1,43.5
417,272,24519,2,0,P|423:221|434:162,1,108.75
472,92,24863,5,0,0:0:0:0:
341,159,25208,1,0,0:0:0:0:
152,40,25726,1,0,0:0:0:0:
240,291,26501,1,0,0:0:0:0:
252,312,26588,2,0,P|249:268|233:227,1,87
395,160,27277,6,0,P|389:182|387:213,2,43.5
119,75,29001,5,0,0:0:0:0:
25,218,29691,2,0,P|30:260|55:296,1,87
109,226,30726,6,0,P|129:227|153:234,1,43.5
190,299,30898,2,0,P|176:282|164:263,1,43.5
171,158,31070,2,0,P|187:117|221:90,1,87
446,130,31415,2,0,P|456:151|457:174,1,43.5
497,199,31588,2,0,P|494:221|484:243,1,43.5
432,300,31760,2,0,P|394:320|351:322,1,87
166,234,32105,2,0,P|129:213|85:210,1,87
370,240,33829,6,0,P|385:199|381:156,1,87
265,42,34519,2,0,P|260:84|276:124,1,87
124,116,36588,5,0,0:0:0:0:
45,174,36760,1,0,0:0:0:0:
207,263,36932,2,0,P|219:220|215:167,1,87
209,155,38269,5,0,0:0:0:0:
73,274,38657,2,0,P|65:316|83:362,1,87
448,56,39346,6,0,L|404:48,1,43.5
317,32,39520,1,0,0:0:0:0:
228,124,39692,2,0,L|242:226,1,87
162,316,40037,1,8,0:0:0:0:
37,212,40209,1,0,0:0:0:0:
47,189,40295,1,0,0:0:0:0:
63,168,40382,2,0,P|78:153|97:142,1,43.5
137,56,40554,2,0,P|157:50|179:51,1,43.5
228,124,40726,6,0,P|263:147|315:155,1,87,0|0,0:3|0:0,0:0:0:0:
430,51,41071,2,0,P|422:75|424:101,1,43.5
384,158,41244,1,0,0:0:0:0:
390,183,41330,1,0,0:0:0:0:
403,205,41416,2,0,P|416:218|438:231,1,43.5
469,301,41588,2,0,P|487:306|512:306,1,43.5
321,282,41761,6,0,L|271:293,1,43.5
194,311,41933,1,0,0:0:0:0:
91,230,42106,2,0,L|110:141,1,87
8,61,42451,1,8,0:0:0:0:
215,99,42623,1,0,0:0:0:0:
234,81,42709,1,0,0:0:0:0:
247,58,42795,2,0,P|252:37|253:15,1,43.5
316,102,42968,2,0,P|331:117|349:128,1,43.5
381,53,43140,6,0,P|432:44|479:64,1,87
420,223,43485,2,0,L|409:265,1,43.5
330,318,43657,1,0,0:0:0:0:
318,294,43744,1,0,0:0:0:0:
314,268,43830,1,0,0:0:0:0:
316,242,43916,1,0,0:0:0:0:
327,218,44002,1,8,0:0:0:0:
425,126,44175,6,0,L|473:112,1,43.5
319,74,44347,1,0,0:0:0:0:
211,148,44520,2,0,P|165:148|115:118,1,87
162,5,44864,1,8,0:0:0:0:
291,149,45037,1,0,0:0:0:0:
294,174,45123,1,0,0:0:0:0:
291,199,45209,2,0,P|285:219|274:238,1,43.5
201,268,45382,2,0,P|200:289|206:310,1,43.5
133,184,45554,6,0,P|87:167|36:174,1,87
74,308,45899,6,0,L|125:289,1,43.5
213,187,46071,1,0,0:0:0:0:
218,161,46157,1,0,0:0:0:0:
216,134,46244,2,0,P|212:113|202:94,1,43.5
49,35,46416,1,0,0:0:0:0:
64,53,46502,1,0,0:0:0:0:
85,68,46588,6,0,P|104:78|125:82,1,43.5
269,52,46761,1,0,0:0:0:0:
394,86,46933,2,0,P|425:130|428:171,1,87
398,288,47278,1,8,0:0:0:0:
282,196,47451,5,0,0:0:0:0:
256,189,47537,1,0,0:0:0:0:
230,191,47623,2,0,P|207:195|188:204,1,43.5
162,313,47795,2,0,P|178:299|191:282,1,43.5
126,152,47968,6,0,P|106:113|103:70,1,87
248,114,48313,2,0,P|273:108|296:97,1,43.5
347,49,48485,1,0,0:0:0:0:
371,56,48571,1,0,0:0:0:0:
391,72,48657,2,0,P|403:88|410:110,1,43.5
394,224,48830,1,8,0:0:0:0:
204,187,49002,6,0,P|183:199|165:216,1,43.5
126,288,49175,1,0,0:0:0:0:
309,351,49347,2,0,P|323:335|332:314,1,43.5
280,212,49520,2,0,P|276:233|279:255,1,43.5
401,355,49692,1,8,0:0:0:0:
394,224,49864,5,8,0:0:0:0:
404,200,49951,1,0,0:0:0:0:
421,181,50037,2,0,P|439:170|461:166,1,43.5
512,260,50209,2,0,P|490:257|471:246,1,43.5
313,139,50382,5,0,0:0:0:0:
288,131,50468,1,0,0:0:0:0:
262,133,50554,1,0,0:0:0:0:
238,143,50640,1,0,0:0:0:0:
218,160,50726,6,0,P|200:174|171:182,1,43.5
48,93,50899,1,0,0:0:0:0:
57,67,50985,1,0,0:0:0:0:
74,48,51071,2,0,P|90:33|110:26,1,43.5
177,70,51244,2,0,P|198:66|219:70,1,43.5
279,211,51416,6,0,P|282:233|290:253,1,43.5
341,324,51588,1,0,0:0:0:0:
461,272,51761,2,0,L|473:177,1,87
399,76,52106,1,8,0:0:0:0:
218,160,52278,5,0,0:0:0:0:
192,158,52364,1,0,0:0:0:0:
167,147,52451,2,0,P|148:136|136:117,1,43.5
67,81,52623,2,0,P|60:61|62:40,1,43.5
85,196,52795,6,0,P|66:244|30:272,1,87
296,253,53140,2,8,P|312:257|330:268,8,32.625001244545
383,211,53571,2,0,P|409:212|435:203,2,43.5,0|8|0,0:0|0:0|0:0,0:0:0:0:
309,173,53830,5,0,0:0:0:0:
282,172,53916,1,0,0:0:0:0:
258,182,54002,1,0,0:0:0:0:
237,198,54088,1,0,0:0:0:0:
222,219,54175,2,0,P|214:240|215:261,1,43.5
139,165,54347,2,0,P|122:151|102:143,1,43.5
39,221,54520,2,0,P|60:225|82:221,1,43.5
195,105,54692,1,0,0:0:0:0:
220,102,54778,1,0,0:0:0:0:
245,103,54864,2,0,P|269:110|289:124,1,43.5,0|8,2:0|0:0,0:0:0:0:
362,129,55037,2,0,P|379:148|389:169,1,43.5,0|8,2:0|0:0,0:0:0:0:
429,300,55209,6,0,P|387:325|338:328,1,87,4|0,0:0|0:0,0:0:0:0:
248,246,55554,2,0,P|227:239|205:238,1,43.5
130,260,55726,5,0,0:0:0:0:
105,249,55813,1,0,0:0:0:0:
86,230,55899,2,0,P|75:210|72:188,1,43.5
121,128,56071,2,0,P|132:109|150:95,1,43.5
384,79,56244,6,0,P|383:100|377:121,1,43.5
314,202,56416,1,0,0:0:0:0:
190,163,56588,1,0,0:0:0:0:
305,85,56761,2,0,L|285:43,2,32.625001244545
392,227,56933,1,8,0:0:0:0:
256,260,57106,5,0,0:0:0:0:
240,280,57192,1,0,0:0:0:0:
234,305,57278,2,0,P|236:333|245:352,1,43.5
155,328,57451,2,0,P|140:351|122:363,1,43.5
87,289,57623,2,8,L|39:276,2,32.625001244545,8|8|8,2:0|0:0|0:0,0:0:0:0:
193,194,57795,2,0,L|229:183,17,32.625001244545,8|0|0|0|0|0|0|0|0|0|0|0|0|0|0|0|0|0,0:0|0:0|0:0|0:0|0:0|0:0|0:0|0:0|0:0|0:0|0:0|0:0|0:0|0:0|0:0|0:0|0:0|0:0,0:0:0:0:
98,143,58657,6,0,P|55:139|15:155,1,87
193,194,59002,2,0,P|205:209|212:231,1,43.5
162,341,59175,2,0,P|170:320|185:305,1,43.5
303,291,59347,1,8,0:0:0:0:
489,198,59520,6,0,P|500:180|508:158,1,43.5
381,48,59692,1,0,0:0:0:0:
379,74,59778,1,8,0:0:0:0:
383,100,59864,1,0,0:0:0:0:
392,124,59951,1,8,0:0:0:0:
407,145,60037,2,0,P|403:191|383:229,1,87
236,364,60382,5,8,0:0:0:0:
193,194,60554,1,0,0:0:0:0:
224,195,60640,1,8,0:0:0:0:
247,203,60726,2,0,P|264:215|277:233,1,43.5
208,275,60899,2,0,P|187:282|166:283,1,43.5
97,194,61071,6,0,L|89:135,1,43.5
79,64,61244,1,0,0:0:0:0:
0,186,61416,2,0,P|2:229|26:268,1,87
120,312,61761,1,8,0:0:0:0:
331,317,61933,1,0,0:0:0:0:
355,310,62020,1,0,0:0:0:0:
377,296,62106,2,0,P|395:279|407:258,1,43.5
468,218,62278,2,0,P|476:193|475:170,1,43.5
443,63,62451,5,0,0:0:0:0:
421,90,62537,1,0,0:0:0:0:
393,110,62623,1,0,0:0:0:0:
359,116,62709,1,0,0:0:0:0:
325,110,62795,1,0,0:0:0:0:
313,195,62968,2,0,P|296:215|288:241,1,43.5
234,121,63140,5,0,0:0:0:0:
212,94,63226,1,0,0:0:0:0:
184,74,63312,1,0,0:0:0:0:
150,68,63398,1,0,0:0:0:0:
116,74,63484,1,0,0:0:0:0:
68,195,63657,1,8,0:0:0:0:
94,199,63744,1,0,0:0:0:0:
120,192,63830,2,0,P|138:179|150:161,1,43.5
281,44,64002,1,0,0:0:0:0:
247,251,64175,6,0,P|224:262|205:266,1,43.5,8|0,0:0|0:0,0:0:0:0:
313,195,64347,2,0,P|336:192|355:196,1,43.5,8|0,0:0|0:0,0:0:0:0:
358,309,64520,2,0,P|342:293|332:274,1,43.5,8|0,0:0|0:0,0:0:0:0:
431,164,64692,5,0,0:0:0:0:
439,187,64778,1,0,0:0:0:0:
436,213,64864,1,0,0:0:0:0:
285,86,65037,2,0,L|341:82,1,43.5
472,63,65209,5,8,0:0:0:0:
313,195,65382,2,0,P|299:191|281:182,2,32.625001244545
339,217,65554,1,8,0:0:0:0:
349,249,65640,1,8,0:0:0:0:
340,282,65726,1,8,0:0:0:0:
310,300,65813,1,8,0:0:0:0:
275,306,65899,6,0,P|253:301|234:290,1,43.5
151,143,66071,1,0,0:0:0:0:
374,73,66244,1,0,0:0:0:0:
309,162,66416,2,0,P|310:181|313:195,2,32.625001244545
336,0,66588,1,8,0:0:0:0:
232,103,66761,5,8,0:0:0:0:
217,124,66847,1,8,0:0:0:0:
194,137,66933,2,0,P|172:143|150:142,1,43.5,0|8,0:0|0:0,0:0:0:0:
80,44,67106,2,0,P|100:50|118:62,1,43.5,0|8,0:0|0:0,0:0:0:0:
180,262,67278,2,0,P|182:278|181:294,2,32.625001244545
96,288,67451,2,0,P|91:303|81:316,2,32.625001244545
79,203,67623,2,0,P|62:163|63:120,1,87
372,71,67968,6,0,P|387:65|403:63,2,32.625001244545
293,71,68140,2,0,P|275:84|262:101,1,43.5,8|0,0:0|0:0,0:0:0:0:
332,140,68313,2,0,P|333:159|342:181,1,43.5,8|0,0:0|0:0,0:0:0:0:
297,244,68485,1,0,0:0:0:0:
283,266,68571,1,8,0:0:0:0:
262,281,68657,2,0,P|243:292|222:296,2,43.5,8|8|8,0:0|0:0|0:0,0:0:0:0:
376,256,69002,1,0,0:0:0:0:
206,186,69175,1,0,0:0:0:0:
78,303,69347,6,0,P|72:324|72:345,1,43.5
132,245,69520,2,0,P|126:224|115:205,1,43.5
54,155,69692,1,0,0:0:0:0:
175,109,69864,5,0,0:0:0:0:
199,83,69951,1,0,0:0:0:0:
210,50,70037,1,8,0:0:0:0:
277,161,70209,5,0,0:0:0:0:
306,179,70295,1,0,0:0:0:0:
340,184,70382,1,0,0:0:0:0:
457,110,70554,1,0,0:0:0:0:
470,132,70640,1,0,0:0:0:0:
477,157,70726,6,0,P|480:179|477:199,1,43.5
433,278,70899,1,8,0:0:0:0:
319,340,71071,2,0,P|299:297|305:249,1,87
370,178,71416,1,8,0:0:0:0:
210,50,71588,2,0,P|190:60|174:74,1,43.5
150,150,71761,2,0,P|129:154|107:154,1,43.5
57,46,71933,2,0,P|78:48|98:56,1,43.5
236,128,72106,6,0,P|236:172|215:210,1,87
87,234,72451,2,8,P|67:228|40:227,6,32.625001244545
146,299,72795,1,8,0:0:0:0:
176,316,72882,1,8,0:0:0:0:
209,323,72968,1,8,0:0:0:0:
243,319,73054,1,8,0:0:0:0:
274,306,73140,6,0,P|294:293|306:276,1,43.5
384,269,73313,2,0,P|399:284|408:304,1,43.5
288,194,73485,2,0,P|277:174|273:153,1,43.5
290,77,73657,1,0,0:0:0:0:
316,53,73744,1,0,0:0:0:0:
346,36,73830,2,0,P|369:31|389:32,1,43.5
383,142,74002,5,8,0:0:0:0:
403,169,74088,1,8,0:0:0:0:
431,188,74175,2,0,P|459:198|482:198,1,43.5
484,276,74347,2,0,P|505:297|515:317,1,43.5
347,351,74520,2,0,P|302:361|256:353,1,87
164,269,74864,1,8,0:0:0:0:
253,173,75037,5,0,0:0:0:0:
244,148,75123,1,8,0:0:0:0:
229,126,75209,2,0,P|213:110|194:100,1,43.5
110,116,75382,2,0,P|89:110|67:111,1,43.5
59,305,75554,5,4,0:0:0:0:
161,191,75726,1,4,0:0:0:0:
211,338,75899,1,4,0:0:0:0:
81,218,76071,2,0,P|60:213|41:216,2,32.625001244545
164,269,76244,1,0,0:0:0:0:
291,244,76416,6,0,P|310:233|323:215,1,43.5
395,186,76588,2,0,P|404:166|407:145,1,43.5
330,139,76761,1,0,0:0:0:0:
305,131,76847,1,8,0:0:0:0:
278,131,76933,2,0,P|230:153|194:153,1,87
61,114,77278,2,0,P|19:81|2:50,1,87
203,68,77623,2,0,P|207:110|194:156,1,87,4|0,0:0|0:0,0:0:0:0:
0,219,77968,6,0,P|23:207|54:202,1,43.5,4|0,0:0|0:0,0:0:0:0:
124,196,78140,1,0,0:0:0:0:
200,289,78313,1,0,0:0:0:0:
298,240,78485,1,0,0:0:0:0:
355,306,78657,1,0,0:0:0:0:
407,279,78830,1,0,0:0:0:0:
449,314,79002,1,0,0:0:0:0:
175,234,80037,5,0,0:0:0:0:
117,298,80209,1,0,0:0:0:0:
105,187,80382,1,0,0:0:0:0:
1,240,80554,1,0,0:0:0:0:
47,88,80726,1,0,0:0:0:0:
203,164,80899,5,0,0:0:0:0:
228,161,80985,1,8,0:0:0:0:
252,151,81071,1,0,0:0:0:0:
271,133,81158,1,0,0:0:0:0:
284,110,81244,1,8,0:0:0:0:
411,133,81416,5,0,0:0:0:0:
430,150,81502,1,8,0:0:0:0:
443,172,81588,1,0,0:0:0:0:
448,197,81675,1,8,0:0:0:0:
446,222,81761,1,8,0:0:0:0:
316,233,81933,5,0,0:0:0:0:
292,242,82019,1,8,0:0:0:0:
272,258,82105,1,0,0:0:0:0:
258,280,82192,1,8,0:0:0:0:
252,305,82278,1,8,0:0:0:0:
202,172,82451,1,0,0:0:0:0:
172,153,82537,1,0,0:0:0:0:
137,150,82623,1,0,0:0:0:0:
39,292,82795,6,0,P|59:289|80:282,1,43.5
147,227,82968,1,0,0:0:0:0:
33,146,83140,1,0,0:0:0:0:
130,65,83313,1,0,0:0:0:0:
241,103,83485,1,0,0:0:0:0:
302,52,83657,1,0,0:0:0:0:
355,67,83830,1,0,0:0:0:0:
230,343,84175,6,0,P|212:333|197:317,1,43.5
224,213,84347,2,0,P|235:232|241:253,1,43.5
122,344,84520,2,0,P|117:324|118:302,1,43.5
68,242,84692,2,0,P|73:221|85:202,1,43.5
89,117,84864,1,0,0:0:0:0:
113,83,84951,1,0,0:0:0:0:
152,64,85037,1,0,0:0:0:0:
442,87,85209,6,0,P|441:106|438:129,1,43.5
391,236,85382,1,0,0:0:0:0:
278,173,85554,1,0,0:0:0:0:
244,268,85726,1,0,0:0:0:0:
173,222,85899,1,0,0:0:0:0:
140,281,86071,1,0,0:0:0:0:
98,260,86244,1,0,0:0:0:0:
227,55,86588,6,0,P|241:38|260:26,1,43.5
339,88,86761,2,0,P|318:94|295:96,1,43.5
149,63,86933,1,8,0:0:0:0:
285,171,87106,1,0,0:0:0:0:
287,196,87192,1,0,0:0:0:0:
284,221,87278,1,0,0:0:0:0:
275,245,87364,1,0,0:0:0:0:
262,268,87451,1,0,0:0:0:0:
88,251,87623,5,0,0:0:0:0:
181,338,87795,1,0,0:0:0:0:
160,193,87968,2,0,P|120:164|75:157,1,87,8|0,0:0|0:0,0:0:0:0:
291,77,88313,6,0,P|306:61|317:43,1,43.5
213,81,88485,1,8,0:0:0:0:
222,114,88571,1,0,0:0:0:0:
243,139,88657,2,0,P|262:151|283:155,1,43.5,0|8,0:0|0:0,0:0:0:0:
398,117,88830,2,0,P|376:118|356:124,1,43.5,0|8,0:0|0:0,0:0:0:0:
268,239,89002,6,0,P|270:282|290:320,1,87
398,245,89347,1,8,0:0:0:0:
291,77,89520,2,0,P|265:63|239:62,1,43.5
176,37,89692,1,0,0:0:0:0:
141,40,89778,1,8,0:0:0:0:
110,56,89864,1,0,0:0:0:0:
88,83,89951,1,8,0:0:0:0:
80,116,90037,6,0,P|99:164|95:205,1,87
34,313,90382,1,8,0:0:0:0:
166,277,90554,1,0,0:0:0:0:
200,282,90640,1,0,0:0:0:0:
230,298,90726,2,0,P|248:315|260:340,1,43.5
349,284,90899,1,0,0:0:0:0:
379,268,90985,1,0,0:0:0:0:
403,244,91071,2,0,P|414:221|418:194,1,43.5
357,153,91244,2,0,P|356:127|345:102,1,43.5
208,205,91416,5,4,0:0:0:0:
115,68,91588,1,4,0:0:0:0:
268,87,91761,1,8,0:0:0:0:
113,190,91933,1,8,0:0:0:0:
114,225,92020,1,8,0:0:0:0:
127,257,92106,1,8,0:0:0:0:
150,282,92192,1,8,0:0:0:0:
180,298,92278,1,8,0:0:0:0:
322,216,92451,6,0,P|364:221|402:243,1,87
323,346,92795,1,8,0:0:0:0:
208,205,92968,1,0,0:0:0:0:
217,171,93054,1,0,0:0:0:0:
235,140,93140,2,0,P|249:125|268:114,1,43.5
372,93,93313,1,8,0:0:0:0:
498,159,93485,1,0,0:0:0:0:
487,194,93571,1,0,0:0:0:0:
467,222,93657,1,0,0:0:0:0:
435,238,93743,1,0,0:0:0:0:
401,242,93829,5,0,0:0:0:0:
268,114,94002,1,0,0:0:0:0:
131,223,94175,1,0,0:0:0:0:
253,267,94347,1,0,0:0:0:0:
153,123,94520,1,0,0:0:0:0:
38,253,94692,1,0,0:0:0:0:
220,342,94864,6,0,P|262:346|303:331,1,87
401,242,95209,1,8,0:0:0:0:
268,114,95382,1,8,0:0:0:0:
299,98,95468,1,0,0:0:0:0:
333,93,95554,1,0,0:0:0:0:
367,99,95640,1,0,0:0:0:0:
397,116,95726,1,8,0:0:0:0:
330,201,95899,6,0,P|321:224|320:250,1,43.5,0|8,0:0|0:0,0:0:0:0:
244,220,96071,1,0,0:0:0:0:
212,205,96157,1,0,0:0:0:0:
185,182,96244,2,0,P|164:144|162:100,1,87
364,23,96588,1,0,0:0:0:0:
481,102,96761,5,0,0:0:0:0:
493,133,96847,1,0,0:0:0:0:
496,170,96933,2,0,P|486:217|450:259,1,87
313,331,97278,2,0,P|303:285|276:248,1,87
176,55,99347,5,0,0:0:0:0:
176,55,99692,2,0,P|145:85|140:138,1,87
171,201,99951,2,0,B|174:270|88:323|-12:248|91:156|106:210,1,234.899992831421
249,269,101071,2,0,P|256:315|240:355,1,87
129,100,101675,6,0,P|123:75|124:56,1,43.5
211,111,101847,2,0,P|193:151|159:177,1,87
60,199,102106,2,0,P|43:238|48:281,1,87
366,104,104175,6,0,P|344:104|324:112,1,43.5
430,148,104347,2,0,P|448:137|461:119,1,43.5
360,180,104520,2,0,P|351:221|359:268,1,87
191,281,104864,2,0,P|171:291|156:309,1,43.5
221,354,105037,1,0,0:0:0:0:
242,339,105123,1,0,0:0:0:0:
259,319,105209,2,0,P|269:277|252:232,1,87
116,151,105554,6,0,P|91:154|65:169,1,43.5
117,229,105726,2,0,P|172:205|193:155,1,108.75
197,0,106071,1,0,0:0:0:0:
192,25,106157,1,0,0:0:0:0:
194,50,106244,2,0,P|217:86|255:106,1,87
436,86,106588,6,0,P|449:105|454:125,1,43.5
453,212,106761,1,0,0:0:0:0:
296,323,106933,2,0,P|253:328|211:314,1,87
147,299,108657,5,0,0:0:0:0:
246,260,108830,1,0,0:0:0:0:
77,212,109002,1,0,0:0:0:0:
174,227,109175,1,0,0:0:0:0:
75,128,109347,2,0,P|51:87|48:31,1,87
295,101,109735,6,0,P|342:76|396:79,1,108.75
328,222,110080,2,0,P|327:246|319:268,1,43.5
388,293,110252,2,0,P|427:330|480:344,1,108.75
203,346,110640,6,0,P|188:305|194:262,1,87
126,71,111071,5,0,0:0:0:0:
153,151,111186,2,0,P|173:171|200:181,1,58
106,227,111416,2,0,P|49:233|-1:204,1,116
262,118,111761,2,0,P|305:116|345:133,1,87
256,192,113485,12,4,115037,0:0:0:0:
131,182,115295,5,4,0:0:0:0:
309,100,115554,1,4,0:0:0:0:
211,212,115813,6,0,P|208:233|213:254,1,43.5,8|0,0:0|0:0,0:0:0:0:
435,130,116071,1,0,0:0:0:0:
435,130,116157,1,0,0:0:0:0:
435,130,116244,1,8,0:0:0:0:
402,140,116330,1,8,0:0:0:0:
367,138,116416,1,8,0:0:0:0:
335,124,116502,1,8,0:0:0:0:
309,100,116588,6,0,P|296:118|280:133,1,43.5,0|0,2:0|2:0,2:0:0:0:
254,206,116761,2,0,P|234:211|211:212,1,43.5,0|0,2:0|2:0,2:0:0:0:
67,162,116933,2,0,P|48:171|31:185,1,43.5,0|0,2:0|2:0,2:0:0:0:
145,165,117106,5,0,0:0:0:0:
164,136,117192,1,0,0:0:0:0:
170,101,117278,2,0,P|169:78|161:58,1,43.5,8|0,0:0|0:0,0:0:0:0:
30,185,117451,1,0,0:0:0:0:
28,219,117537,1,0,0:0:0:0:
40,252,117623,2,0,P|51:270|68:284,1,43.5,8|0,0:0|0:0,0:0:0:0:
165,315,117795,2,0,P|172:335|172:356,1,43.5,8|0,0:0|0:0,0:0:0:0:
254,206,117968,6,0,P|290:182|333:178,1,87
459,210,118313,1,8,0:0:0:0:
409,331,118485,1,0,0:0:0:0:
375,323,118571,1,0,0:0:0:0:
343,304,118657,2,0,P|328:288|319:269,1,43.5,4|0,0:0|0:0,0:0:0:0:
318,92,118830,1,0,0:0:0:0:
77,191,119002,5,0,0:0:0:0:
198,238,119175,1,4,0:0:0:0:
88,103,119347,2,0,P|46:91|3:96,1,87
63,278,119692,1,8,0:0:0:0:
147,171,119864,6,0,P|165:159|186:153,1,43.5
258,180,120037,2,8,P|278:186|296:186,8,32.625001244545
185,153,120468,1,0,0:0:0:0:
166,123,120554,1,0,0:0:0:0:
160,89,120640,1,0,0:0:0:0:
167,56,120726,1,0,0:0:0:0:
441,190,120899,6,0,P|460:208|490:218,1,43.5
432,280,121071,1,0,0:0:0:0:
417,301,121157,1,0,0:0:0:0:
394,315,121244,1,4,0:0:0:0:
179,283,121416,1,4,0:0:0:0:
250,358,121588,5,0,0:0:0:0:
271,330,121675,1,0,0:0:0:0:
281,295,121761,2,0,P|282:274|277:252,1,43.5
186,153,121933,1,0,0:0:0:0:
367,175,122106,6,0,P|388:167|405:154,1,43.5,8|0,0:0|0:0,0:0:0:0:
470,89,122278,2,0,P|454:76|434:67,1,43.5,8|0,0:0|0:0,0:0:0:0:
347,43,122451,2,0,P|343:64|345:85,1,43.5,8|0,0:0|0:0,0:0:0:0:
454,226,122623,5,0,0:0:0:0:
440,257,122709,1,0,0:0:0:0:
415,281,122795,1,4,0:0:0:0:
277,253,122968,5,0,0:0:0:0:
153,298,123140,2,0,P|136:337|134:383,1,87
359,202,123485,5,8,0:0:0:0:
335,176,123571,1,8,0:0:0:0:
303,160,123657,1,8,0:0:0:0:
267,157,123744,1,8,0:0:0:0:
233,166,123830,2,0,P|214:177|200:196,1,43.5,4|0,0:0|0:0,0:0:0:0:
123,208,124002,1,8,0:0:0:0:
87,208,124088,1,8,0:0:0:0:
55,194,124175,2,0,P|33:175|23:154,1,43.5
41,78,124347,6,2,P|38:65|38:50,2,21.75,2|10|2,0:0|0:0|0:0,0:0:0:0:
105,121,124520,1,0,0:0:0:0:
253,76,124692,2,0,P|250:55|238:34,1,43.5,4|0,0:0|0:0,0:0:0:0:
233,166,124864,5,0,0:0:0:0:
254,192,124951,1,0,0:0:0:0:
282,211,125037,1,8,0:0:0:0:
316,221,125123,1,8,0:0:0:0:
350,221,125209,2,0,P|367:216|387:203,1,43.5,0|8,0:0|0:0,0:0:0:0:
362,128,125382,1,8,0:0:0:0:
360,95,125468,1,8,0:0:0:0:
373,62,125554,2,0,P|390:36|403:26,1,43.5,8|0,0:0|0:0,0:0:0:0:
474,198,125726,5,0,0:0:0:0:
367,336,125899,1,0,0:0:0:0:
250,277,126071,1,0,0:0:0:0:
217,271,126157,1,0,0:0:0:0:
182,278,126244,2,0,P|149:300|139:319,1,43.5,8|0,0:0|0:0,0:0:0:0:
106,209,126416,5,0,0:0:0:0:
75,194,126502,1,8,0:0:0:0:
39,193,126588,2,0,P|9:202|-6:216,2,43.5
160,136,126933,1,4,0:0:0:0:
54,280,127106,1,4,0:0:0:0:
245,161,127278,5,0,0:0:0:0:
248,126,127364,1,8,0:0:0:0:
237,92,127451,1,0,0:0:0:0:
214,65,127537,1,8,0:0:0:0:
182,50,127623,2,0,P|159:47|136:50,1,43.5,4|0,0:0|0:0,0:0:0:0:
122,157,127795,2,0,P|141:148|159:135,1,43.5,4|0,0:0|0:0,0:0:0:0:
270,7,127968,1,8,0:0:0:0:
406,82,128140,6,0,P|418:99|425:120,1,43.5
316,254,128313,1,0,0:0:0:0:
340,300,128399,1,0,0:0:0:0:
381,332,128485,1,0,0:0:0:0:
431,345,128571,1,0,0:0:0:0:
483,335,128657,6,8,P|502:327|513:318,4,32.625001244545
435,217,128916,2,0,P|416:200|392:191,1,52.1999984069825,0|8,0:0|0:0,0:0:0:0:
316,254,129088,2,0,P|290:258|264:253,1,52.1999984069825,0|8,0:0|0:0,0:0:0:0:
218,170,129261,2,0,P|201:150|192:125,1,52.1999984069825,0|8,0:0|0:0,0:0:0:0:
293,8,129520,2,0,P|302:50|298:94,1,87,0|8,0:0|0:0,0:0:0:0:
140,202,129864,1,8,0:0:0:0:
122,232,129951,1,8,0:0:0:0:
119,266,130037,6,0,P|134:306|167:334,1,87
340,288,130382,2,0,P|306:260|263:252,1,87
45,117,130726,5,8,0:0:0:0:
67,80,130813,1,8,0:0:0:0:
108,65,130899,1,8,0:0:0:0:
149,69,130985,1,8,0:0:0:0:
179,94,131071,6,0,P|176:115|167:135,1,43.5,4|0,0:0|0:0,0:0:0:0:
166,214,131244,2,0,P|153:231|135:244,1,43.5,4|0,0:0|0:0,0:0:0:0:
22,215,131416,2,0,P|43:209|65:209,1,43.5,4|0,0:0|0:0,0:0:0:0:
184,306,131588,2,0,P|202:316|224:321,1,43.5,4|0,0:0|0:0,0:0:0:0:
381,224,131761,1,8,0:0:0:0:
297,109,131933,5,0,0:0:0:0:
272,118,132020,1,0,0:0:0:0:
253,136,132106,2,0,P|241:153|236:174,1,43.5
156,138,132278,1,0,0:0:0:0:
149,163,132365,1,0,0:0:0:0:
149,189,132451,2,0,P|155:211|169:232,1,43.5
247,268,132623,1,0,0:0:0:0:
231,289,132710,1,0,0:0:0:0:
211,305,132796,2,0,P|189:313|164:316,1,43.5
307,218,132968,5,0,0:0:0:0:
333,222,133054,1,0,0:0:0:0:
357,236,133140,1,0,0:0:0:0:
377,351,133313,2,0,P|360:337|350:319,1,43.5,8|0,0:0|0:0,0:0:0:0:
364,146,133485,1,8,0:0:0:0:
166,228,133657,5,0,0:0:0:0:
136,209,133744,1,8,0:0:0:0:
116,180,133830,1,0,0:0:0:0:
112,145,133916,1,8,0:0:0:0:
121,111,134002,1,0,0:0:0:0:
116,76,134088,1,8,0:0:0:0:
89,52,134175,6,0,P|64:42|33:48,1,43.5,8|0,0:0|0:0,0:0:0:0:
191,151,134347,1,8,0:0:0:0:
296,132,134520,2,0,P|304:112|304:90,1,43.5,8|0,0:0|0:0,0:0:0:0:
166,228,134692,1,8,0:0:0:0:
336,343,134864,2,0,P|381:340|424:318,1,87
376,175,135209,6,0,P|372:152|376:131,1,43.5
438,84,135382,2,0,P|455:69|476:61,1,43.5
499,206,135554,2,0,P|491:227|477:244,1,43.5
399,253,135727,2,0,P|377:257|354:253,1,43.5
296,132,135899,6,4,P|258:108|215:104,1,87
142,222,136244,1,0,0:0:0:0:
109,236,136330,1,0,0:0:0:0:
75,233,136416,1,0,0:0:0:0:
49,208,136502,1,0,0:0:0:0:
38,175,136588,2,0,P|41:150|53:133,1,43.5,8|0,0:0|0:0,0:0:0:0:
128,116,136761,5,0,0:0:0:0:
142,84,136847,1,0,0:0:0:0:
142,49,136933,2,0,P|136:27|123:10,1,43.5,4|0,0:0|0:0,0:0:0:0:
216,104,137106,5,0,0:0:0:0:
246,120,137192,1,0,0:0:0:0:
280,126,137278,1,0,0:0:0:0:
314,123,137364,1,0,0:0:0:0:
345,108,137451,1,0,0:0:0:0:
379,101,137537,1,0,0:0:0:0:
413,105,137623,6,0,P|432:113|449:127,1,43.5
420,232,137795,1,0,0:0:0:0:
429,265,137882,1,0,0:0:0:0:
451,291,137968,6,0,P|465:305|484:315,3,43.5,4|0|0|0,0:0|0:0|0:0|0:0,0:0:0:0:
344,280,138313,6,0,P|312:285|283:299,1,65.2500024890901,0|4,0:0|0:0,0:0:0:0:
142,328,138571,6,0,P|158:300|184:281,1,65.2500024890901,0|4,0:0|0:0,0:0:0:0:
68,266,138830,1,0,0:0:0:0:
44,238,138916,1,0,0:0:0:0:
37,204,139002,2,0,P|37:179|44:156,1,43.5,8|0,0:0|0:0,0:0:0:0:
114,145,139175,2,0,P|129:130|150:122,1,43.5,8|0,0:0|0:0,0:0:0:0:
213,168,139347,6,0,P|232:172|254:184,8,32.625001244545
184,281,139778,2,8,P|164:275|145:262,2,43.5
236,286,140037,5,8,0:0:0:0:
284,265,140123,1,0,0:0:0:0:
319,226,140209,1,0,0:0:0:0:
333,175,140295,1,0,0:0:0:0:
324,123,140382,1,0,0:0:0:0:
294,80,140468,1,0,0:0:0:0:
248,53,140554,2,0,P|227:47|206:46,1,43.5,4|0,0:0|0:0,0:0:0:0:
88,32,140726,6,0,P|68:70|66:114,1,87,4|0,0:0|0:0,0:0:0:0:
80,147,140985,1,8,0:0:0:0:
105,172,141071,1,0,0:0:0:0:
138,186,141157,1,8,0:0:0:0:
173,185,141244,2,0,P|194:180|212:168,1,43.5
388,63,141416,6,0,P|414:57|439:59,1,43.5,8|0,0:0|0:0,0:0:0:0:
421,146,141588,2,0,P|412:174|396:193,1,43.5,8|0,0:0|0:0,0:0:0:0:
336,133,141761,2,0,P|315:113|304:90,1,43.5,8|0,0:0|0:0,0:0:0:0:
337,221,141933,5,0,0:0:0:0:
322,252,142020,1,0,0:0:0:0:
297,276,142106,2,0,P|279:285|254:290,1,43.5,4|0,0:0|0:0,0:0:0:0:
179,277,142278,2,0,P|162:291|151:309,1,43.5,4|0,0:0|0:0,0:0:0:0:
245,194,142451,6,0,P|208:161|162:147,1,97.8750037336351,8|0,0:0|0:0,0:0:0:0:
96,111,142795,2,0,P|87:88|83:63,1,43.5
12,148,142968,2,0,P|7:169|0:189,1,43.5
77,229,143140,5,8,0:0:0:0:
66,280,143226,1,8,0:0:0:0:
81,330,143313,1,8,0:0:0:0:
114,369,143399,1,8,0:0:0:0:
160,384,143485,2,0,P|202:388|250:377,1,87
381,223,143830,1,8,0:0:0:0:
245,194,144002,6,0,P|240:220|242:244,2,43.5,8|0|0,0:0|0:0|0:0,0:0:0:0:
254,160,144261,1,8,0:0:0:0:
274,132,144347,1,8,0:0:0:0:
302,112,144433,1,8,0:0:0:0:
335,100,144520,2,0,P|356:97|377:101,1,43.5,4|0,0:0|0:0,0:0:0:0:
484,205,144692,5,0,0:0:0:0:
456,225,144778,1,0,0:0:0:0:
422,231,144864,2,0,P|398:230|379:222,1,43.5,8|0,0:0|0:0,0:0:0:0:
245,194,145037,2,0,P|223:195|203:203,1,43.5
121,294,145209,2,8,P|110:305|101:320,4,32.625001244545
115,135,145554,5,4,0:0:0:0:
55,50,145726,1,4,0:0:0:0:
223,120,145899,2,0,P|221:165|201:205,1,87,8|0,0:0|0:0,0:0:0:0:
75,230,146244,1,4,0:0:0:0:
115,135,146416,2,0,P|86:125|62:129,1,43.5,8|0,0:0|0:0,0:0:0:0:
203,202,146588,5,0,0:0:0:0:
238,203,146675,1,0,0:0:0:0:
270,190,146761,1,8,0:0:0:0:
295,165,146847,1,8,0:0:0:0:
307,132,146933,2,0,P|303:97|297:79,1,43.5,4|0,0:0|0:0,0:0:0:0:
241,9,147106,1,8,0:0:0:0:
390,111,147278,1,8,0:0:0:0:
223,120,147451,5,0,0:0:0:0:
190,107,147537,1,0,0:0:0:0:
161,86,147623,2,0,P|146:70|138:50,1,43.5,4|0,0:0|0:0,0:0:0:0:
69,132,147795,1,8,0:0:0:0:
301,88,147968,6,0,P|317:75|328:56,1,43.5,8|0,0:0|0:0,0:0:0:0:
223,120,148140,1,8,0:0:0:0:
205,149,148226,1,8,0:0:0:0:
197,183,148313,1,8,0:0:0:0:
200,217,148399,1,8,0:0:0:0:
212,249,148485,1,8,0:0:0:0:
233,276,148571,1,8,0:0:0:0:
265,295,148657,6,8,P|285:303|305:305,2,32.625001244545
117,221,148830,1,0,0:0:0:0:
311,192,149002,1,4,0:0:0:0:
179,34,149175,6,8,P|177:16|181:-2,2,32.625001244545
205,149,149347,1,0,0:0:0:0:
412,251,149520,6,8,P|426:259|440:271,2,32.625001244545
311,192,149692,2,8,P|294:191|276:195,2,32.625001244545
406,123,149864,2,8,P|419:114|438:109,2,32.625001244545
332,78,150037,5,0,0:0:0:0:
280,81,150123,1,0,0:0:0:0:
235,106,150209,1,0,0:0:0:0:
205,149,150295,1,0,0:0:0:0:
168,186,150382,6,0,P|148:198|127:202,1,43.5,4|0,0:0|0:0,0:0:0:0:
3,146,150554,2,0,P|25:145|46:152,1,43.5,4|0,0:0|0:0,0:0:0:0:
130,282,150726,2,0,P|108:280|88:271,1,43.5,4|0,0:0|0:0,0:0:0:0:
119,126,150899,2,0,P|127:105|139:88,1,43.5,4|0,0:0|0:0,0:0:0:0:
280,45,151071,2,0,P|282:23|279:2,1,43.5,4|0,0:0|0:0,0:0:0:0:
205,149,151244,1,8,0:0:0:0:
225,196,151330,1,8,0:0:0:0:
265,229,151416,1,8,0:0:0:0:
316,239,151502,1,8,0:0:0:0:
366,224,151588,6,8,P|379:216|390:203,2,32.625001244545
481,249,151761,2,8,P|497:251|512:257,2,32.625001244545
481,131,151933,2,8,P|495:123|510:121,2,32.625001244545
362,112,152106,1,8,0:0:0:0:
341,112,152192,1,8,0:0:0:0:
321,119,152278,1,8,0:0:0:0:
305,133,152364,1,8,0:0:0:0:
272,173,152451,5,8,0:0:0:0:
225,196,152537,1,8,0:0:0:0:
173,199,152623,1,8,0:0:0:0:
122,184,152709,1,8,0:0:0:0:
81,150,152795,2,0,P|65:130|55:111,7,43.5
187,48,153485,5,8,0:0:0:0:
428,84,153658,1,8,0:0:0:0:
168,291,153830,5,8,0:0:0:0:
409,255,154003,1,8,0:0:0:0:
244,148,154175,2,0,P|203:160|170:189,1,87
68,228,154520,6,0,P|85:188|85:145,1,87
248,243,154864,2,0,P|252:285|274:323,1,87
443,246,155209,2,0,P|400:240|358:247,1,87,4|0,0:0|0:0,0:0:0:0:
73,336,156933,5,0,0:0:0:0:
169,234,157623,1,0,0:0:0:0:
65,127,158313,1,0,0:0:0:0:
298,182,159175,5,0,0:0:0:0:
314,169,159261,1,0,0:0:0:0:
324,152,159347,1,0,0:0:0:0:
118,193,160037,1,0,0:0:0:0:
298,308,160985,5,0,0:0:0:0:
303,325,161071,1,0,0:0:0:0:
303,344,161157,1,0,0:0:0:0:
395,142,161761,1,0,0:0:0:0:
463,297,162451,1,0,0:0:0:0:
152,84,163744,6,0,P|160:69|173:56,1,32.625001244545
224,232,164433,2,0,P|216:247|203:260,1,32.625001244545
88,305,164864,1,0,0:0:0:0:
170,168,165813,6,0,L|59:148,2,108.75
299,190,166933,1,0,0:0:0:0:
429,217,167192,1,0,0:0:0:0:
429,217,167278,1,0,0:0:0:0:
170,168,168399,5,0,0:0:0:0:
170,168,168485,2,0,P|214:134|254:130,1,97.875
430,171,169175,1,0,0:0:0:0:
359,206,169347,1,0,0:0:0:0:
321,274,169520,1,0,0:0:0:0:
337,351,169692,1,0,0:0:0:0:
359,206,170640,6,0,L|470:196,2,108.75
228,217,171760,1,0,0:0:0:0:
97,229,172019,1,0,0:0:0:0:
97,229,172105,1,0,0:0:0:0:
306,113,173226,5,0,0:0:0:0:
306,113,173313,1,0,0:0:0:0:
352,246,173571,1,0,0:0:0:0:
352,246,173657,1,0,0:0:0:0:
196,155,174175,2,0,P|184:108|198:62,1,97.875
131,269,175468,5,0,0:0:0:0:
196,137,175899,1,0,0:0:0:0:
252,186,176129,1,0,0:0:0:0:
277,257,176359,1,0,0:0:0:0:
280,332,176588,1,0,0:0:0:0:
280,332,176847,1,0,0:0:0:0:
280,332,176933,1,0,0:0:0:0:
304,209,178054,5,0,0:0:0:0:
304,209,178140,1,0,0:0:0:0:
466,155,178399,1,0,0:0:0:0:
466,155,178485,1,0,0:0:0:0:
212,243,179002,2,0,P|204:288|213:327,1,87
96,203,180037,5,0,0:0:0:0:
194,114,180468,2,0,L|194:81,1,32.625001244545
195,346,181071,1,0,0:0:0:0:
303,257,181761,5,0,0:0:0:0:
393,153,182106,2,0,L|484:146,2,87
263,168,183054,1,0,0:0:0:0:
263,168,183140,1,0,0:0:0:0:
133,182,183399,1,0,0:0:0:0:
133,182,183485,1,0,0:0:0:0:
216,321,184175,5,0,0:0:0:0:
107,229,184606,2,0,P|105:212|107:192,1,32.625001244545
257,89,185468,2,0,P|259:106|257:126,1,32.625001244545
224,208,186502,5,0,0:0:0:0:
224,208,186588,1,0,0:0:0:0:
273,283,187192,1,0,0:0:0:0:
273,283,187278,1,0,0:0:0:0:
172,325,187968,5,0,0:0:0:0:
79,224,188313,1,0,0:0:0:0:
265,116,188657,1,0,0:0:0:0:
132,80,189002,2,0,L|141:169,3,87
157,282,190295,5,0,0:0:0:0:
157,282,190382,1,0,0:0:0:0:
230,193,190813,1,0,0:0:0:0:
287,269,191416,1,0,0:0:0:0:
287,269,191502,2,0,B|274:300|274:300|261:272,1,65.25
106,225,193830,6,0,P|88:264|77:306,1,87,4|0,0:0|0:0,0:0:0:0:
229,162,194175,2,0,L|241:120,14,43.5
135,202,196761,5,0,0:0:0:0:
117,231,196847,1,8,0:0:0:0:
111,265,196933,1,0,0:0:0:0:
118,299,197020,1,0,0:0:0:0:
137,327,197106,1,8,0:0:0:0:
259,281,197278,2,0,P|281:280|302:286,1,43.5,0|8,0:0|0:0,0:0:0:0:
344,225,197451,1,0,0:0:0:0:
366,198,197537,1,8,0:0:0:0:
379,165,197623,1,8,0:0:0:0:
263,136,197795,5,0,0:0:0:0:
233,116,197882,1,8,0:0:0:0:
214,86,197968,1,0,0:0:0:0:
209,51,198054,1,0,0:0:0:0:
218,17,198140,1,8,0:0:0:0:
348,27,198313,6,0,P|367:39|381:56,1,43.5
461,70,198485,2,0,P|471:89|475:109,1,43.5,8|0,0:0|0:0,0:0:0:0:
471,256,198657,1,4,0:0:0:0:
119,235,199002,6,0,L|69:243,7,43.5
212,298,200382,1,0,0:0:0:0:
212,298,200468,1,8,0:0:0:0:
212,298,200554,1,8,0:0:0:0:
275,191,200726,2,0,P|280:169|278:148,1,43.5
131,49,200899,5,8,0:0:0:0:
132,84,200985,1,0,0:0:0:0:
145,117,201071,1,8,0:0:0:0:
168,144,201157,1,8,0:0:0:0:
199,161,201244,1,8,0:0:0:0:
339,94,201416,6,0,P|360:86|382:86,1,43.5
490,110,201588,1,0,0:0:0:0:
478,143,201675,1,8,0:0:0:0:
456,170,201761,1,0,0:0:0:0:
427,190,201847,1,8,0:0:0:0:
393,199,201933,1,8,0:0:0:0:
339,94,202106,5,0,0:0:0:0:
310,114,202192,1,8,0:0:0:0:
289,142,202278,1,0,0:0:0:0:
277,174,202364,1,8,0:0:0:0:
275,209,202451,2,0,P|278:230|286:250,1,43.5,8|0,0:0|0:0,0:0:0:0:
196,284,202623,5,0,0:0:0:0:
164,299,202709,1,8,0:0:0:0:
130,306,202795,1,0,0:0:0:0:
94,304,202882,1,8,0:0:0:0:
61,292,202968,2,0,P|39:283|24:269,1,43.5
29,196,203140,2,0,P|14:178|8:158,1,43.5,8|0,0:0|0:0,0:0:0:0:
36,57,203313,1,8,0:0:0:0:
191,194,203485,6,0,P|232:209|278:207,1,87,4|0,0:0|0:0,0:0:0:0:
447,96,203830,2,0,P|460:79|470:59,1,43.5,8|0,0:0|0:0,0:0:0:0:
394,35,204002,1,0,0:0:0:0:
366,55,204088,1,8,0:0:0:0:
347,85,204175,1,0,0:0:0:0:
342,118,204261,1,8,0:0:0:0:
349,151,204347,6,0,P|367:190|364:233,1,87,4|0,0:0|0:0,0:0:0:0:
269,346,204692,1,0,0:0:0:0:
194,278,204864,1,0,0:0:0:0:
172,376,205037,1,0,0:0:0:0:
283,215,205209,5,0,0:0:0:0:
283,215,205295,1,8,0:0:0:0:
283,215,205382,1,8,0:0:0:0:
72,126,205554,5,4,0:0:0:0:
398,138,205813,5,4,0:0:0:0:
172,376,206071,5,4,0:0:0:0:
193,42,206416,6,0,P|214:42|235:48,1,43.5
329,85,206588,2,0,P|313:100|295:111,1,43.5
194,134,206761,1,8,0:0:0:0:
72,200,206933,5,0,0:0:0:0:
60,232,207019,1,8,0:0:0:0:
63,266,207105,1,0,0:0:0:0:
79,297,207192,1,8,0:0:0:0:
106,317,207278,1,8,0:0:0:0:
169,167,207451,2,0,L|158:104,1,43.5
151,250,207623,1,0,0:0:0:0:
151,250,207709,1,0,0:0:0:0:
151,250,207795,6,0,P|193:248|237:222,1,87,4|0,0:0|0:0,0:0:0:0:
245,207,208313,2,0,P|238:250|237:294,1,87
256,192,208657,12,0,210554,0:0:0:0:
177,102,210726,6,0,P|182:124|182:145,1,43.5
133,253,210899,2,0,P|132:231|136:210,1,43.5
200,93,211071,2,0,P|201:119|196:144,1,43.5
115,261,211244,2,0,P|118:235|127:210,1,43.5
227,90,211416,2,0,P|223:120|212:148,1,43.5
95,264,211589,2,0,P|103:234|119:208,1,43.5
74,112,211761,6,0,P|95:117|115:126,1,43.5
249,244,211934,2,0,P|227:241|206:236,1,43.5
72,92,212106,2,0,P|95:103|117:117,1,43.5
256,265,212279,2,0,P|230:258|207:247,1,43.5
41,186,212451,5,4,0:0:0:0:
338,97,212623,1,4,0:0:0:0:
240,28,212795,1,8,0:0:0:0:
222,68,212882,1,8,0:0:0:0:
221,111,212968,1,8,0:0:0:0:
233,152,213054,1,8,0:0:0:0:
258,186,213140,5,4,0:0:0:0:
451,232,213313,1,4,0:0:0:0:
338,97,213485,1,8,0:0:0:0:
156,215,213657,5,0,0:0:0:0:
322,266,213830,1,4,0:0:0:0:
126,324,214002,2,0,P|112:348|110:373,1,43.5,8|0,0:0|0:0,0:0:0:0:
226,281,214175,5,0,0:0:0:0:
248,243,214261,1,0,0:0:0:0:
251,199,214347,1,8,0:0:0:0:
234,158,214433,1,8,0:0:0:0:
200,129,214520,2,0,P|178:120|157:118,1,43.5,4|0,0:0|0:0,0:0:0:0:
40,165,214692,5,8,0:0:0:0:
218,41,214864,1,8,0:0:0:0:
442,180,215037,2,0,P|462:186|484:186,1,43.5
342,253,215209,5,4,0:0:0:0:
323,213,215295,1,0,0:0:0:0:
319,169,215382,1,8,0:0:0:0:
330,127,215468,1,0,0:0:0:0:
354,90,215554,2,0,P|372:73|400:63,1,43.5
234,158,215726,2,0,P|200:149|185:139,1,43.5
100,141,215899,2,0,P|88:118|85:94,1,43.5
91,10,216071,1,0,0:0:0:0:
225,235,216244,6,8,P|218:255|207:271,2,32.625001244545
235,83,216416,1,0,0:0:0:0:
24,172,216588,1,0,0:0:0:0:
234,158,216761,6,8,P|255:156|271:149,2,32.625001244545
85,100,216933,1,0,0:0:0:0:
212,265,217106,6,0,P|224:274|235:287,2,32.625001244545
94,260,217278,2,0,P|79:266|62:269,2,32.625001244545
152,156,217451,2,0,P|154:137|162:120,2,32.625001244545
163,337,217623,5,8,0:0:0:0:
207,364,217709,1,8,0:0:0:0:
259,364,217795,1,8,0:0:0:0:
302,334,217882,1,8,0:0:0:0:
323,286,217968,1,4,0:0:0:0:
234,158,218140,5,0,0:0:0:0:
221,114,218226,1,0,0:0:0:0:
231,72,218313,2,0,P|242:53|258:39,1,43.5
124,104,218485,2,0,P|102:101|83:91,1,43.5
280,278,218657,6,0,P|300:285|322:286,1,43.5,8|0,0:0|0:0,0:0:0:0:
403,246,218830,2,0,P|423:238|440:225,1,43.5,8|0,0:0|0:0,0:0:0:0:
470,145,219002,2,0,P|480:126|485:104,1,43.5,8|0,0:0|0:0,0:0:0:0:
319,124,219175,1,0,0:0:0:0:
307,165,219261,1,8,0:0:0:0:
315,207,219347,1,4,0:0:0:0:
399,325,219520,2,0,P|406:345|407:381,1,43.5
280,278,219692,5,0,0:0:0:0:
247,266,219778,1,0,0:0:0:0:
212,266,219864,1,0,0:0:0:0:
179,279,219951,1,0,0:0:0:0:
146,307,220037,5,0,0:0:0:0:
95,318,220123,1,0,0:0:0:0:
46,299,220209,1,0,0:0:0:0:
21,252,220295,1,0,0:0:0:0:
30,200,220382,1,4,0:0:0:0:
45,57,220554,6,0,P|62:69|75:87,1,43.5
152,105,220726,2,0,P|160:124|162:146,1,43.5
111,208,220899,2,8,P|105:235|108:256,2,32.625001244545
232,78,221071,1,0,0:0:0:0:
438,203,221244,1,4,0:0:0:0:
482,109,221416,5,0,0:0:0:0:
448,100,221502,1,0,0:0:0:0:
413,103,221588,1,0,0:0:0:0:
380,117,221675,1,0,0:0:0:0:
355,141,221761,2,0,P|343:160|337:181,1,43.5
301,274,221933,1,0,0:0:0:0:
253,295,222020,1,0,0:0:0:0:
200,293,222106,6,8,P|180:287|156:271,1,43.5
144,237,222278,2,8,P|137:221|136:205,6,32.625001244545
239,121,222623,1,8,0:0:0:0:
252,79,222709,1,8,0:0:0:0:
251,35,222795,1,4,0:0:0:0:
127,64,222968,1,4,0:0:0:0:
309,166,223140,1,4,0:0:0:0:
175,267,223313,2,0,P|174:288|179:311,1,43.5,8|0,0:0|0:0,0:0:0:0:
294,373,223485,2,0,P|284:354|268:336,1,43.5,8|0,0:0|0:0,0:0:0:0:
83,290,223657,5,0,0:0:0:0:
64,250,223744,1,0,0:0:0:0:
62,206,223830,1,0,0:0:0:0:
81,167,223916,1,0,0:0:0:0:
113,138,224002,2,0,P|140:127|160:127,1,43.5
301,274,224175,5,4,0:0:0:0:
371,44,224347,1,4,0:0:0:0:
462,183,224520,1,8,0:0:0:0:
246,212,224692,2,0,P|225:237|219:257,1,43.5,8|0,0:0|0:0,0:0:0:0:
378,235,224864,5,4,0:0:0:0:
377,182,224951,1,4,0:0:0:0:
356,134,225037,1,4,0:0:0:0:
318,98,225123,1,4,0:0:0:0:
271,79,225209,2,0,P|251:75|227:77,2,32.625001244545
189,148,225382,6,0,P|149:167|117:166,1,65.2500024890901,8|0,0:0|0:0,0:0:0:0:
27,57,225640,6,0,P|58:74|74:98,1,65.2500024890901,8|0,0:0|0:0,0:0:0:0:
44,181,225899,5,0,0:0:0:0:
181,22,226071,1,8,0:0:0:0:
246,267,226244,1,4,0:0:0:0:
318,98,226416,5,0,0:0:0:0:
360,88,226502,1,0,0:0:0:0:
402,94,226588,1,0,0:0:0:0:
439,116,226675,1,0,0:0:0:0:
465,150,226761,1,8,0:0:0:0:
316,355,226933,1,8,0:0:0:0:
326,217,227106,2,0,P|343:203|365:199,1,43.5
236,316,227278,5,8,0:0:0:0:
183,313,227364,1,8,0:0:0:0:
136,288,227451,1,8,0:0:0:0:
105,245,227537,1,8,0:0:0:0:
96,193,227623,1,4,0:0:0:0:
180,41,227795,5,8,0:0:0:0:
381,123,227968,1,8,0:0:0:0:
214,198,228140,2,0,P|210:171|214:148,1,43.5,4|0,0:0|0:0,0:0:0:0:
261,21,228313,1,8,0:0:0:0:
330,231,228485,5,8,0:0:0:0:
379,243,228571,1,8,0:0:0:0:
429,231,228657,1,8,0:0:0:0:
469,204,228744,1,8,0:0:0:0:
493,163,228830,1,8,0:0:0:0:
499,115,228916,1,8,0:0:0:0:
490,68,229002,2,0,P|476:47|460:34,1,43.5
274,101,229175,1,8,0:0:0:0:
127,61,229347,2,0,P|117:41|117:19,1,43.5,8|0,0:0|0:0,0:0:0:0:
183,164,229520,5,0,0:0:0:0:
184,185,229606,1,0,0:0:0:0:
178,206,229692,1,0,0:0:0:0:
166,222,229778,1,0,0:0:0:0:
152,237,229864,1,0,0:0:0:0:
141,255,229951,1,0,0:0:0:0:
138,276,230037,6,0,P|135:296|140:318,1,43.5,8|0,0:0|0:0,0:0:0:0:
74,201,230209,2,0,P|53:193|31:192,1,43.5,8|0,0:0|0:0,0:0:0:0:
217,287,230382,1,0,0:0:0:0:
250,276,230468,1,8,0:0:0:0:
276,253,230554,2,0,P|288:238|295:222,6,32.625001244545
74,96,230899,6,0,P|83:62|101:41,1,56.5499974113466,4|0,0:0|0:0,0:0:0:0:
168,108,231071,2,0,P|190:130|202:164,1,56.5499974113466,4|0,0:0|0:0,0:0:0:0:
110,183,231244,2,0,P|79:192|48:187,1,56.5499974113466,4|0,0:0|0:0,0:0:0:0:
186,14,231416,2,0,P|217:18|246:32,1,56.5499974113466,4|0,0:0|0:0,0:0:0:0:
293,204,231588,2,0,P|320:200|346:189,1,56.5499974113466,4|0,0:0|0:0,0:0:0:0:
442,63,231761,1,0,0:0:0:0:
229,160,231933,1,8,0:0:0:0:
217,202,232020,2,0,P|218:223|229:248,1,43.5,4|0,0:0|0:0,0:0:0:0:
356,299,232192,5,8,0:0:0:0:
372,268,232278,1,8,0:0:0:0:
378,233,232364,1,8,0:0:0:0:
370,198,232451,1,4,0:0:0:0:
276,76,232623,1,4,0:0:0:0:
315,95,232709,2,0,P|338:98|358:93,1,43.5,8|0,0:0|0:0,0:0:0:0:
245,291,232882,2,0,P|226:300|204:305,1,43.5,8|0,0:0|0:0,0:0:0:0:
93,190,233054,5,8,0:0:0:0:
127,186,233140,1,8,0:0:0:0:
162,193,233226,1,8,0:0:0:0:
192,213,233313,1,4,0:0:0:0:
125,294,233485,1,4,0:0:0:0:
62,99,233657,1,4,0:0:0:0:
245,291,233830,5,4,0:0:0:0:
286,303,233916,1,8,0:0:0:0:
329,302,234002,1,8,0:0:0:0:
368,285,234088,1,8,0:0:0:0:
399,255,234175,2,0,P|412:235|419:208,1,43.5,8|0,0:0|0:0,0:0:0:0:
343,140,234347,1,0,0:0:0:0:
336,165,234433,1,0,0:0:0:0:
329,190,234520,1,8,0:0:0:0:
375,26,234692,1,8,0:0:0:0:
231,108,234864,6,0,P|187:92|143:94,1,87,0|4,0:0|0:0,0:0:0:0:
33,141,235209,1,8,0:0:0:0:
284,261,235382,2,0,P|263:262|243:269,1,43.5,8|0,0:0|0:0,0:0:0:0:
121,337,235554,2,0,P|137:325|151:309,1,43.5,8|0,0:0|0:0,0:0:0:0:
177,186,235726,1,8,0:0:0:0:
421,56,235899,6,0,P|441:47|464:44,6,32.625001244545
331,50,236244,5,8,0:0:0:0:
307,86,236330,1,8,0:0:0:0:
297,128,236416,1,8,0:0:0:0:
299,171,236502,1,8,0:0:0:0:
317,210,236588,2,0,P|331:229|349:242,1,43.5,4|0,0:0|0:0,0:0:0:0:
464,147,236761,2,0,P|443:140|422:140,1,43.5,4|0,0:0|0:0,0:0:0:0:
236,294,236933,2,0,P|260:295|281:289,1,43.5,4|0,0:0|0:0,0:0:0:0:
430,217,237106,1,4,0:0:0:0:
226,162,237278,6,0,P|208:178|196:207,1,43.5
138,235,237451,2,0,P|131:258|136:288,1,43.5
149,121,237623,1,4,0:0:0:0:
127,83,237709,1,0,0:0:0:0:
93,55,237795,2,0,P|70:43|48:39,1,43.5,8|0,0:0|0:0,0:0:0:0:
221,82,237968,1,4,0:0:0:0:
264,78,238054,1,0,0:0:0:0:
300,58,238140,2,0,P|317:39|326:19,1,43.5,8|0,0:0|0:0,0:0:0:0:
415,104,238313,5,8,0:0:0:0:
451,128,238399,1,8,0:0:0:0:
474,166,238485,1,8,0:0:0:0:
481,209,238571,1,8,0:0:0:0:
468,251,238657,2,0,P|455:268|439:282,1,43.5
377,200,238830,2,8,P|361:195|341:194,2,32.625001244545
350,270,239002,5,8,0:0:0:0:
308,282,239088,1,0,0:0:0:0:
264,275,239175,1,0,0:0:0:0:
230,247,239261,1,0,0:0:0:0:
213,206,239347,6,0,P|214:184|221:163,1,43.5,0|8,0:0|0:0,0:0:0:0:
300,58,239520,2,0,P|288:76|271:90,1,43.5,0|8,0:0|0:0,0:0:0:0:
48,159,239692,1,0,0:0:0:0:
49,180,239778,1,0,0:0:0:0:
56,200,239864,2,0,P|70:224|96:245,1,43.5
131,225,240037,2,0,P|174:225|212:205,1,87
254,137,240382,1,0,0:0:0:0:
323,308,240554,6,0,P|339:335|356:350,1,43.5,4|0,0:0|0:0,0:0:0:0:
431,304,240726,1,0,0:0:0:0:
441,286,240813,1,0,0:0:0:0:
447,268,240899,1,0,0:0:0:0:
448,249,240985,1,0,0:0:0:0:
445,230,241071,1,0,0:0:0:0:
438,215,241157,2,0,P|418:195|395:182,1,43.5
154,134,241330,5,8,0:0:0:0:
161,176,241416,1,8,0:0:0:0:
185,211,241502,1,8,0:0:0:0:
222,233,241588,1,8,0:0:0:0:
265,236,241675,1,8,0:0:0:0:
306,225,241761,2,0,P|323:212|338:196,1,43.5
254,137,241933,2,10,P|253:120|260:99,2,32.625001244545
367,302,242106,6,0,P|368:326|362:345,1,43.5,4|0,0:0|0:0,0:0:0:0:
221,349,242278,2,0,P|210:370|196:384,1,43.5,4|0,0:0|0:0,0:0:0:0:
61,340,242451,2,8,P|45:345|28:346,2,32.625001244545
152,267,242623,2,8,P|168:270|182:277,2,32.625001244545
37,210,242795,6,0,P|18:170|16:127,1,87,4|0,0:0|0:0,0:0:0:0:
218,214,243140,5,8,0:0:0:0:
269,222,243226,1,8,0:0:0:0:
319,207,243313,1,8,0:0:0:0:
357,172,243399,1,8,0:0:0:0:
377,124,243485,1,4,0:0:0:0:
261,103,243657,1,8,0:0:0:0:
367,268,243830,6,2,P|429:298|493:288,1,130.50000497818
377,124,244347,1,8,0:0:0:0:
189,65,244520,5,8,0:0:0:0:
182,90,244606,1,0,0:0:0:0:
182,116,244692,1,8,0:0:0:0:
190,140,244778,1,0,0:0:0:0:
203,162,244864,1,8,0:0:0:0:
213,186,244951,1,0,0:0:0:0:
215,211,245037,1,8,0:0:0:0:
211,236,245123,1,0,0:0:0:0:
200,259,245209,2,0,P|166:292|126:304,1,87,8|0,0:0|0:0,0:0:0:0:
0,115,245554,6,0,P|21:111|43:111,1,43.5,8|0,0:0|0:0,0:0:0:0:
189,65,245726,2,8,P|192:49|194:32,2,32.625001244545
120,207,245899,1,0,0:0:0:0:
396,159,246071,6,8,P|412:159|428:162,2,32.625001244545
328,61,246244,2,8,P|314:52|301:42,2,32.625001244545
445,60,246416,2,8,P|459:52|474:46,2,32.625001244545
406,239,246588,1,8,0:0:0:0:
411,263,246674,1,8,0:0:0:0:
420,287,246760,1,8,0:0:0:0:
436,307,246846,1,0,0:0:0:0:
390,294,246933,5,4,0:0:0:0:
344,305,247019,1,4,0:0:0:0:
305,333,247105,1,4,0:0:0:0:
261,352,247191,1,4,0:0:0:0:
213,352,247277,1,4,0:0:0:0:
168,332,247364,1,4,0:0:0:0:
135,296,247450,1,4,0:0:0:0:
119,249,247537,1,0,0:0:0:0:
121,206,247623,2,0,P|126:184|134:166,1,43.5,8|0,0:0|0:0,0:0:0:0:
275,87,247795,5,8,0:0:0:0:
285,122,247882,1,8,0:0:0:0:
283,156,247968,1,8,0:0:0:0:
274,188,248054,1,8,0:0:0:0:
259,212,248140,6,8,P|248:224|236:234,2,32.625001244545
175,88,248313,2,8,P|159:82|143:80,2,32.625001244545
360,74,248485,2,8,P|380:64|408:62,2,32.625001244545
121,206,248658,1,8,0:0:0:0:
118,231,248744,1,8,0:0:0:0:
120,256,248830,1,8,0:0:0:0:
131,279,248916,1,8,0:0:0:0:
177,246,249002,5,8,0:0:0:0:
233,242,249089,1,8,0:0:0:0:
282,268,249175,1,8,0:0:0:0:
312,315,249261,1,8,0:0:0:0:
356,343,249347,2,0,P|377:348|400:348,5,43.5
299,184,249864,6,8,L|301:141,4,32.625001244545
201,369,250209,1,8,0:0:0:0:
387,250,250382,1,8,0:0:0:0:
121,206,250554,1,8,0:0:0:0:
244,288,250726,5,4,0:0:0:0:
366,146,250899,2,0,P|368:124|363:103,1,43.5,8|0,0:0|0:0,0:0:0:0:
196,58,251071,2,0,P|194:36|199:15,1,43.5,8|0,0:0|0:0,0:0:0:0:
363,103,251761,6,0,P|378:89|398:80,1,43.5,4|0,0:0|0:0,0:0:0:0:
235,74,251933,2,0,P|216:62|195:57,1,43.5,4|0,0:0|0:0,0:0:0:0:
305,156,252106,1,0,0:0:0:0:
313,180,252192,1,8,0:0:0:0:
314,209,252278,2,8,P|313:225|308:240,6,32.625001244545
224,199,252623,1,0,0:0:0:0:
194,202,252709,1,0,0:0:0:0:
169,214,252795,2,8,P|149:230|140:249,6,32.625001244545
221,289,253140,5,0,0:0:0:0:
250,321,253226,1,0,0:0:0:0:
290,338,253313,1,0,0:0:0:0:
333,337,253399,1,0,0:0:0:0:
372,318,253485,2,0,P|391:297|399:279,1,43.5,4|0,0:0|0:0,0:0:0:0:
364,95,253657,5,0,0:0:0:0:
321,85,253744,1,0,0:0:0:0:
278,93,253830,1,4,0:0:0:0:
169,214,254002,1,8,0:0:0:0:
308,240,254175,5,0,0:0:0:0:
302,214,254261,1,0,0:0:0:0:
297,188,254347,1,4,0:0:0:0:
93,131,254520,1,8,0:0:0:0:
198,27,254692,5,4,0:0:0:0:
193,53,254778,1,0,0:0:0:0:
187,79,254864,1,0,0:0:0:0:
43,212,255037,1,8,0:0:0:0:
297,188,255209,5,0,0:0:0:0:
312,194,255295,1,0,0:0:0:0:
326,202,255382,1,0,0:0:0:0:
337,212,255468,1,0,0:0:0:0:
325,262,255554,5,0,0:0:0:0:
287,298,255640,1,8,0:0:0:0:
235,308,255726,1,8,0:0:0:0:
185,290,255813,1,8,0:0:0:0:
141,262,255899,6,8,P|120:254|99:254,2,32.625001244545
43,341,256071,2,8,P|26:347|10:357,2,32.625001244545
30,173,256244,2,8,P|27:156|28:134,2,32.625001244545
131,114,256416,2,8,P|136:97|148:79,2,32.625001244545
239,220,256588,6,0,P|254:238|271:248,1,43.5,4|0,0:0|0:0,0:0:0:0:
408,215,256761,2,0,P|428:221|450:222,1,43.5,4|0,0:0|0:0,0:0:0:0:
384,43,256933,2,8,P|377:27|364:10,2,32.625001244545
311,141,257105,2,8,P|307:160|310:182,2,32.625001244545
223,69,257278,5,0,0:0:0:0:
182,53,257364,1,0,0:0:0:0:
138,55,257451,1,0,0:0:0:0:
101,76,257537,1,0,0:0:0:0:
141,114,257623,5,0,0:0:0:0:
160,167,257709,1,0,0:0:0:0:
154,222,257795,1,0,0:0:0:0:
124,270,257881,1,0,0:0:0:0:
76,299,257968,1,0,0:0:0:0:
76,299,258313,5,8,0:0:0:0:
111,272,258399,1,8,0:0:0:0:
154,264,258485,1,8,0:0:0:0:
197,272,258571,1,8,0:0:0:0:
239,283,258657,1,0,0:0:0:0:
283,283,258744,1,0,0:0:0:0:
322,263,258830,1,0,0:0:0:0:
345,226,258916,5,0,0:0:0:0:
308,193,259002,1,8,0:0:0:0:
260,179,259088,1,8,0:0:0:0:
211,187,259175,1,0,0:0:0:0:
170,217,259261,1,0,0:0:0:0:
154,264,259347,6,0,P|150:294|155:321,1,43.5
42,356,259520,2,0,P|29:374|7:389,2,32.625001244545
68,276,259692,1,0,0:0:0:0:
286,240,259864,6,0,P|287:261|283:283,1,43.5,4|0,0:0|0:0,0:0:0:0:
142,135,260037,1,0,0:0:0:0:
149,110,260123,1,0,0:0:0:0:
168,92,260209,1,0,0:0:0:0:
193,85,260295,1,0,0:0:0:0:
218,91,260382,1,0,0:0:0:0:
243,98,260468,2,0,P|272:99|297:90,1,43.5,8|0,0:0|0:0,0:0:0:0:
413,34,260640,5,8,0:0:0:0:
450,70,260726,1,8,0:0:0:0:
465,120,260813,1,8,0:0:0:0:
460,171,260899,1,8,0:0:0:0:
431,214,260985,1,8,0:0:0:0:
386,241,261071,2,0,P|359:246|329:239,1,43.5
144,197,261244,6,8,L|105:209,2,32.625001244545
352,132,261416,1,4,0:0:0:0:
126,64,261588,2,8,L|103:34,2,32.625001244545
258,240,261760,1,4,0:0:0:0:
403,69,261933,6,8,P|414:56|430:46,2,32.625001244545
377,210,262106,2,8,P|384:226|385:244,2,32.625001244545
278,108,262278,2,8,P|262:104|246:95,2,32.625001244545
258,240,262451,1,8,0:0:0:0:
229,288,262537,1,8,0:0:0:0:
180,317,262623,1,8,0:0:0:0:
123,320,262709,1,8,0:0:0:0:
70,298,262795,1,4,0:0:0:0:
16,102,262968,1,8,0:0:0:0:
284,159,263140,6,2,P|310:173|339:214,2,75.3999965484621
167,164,263485,2,2,P|140:149|111:108,2,75.3999965484621
258,240,263830,2,2,P|252:269|221:308,2,75.3999965484621
193,81,264175,2,2,P|199:50|230:11,2,75.3999965484621
176,235,264520,1,2,0:0:0:0:
363,80,264692,2,0,P|321:72|280:86,1,87,0|8,0:0|0:0,0:0:0:0:
478,170,265037,5,12,0:0:0:0:
340,343,265209,1,0,0:0:0:0:
176,235,265382,6,0,P|166:216|146:195,2,32.625001244545
116,336,265554,2,0,P|115:357|121:385,2,32.625001244545
31,254,265726,2,0,P|12:242|-14:234,2,32.625001244545
200,347,265899,1,8,0:0:0:0:
247,325,265985,1,8,0:0:0:0:
281,285,266071,1,8,0:0:0:0:
292,234,266157,1,8,0:0:0:0:
279,182,266244,5,0,0:0:0:0:
66,93,266416,1,0,0:0:0:0:
258,1,266588,1,8,0:0:0:0:
169,147,266761,2,0,P|162:190|174:232,1,87,4|0,0:0|0:0,0:0:0:0:
445,309,267106,5,8,0:0:0:0:
401,189,267278,1,8,0:0:0:0:
363,167,267364,1,8,0:0:0:0:
319,164,267451,1,8,0:0:0:0:
279,182,267537,1,8,0:0:0:0:
247,223,267623,5,4,0:0:0:0:
210,259,267709,1,4,0:0:0:0:
160,275,267795,1,4,0:0:0:0:
107,267,267882,1,4,0:0:0:0:
67,237,267968,2,2,P|46:204|37:158,2,84.8249961170198
151,159,268313,2,2,P|172:121|176:80,2,84.8249961170198
242,251,268657,6,2,P|276:268|315:272,2,75.3999965484621
304,175,269002,2,2,P|340:163|370:139,2,75.3999965484621
151,159,269347,1,4,0:0:0:0:
313,354,269692,1,4,0:0:0:0:
498,177,270037,6,0,P|476:179|455:186,1,43.5
378,234,270209,2,0,P|350:236|313:246,1,43.5
246,277,270382,2,0,P|233:254|223:222,7,43.5
355,336,271071,5,0,0:0:0:0:
388,324,271244,1,0,0:0:0:0:
454,201,271416,1,0,0:0:0:0:
421,189,271589,1,0,0:0:0:0:
269,128,271761,5,0,0:0:0:0:
263,94,271934,1,0,0:0:0:0:
110,52,272106,1,0,0:0:0:0:
83,74,272279,1,0,0:0:0:0:
115,215,272451,1,0,0:0:0:0:
147,227,272624,1,0,0:0:0:0:
364,91,272795,2,0,P|388:119|401:156,1,65.2500024890901,4|0,0:0|0:0,0:0:0:0:
425,259,273140,1,0,0:0:0:0:
370,354,273312,1,0,0:0:0:0:
300,243,273485,6,0,L|305:177,1,65.2500024890901,4|0,0:0|0:0,0:0:0:0:
489,107,273830,1,0,0:0:0:0:
399,145,274002,1,0,0:0:0:0:
509,117,274175,1,0,0:0:0:0:
419,155,274347,1,0,0:0:0:0:
239,130,274520,5,0,0:0:0:0:
251,34,274692,1,0,0:0:0:0:
220,142,274865,1,0,0:0:0:0:
232,45,275037,1,0,0:0:0:0:
136,199,275209,2,0,P|163:226|192:240,1,65.2500024890901,4|0,0:0|0:0,0:0:0:0:
326,226,275554,1,0,0:0:0:0:
322,194,275726,1,0,0:0:0:0:
440,229,275899,6,0,P|445:266|439:298,1,65.2500024890901,4|0,0:0|0:0,0:0:0:0:
257,337,276244,5,0,0:0:0:0:
301,210,276416,1,0,0:0:0:0:
418,308,276589,5,0,0:0:0:0:
282,321,276761,1,0,0:0:0:0:
485,167,276933,5,0,0:0:0:0:
441,294,277105,1,0,0:0:0:0:
322,194,277278,5,0,0:0:0:0:
458,181,277450,1,0,0:0:0:0:
257,337,277623,2,0,P|221:329|193:307,1,65.2500024890901,4|0,0:0|0:0,0:0:0:0:
105,190,277968,1,0,0:0:0:0:
194,142,278140,1,0,0:0:0:0:
275,192,278313,6,0,P|271:224|260:254,9,65.2500024890901,4|0|0|0|0|0|0|0|0|0,0:0|0:0|0:0|0:0|0:0|0:0|0:0|0:0|0:0|0:0,0:0:0:0:
183,160,280037,6,0,P|171:127|168:91,1,65.2500024890901,4|0,0:0|0:0,0:0:0:0:
188,10,280382,1,0,0:0:0:0:
293,103,280554,1,0,0:0:0:0:
82,175,280726,2,0,P|49:169|20:153,9,65.2500024890901,4|0|0|0|0|0|0|0|0|0,0:0|0:0|0:0|0:0|0:0|0:0|0:0|0:0|0:0|0:0,0:0:0:0:
183,160,282451,6,0,P|221:157|257:170,1,65.2500024890901
329,203,282795,1,0,0:0:0:0:
362,292,282968,1,0,0:0:0:0:
401,105,283140,2,0,P|417:77|443:56,9,65.2500024890901,4|0|0|0|0|0|0|0|0|0,0:0|0:0|0:0|0:0|0:0|0:0|0:0|0:0|0:0|0:0,0:0:0:0:
461,179,284864,6,0,P|462:217|448:253,3,65.2500024890901,4|0|0|0,0:0|0:0|0:0|0:0,0:0:0:0:
315,192,285554,2,0,P|282:195|252:209,9,65.2500024890901,4|0|0|0|0|0|0|0|0|0,0:0|0:0|0:0|0:0|0:0|0:0|0:0|0:0|0:0|0:0,0:0:0:0:
206,296,287278,6,0,P|173:293|143:279,3,65.2500024890901,4|0|0|0,0:0|0:0|0:0|0:0,0:0:0:0:
101,188,287968,2,0,L|95:122,10,65.2500024890901,4|0|0|0|0|0|0|0|0|0|0,0:0|0:0|0:0|0:0|0:0|0:0|0:0|0:0|0:0|0:0|0:0,0:0:0:0:
