osu file format v14

[General]
AudioFilename: Venetian Snares - Szamr Madr.mp3
AudioLeadIn: 0
PreviewTime: 62670
Countdown: 0
SampleSet: None
StackLeniency: 0.7
Mode: 1
LetterboxInBreaks: 0
WidescreenStoryboard: 1

[Editor]
Bookmarks: 178705,188360
DistanceSpacing: 1.4
BeatDivisor: 4
GridSize: 32
TimelineZoom: 2.599999

[Metadata]
Title:Szamar Madar
TitleUnicode:Szamar Madar
Artist:Venetian Snares
ArtistUnicode:Venetian Snares
Creator:zsPixel
Version:Inner Oni
Source:
Tags:breakcore instrumental
BeatmapID:2226628
BeatmapSetID:679874

[Difficulty]
HPDrainRate:6
CircleSize:4
OverallDifficulty:7
ApproachRate:9
SliderMultiplier:1.40000000596046
SliderTickRate:1

[Events]
//Background and Video events
0,0,"bg.jpg",0,0
//Break Periods
2,178962,187889
//Storyboard Layer 0 (Background)
//Storyboard Layer 1 (Fail)
//Storyboard Layer 2 (Pass)
//Storyboard Layer 3 (Foreground)
//Storyboard Layer 4 (Overlay)
//Storyboard Sound Samples

[TimingPoints]
313,344.827586206897,7,1,0,10,1,0
3244,-100,7,1,0,20,0,0
22899,-100,7,1,0,10,0,0
23588,-100,7,1,0,15,0,0
24106,-100,7,1,0,20,0,0
24623,-100,7,1,0,30,0,0
43590,344.827586206897,7,1,0,40,1,0
62900,-100,7,1,0,60,0,1
82210,-100,7,1,0,60,0,0
91865,-100,7,1,0,60,0,1
114107,-50,7,1,0,60,0,1
114539,-100,7,1,0,60,0,1
130486,-100,7,1,0,60,0,0
159452,-100,7,1,0,60,0,1
178762,-100,7,1,0,60,0,0
188489,344.827586206897,7,1,0,20,1,0
198144,344.827586206897,7,1,0,30,1,0
207771,344.827586206897,7,1,0,20,1,0
212584,344.827586206897,7,1,0,30,1,0
217426,344.827586206897,7,1,0,35,1,0
222196,344.827586206897,7,1,0,35,1,0

[HitObjects]
256,192,313,5,8,0:0:0:0:
256,192,830,1,0,0:0:0:0:
256,192,1519,1,0,0:0:0:0:
256,192,3244,1,8,0:0:0:0:
256,192,4968,1,8,0:0:0:0:
256,192,5830,1,8,0:0:0:0:
256,192,6002,1,0,0:0:0:0:
256,192,6778,1,8,0:0:0:0:
256,192,6950,1,8,0:0:0:0:
256,192,8071,1,8,0:0:0:0:
256,192,9795,1,0,0:0:0:0:
256,192,12899,1,8,0:0:0:0:
256,192,14623,1,8,0:0:0:0:
256,192,14968,1,0,0:0:0:0:
256,192,15313,1,8,0:0:0:0:
256,192,16002,1,0,0:0:0:0:
256,192,16347,1,8,0:0:0:0:
256,192,17726,1,8,0:0:0:0:
256,192,19450,1,0,0:0:0:0:
256,192,22295,1,0,0:0:0:0:
256,192,22899,1,0,0:0:0:0:
256,192,23244,1,0,0:0:0:0:
256,192,23588,1,8,0:0:0:0:
256,192,23761,1,0,0:0:0:0:
256,192,23933,1,0,0:0:0:0:
256,192,24106,1,8,0:0:0:0:
256,192,24278,1,8,0:0:0:0:
256,192,24623,1,8,0:0:0:0:
256,192,26519,1,0,0:0:0:0:
256,192,26691,1,0,0:0:0:0:
256,192,27037,1,8,0:0:0:0:
256,192,29106,1,0,0:0:0:0:
256,192,29450,1,8,0:0:0:0:
256,192,31519,1,8,0:0:0:0:
256,192,32209,1,8,0:0:0:0:
256,192,32899,1,0,0:0:0:0:
256,192,33588,1,8,0:0:0:0:
256,192,33761,1,0,0:0:0:0:
256,192,33933,1,0,0:0:0:0:
256,192,34278,1,8,0:0:0:0:
256,192,36175,1,8,0:0:0:0:
256,192,36347,1,0,0:0:0:0:
256,192,36692,1,8,0:0:0:0:
256,192,38761,1,0,0:0:0:0:
256,192,39106,1,8,0:0:0:0:
256,192,41175,1,8,0:0:0:0:
256,192,41864,1,8,0:0:0:0:
256,192,42554,1,0,0:0:0:0:
256,192,43244,1,8,0:0:0:0:
256,192,43590,1,0,0:0:0:0:
256,192,43762,1,0,0:0:0:0:
256,192,43934,1,8,0:0:0:0:
256,192,44107,1,0,0:0:0:0:
256,192,44193,1,8,0:0:0:0:
256,192,44279,1,8,0:0:0:0:
256,192,44365,1,0,0:0:0:0:
256,192,44452,1,0,0:0:0:0:
256,192,44624,1,0,0:0:0:0:
256,192,44796,1,8,0:0:0:0:
256,192,44969,1,0,0:0:0:0:
256,192,45486,1,0,0:0:0:0:
256,192,45658,1,8,0:0:0:0:
256,192,45831,1,0,0:0:0:0:
256,192,45888,1,8,0:0:0:0:
256,192,45946,1,8,0:0:0:0:
256,192,46003,1,0,0:0:0:0:
256,192,46176,1,8,0:0:0:0:
256,192,46348,1,8,0:0:0:0:
256,192,46521,1,0,0:0:0:0:
256,192,46607,1,8,0:0:0:0:
256,192,46693,1,8,0:0:0:0:
256,192,46865,1,0,0:0:0:0:
256,192,47038,1,8,0:0:0:0:
256,192,47210,1,0,0:0:0:0:
256,192,47268,1,8,0:0:0:0:
256,192,47325,1,8,0:0:0:0:
256,192,47383,1,0,0:0:0:0:
256,192,47555,1,8,0:0:0:0:
256,192,47641,1,0,0:0:0:0:
256,192,47727,1,8,0:0:0:0:
256,192,47814,1,0,0:0:0:0:
256,192,47900,1,8,0:0:0:0:
256,192,47986,1,8,0:0:0:0:
256,192,48072,1,8,0:0:0:0:
256,192,48245,1,0,0:0:0:0:
256,192,48302,1,8,0:0:0:0:
256,192,48360,1,8,0:0:0:0:
256,192,48417,1,0,0:0:0:0:
256,192,48590,1,8,0:0:0:0:
256,192,48762,1,8,0:0:0:0:
256,192,48934,1,0,0:0:0:0:
256,192,49021,1,0,0:0:0:0:
256,192,49107,1,8,0:0:0:0:
256,192,49279,1,0,0:0:0:0:
256,192,49624,1,8,0:0:0:0:
256,192,49796,1,8,0:0:0:0:
256,192,49883,1,0,0:0:0:0:
256,192,49969,1,8,0:0:0:0:
256,192,50055,1,8,0:0:0:0:
256,192,50141,1,0,0:0:0:0:
256,192,50486,1,8,0:0:0:0:
256,192,50658,1,8,0:0:0:0:
256,192,50716,1,8,0:0:0:0:
256,192,50773,1,8,0:0:0:0:
256,192,50831,1,0,0:0:0:0:
256,192,51003,1,0,0:0:0:0:
256,192,51090,1,0,0:0:0:0:
256,192,51176,1,8,0:0:0:0:
256,192,51348,1,0,0:0:0:0:
256,192,51521,1,8,0:0:0:0:
256,192,51607,1,8,0:0:0:0:
256,192,51693,1,0,0:0:0:0:
256,192,51865,1,8,0:0:0:0:
256,192,52038,1,0,0:0:0:0:
256,192,52124,1,8,0:0:0:0:
256,192,52210,1,0,0:0:0:0:
256,192,52296,1,8,0:0:0:0:
256,192,52383,1,8,0:0:0:0:
256,192,52469,1,0,0:0:0:0:
256,192,52555,1,8,0:0:0:0:
256,192,52727,1,0,0:0:0:0:
256,192,52900,1,8,0:0:0:0:
256,192,53072,1,0,0:0:0:0:
256,192,53130,1,8,0:0:0:0:
256,192,53187,1,8,0:0:0:0:
256,192,53245,1,0,0:0:0:0:
256,192,53417,1,8,0:0:0:0:
256,192,53590,1,8,0:0:0:0:
256,192,53762,1,8,0:0:0:0:
256,192,53848,1,0,0:0:0:0:
256,192,53934,1,8,0:0:0:0:
256,192,54021,1,8,0:0:0:0:
256,192,54107,1,0,0:0:0:0:
256,192,54279,1,8,0:0:0:0:
256,192,54452,1,8,0:0:0:0:
256,192,54624,1,0,0:0:0:0:
256,192,54969,1,0,0:0:0:0:
256,192,55314,1,8,0:0:0:0:
256,192,55486,1,8,0:0:0:0:
256,192,55544,1,0,0:0:0:0:
256,192,55601,1,0,0:0:0:0:
256,192,55658,1,0,0:0:0:0:
256,192,55831,1,0,0:0:0:0:
256,192,56003,1,8,0:0:0:0:
256,192,56176,1,8,0:0:0:0:
256,192,56262,1,8,0:0:0:0:
256,192,56348,1,0,0:0:0:0:
256,192,56434,1,8,0:0:0:0:
256,192,56521,1,0,0:0:0:0:
256,192,56865,1,8,0:0:0:0:
256,192,57038,1,0,0:0:0:0:
256,192,57210,1,8,0:0:0:0:
256,192,57296,1,0,0:0:0:0:
256,192,57383,1,8,0:0:0:0:
256,192,57555,1,0,0:0:0:0:
256,192,57727,1,8,0:0:0:0:
256,192,57900,1,8,0:0:0:0:
256,192,57957,1,0,0:0:0:0:
256,192,58015,1,8,0:0:0:0:
256,192,58072,1,0,0:0:0:0:
256,192,58245,1,0,0:0:0:0:
256,192,58417,1,8,0:0:0:0:
256,192,58590,1,0,0:0:0:0:
256,192,58762,1,8,0:0:0:0:
256,192,58934,1,0,0:0:0:0:
256,192,58992,1,8,0:0:0:0:
256,192,59049,1,8,0:0:0:0:
256,192,59107,1,8,0:0:0:0:
256,192,59193,1,8,0:0:0:0:
256,192,59279,1,8,0:0:0:0:
256,192,59624,1,0,0:0:0:0:
256,192,59969,1,0,0:0:0:0:
256,192,60141,1,8,0:0:0:0:
256,192,60314,1,8,0:0:0:0:
256,192,60371,1,8,0:0:0:0:
256,192,60429,1,8,0:0:0:0:
256,192,60486,1,0,0:0:0:0:
256,192,60658,1,0,0:0:0:0:
256,192,60745,1,0,0:0:0:0:
256,192,60831,1,8,0:0:0:0:
256,192,61003,1,0,0:0:0:0:
256,192,61176,1,0,0:0:0:0:
256,192,61348,1,8,0:0:0:0:
256,192,61434,1,8,0:0:0:0:
256,192,61521,1,0,0:0:0:0:
256,192,61693,1,8,0:0:0:0:
256,192,61779,1,8,0:0:0:0:
256,192,61865,12,0,62555,0:0:0:0:
256,192,62727,5,8,0:0:0:0:
256,192,62785,1,8,0:0:0:0:
256,192,62842,1,8,0:0:0:0:
256,192,62900,1,8,0:0:0:0:
256,192,63072,1,0,0:0:0:0:
256,192,63245,1,8,0:0:0:0:
256,192,63417,1,8,0:0:0:0:
256,192,63590,1,0,0:0:0:0:
256,192,63762,1,8,0:0:0:0:
256,192,63934,1,8,0:0:0:0:
256,192,64021,1,0,0:0:0:0:
256,192,64107,1,8,0:0:0:0:
256,192,64279,1,0,0:0:0:0:
256,192,64452,1,0,0:0:0:0:
256,192,64624,1,8,0:0:0:0:
256,192,64796,1,0,0:0:0:0:
256,192,64883,1,8,0:0:0:0:
256,192,64969,1,0,0:0:0:0:
256,192,65055,1,8,0:0:0:0:
256,192,65141,1,8,0:0:0:0:
256,192,65314,1,8,0:0:0:0:
256,192,65486,1,0,0:0:0:0:
256,192,65544,1,0,0:0:0:0:
256,192,65601,1,0,0:0:0:0:
256,192,65658,1,8,0:0:0:0:
256,192,65831,1,8,0:0:0:0:
256,192,66003,1,8,0:0:0:0:
256,192,66176,1,0,0:0:0:0:
256,192,66348,1,0,0:0:0:0:
256,192,66521,1,8,0:0:0:0:
256,192,66693,1,0,0:0:0:0:
256,192,66779,1,0,0:0:0:0:
256,192,66865,1,0,0:0:0:0:
256,192,66952,1,8,0:0:0:0:
256,192,67038,1,8,0:0:0:0:
256,192,67210,1,8,0:0:0:0:
256,192,67296,1,0,0:0:0:0:
256,192,67383,1,0,0:0:0:0:
256,192,67555,1,8,0:0:0:0:
256,192,67727,1,4,0:0:0:0:
256,192,67900,1,0,0:0:0:0:
256,192,68072,1,8,0:0:0:0:
256,192,68245,1,8,0:0:0:0:
256,192,68331,1,8,0:0:0:0:
256,192,68417,1,0,0:0:0:0:
256,192,68503,1,8,0:0:0:0:
256,192,68590,1,8,0:0:0:0:
256,192,68762,1,8,0:0:0:0:
256,192,68934,1,0,0:0:0:0:
256,192,69021,1,8,0:0:0:0:
256,192,69107,1,0,0:0:0:0:
256,192,69279,1,0,0:0:0:0:
256,192,69365,1,0,0:0:0:0:
256,192,69452,1,8,0:0:0:0:
256,192,69624,1,8,0:0:0:0:
256,192,69710,1,0,0:0:0:0:
256,192,69796,1,0,0:0:0:0:
256,192,69883,1,8,0:0:0:0:
256,192,69969,1,8,0:0:0:0:
256,192,70141,1,8,0:0:0:0:
256,192,70314,1,8,0:0:0:0:
256,192,70371,1,0,0:0:0:0:
256,192,70429,1,0,0:0:0:0:
256,192,70486,1,8,0:0:0:0:
256,192,70658,1,8,0:0:0:0:
256,192,70831,1,8,0:0:0:0:
256,192,71003,1,0,0:0:0:0:
256,192,71176,1,0,0:0:0:0:
256,192,71262,1,0,0:0:0:0:
256,192,71348,1,8,0:0:0:0:
256,192,71521,1,8,0:0:0:0:
256,192,71693,1,0,0:0:0:0:
256,192,71779,1,0,0:0:0:0:
256,192,71865,1,8,0:0:0:0:
256,192,72038,1,8,0:0:0:0:
256,192,72124,1,0,0:0:0:0:
256,192,72210,1,8,0:0:0:0:
256,192,72383,1,8,0:0:0:0:
256,192,72555,1,0,0:0:0:0:
256,192,72727,1,0,0:0:0:0:
256,192,72900,1,8,0:0:0:0:
256,192,73072,1,8,0:0:0:0:
256,192,73245,1,0,0:0:0:0:
256,192,73417,1,8,0:0:0:0:
256,192,73590,1,8,0:0:0:0:
256,192,73762,1,0,0:0:0:0:
256,192,73934,1,8,0:0:0:0:
256,192,74107,1,0,0:0:0:0:
256,192,74193,1,0,0:0:0:0:
256,192,74279,1,0,0:0:0:0:
256,192,74365,1,8,0:0:0:0:
256,192,74452,1,8,0:0:0:0:
256,192,74538,1,8,0:0:0:0:
256,192,74624,1,0,0:0:0:0:
256,192,74796,1,0,0:0:0:0:
256,192,74969,1,0,0:0:0:0:
256,192,75141,1,0,0:0:0:0:
256,192,75199,1,0,0:0:0:0:
256,192,75256,1,8,0:0:0:0:
256,192,75314,1,0,0:0:0:0:
256,192,75486,1,8,0:0:0:0:
256,192,75658,1,8,0:0:0:0:
256,192,75831,1,0,0:0:0:0:
256,192,76003,1,8,0:0:0:0:
256,192,76090,1,0,0:0:0:0:
256,192,76176,1,8,0:0:0:0:
256,192,76262,1,8,0:0:0:0:
256,192,76348,1,0,0:0:0:0:
256,192,76434,1,0,0:0:0:0:
256,192,76521,1,0,0:0:0:0:
256,192,76607,1,0,0:0:0:0:
256,192,76693,1,8,0:0:0:0:
256,192,76865,1,8,0:0:0:0:
256,192,76952,1,0,0:0:0:0:
256,192,77038,1,0,0:0:0:0:
256,192,77210,1,8,0:0:0:0:
256,192,77383,1,0,0:0:0:0:
256,192,77555,1,0,0:0:0:0:
256,192,77727,1,8,0:0:0:0:
256,192,77900,1,8,0:0:0:0:
256,192,78072,1,0,0:0:0:0:
256,192,78158,1,8,0:0:0:0:
256,192,78245,1,8,0:0:0:0:
256,192,78331,1,0,0:0:0:0:
256,192,78417,1,8,0:0:0:0:
256,192,78590,1,0,0:0:0:0:
256,192,78676,1,8,0:0:0:0:
256,192,78762,1,0,0:0:0:0:
256,192,78934,1,0,0:0:0:0:
256,192,79021,1,0,0:0:0:0:
256,192,79107,1,8,0:0:0:0:
256,192,79279,1,0,0:0:0:0:
256,192,79365,1,8,0:0:0:0:
256,192,79452,1,0,0:0:0:0:
256,192,79538,1,8,0:0:0:0:
256,192,79624,1,8,0:0:0:0:
256,192,79796,1,0,0:0:0:0:
256,192,79969,1,0,0:0:0:0:
256,192,80026,1,0,0:0:0:0:
256,192,80084,1,0,0:0:0:0:
256,192,80141,1,8,0:0:0:0:
256,192,80314,1,8,0:0:0:0:
256,192,80486,1,0,0:0:0:0:
256,192,80831,1,0,0:0:0:0:
256,192,81176,1,0,0:0:0:0:
256,192,81521,1,0,0:0:0:0:
256,192,82038,1,0,0:0:0:0:
256,192,82095,1,0,0:0:0:0:
256,192,82153,1,0,0:0:0:0:
256,192,82210,1,8,0:0:0:0:
256,192,82383,1,0,0:0:0:0:
256,192,82469,1,0,0:0:0:0:
256,192,82555,1,8,0:0:0:0:
256,192,82727,1,8,0:0:0:0:
256,192,82900,1,0,0:0:0:0:
256,192,82986,1,8,0:0:0:0:
256,192,83072,1,8,0:0:0:0:
256,192,83245,1,8,0:0:0:0:
256,192,83331,1,0,0:0:0:0:
256,192,83417,1,8,0:0:0:0:
256,192,83590,1,0,0:0:0:0:
256,192,83762,1,0,0:0:0:0:
256,192,83934,1,8,0:0:0:0:
256,192,84107,1,0,0:0:0:0:
256,192,84193,1,0,0:0:0:0:
256,192,84279,1,0,0:0:0:0:
256,192,84365,1,0,0:0:0:0:
256,192,84452,1,8,0:0:0:0:
256,192,84624,1,0,0:0:0:0:
256,192,84796,1,0,0:0:0:0:
256,192,84969,1,8,0:0:0:0:
256,192,85141,1,8,0:0:0:0:
256,192,85227,1,0,0:0:0:0:
256,192,85314,1,8,0:0:0:0:
256,192,85400,1,0,0:0:0:0:
256,192,85486,1,8,0:0:0:0:
256,192,85658,1,8,0:0:0:0:
256,192,85831,1,8,0:0:0:0:
256,192,85888,1,8,0:0:0:0:
256,192,85946,1,8,0:0:0:0:
256,192,86003,1,0,0:0:0:0:
256,192,86176,1,8,0:0:0:0:
256,192,86262,1,8,0:0:0:0:
256,192,86348,1,0,0:0:0:0:
256,192,86434,1,0,0:0:0:0:
256,192,86521,1,8,0:0:0:0:
256,192,86607,1,8,0:0:0:0:
256,192,86693,1,8,0:0:0:0:
256,192,86865,1,0,0:0:0:0:
256,192,86923,1,0,0:0:0:0:
256,192,86980,1,0,0:0:0:0:
256,192,87038,1,8,0:0:0:0:
256,192,87210,1,0,0:0:0:0:
256,192,87296,1,0,0:0:0:0:
256,192,87383,1,8,0:0:0:0:
256,192,87469,1,8,0:0:0:0:
256,192,87555,1,8,0:0:0:0:
256,192,87727,1,0,0:0:0:0:
256,192,87814,1,0,0:0:0:0:
256,192,87900,1,8,0:0:0:0:
256,192,87986,1,8,0:0:0:0:
256,192,88072,1,0,0:0:0:0:
256,192,88158,1,8,0:0:0:0:
256,192,88245,1,8,0:0:0:0:
256,192,88331,1,0,0:0:0:0:
256,192,88417,1,8,0:0:0:0:
256,192,88590,1,0,0:0:0:0:
256,192,88762,1,0,0:0:0:0:
256,192,88934,1,0,0:0:0:0:
256,192,89107,1,4,0:0:0:0:
256,192,89452,1,8,0:0:0:0:
256,192,90141,1,0,0:0:0:0:
256,192,90831,1,8,0:0:0:0:
256,192,91003,1,8,0:0:0:0:
256,192,91176,1,8,0:0:0:0:
256,192,91348,1,8,0:0:0:0:
256,192,91521,1,8,0:0:0:0:
256,192,91693,1,8,0:0:0:0:
256,192,91750,1,8,0:0:0:0:
256,192,91808,1,8,0:0:0:0:
256,192,91865,1,8,0:0:0:0:
256,192,92038,1,0,0:0:0:0:
256,192,92210,1,8,0:0:0:0:
256,192,92383,1,0,0:0:0:0:
256,192,92555,1,8,0:0:0:0:
256,192,92641,1,0,0:0:0:0:
256,192,92727,1,8,0:0:0:0:
256,192,92900,1,0,0:0:0:0:
256,192,92986,1,8,0:0:0:0:
256,192,93072,1,0,0:0:0:0:
256,192,93158,1,8,0:0:0:0:
256,192,93245,1,8,0:0:0:0:
256,192,93417,1,8,0:0:0:0:
256,192,93590,1,0,0:0:0:0:
256,192,93762,1,8,0:0:0:0:
256,192,93934,1,8,0:0:0:0:
256,192,94107,1,0,0:0:0:0:
256,192,94279,1,8,0:0:0:0:
256,192,94365,1,0,0:0:0:0:
256,192,94452,1,8,0:0:0:0:
256,192,94538,1,0,0:0:0:0:
256,192,94624,1,0,0:0:0:0:
256,192,94710,1,0,0:0:0:0:
256,192,94796,1,0,0:0:0:0:
256,192,94883,1,8,0:0:0:0:
256,192,94969,1,8,0:0:0:0:
256,192,95055,1,0,0:0:0:0:
256,192,95141,1,0,0:0:0:0:
256,192,95227,1,8,0:0:0:0:
256,192,95314,1,8,0:0:0:0:
256,192,95486,1,8,0:0:0:0:
256,192,95658,1,0,0:0:0:0:
256,192,95831,1,0,0:0:0:0:
256,192,95917,1,8,0:0:0:0:
256,192,96003,1,8,0:0:0:0:
256,192,96176,1,0,0:0:0:0:
256,192,96262,1,8,0:0:0:0:
256,192,96348,1,0,0:0:0:0:
256,192,96521,1,8,0:0:0:0:
256,192,96693,1,4,0:0:0:0:
256,192,96865,1,0,0:0:0:0:
256,192,97038,1,8,0:0:0:0:
256,192,97210,1,0,0:0:0:0:
256,192,97383,1,0,0:0:0:0:
256,192,97469,1,0,0:0:0:0:
256,192,97555,1,8,0:0:0:0:
256,192,97727,1,8,0:0:0:0:
256,192,97814,1,8,0:0:0:0:
256,192,97900,1,0,0:0:0:0:
256,192,97986,1,8,0:0:0:0:
256,192,98072,1,0,0:0:0:0:
256,192,98245,1,0,0:0:0:0:
256,192,98417,1,8,0:0:0:0:
256,192,98590,1,8,0:0:0:0:
256,192,98676,1,8,0:0:0:0:
256,192,98762,1,8,0:0:0:0:
256,192,98848,1,0,0:0:0:0:
256,192,98934,1,8,0:0:0:0:
256,192,99107,1,8,0:0:0:0:
256,192,99193,1,0,0:0:0:0:
256,192,99279,1,8,0:0:0:0:
256,192,99365,1,8,0:0:0:0:
256,192,99452,1,8,0:0:0:0:
256,192,99624,1,4,0:0:0:0:
256,192,99796,1,8,0:0:0:0:
256,192,99883,1,8,0:0:0:0:
256,192,99969,1,0,0:0:0:0:
256,192,100055,1,8,0:0:0:0:
256,192,100141,1,0,0:0:0:0:
256,192,100314,1,8,0:0:0:0:
256,192,100371,1,0,0:0:0:0:
256,192,100429,1,0,0:0:0:0:
256,192,100486,1,8,0:0:0:0:
256,192,100658,1,0,0:0:0:0:
256,192,100745,1,8,0:0:0:0:
256,192,100831,1,8,0:0:0:0:
256,192,101003,1,0,0:0:0:0:
256,192,101090,1,8,0:0:0:0:
256,192,101176,1,0,0:0:0:0:
256,192,101348,1,8,0:0:0:0:
256,192,101521,1,0,0:0:0:0:
256,192,101693,1,0,0:0:0:0:
256,192,101865,1,8,0:0:0:0:
256,192,102038,1,8,0:0:0:0:
256,192,102210,1,0,0:0:0:0:
256,192,102383,1,8,0:0:0:0:
256,192,102555,1,8,0:0:0:0:
256,192,102727,1,8,0:0:0:0:
256,192,102814,1,0,0:0:0:0:
256,192,102900,1,8,0:0:0:0:
256,192,103072,1,0,0:0:0:0:
256,192,103158,1,0,0:0:0:0:
256,192,103245,1,8,0:0:0:0:
256,192,103331,1,8,0:0:0:0:
256,192,103417,1,8,0:0:0:0:
256,192,103503,1,8,0:0:0:0:
256,192,103590,1,0,0:0:0:0:
256,192,103762,1,0,0:0:0:0:
256,192,103934,1,8,0:0:0:0:
256,192,104107,1,0,0:0:0:0:
256,192,104164,1,0,0:0:0:0:
256,192,104222,1,0,0:0:0:0:
256,192,104279,1,8,0:0:0:0:
256,192,104452,1,8,0:0:0:0:
256,192,104624,1,8,0:0:0:0:
256,192,104796,1,0,0:0:0:0:
256,192,104969,1,0,0:0:0:0:
256,192,105055,1,0,0:0:0:0:
256,192,105141,1,8,0:0:0:0:
256,192,105227,1,8,0:0:0:0:
256,192,105314,1,8,0:0:0:0:
256,192,105400,1,0,0:0:0:0:
256,192,105486,1,0,0:0:0:0:
256,192,105572,1,0,0:0:0:0:
256,192,105658,1,8,0:0:0:0:
256,192,105831,1,8,0:0:0:0:
256,192,106003,1,0,0:0:0:0:
256,192,106176,1,8,0:0:0:0:
256,192,106262,1,8,0:0:0:0:
256,192,106348,1,0,0:0:0:0:
256,192,106521,1,0,0:0:0:0:
256,192,106693,1,8,0:0:0:0:
256,192,106865,1,8,0:0:0:0:
256,192,107038,1,0,0:0:0:0:
256,192,107124,1,8,0:0:0:0:
256,192,107210,1,8,0:0:0:0:
256,192,107383,1,8,0:0:0:0:
256,192,107555,1,8,0:0:0:0:
256,192,107641,1,8,0:0:0:0:
256,192,107727,1,0,0:0:0:0:
256,192,107900,1,0,0:0:0:0:
256,192,108072,1,8,0:0:0:0:
256,192,108245,1,8,0:0:0:0:
256,192,108331,1,0,0:0:0:0:
256,192,108417,1,8,0:0:0:0:
256,192,108503,1,0,0:0:0:0:
256,192,108590,1,8,0:0:0:0:
256,192,108762,1,8,0:0:0:0:
256,192,108934,1,0,0:0:0:0:
256,192,108992,1,0,0:0:0:0:
256,192,109049,1,0,0:0:0:0:
256,192,109107,1,8,0:0:0:0:
256,192,109279,1,8,0:0:0:0:
256,192,109452,1,0,0:0:0:0:
256,192,109796,1,0,0:0:0:0:
256,192,110141,1,8,0:0:0:0:
256,192,110199,1,8,0:0:0:0:
256,192,110256,1,8,0:0:0:0:
256,192,110314,1,8,0:0:0:0:
256,192,110371,1,8,0:0:0:0:
256,192,110429,1,8,0:0:0:0:
256,192,110486,1,8,0:0:0:0:
256,192,110831,1,0,0:0:0:0:
256,192,110888,1,0,0:0:0:0:
256,192,110946,1,0,0:0:0:0:
256,192,111003,1,8,0:0:0:0:
256,192,111061,1,8,0:0:0:0:
256,192,111118,1,8,0:0:0:0:
256,192,111176,1,8,0:0:0:0:
256,192,111521,1,8,0:0:0:0:
256,192,111607,1,8,0:0:0:0:
256,192,111693,1,8,0:0:0:0:
256,192,111779,1,0,0:0:0:0:
256,192,111865,1,0,0:0:0:0:
256,192,112038,1,0,0:0:0:0:
256,192,112210,1,0,0:0:0:0:
256,192,112296,1,0,0:0:0:0:
256,192,112383,1,8,0:0:0:0:
256,192,112555,1,0,0:0:0:0:
256,192,112727,1,0,0:0:0:0:
256,192,112900,1,8,0:0:0:0:
256,192,113072,1,8,0:0:0:0:
256,192,113158,1,0,0:0:0:0:
256,192,113245,1,8,0:0:0:0:
256,192,113331,1,0,0:0:0:0:
256,192,113417,1,8,0:0:0:0:
256,192,113590,1,0,0:0:0:0:
256,192,113676,1,8,0:0:0:0:
256,192,113762,1,0,0:0:0:0:
256,192,113848,1,8,0:0:0:0:
256,192,113934,1,8,0:0:0:0:
256,192,114107,1,8,0:0:0:0:
256,192,114150,1,8,0:0:0:0:
256,192,114279,1,8,0:0:0:0:
256,192,114322,1,8,0:0:0:0:
256,192,114452,1,0,0:0:0:0:
256,192,114495,1,0,0:0:0:0:
256,192,114538,1,0,0:0:0:0:
256,192,114796,1,8,0:0:0:0:
256,192,114969,1,0,0:0:0:0:
256,192,115141,1,0,0:0:0:0:
256,192,115227,1,8,0:0:0:0:
256,192,115314,1,8,0:0:0:0:
256,192,115486,1,8,0:0:0:0:
256,192,115572,1,0,0:0:0:0:
256,192,115658,1,8,0:0:0:0:
256,192,115831,1,8,0:0:0:0:
256,192,116003,1,0,0:0:0:0:
256,192,116176,1,0,0:0:0:0:
256,192,116348,1,0,0:0:0:0:
256,192,116521,1,8,0:0:0:0:
256,192,116693,1,0,0:0:0:0:
256,192,116865,1,0,0:0:0:0:
256,192,117038,1,8,0:0:0:0:
256,192,117210,1,0,0:0:0:0:
256,192,117296,1,8,0:0:0:0:
256,192,117383,1,0,0:0:0:0:
256,192,117555,1,0,0:0:0:0:
256,192,117727,1,8,0:0:0:0:
256,192,117900,1,0,0:0:0:0:
256,192,118072,1,8,0:0:0:0:
256,192,118245,1,0,0:0:0:0:
256,192,118417,1,8,0:0:0:0:
256,192,118590,1,8,0:0:0:0:
256,192,118647,1,8,0:0:0:0:
256,192,118704,1,8,0:0:0:0:
256,192,118762,1,0,0:0:0:0:
256,192,118934,1,8,0:0:0:0:
256,192,119107,1,0,0:0:0:0:
256,192,119279,1,8,0:0:0:0:
256,192,119452,1,8,0:0:0:0:
256,192,119538,1,0,0:0:0:0:
256,192,119624,1,8,0:0:0:0:
256,192,119796,1,8,0:0:0:0:
256,192,119969,1,0,0:0:0:0:
256,192,120055,1,8,0:0:0:0:
256,192,120141,1,8,0:0:0:0:
256,192,120314,1,8,0:0:0:0:
256,192,120400,1,0,0:0:0:0:
256,192,120486,1,8,0:0:0:0:
256,192,120658,1,8,0:0:0:0:
256,192,120831,1,0,0:0:0:0:
256,192,121003,1,0,0:0:0:0:
256,192,121176,1,8,0:0:0:0:
256,192,121348,1,8,0:0:0:0:
256,192,121521,1,0,0:0:0:0:
256,192,121693,1,8,0:0:0:0:
256,192,121865,1,8,0:0:0:0:
256,192,121952,1,8,0:0:0:0:
256,192,122038,1,0,0:0:0:0:
256,192,122210,1,8,0:0:0:0:
256,192,122383,1,0,0:0:0:0:
256,192,122555,1,8,0:0:0:0:
256,192,122727,1,0,0:0:0:0:
256,192,122900,1,8,0:0:0:0:
256,192,122986,1,8,0:0:0:0:
256,192,123072,1,8,0:0:0:0:
256,192,123245,1,8,0:0:0:0:
256,192,123417,1,0,0:0:0:0:
256,192,123475,1,0,0:0:0:0:
256,192,123532,1,0,0:0:0:0:
256,192,123590,1,8,0:0:0:0:
256,192,123762,1,8,0:0:0:0:
256,192,123934,1,8,0:0:0:0:
256,192,124107,1,8,0:0:0:0:
256,192,124193,1,8,0:0:0:0:
256,192,124279,1,8,0:0:0:0:
256,192,124365,1,0,0:0:0:0:
256,192,124452,1,8,0:0:0:0:
256,192,124624,1,8,0:0:0:0:
256,192,124796,1,8,0:0:0:0:
256,192,124969,1,8,0:0:0:0:
256,192,125141,1,8,0:0:0:0:
256,192,125314,1,0,0:0:0:0:
256,192,125371,1,0,0:0:0:0:
256,192,125429,1,0,0:0:0:0:
256,192,125486,1,8,0:0:0:0:
256,192,125658,1,0,0:0:0:0:
256,192,125831,1,0,0:0:0:0:
256,192,126003,1,8,0:0:0:0:
256,192,126176,1,0,0:0:0:0:
256,192,126348,1,0,0:0:0:0:
256,192,126521,1,8,0:0:0:0:
256,192,126693,1,8,0:0:0:0:
256,192,126865,1,0,0:0:0:0:
256,192,126952,1,8,0:0:0:0:
256,192,127038,1,0,0:0:0:0:
256,192,127210,1,0,0:0:0:0:
256,192,127383,1,8,0:0:0:0:
256,192,127555,1,8,0:0:0:0:
256,192,127641,1,0,0:0:0:0:
256,192,127727,1,8,0:0:0:0:
256,192,127814,1,0,0:0:0:0:
256,192,127900,1,8,0:0:0:0:
256,192,128072,1,8,0:0:0:0:
256,192,128245,1,0,0:0:0:0:
256,192,128302,1,0,0:0:0:0:
256,192,128360,1,0,0:0:0:0:
256,192,128417,1,8,0:0:0:0:
256,192,128590,1,8,0:0:0:0:
256,192,128762,1,8,0:0:0:0:
256,192,128934,1,0,0:0:0:0:
256,192,129107,1,0,0:0:0:0:
256,192,129279,1,8,0:0:0:0:
256,192,129452,1,8,0:0:0:0:
256,192,129624,1,8,0:0:0:0:
256,192,129710,1,0,0:0:0:0:
256,192,129796,1,8,0:0:0:0:
256,192,129969,1,8,0:0:0:0:
256,192,130055,1,8,0:0:0:0:
256,192,130141,1,8,0:0:0:0:
256,192,130227,1,8,0:0:0:0:
256,192,130314,1,8,0:0:0:0:
256,192,130400,1,8,0:0:0:0:
256,192,130486,1,8,0:0:0:0:
256,192,130658,1,0,0:0:0:0:
256,192,130745,1,0,0:0:0:0:
256,192,130831,1,8,0:0:0:0:
256,192,131003,1,0,0:0:0:0:
256,192,131176,1,0,0:0:0:0:
256,192,131262,1,8,0:0:0:0:
256,192,131348,1,0,0:0:0:0:
256,192,131521,1,0,0:0:0:0:
256,192,131607,1,0,0:0:0:0:
256,192,131693,1,8,0:0:0:0:
256,192,131865,1,0,0:0:0:0:
256,192,132038,1,0,0:0:0:0:
256,192,132210,1,8,0:0:0:0:
256,192,132383,1,8,0:0:0:0:
256,192,132469,1,0,0:0:0:0:
256,192,132555,1,0,0:0:0:0:
256,192,132641,1,8,0:0:0:0:
256,192,132727,1,8,0:0:0:0:
256,192,132900,1,0,0:0:0:0:
256,192,133072,1,0,0:0:0:0:
256,192,133245,1,8,0:0:0:0:
256,192,133417,1,8,0:0:0:0:
256,192,133503,1,0,0:0:0:0:
256,192,133590,1,8,0:0:0:0:
256,192,133676,1,0,0:0:0:0:
256,192,133762,1,0,0:0:0:0:
256,192,133934,1,8,0:0:0:0:
256,192,134107,1,8,0:0:0:0:
256,192,134164,1,8,0:0:0:0:
256,192,134222,1,8,0:0:0:0:
256,192,134279,1,0,0:0:0:0:
256,192,134452,1,8,0:0:0:0:
256,192,134538,1,0,0:0:0:0:
256,192,134624,1,8,0:0:0:0:
256,192,134710,1,0,0:0:0:0:
256,192,134796,1,8,0:0:0:0:
256,192,134883,1,0,0:0:0:0:
256,192,134969,1,8,0:0:0:0:
256,192,135141,1,8,0:0:0:0:
256,192,135199,1,8,0:0:0:0:
256,192,135256,1,0,0:0:0:0:
256,192,135314,1,8,0:0:0:0:
256,192,135572,1,0,0:0:0:0:
256,192,135658,1,8,0:0:0:0:
256,192,135831,1,8,0:0:0:0:
256,192,136003,1,0,0:0:0:0:
256,192,136090,1,0,0:0:0:0:
256,192,136176,1,8,0:0:0:0:
256,192,136262,1,0,0:0:0:0:
256,192,136434,1,0,0:0:0:0:
256,192,136521,1,8,0:0:0:0:
256,192,136607,1,0,0:0:0:0:
256,192,136693,1,8,0:0:0:0:
256,192,136865,1,4,0:0:0:0:
256,192,137038,1,4,0:0:0:0:
256,192,137210,1,0,0:0:0:0:
256,192,137383,1,8,0:0:0:0:
256,192,137555,1,8,0:0:0:0:
256,192,137727,1,4,0:0:0:0:
256,192,138417,1,0,0:0:0:0:
256,192,139107,1,8,0:0:0:0:
256,192,139796,1,8,0:0:0:0:
256,192,140141,1,0,0:0:0:0:
256,192,140486,1,8,0:0:0:0:
256,192,142555,1,0,0:0:0:0:
256,192,142900,1,8,0:0:0:0:
256,192,144969,1,8,0:0:0:0:
256,192,145314,1,8,0:0:0:0:
256,192,147383,1,8,0:0:0:0:
256,192,147727,1,0,0:0:0:0:
256,192,149796,1,0,0:0:0:0:
256,192,149969,1,0,0:0:0:0:
256,192,150055,1,8,0:0:0:0:
256,192,150141,1,8,0:0:0:0:
256,192,150314,1,8,0:0:0:0:
256,192,150486,1,0,0:0:0:0:
256,192,150572,1,0,0:0:0:0:
256,192,150658,1,8,0:0:0:0:
256,192,150831,1,8,0:0:0:0:
256,192,150917,1,0,0:0:0:0:
256,192,151003,1,8,0:0:0:0:
256,192,151176,1,0,0:0:0:0:
256,192,151348,1,0,0:0:0:0:
256,192,151521,1,8,0:0:0:0:
256,192,151693,1,8,0:0:0:0:
256,192,151779,1,0,0:0:0:0:
256,192,151865,1,8,0:0:0:0:
256,192,151952,1,8,0:0:0:0:
256,192,152038,1,8,0:0:0:0:
256,192,152210,1,0,0:0:0:0:
256,192,152383,1,0,0:0:0:0:
256,192,152555,1,8,0:0:0:0:
256,192,152727,1,8,0:0:0:0:
256,192,152814,1,0,0:0:0:0:
256,192,152900,1,8,0:0:0:0:
256,192,152986,1,0,0:0:0:0:
256,192,153072,1,0,0:0:0:0:
256,192,153245,1,8,0:0:0:0:
256,192,153417,1,8,0:0:0:0:
256,192,153475,1,0,0:0:0:0:
256,192,153532,1,0,0:0:0:0:
256,192,153590,1,8,0:0:0:0:
256,192,153762,1,8,0:0:0:0:
256,192,153848,1,0,0:0:0:0:
256,192,153934,1,8,0:0:0:0:
256,192,154021,1,0,0:0:0:0:
256,192,154107,1,0,0:0:0:0:
256,192,154193,1,0,0:0:0:0:
256,192,154279,1,8,0:0:0:0:
256,192,154452,1,8,0:0:0:0:
256,192,154509,1,0,0:0:0:0:
256,192,154567,1,8,0:0:0:0:
256,192,154624,1,8,0:0:0:0:
256,192,154883,1,0,0:0:0:0:
256,192,154969,1,8,0:0:0:0:
256,192,155141,1,8,0:0:0:0:
256,192,155227,1,0,0:0:0:0:
256,192,155400,1,0,0:0:0:0:
256,192,155486,1,8,0:0:0:0:
256,192,155572,1,0,0:0:0:0:
256,192,155745,1,0,0:0:0:0:
256,192,155831,1,8,0:0:0:0:
256,192,155917,1,0,0:0:0:0:
256,192,156003,1,8,0:0:0:0:
256,192,156176,1,4,0:0:0:0:
256,192,156348,1,4,0:0:0:0:
256,192,156693,1,8,0:0:0:0:
256,192,156865,1,8,0:0:0:0:
256,192,157038,1,0,0:0:0:0:
256,192,157210,1,8,0:0:0:0:
256,192,157383,1,8,0:0:0:0:
256,192,157555,1,8,0:0:0:0:
256,192,157727,1,8,0:0:0:0:
256,192,157900,1,8,0:0:0:0:
256,192,158072,1,8,0:0:0:0:
256,192,158245,1,8,0:0:0:0:
256,192,158417,1,8,0:0:0:0:
256,192,158590,1,8,0:0:0:0:
256,192,158762,1,8,0:0:0:0:
256,192,158934,1,8,0:0:0:0:
256,192,159107,1,8,0:0:0:0:
256,192,159279,1,8,0:0:0:0:
256,192,159394,1,8,0:0:0:0:
256,192,159452,1,8,0:0:0:0:
256,192,159624,1,0,0:0:0:0:
256,192,159710,1,8,0:0:0:0:
256,192,159796,1,8,0:0:0:0:
256,192,159969,1,8,0:0:0:0:
256,192,160055,1,0,0:0:0:0:
256,192,160141,1,0,0:0:0:0:
256,192,160314,1,0,0:0:0:0:
256,192,160400,1,8,0:0:0:0:
256,192,160486,1,8,0:0:0:0:
256,192,160658,1,8,0:0:0:0:
256,192,160745,1,0,0:0:0:0:
256,192,160831,1,0,0:0:0:0:
256,192,161003,1,8,0:0:0:0:
256,192,161090,1,8,0:0:0:0:
256,192,161176,1,0,0:0:0:0:
256,192,161262,1,8,0:0:0:0:
256,192,161348,1,0,0:0:0:0:
256,192,161434,1,8,0:0:0:0:
256,192,161521,1,8,0:0:0:0:
256,192,161607,1,0,0:0:0:0:
256,192,161693,1,8,0:0:0:0:
256,192,161865,1,4,0:0:0:0:
256,192,162038,1,0,0:0:0:0:
256,192,162210,1,8,0:0:0:0:
256,192,162383,1,8,0:0:0:0:
256,192,162555,1,0,0:0:0:0:
256,192,162641,1,8,0:0:0:0:
256,192,162727,1,0,0:0:0:0:
256,192,162814,1,8,0:0:0:0:
256,192,162900,1,0,0:0:0:0:
256,192,162986,1,8,0:0:0:0:
256,192,163072,1,8,0:0:0:0:
256,192,163245,1,8,0:0:0:0:
256,192,163302,1,8,0:0:0:0:
256,192,163360,1,8,0:0:0:0:
256,192,163417,1,8,0:0:0:0:
256,192,163590,1,8,0:0:0:0:
256,192,163762,1,0,0:0:0:0:
256,192,163934,1,8,0:0:0:0:
256,192,163992,1,8,0:0:0:0:
256,192,164049,1,0,0:0:0:0:
256,192,164107,1,8,0:0:0:0:
256,192,164279,1,0,0:0:0:0:
256,192,164452,1,0,0:0:0:0:
256,192,164538,1,8,0:0:0:0:
256,192,164624,1,8,0:0:0:0:
256,192,164796,1,0,0:0:0:0:
256,192,164969,1,0,0:0:0:0:
256,192,165141,1,8,0:0:0:0:
256,192,165227,1,8,0:0:0:0:
256,192,165314,1,0,0:0:0:0:
256,192,165486,1,0,0:0:0:0:
256,192,165658,1,0,0:0:0:0:
256,192,165831,1,8,0:0:0:0:
256,192,165917,1,0,0:0:0:0:
256,192,166003,1,0,0:0:0:0:
256,192,166176,1,8,0:0:0:0:
256,192,166348,1,0,0:0:0:0:
256,192,166521,1,8,0:0:0:0:
256,192,166693,1,4,0:0:0:0:
256,192,166865,1,0,0:0:0:0:
256,192,167038,1,8,0:0:0:0:
256,192,167210,1,8,0:0:0:0:
256,192,167383,1,0,0:0:0:0:
256,192,167469,1,8,0:0:0:0:
256,192,167555,1,8,0:0:0:0:
256,192,167641,1,8,0:0:0:0:
256,192,167727,1,0,0:0:0:0:
256,192,167814,1,8,0:0:0:0:
256,192,167900,1,8,0:0:0:0:
256,192,168072,1,0,0:0:0:0:
256,192,168130,1,0,0:0:0:0:
256,192,168187,1,8,0:0:0:0:
256,192,168245,1,0,0:0:0:0:
256,192,168417,1,0,0:0:0:0:
256,192,168590,1,8,0:0:0:0:
256,192,168762,1,8,0:0:0:0:
256,192,168819,1,8,0:0:0:0:
256,192,168877,1,0,0:0:0:0:
256,192,168934,1,8,0:0:0:0:
256,192,169107,1,0,0:0:0:0:
256,192,169279,1,8,0:0:0:0:
256,192,169365,1,0,0:0:0:0:
256,192,169452,1,8,0:0:0:0:
256,192,169624,1,0,0:0:0:0:
256,192,169796,1,8,0:0:0:0:
256,192,169969,1,8,0:0:0:0:
256,192,170055,1,8,0:0:0:0:
256,192,170141,1,8,0:0:0:0:
256,192,170227,1,0,0:0:0:0:
256,192,170314,1,8,0:0:0:0:
256,192,170486,1,0,0:0:0:0:
256,192,170658,1,8,0:0:0:0:
256,192,170745,1,0,0:0:0:0:
256,192,170831,1,8,0:0:0:0:
256,192,171003,1,8,0:0:0:0:
256,192,171090,1,8,0:0:0:0:
256,192,171176,1,8,0:0:0:0:
256,192,171262,1,0,0:0:0:0:
256,192,171348,1,8,0:0:0:0:
256,192,171521,1,4,0:0:0:0:
256,192,171693,1,0,0:0:0:0:
256,192,171865,1,8,0:0:0:0:
256,192,172038,1,8,0:0:0:0:
256,192,172210,1,8,0:0:0:0:
256,192,172296,1,8,0:0:0:0:
256,192,172383,1,8,0:0:0:0:
256,192,172555,1,0,0:0:0:0:
256,192,172641,1,0,0:0:0:0:
256,192,172727,1,8,0:0:0:0:
256,192,172900,1,8,0:0:0:0:
256,192,172957,1,8,0:0:0:0:
256,192,173015,1,0,0:0:0:0:
256,192,173072,1,0,0:0:0:0:
256,192,173245,1,0,0:0:0:0:
256,192,173417,1,8,0:0:0:0:
256,192,173590,1,8,0:0:0:0:
256,192,173647,1,0,0:0:0:0:
256,192,173704,1,8,0:0:0:0:
256,192,173762,1,8,0:0:0:0:
256,192,173934,1,4,0:0:0:0:
256,192,174107,1,0,0:0:0:0:
256,192,174193,1,8,0:0:0:0:
256,192,174279,1,8,0:0:0:0:
256,192,174452,1,8,0:0:0:0:
256,192,174538,1,8,0:0:0:0:
256,192,174624,1,8,0:0:0:0:
256,192,174710,1,8,0:0:0:0:
256,192,174796,1,0,0:0:0:0:
256,192,174969,1,8,0:0:0:0:
256,192,175055,1,0,0:0:0:0:
256,192,175141,1,8,0:0:0:0:
256,192,175227,1,8,0:0:0:0:
256,192,175314,1,0,0:0:0:0:
256,192,175486,1,0,0:0:0:0:
256,192,175658,1,0,0:0:0:0:
256,192,175745,1,8,0:0:0:0:
256,192,175831,1,0,0:0:0:0:
256,192,175917,1,8,0:0:0:0:
256,192,176003,1,8,0:0:0:0:
256,192,176090,1,0,0:0:0:0:
256,192,176176,1,8,0:0:0:0:
256,192,176348,1,4,0:0:0:0:
256,192,176521,1,8,0:0:0:0:
256,192,176693,1,8,0:0:0:0:
256,192,176865,1,8,0:0:0:0:
256,192,177038,1,8,0:0:0:0:
256,192,177210,1,0,0:0:0:0:
256,192,177383,1,8,0:0:0:0:
256,192,177555,1,8,0:0:0:0:
256,192,177727,1,8,0:0:0:0:
256,192,177900,1,8,0:0:0:0:
256,192,177957,1,8,0:0:0:0:
256,192,178015,1,8,0:0:0:0:
256,192,178072,1,8,0:0:0:0:
256,192,178158,1,0,0:0:0:0:
256,192,178245,1,0,0:0:0:0:
256,192,178331,1,0,0:0:0:0:
256,192,178417,1,8,0:0:0:0:
256,192,178475,1,8,0:0:0:0:
256,192,178532,1,8,0:0:0:0:
256,192,178590,1,8,0:0:0:0:
256,192,178762,1,8,0:0:0:0:
256,192,188489,5,8,0:0:0:0:
256,192,189092,1,0,0:0:0:0:
256,192,189523,1,8,0:0:0:0:
256,192,190126,1,8,0:0:0:0:
256,192,190471,1,0,0:0:0:0:
256,192,191161,1,0,0:0:0:0:
256,192,191506,1,8,0:0:0:0:
256,192,192195,1,8,0:0:0:0:
256,192,192540,1,0,0:0:0:0:
256,192,193661,12,0,197454,0:0:0:0:
256,192,198144,5,8,0:0:0:0:
256,192,198833,1,0,0:0:0:0:
256,192,199178,1,8,0:0:0:0:
256,192,199868,1,8,0:0:0:0:
256,192,200212,1,0,0:0:0:0:
256,192,200902,1,8,0:0:0:0:
256,192,201247,1,0,0:0:0:0:
256,192,201937,1,0,0:0:0:0:
256,192,202281,1,0,0:0:0:0:
256,192,203488,12,0,207454,0:0:0:0:
256,192,207771,5,0,0:0:0:0:
256,192,208460,1,8,0:0:0:0:
256,192,208805,1,8,0:0:0:0:
256,192,209495,1,0,0:0:0:0:
256,192,209839,1,8,0:0:0:0:
256,192,210529,1,8,0:0:0:0:
256,192,210874,1,0,0:0:0:0:
256,192,211564,1,8,0:0:0:0:
256,192,211908,1,0,0:0:0:0:
256,192,212584,1,8,0:0:0:0:
256,192,213273,1,0,0:0:0:0:
256,192,213618,1,8,0:0:0:0:
256,192,214308,1,8,0:0:0:0:
256,192,214652,1,0,0:0:0:0:
256,192,215342,1,8,0:0:0:0:
256,192,215687,1,0,0:0:0:0:
256,192,216377,1,8,0:0:0:0:
256,192,216721,1,8,0:0:0:0:
256,192,217426,1,8,0:0:0:0:
256,192,218115,1,0,0:0:0:0:
256,192,218460,1,8,0:0:0:0:
256,192,219150,1,8,0:0:0:0:
256,192,219494,1,0,0:0:0:0:
256,192,220184,1,8,0:0:0:0:
256,192,220529,1,8,0:0:0:0:
256,192,221218,1,0,0:0:0:0:
256,192,221563,1,8,0:0:0:0:
256,192,222196,1,8,0:0:0:0:
256,192,222885,1,8,0:0:0:0:
256,192,223230,1,0,0:0:0:0:
256,192,223920,1,8,0:0:0:0:
256,192,224264,1,8,0:0:0:0:
256,192,224954,1,0,0:0:0:0:
256,192,225299,1,8,0:0:0:0:
256,192,225989,1,8,0:0:0:0:
256,192,226333,1,0,0:0:0:0:
