osu file format v14

[General]
AudioFilename: Venetian Snares - Szamr Madr.mp3
AudioLeadIn: 0
PreviewTime: 72198
Countdown: 0
SampleSet: Soft
StackLeniency: 0.7
Mode: 0
LetterboxInBreaks: 0
WidescreenStoryboard: 0

[Editor]
Bookmarks: 67019,76157,84303,100424,115122,132536,149820,151674,164605,169389,178527
DistanceSpacing: 1
BeatDivisor: 4
GridSize: 16
TimelineZoom: 1.199999

[Metadata]
Title:Szamar Madar
TitleUnicode:Szamár madár
Artist:Venetian Snares
ArtistUnicode:Venetian Snares
Creator:fergas
Version:Easy
Source:
Tags:Rossz Csillag Alatt Született OnosakiHito -kevincela- Kyshiro aaron funk planet mu breakcore modern classical elgar cello concerto in e minor op. 85
BeatmapID:788485
BeatmapSetID:311327

[Difficulty]
HPDrainRate:2
CircleSize:3
OverallDifficulty:3
ApproachRate:4
SliderMultiplier:0.899999999999999
SliderTickRate:1

[Events]
//Background and Video events
0,0,"y7_q6IelCGE.jpg",0,0
//Break Periods
2,147398,157947
//Storyboard Layer 0 (Background)
//Storyboard Layer 1 (Fail)
//Storyboard Layer 2 (Pass)
//Storyboard Layer 3 (Foreground)
//Storyboard Layer 4 (Overlay)
//Storyboard Sound Samples

[TimingPoints]
53061,344.827586206897,7,2,1,70,1,0
72371,-100,7,2,1,85,0,1
86854,-100,7,2,1,85,0,0
100302,-100,7,2,1,65,0,0
101336,-100,7,2,1,85,0,1
118923,-100,7,2,1,85,0,0
120647,-100,7,2,1,85,0,1
138923,-100,7,2,1,77,0,0
190302,-100,7,2,1,5,0,0

[Colours]
Combo1 : 10,58,107
Combo2 : 112,112,112
Combo3 : 0,96,96

[HitObjects]
85,84,53060,5,2,0:0:0:0:
153,142,53405,2,0,P|214:150|270:131,1,89.9999999999999,0|0,1:0|0:0,0:0:0:0:
279,119,53923,2,0,P|326:95|387:102,1,89.9999999999999,2|0,0:3|1:0,0:0:0:0:
406,104,54440,1,2,0:3:0:0:
455,229,54957,2,0,P|442:253|426:267,1,45,2|8,0:3|1:2,0:0:0:0:
350,307,55474,5,2,0:3:0:0:
259,314,55819,2,0,P|204:296|146:236,1,135,0|2,1:0|0:3,0:0:0:0:
128,202,56509,1,0,1:0:0:0:
39,218,56854,2,0,P|19:262|12:313,2,89.9999999999999,2|0|0,0:3|0:0|1:0,0:0:0:0:
72,134,57888,5,2,0:3:0:0:
56,45,58233,2,0,P|117:56|160:150,1,135,0|2,1:0|0:3,0:0:0:0:
181,199,59095,2,0,P|230:252|303:265,1,135,0|2,1:0|0:3,0:0:0:0:
373,234,59957,1,8,1:2:0:0:
364,144,60302,6,0,L|372:38,1,89.9999999999999,2|0,0:3|0:0,0:0:0:0:
281,44,60992,2,0,L|269:185,1,135,2|2,0:0|0:3,0:0:0:0:
250,234,61681,2,0,P|207:260|161:264,1,89.9999999999999,2|2,0:3|0:0,0:0:0:0:
74,232,62371,1,8,1:2:0:0:
35,150,62716,5,2,0:3:0:0:
71,68,63060,2,0,P|119:56|166:70,1,89.9999999999999,0|0,1:0|0:0,0:0:0:0:
194,92,63578,2,0,P|204:144|265:202,1,135,2|2,0:3|0:3,0:0:0:0:
350,192,64440,1,2,0:3:0:0:
439,181,64785,1,8,1:2:0:0:
494,251,65129,5,2,0:3:0:0:
475,339,65474,2,0,P|408:362|327:342,1,135,0|2,1:0|0:3,0:0:0:0:
274,297,66336,1,0,1:0:0:0:
213,229,66681,2,0,L|78:251,1,135,2|0,0:0|1:0,0:0:0:0:
9,193,67543,5,2,0:3:0:0:
35,106,67888,1,0,1:0:0:0:
25,16,68233,2,0,P|110:31|153:87,1,135,0|0,1:0|1:0,0:0:0:0:
181,145,69095,1,2,0:3:0:0:
213,229,69440,2,0,P|236:248|268:259,1,45,2|8,0:3|1:2,0:0:0:0:
339,250,69957,6,0,P|373:206|416:181,1,89.9999999999999,2|0,0:3|1:0,0:0:0:0:
456,115,70647,2,0,P|420:82|376:66,1,89.9999999999999,2|2,0:3|0:3,0:0:0:0:
306,116,71336,1,4,0:1:0:0:
306,116,72371,6,0,P|255:140|202:135,1,89.9999999999999,4|0,1:1|1:0,0:0:0:0:
137,108,73060,1,2,0:0:0:0:
47,111,73405,2,0,P|15:154|13:242,1,135,0|2,1:0|0:0,0:0:0:0:
35,270,74095,1,0,1:0:0:0:
116,308,74440,2,0,L|234:327,1,89.9999999999999,2|0,0:0|1:0,0:0:0:0:
293,305,75129,5,0,1:0:0:0:
341,229,75474,2,0,P|350:185|339:142,1,89.9999999999999,0|2,1:0|0:3,0:0:0:0:
258,102,76164,2,0,P|327:51|408:83,1,180,8|2,3:2|3:0,3:0:0:0:
477,142,77198,6,0,P|479:192|502:244,1,89.9999999999999,4|0,1:2|1:0,0:0:0:0:
421,283,77888,1,2,1:3:0:0:
339,245,78233,2,0,P|297:241|242:250,1,89.9999999999999,0|2,1:0|0:3,0:0:0:0:
172,294,78923,2,0,P|138:332|99:349,2,89.9999999999999,0|2|0,1:0|0:0|1:0,0:0:0:0:
139,210,79957,5,0,1:0:0:0:
165,124,80302,2,0,P|127:100|103:62,1,89.9999999999999,0|2,3:0|3:3,3:0:0:0:
191,36,80992,2,0,P|247:90|224:191,1,180,0|0,3:0|3:0,3:0:0:0:
259,269,82026,6,0,P|304:297|376:291,1,89.9999999999999,2|0,1:3|1:0,0:0:0:0:
429,286,82716,1,2,0:0:0:0:
480,212,83060,2,0,P|462:171|458:111,1,89.9999999999999,0|0,1:0|1:0,0:0:0:0:
395,60,83750,2,0,P|347:82|295:80,1,89.9999999999999,0|0,1:0|1:0,0:0:0:0:
223,58,84440,5,2,1:3:0:0:
133,69,84785,1,2,1:3:0:0:
59,121,85129,2,0,L|47:229,1,89.9999999999999,2|2,1:3|0:3,0:0:0:0:
22,296,85819,1,0,3:0:0:0:
94,351,86164,2,0,P|151:352|226:314,1,135,8|8,1:2|1:2,0:0:0:0:
246,282,86854,6,0,P|226:238|226:175,1,89.9999999999999,2|0,0:3|1:0,0:0:0:0:
252,111,87543,1,0,0:0:0:0:
333,71,87888,2,0,P|389:88|443:80,1,89.9999999999999,0|2,1:0|0:3,0:0:0:0:
494,137,88578,1,0,1:0:0:0:
498,226,88923,2,0,P|457:255|343:254,1,135,2|0,0:0|0:0,0:0:0:0:
331,249,89612,1,0,1:0:0:0:
250,208,89957,2,0,B|203:199|203:199|158:210,2,89.9999999999999,2|2|2,0:3|0:3|0:3,0:0:0:0:
329,164,90992,1,2,0:3:0:0:
203,35,91681,6,0,P|160:64|69:70,1,135,0|0,1:0|1:0,0:0:0:0:
21,141,92543,1,0,1:0:0:0:
29,230,92888,2,0,P|58:262|115:284,1,89.9999999999999,0|2,1:0|0:0,0:0:0:0:
145,281,93405,2,0,P|195:261|247:257,1,89.9999999999999,0|0,1:0|3:0,0:0:0:0:
317,281,94095,5,2,0:3:0:0:
397,321,94440,2,0,P|437:290|479:214,1,135,0|2,1:0|0:3,0:0:0:0:
459,176,95129,1,0,1:0:0:0:
490,91,95474,2,0,P|404:104|368:183,1,180,2|0,0:3|1:0,0:0:0:0:
278,194,96509,5,2,1:3:0:0:
198,235,96854,2,0,P|131:225|78:185,1,135,0|0,1:0|1:0,0:0:0:0:
154,138,97716,2,0,P|196:101|236:13,1,135,0|2,1:0|1:3,0:0:0:0:
141,29,98578,1,4,0:1:0:0:
422,44,100302,6,0,P|342:78|327:164,1,180,2|2,0:0|0:0,0:0:0:0:
413,134,101336,6,0,P|459:168|483:212,1,89.9999999999999,2|0,0:3|1:0,0:0:0:0:
457,283,102026,1,2,0:0:0:0:
367,279,102371,2,0,P|301:291|244:327,1,135,0|0,1:0|1:0,0:0:0:0:
212,359,103060,2,0,P|167:353|127:334,1,89.9999999999999,0|2,1:0|1:2,0:0:0:0:
71,263,103750,6,0,L|54:174,1,89.9999999999999,0|2,1:0|1:3,0:0:0:0:
131,126,104440,2,0,L|147:214,1,89.9999999999999,2|2,1:3|1:2,0:0:0:0:
226,257,105129,1,2,1:3:0:0:
312,282,105474,1,2,1:3:0:0:
398,256,105819,1,0,1:0:0:0:
457,187,106164,6,0,P|466:144|459:99,1,89.9999999999999,4|0,1:2|1:0,0:0:0:0:
378,58,106854,1,2,0:0:0:0:
288,69,107198,2,0,P|243:63|202:45,2,89.9999999999999,0|2|0,1:0|0:3|1:0,0:0:0:0:
343,140,108233,1,2,0:0:0:0:
321,227,108578,6,0,P|313:284|333:359,2,135,0|4|4,1:0|0:1|0:1,0:0:0:0:
257,162,109957,1,8,1:2:0:0:
169,142,110302,1,8,1:2:0:0:
83,169,110647,1,2,1:3:0:0:
33,244,110992,6,0,P|54:313|92:342,1,89.9999999999999,2|0,1:3|1:0,0:0:0:0:
153,341,111681,1,2,0:0:0:0:
233,303,112026,2,0,P|278:295|322:302,1,89.9999999999999,0|0,1:0|1:0,0:0:0:0:
406,269,112716,2,0,P|377:234|361:192,1,89.9999999999999,0|2,1:0|1:2,0:0:0:0:
311,117,113405,6,0,P|269:99|225:90,1,89.9999999999999,0|0,1:0|1:0,0:0:0:0:
135,95,114095,1,2,1:3:0:0:
71,165,114440,1,2,1:3:0:0:
54,253,114785,2,0,P|127:250|207:152,1,180,0|2,3:0|1:3,0:0:0:0:
225,90,115819,6,0,P|284:66|335:62,1,89.9999999999999,2|0,1:3|1:1,0:0:0:0:
396,86,116509,1,2,0:0:0:0:
450,157,116854,2,0,P|465:204|491:241,1,89.9999999999999,0|2,1:0|0:3,0:0:0:0:
404,271,117543,2,0,P|384:319|379:366,2,89.9999999999999,0|2|0,1:0|0:0|1:0,0:0:0:0:
360,192,118578,5,0,1:0:0:0:
270,188,118923,2,0,L|165:226,1,89.9999999999999,2|2,0:3|0:3,0:0:0:0:
169,307,119612,2,0,L|64:345,2,89.9999999999999,0|4|4,1:0|0:1|0:1,0:0:0:0:
184,217,120647,6,0,P|161:179|128:149,1,89.9999999999999,4|2,0:1|1:2,0:0:0:0:
61,89,121336,2,0,P|79:47|85:3,2,89.9999999999999,0|0|2,1:0|1:0|0:3,0:0:0:0:
12,164,122371,1,0,1:0:0:0:
38,250,122716,6,0,P|90:287|150:286,1,89.9999999999999,2|0,0:0|1:0,0:0:0:0:
186,236,123405,2,0,P|241:241|318:361,1,180,2|2,1:3|0:3,0:0:0:0:
401,362,124440,2,0,P|445:369|489:364,2,89.9999999999999,0|8|2,3:0|1:2|0:3,0:0:0:0:
390,271,125474,6,0,P|421:240|435:197,1,89.9999999999999,2|2,0:3|0:0,0:0:0:0:
388,120,126164,1,2,0:0:0:0:
407,32,126509,2,0,P|346:8|306:8,1,89.9999999999999,0|2,1:0|0:3,0:0:0:0:
258,69,127198,1,2,0:3:0:0:
169,50,127543,1,2,0:3:0:0:
118,124,127888,6,0,P|73:146|25:157,1,89.9999999999999,0|0,1:0|1:0,0:0:0:0:
63,241,128578,2,0,P|122:261|153:290,1,89.9999999999999,0|2,1:0|1:3,0:0:0:0:
219,324,129267,2,0,P|274:310|307:288,2,89.9999999999999,0|8|0,1:0|1:2|1:0,0:0:0:0:
221,233,130302,6,0,P|249:184|257:145,1,89.9999999999999,2|0,1:3|1:0,0:0:0:0:
211,74,130992,1,2,0:0:0:0:
281,18,131336,2,0,P|343:26|394:62,1,89.9999999999999,0|2,1:0|0:3,0:0:0:0:
378,127,132026,1,2,0:3:0:0:
348,212,132371,2,0,P|363:266|383:295,1,89.9999999999999,0|0,1:0|1:0,0:0:0:0:
313,352,133061,5,0,1:0:0:0:
223,355,133405,2,0,P|178:347|140:324,1,89.9999999999999,8|0,1:2|1:0,0:0:0:0:
95,246,134095,1,8,1:2:0:0:
144,170,134440,2,0,P|173:201|185:246,1,89.9999999999999,8|0,1:2|0:0,0:0:0:0:
270,273,135129,6,0,P|318:252|350:209,1,89.9999999999999,2|0,3:3|1:0,0:0:0:0:
329,134,135819,1,2,0:0:0:0:
240,116,136164,2,0,P|203:90|182:51,1,89.9999999999999,0|2,1:0|0:3,0:0:0:0:
94,31,136854,1,0,1:0:0:0:
22,85,137198,2,0,P|9:134|6:179,1,89.9999999999999,2|0,0:0|1:0,0:0:0:0:
80,225,137888,5,0,1:0:0:0:
84,314,138233,2,0,P|117:342|163:353,2,89.9999999999999,8|2|0,3:2|3:3|3:0,3:0:0:0:
159,264,139267,2,0,P|225:252|279:211,1,135,8|8,1:2|1:2,0:0:0:0:
284,165,139957,6,0,P|266:125|261:80,1,89.9999999999999,2|0,1:3|1:0,0:0:0:0:
295,51,140474,2,0,P|384:30|417:8,2,89.9999999999999,0|0|0,1:0|1:0|1:0,0:0:0:0:
256,28,141336,1,2,0:3:0:0:
165,28,141681,2,0,P|113:45|81:71,1,89.9999999999999,0|0,1:0|3:0,0:0:0:0:
142,136,142371,5,2,0:3:0:0:
72,192,142716,2,0,P|120:263|125:328,1,135,0|2,1:0|0:3,0:0:0:0:
122,355,143405,1,0,1:0:0:0:
211,358,143750,2,0,P|279:331|322:215,1,180,2|0,0:3|1:0,0:0:0:0:
240,201,144785,6,0,P|211:168|197:125,1,89.9999999999999,0|0,1:0|1:0,0:0:0:0:
215,84,145302,2,0,P|250:46|270:4,2,89.9999999999999,0|0|0,1:0|1:0|1:0,0:0:0:0:
125,77,146336,2,0,L|68:91,1,45,2|2,1:3|1:3,0:0:0:0:
57,174,146854,2,0,L|0:188,2,45,8|8|4,1:2|1:2|0:1,0:0:0:0:
53,73,159267,6,0,P|97:122|115:181,1,89.9999999999999,2|0,1:2|1:0,0:0:0:0:
92,186,159785,2,0,L|85:289,1,89.9999999999999,0|0,1:0|1:0,0:0:0:0:
169,308,160474,2,0,L|172:263,1,45,0|2,1:0|1:3,0:0:0:0:
256,232,160992,2,0,P|321:247|375:286,1,135,0|0,1:0|0:0,0:0:0:0:
397,326,161681,5,2,0:3:0:0:
480,291,162026,2,0,P|509:217|507:146,1,135,0|2,1:0|0:3,0:0:0:0:
500,118,162716,1,0,1:0:0:0:
419,77,163061,2,0,P|350:46|319:13,2,89.9999999999999,2|0|0,0:3|0:0|1:0,0:0:0:0:
417,166,164095,6,0,P|376:187|332:194,1,89.9999999999999,2|0,1:3|1:0,0:0:0:0:
291,176,164612,2,0,L|191:192,2,89.9999999999999,0|0|0,1:0|1:0|1:0,0:0:0:0:
290,85,165647,2,0,P|232:49|167:34,1,135,2|8,0:3|1:2,0:0:0:0:
82,63,166509,6,0,P|88:111|60:181,1,89.9999999999999,4|2,0:1|0:0,0:0:0:0:
44,234,167198,2,0,P|81:279|87:330,1,89.9999999999999,2|2,0:0|0:0,0:0:0:0:
164,356,167888,2,0,P|208:363|252:358,2,89.9999999999999,2|2|2,0:0|0:0|0:0,0:0:0:0:
173,266,168923,6,0,P|203:232|241:209,1,89.9999999999999,2|0,0:3|1:0,0:0:0:0:
316,258,169612,2,0,P|360:256|404:266,1,89.9999999999999,2|0,0:3|1:0,0:0:0:0:
486,304,170302,1,2,0:3:0:0:
482,214,170647,2,0,P|461:162|384:90,1,135,2|8,0:3|1:2,0:0:0:0:
364,95,171336,6,0,P|299:80|231:35,1,135,4|0,0:1|1:0,0:0:0:0:
197,32,172026,2,0,P|126:38|58:78,2,135,0|8|8,0:0|1:2|1:2,0:0:0:0:
284,55,173405,1,2,0:0:0:0:
333,131,173750,6,0,P|390:147|433:143,1,89.9999999999999,2|0,1:3|0:0,0:0:0:0:
493,198,174440,2,0,P|507:249|503:298,1,89.9999999999999,2|0,0:3|0:0,0:0:0:0:
438,346,175129,1,2,0:3:0:0:
354,312,175474,2,0,P|289:294|222:298,1,135,2|8,0:3|1:2,0:0:0:0:
178,308,176164,6,0,P|134:330|41:336,1,135,4|0,0:1|1:0,0:0:0:0:
17,305,176854,2,0,P|40:240|39:156,1,135,0|8,0:0|1:2,0:0:0:0:
36,84,177716,2,0,P|51:41|76:4,2,89.9999999999999,2|0|8,0:3|1:0|1:2,0:0:0:0:
78,98,178578,6,0,P|131:80|176:85,1,89.9999999999999,2|0,1:3|0:0,0:0:0:0:
226,146,179267,2,0,P|306:141|370:88,1,135,0|0,1:0|1:0,0:0:0:0:
371,71,179957,2,0,L|383:26,1,45,2|2,0:3|0:3,0:0:0:0:
472,32,180474,2,0,L|448:118,1,89.9999999999999,2|8,0:0|1:2,0:0:0:0:
434,162,180992,6,0,P|437:222|447:254,1,89.9999999999999,4|0,0:1|1:0,0:0:0:0:
466,290,181509,2,0,P|424:337|389:352,1,89.9999999999999,0|0,1:0|1:0,0:0:0:0:
310,348,182198,1,8,1:2:0:0:
231,303,182543,2,0,L|124:293,2,89.9999999999999,2|0|8,0:3|1:0|1:2,0:0:0:0:
264,272,183405,5,4,0:1:0:0:
287,185,183750,2,0,P|255:132|185:83,2,135,0|0|0,1:0|1:0|1:0,0:0:0:0:
361,235,185129,2,0,P|406:226|476:156,1,135,0|8,1:0|1:2,0:0:0:0:
451,126,185819,6,0,P|437:69|441:26,1,89.9999999999999,4|0,0:1|1:0,0:0:0:0:
348,37,186509,2,0,P|305:77|266:95,1,89.9999999999999,8|0,1:2|1:0,0:0:0:0:
188,90,187198,2,0,P|110:122|59:188,2,135,8|0|4,1:2|0:0|1:2,0:0:0:0:
256,192,188578,12,0,190647,0:0:0:0:
