osu file format v14

[General]
AudioFilename: szamar_madar_edit.mp3
AudioLeadIn: 0
PreviewTime: -1
Countdown: 1
SampleSet: Normal
StackLeniency: 0.7
Mode: 1
LetterboxInBreaks: 0
WidescreenStoryboard: 1

[Editor]
DistanceSpacing: 0.8
BeatDivisor: 4
GridSize: 8
TimelineZoom: 3.399998

[Metadata]
Title:Szamar Madar
TitleUnicode:Szamár Madár
Artist:Venetian Snares
ArtistUnicode:Venetian Snares
Creator:Xay
Version:Oni
Source:
Tags:classic orchestra breakcore drum and bass
BeatmapID:1455762
BeatmapSetID:685785

[Difficulty]
HPDrainRate:5
CircleSize:2
OverallDifficulty:5
ApproachRate:5
SliderMultiplier:1.39823963363648
SliderTickRate:2

[Events]
//Background and Video events
0,0,"stupid_bird.jpg",0,0
//Break Periods
//Storyboard Layer 0 (Background)
//Storyboard Layer 1 (Fail)
//Storyboard Layer 2 (Pass)
//Storyboard Layer 3 (Foreground)
//Storyboard Sound Samples

[TimingPoints]
170,344.827586206897,7,1,0,100,1,0
9825,344.827586206897,4,1,0,100,1,0
12238,344.827586206897,4,1,0,100,1,0
14652,344.827586206897,4,1,0,100,1,0
17066,344.827586206897,4,1,0,100,1,0
19480,344.827586206897,4,1,0,100,1,0
21894,344.827586206897,4,1,0,100,1,0
24307,344.827586206897,4,1,0,100,1,0
26721,344.827586206897,4,1,0,100,1,0
29135,344.827586206897,4,1,0,100,1,1
31549,344.827586206897,4,1,0,100,1,1
32583,344.827586206897,4,1,0,100,1,1
36376,344.827586206897,4,1,0,100,1,1
37411,344.827586206897,4,1,0,100,1,1
41204,344.827586206897,4,1,0,100,1,1
42238,344.827586206897,4,1,0,100,1,1
46032,344.827586206897,4,1,0,100,1,1
46721,344.827586206897,5,1,0,100,1,1
48445,344.827586206897,4,1,0,100,1,0
50859,344.827586206897,4,1,0,100,1,0
53273,344.827586206897,4,1,0,100,1,0
55687,344.827586206897,4,1,0,100,1,0
58101,344.827586206897,4,1,0,100,1,0
60514,344.827586206897,4,1,0,100,1,0
62928,344.827586206897,4,1,0,100,1,0
65342,344.827586206897,4,1,0,100,1,0
67756,344.827586206897,4,1,0,100,1,0
70170,344.827586206897,4,1,0,100,1,0
72583,344.827586206897,4,1,0,100,1,0
74997,344.827586206897,4,1,0,100,1,0
77411,344.827586206897,4,1,0,100,1,1
79825,344.827586206897,4,1,0,100,1,1
80859,344.827586206897,4,1,0,100,1,1
84652,344.827586206897,4,1,0,100,1,1
85687,344.827586206897,4,1,0,100,1,1
89135,344.827586206897,4,1,0,100,1,1
90170,344.827586206897,5,1,0,100,1,1
91894,344.827586206897,4,1,0,100,1,1
94307,344.827586206897,4,1,0,100,1,1
94997,344.827586206897,5,1,0,100,1,1
96721,344.827586206897,4,1,0,100,1,0
99135,344.827586206897,4,1,0,100,1,0
101549,344.827586206897,4,1,0,100,1,0
103963,344.827586206897,4,1,0,100,1,0
106376,344.827586206897,4,1,0,100,1,0
108790,344.827586206897,4,1,0,100,1,0
111204,344.827586206897,4,1,0,100,1,0
113618,344.827586206897,4,1,0,100,1,0
116032,344.827586206897,4,1,0,100,1,0
118445,344.827586206897,4,1,0,100,1,0
120859,344.827586206897,4,1,0,100,1,0
123273,344.827586206897,4,1,0,100,1,0
125687,344.827586206897,4,1,0,100,1,0
128101,344.827586206897,4,1,0,100,1,0
130514,344.827586206897,4,1,0,100,1,0
132928,344.827586206897,4,1,0,100,1,0
135342,344.827586206897,4,1,0,100,1,0
137756,344.827586206897,4,1,0,100,1,0
140170,344.827586206897,4,1,0,100,1,0
142583,344.827586206897,4,1,0,100,1,0
144997,344.827586206897,4,1,0,100,1,0

[HitObjects]
184,152,9825,5,0,0:0:0:0:
328,192,9997,1,0,0:0:0:0:
288,96,10169,1,8,0:0:0:0:
72,144,10342,1,8,0:0:0:0:
88,224,10428,1,8,0:0:0:0:
200,272,10514,1,8,0:0:0:0:
232,192,10687,1,0,0:0:0:0:
352,256,10859,1,0,0:0:0:0:
160,104,11031,1,8,0:0:0:0:
320,136,11204,1,0,0:0:0:0:
128,120,11721,1,0,0:0:0:0:
232,200,11893,1,8,0:0:0:0:
312,160,12066,1,0,0:0:0:0:
200,80,12152,1,0,0:0:0:0:
304,96,12238,1,0,0:0:0:0:
320,256,12410,1,0,0:0:0:0:
176,240,12582,1,8,0:0:0:0:
280,168,12755,1,8,0:0:0:0:
384,200,12841,1,8,0:0:0:0:
320,176,12927,1,8,0:0:0:0:
144,152,13100,1,0,0:0:0:0:
312,224,13272,1,8,0:0:0:0:
240,152,13444,1,8,0:0:0:0:
192,80,13531,1,8,0:0:0:0:
336,96,13617,1,0,0:0:0:0:
200,224,13789,1,0,0:0:0:0:
272,192,13962,1,0,0:0:0:0:
296,264,14134,1,0,0:0:0:0:
208,160,14220,1,0,0:0:0:0:
120,136,14306,1,8,0:0:0:0:
232,96,14479,1,8,0:0:0:0:
176,64,14565,1,8,0:0:0:0:
72,64,14651,1,0,0:0:0:0:
264,224,14824,1,0,0:0:0:0:
136,160,14996,1,8,0:0:0:0:
288,176,15169,1,8,0:0:0:0:
184,88,15255,1,8,0:0:0:0:
280,104,15341,1,8,0:0:0:0:
208,128,15514,1,0,0:0:0:0:
184,216,15686,1,0,0:0:0:0:
144,168,15858,1,8,0:0:0:0:
144,168,16031,1,0,0:0:0:0:
88,120,16117,1,0,0:0:0:0:
168,128,16203,1,8,0:0:0:0:
272,176,16289,1,8,0:0:0:0:
136,136,16376,1,0,0:0:0:0:
312,248,16720,1,8,0:0:0:0:
320,192,16893,1,0,0:0:0:0:
200,208,16979,1,0,0:0:0:0:
96,184,17066,1,0,0:0:0:0:
32,136,17238,1,8,0:0:0:0:
200,104,17324,1,0,0:0:0:0:
136,88,17410,1,8,0:0:0:0:
336,240,17583,1,0,0:0:0:0:
248,224,17755,1,8,0:0:0:0:
224,160,17841,1,8,0:0:0:0:
288,128,17928,1,0,0:0:0:0:
128,184,18100,1,8,0:0:0:0:
368,192,18272,1,0,0:0:0:0:
144,88,18359,1,8,0:0:0:0:
160,56,18445,1,0,0:0:0:0:
240,64,18617,1,0,0:0:0:0:
240,168,18790,1,0,0:0:0:0:
120,152,18962,1,0,0:0:0:0:
272,112,19048,1,0,0:0:0:0:
224,248,19134,1,8,0:0:0:0:
344,248,19307,1,0,0:0:0:0:
104,72,19393,1,0,0:0:0:0:
184,160,19480,1,0,0:0:0:0:
304,176,19652,1,0,0:0:0:0:
200,112,19824,1,8,0:0:0:0:
304,176,19997,1,8,0:0:0:0:
264,80,20083,1,8,0:0:0:0:
184,80,20169,1,8,0:0:0:0:
192,192,20342,1,0,0:0:0:0:
240,200,20514,1,0,0:0:0:0:
120,144,20686,1,8,0:0:0:0:
296,240,20859,1,0,0:0:0:0:
160,144,21204,1,0,0:0:0:0:
272,120,21548,1,8,0:0:0:0:
128,56,21721,1,8,0:0:0:0:
216,72,21807,1,8,0:0:0:0:
200,168,21893,1,0,0:0:0:0:
264,168,22066,1,0,0:0:0:0:
264,232,22238,1,8,0:0:0:0:
144,160,22411,1,8,0:0:0:0:
128,80,22497,1,8,0:0:0:0:
112,88,22583,1,8,0:0:0:0:
336,216,22756,1,0,0:0:0:0:
200,184,23100,1,8,0:0:0:0:
256,200,23273,1,0,0:0:0:0:
192,96,23445,1,0,0:0:0:0:
288,112,23531,1,0,0:0:0:0:
256,80,23618,1,8,0:0:0:0:
240,96,23704,1,8,0:0:0:0:
112,160,23790,1,0,0:0:0:0:
176,216,23876,1,0,0:0:0:0:
264,216,23962,1,8,0:0:0:0:
64,64,24135,1,8,0:0:0:0:
144,112,24221,1,8,0:0:0:0:
176,144,24307,1,0,0:0:0:0:
320,192,24479,1,0,0:0:0:0:
256,120,24651,1,8,0:0:0:0:
208,216,24824,1,0,0:0:0:0:
128,136,24996,1,8,0:0:0:0:
88,80,25169,1,0,0:0:0:0:
192,144,25255,1,8,0:0:0:0:
192,144,25341,1,0,0:0:0:0:
304,216,25427,1,0,0:0:0:0:
192,248,25513,1,8,0:0:0:0:
80,160,25858,1,0,0:0:0:0:
288,224,26203,1,0,0:0:0:0:
136,168,26375,1,8,0:0:0:0:
248,96,26548,1,8,0:0:0:0:
208,136,26634,1,8,0:0:0:0:
232,224,26720,1,0,0:0:0:0:
328,120,26893,1,8,0:0:0:0:
360,248,26979,1,0,0:0:0:0:
472,216,27065,1,8,0:0:0:0:
112,144,27238,1,0,0:0:0:0:
144,208,27410,1,0,0:0:0:0:
256,160,27583,1,8,0:0:0:0:
184,112,27669,1,8,0:0:0:0:
200,200,27755,1,0,0:0:0:0:
336,200,27927,1,8,0:0:0:0:
336,112,28014,1,8,0:0:0:0:
304,280,28100,1,4,0:0:0:0:
272,240,29135,1,0,0:0:0:0:
64,144,29307,1,0,0:0:0:0:
152,104,29479,1,8,0:0:0:0:
280,120,29652,1,8,0:0:0:0:
184,176,29824,1,0,0:0:0:0:
328,192,29997,1,8,0:0:0:0:
256,216,30169,1,8,0:0:0:0:
296,256,30255,1,8,0:0:0:0:
120,200,30341,1,8,0:0:0:0:
104,136,30514,1,0,0:0:0:0:
208,152,30686,1,0,0:0:0:0:
320,152,30859,1,8,0:0:0:0:
200,232,31031,1,0,0:0:0:0:
344,232,31117,1,0,0:0:0:0:
264,184,31203,1,0,0:0:0:0:
176,136,31290,1,0,0:0:0:0:
112,104,31376,1,8,0:0:0:0:
128,136,31548,1,8,0:0:0:0:
288,120,31721,1,0,0:0:0:0:
248,80,31807,1,0,0:0:0:0:
216,80,31893,1,8,0:0:0:0:
192,168,32066,1,8,0:0:0:0:
272,224,32238,1,8,0:0:0:0:
352,240,32411,1,0,0:0:0:0:
200,272,32583,1,0,0:0:0:0:
176,128,32755,1,8,0:0:0:0:
160,192,32927,1,0,0:0:0:0:
264,152,33186,1,0,0:0:0:0:
192,176,33272,1,8,0:0:0:0:
376,96,33445,1,0,0:0:0:0:
104,88,33531,1,0,0:0:0:0:
80,176,33617,1,0,0:0:0:0:
192,256,33789,1,8,0:0:0:0:
312,240,33962,1,4,0:0:0:0:
240,128,34307,1,8,0:0:0:0:
104,152,34479,1,8,0:0:0:0:
280,208,34651,1,0,0:0:0:0:
200,184,34738,1,0,0:0:0:0:
264,256,34824,1,8,0:0:0:0:
368,192,34910,1,8,0:0:0:0:
120,248,34996,1,0,0:0:0:0:
272,80,35169,1,8,0:0:0:0:
128,96,35255,1,8,0:0:0:0:
272,192,35341,1,0,0:0:0:0:
240,248,35514,1,0,0:0:0:0:
344,248,35686,1,8,0:0:0:0:
184,168,35858,1,0,0:0:0:0:
96,136,35945,1,0,0:0:0:0:
88,128,36031,1,0,0:0:0:0:
160,96,36117,1,0,0:0:0:0:
296,136,36203,1,8,0:0:0:0:
224,240,36376,1,8,0:0:0:0:
336,232,36548,1,0,0:0:0:0:
200,192,36634,1,0,0:0:0:0:
256,192,36720,1,8,0:0:0:0:
216,152,36893,1,8,0:0:0:0:
128,120,37065,1,8,0:0:0:0:
192,192,37238,1,0,0:0:0:0:
304,224,37411,1,0,0:0:0:0:
328,176,37497,1,0,0:0:0:0:
248,184,37583,1,8,0:0:0:0:
264,240,37755,1,8,0:0:0:0:
368,256,37928,1,0,0:0:0:0:
160,152,38014,1,0,0:0:0:0:
184,112,38100,1,8,0:0:0:0:
264,144,38273,1,8,0:0:0:0:
208,104,38359,1,0,0:0:0:0:
96,96,38445,1,8,0:0:0:0:
272,224,38617,1,8,0:0:0:0:
400,272,38790,1,0,0:0:0:0:
176,184,39135,1,8,0:0:0:0:
64,160,39307,1,8,0:0:0:0:
336,232,39652,1,8,0:0:0:0:
280,128,39824,1,8,0:0:0:0:
232,256,39911,1,0,0:0:0:0:
112,160,39997,1,8,0:0:0:0:
200,144,40083,1,0,0:0:0:0:
120,96,40169,1,0,0:0:0:0:
328,240,40514,1,0,0:0:0:0:
272,240,40600,1,0,0:0:0:0:
272,144,40686,1,8,0:0:0:0:
248,96,40773,1,8,0:0:0:0:
168,144,40859,1,0,0:0:0:0:
160,224,41031,1,0,0:0:0:0:
72,200,41204,1,8,0:0:0:0:
288,208,41376,1,0,0:0:0:0:
376,160,41462,1,0,0:0:0:0:
328,104,41548,1,8,0:0:0:0:
160,112,41721,1,8,0:0:0:0:
168,192,41893,1,8,0:0:0:0:
312,240,42066,1,0,0:0:0:0:
184,272,42238,1,0,0:0:0:0:
160,184,42324,1,0,0:0:0:0:
248,112,42410,1,8,0:0:0:0:
344,240,42582,1,0,0:0:0:0:
240,160,42669,1,0,0:0:0:0:
168,144,42755,1,0,0:0:0:0:
160,136,42841,1,0,0:0:0:0:
256,256,42927,1,8,0:0:0:0:
360,184,43100,1,8,0:0:0:0:
336,112,43186,1,8,0:0:0:0:
96,160,43272,1,0,0:0:0:0:
200,112,43444,1,8,0:0:0:0:
208,184,43617,1,0,0:0:0:0:
376,248,43962,1,8,0:0:0:0:
296,152,44134,1,8,0:0:0:0:
120,112,44306,1,0,0:0:0:0:
200,168,44393,1,0,0:0:0:0:
200,88,44479,1,8,0:0:0:0:
112,224,44565,1,0,0:0:0:0:
48,72,44651,1,8,0:0:0:0:
336,264,44824,1,8,0:0:0:0:
336,160,44910,1,8,0:0:0:0:
304,64,44996,1,0,0:0:0:0:
216,200,45169,1,0,0:0:0:0:
232,128,45341,1,8,0:0:0:0:
72,120,45513,1,0,0:0:0:0:
120,128,45600,1,0,0:0:0:0:
120,160,45686,1,0,0:0:0:0:
352,248,45772,1,0,0:0:0:0:
304,176,45858,1,8,0:0:0:0:
184,232,46031,1,8,0:0:0:0:
224,88,46204,1,8,0:0:0:0:
344,80,46290,1,8,0:0:0:0:
392,152,46376,1,0,0:0:0:0:
168,160,46549,1,8,0:0:0:0:
280,240,46721,1,0,0:0:0:0:
232,192,47065,1,0,0:0:0:0:
200,184,47410,1,0,0:0:0:0:
120,144,47755,1,0,0:0:0:0:
304,208,48445,1,0,0:0:0:0:
96,176,48617,1,0,0:0:0:0:
224,96,48789,1,8,0:0:0:0:
144,80,48876,1,0,0:0:0:0:
232,232,48962,1,8,0:0:0:0:
304,208,49220,1,0,0:0:0:0:
376,144,49307,1,0,0:0:0:0:
376,288,49565,1,8,0:0:0:0:
112,120,49651,1,8,0:0:0:0:
224,112,49824,1,0,0:0:0:0:
168,192,49996,1,0,0:0:0:0:
296,288,50169,1,8,0:0:0:0:
304,96,50255,1,0,0:0:0:0:
304,248,50341,1,0,0:0:0:0:
256,144,50427,1,0,0:0:0:0:
216,168,50600,1,8,0:0:0:0:
112,144,50686,1,8,0:0:0:0:
176,256,50858,1,0,0:0:0:0:
304,248,51031,1,0,0:0:0:0:
376,176,51203,1,8,0:0:0:0:
176,112,51376,1,8,0:0:0:0:
216,120,51462,1,8,0:0:0:0:
232,184,51548,1,8,0:0:0:0:
232,264,51721,1,0,0:0:0:0:
96,200,51893,1,8,0:0:0:0:
344,224,52065,1,8,0:0:0:0:
312,144,52152,1,8,0:0:0:0:
160,160,52238,1,0,0:0:0:0:
224,192,52410,1,0,0:0:0:0:
192,120,52496,1,0,0:0:0:0:
64,64,52583,1,8,0:0:0:0:
112,88,52669,1,8,0:0:0:0:
200,48,52755,1,0,0:0:0:0:
200,48,52841,1,0,0:0:0:0:
152,48,52927,1,8,0:0:0:0:
344,152,53100,1,8,0:0:0:0:
296,96,53186,1,8,0:0:0:0:
232,224,53272,1,0,0:0:0:0:
104,144,53531,1,8,0:0:0:0:
136,216,53617,1,8,0:0:0:0:
200,80,53790,1,8,0:0:0:0:
272,232,54135,1,8,0:0:0:0:
104,168,54479,1,8,0:0:0:0:
288,144,54566,1,8,0:0:0:0:
192,128,54652,1,8,0:0:0:0:
64,88,54824,1,0,0:0:0:0:
144,208,54997,1,0,0:0:0:0:
272,216,55169,1,8,0:0:0:0:
376,200,55341,1,4,0:0:0:0:
144,128,57066,1,8,0:0:0:0:
240,200,57238,1,8,0:0:0:0:
232,88,57411,1,8,0:0:0:0:
368,192,57583,1,8,0:0:0:0:
80,176,57755,1,8,0:0:0:0:
128,104,57928,1,8,0:0:0:0:
232,176,58014,1,8,0:0:0:0:
136,232,58100,1,0,0:0:0:0:
248,264,58273,1,0,0:0:0:0:
264,72,58445,1,8,0:0:0:0:
320,216,58618,1,0,0:0:0:0:
152,184,58963,1,8,0:0:0:0:
160,96,59135,1,0,0:0:0:0:
240,160,59221,1,0,0:0:0:0:
224,224,59307,1,0,0:0:0:0:
336,240,59394,1,0,0:0:0:0:
344,160,59480,1,8,0:0:0:0:
56,136,59652,1,8,0:0:0:0:
144,192,59825,1,4,0:0:0:0:
192,96,59997,1,8,0:0:0:0:
136,80,60169,1,8,0:0:0:0:
272,192,60342,1,4,0:0:0:0:
344,96,60514,1,8,0:0:0:0:
240,64,60600,1,0,0:0:0:0:
144,176,60686,1,8,0:0:0:0:
64,88,60772,1,0,0:0:0:0:
216,144,60858,1,8,0:0:0:0:
272,224,61031,1,0,0:0:0:0:
336,192,61117,1,0,0:0:0:0:
176,208,61203,1,8,0:0:0:0:
240,168,61376,1,0,0:0:0:0:
272,128,61462,1,0,0:0:0:0:
88,112,61548,1,8,0:0:0:0:
240,88,61720,1,8,0:0:0:0:
328,200,61893,1,0,0:0:0:0:
208,176,62065,1,8,0:0:0:0:
136,144,62151,1,8,0:0:0:0:
144,216,62238,1,0,0:0:0:0:
296,264,62410,1,0,0:0:0:0:
288,112,62496,1,0,0:0:0:0:
160,64,62582,1,0,0:0:0:0:
240,184,62755,1,8,0:0:0:0:
336,208,62927,1,4,0:0:0:0:
80,152,63272,1,8,0:0:0:0:
136,240,63445,1,0,0:0:0:0:
168,152,63790,1,8,0:0:0:0:
232,64,63962,1,8,0:0:0:0:
304,152,64048,1,8,0:0:0:0:
136,64,64134,1,8,0:0:0:0:
136,64,64221,1,8,0:0:0:0:
232,176,64307,1,0,0:0:0:0:
328,240,64652,1,8,0:0:0:0:
104,192,64824,1,0,0:0:0:0:
216,96,64910,1,0,0:0:0:0:
360,104,64996,1,0,0:0:0:0:
288,48,65083,1,0,0:0:0:0:
280,48,65169,1,8,0:0:0:0:
208,176,65342,1,8,0:0:0:0:
312,184,65428,1,0,0:0:0:0:
256,136,65514,1,8,0:0:0:0:
112,88,65600,1,0,0:0:0:0:
80,208,65686,1,8,0:0:0:0:
176,88,65859,1,4,0:0:0:0:
272,72,66031,1,8,0:0:0:0:
320,96,66117,1,8,0:0:0:0:
328,88,66204,1,8,0:0:0:0:
232,216,66376,1,4,0:0:0:0:
80,160,66548,1,8,0:0:0:0:
352,224,66721,1,8,0:0:0:0:
208,120,66893,1,0,0:0:0:0:
136,96,66979,1,0,0:0:0:0:
112,256,67066,1,8,0:0:0:0:
192,208,67238,1,0,0:0:0:0:
264,232,67324,1,0,0:0:0:0:
256,192,67410,1,0,0:0:0:0:
360,112,67583,1,8,0:0:0:0:
336,192,67755,1,0,0:0:0:0:
176,184,68100,1,8,0:0:0:0:
64,160,68272,1,8,0:0:0:0:
336,232,68617,1,8,0:0:0:0:
280,128,68789,1,8,0:0:0:0:
232,256,68876,1,0,0:0:0:0:
112,160,68962,1,8,0:0:0:0:
200,144,69048,1,0,0:0:0:0:
120,96,69134,1,0,0:0:0:0:
328,240,69479,1,0,0:0:0:0:
272,240,69565,1,0,0:0:0:0:
272,144,69651,1,8,0:0:0:0:
248,96,69738,1,8,0:0:0:0:
168,144,69824,1,0,0:0:0:0:
160,224,69996,1,0,0:0:0:0:
72,200,70169,1,8,0:0:0:0:
288,208,70341,1,0,0:0:0:0:
376,160,70427,1,0,0:0:0:0:
328,104,70513,1,8,0:0:0:0:
160,112,70686,1,8,0:0:0:0:
168,192,70858,1,8,0:0:0:0:
312,240,71031,1,0,0:0:0:0:
184,272,71203,1,0,0:0:0:0:
160,184,71289,1,0,0:0:0:0:
248,112,71375,1,8,0:0:0:0:
344,240,71547,1,0,0:0:0:0:
240,160,71634,1,0,0:0:0:0:
168,144,71720,1,0,0:0:0:0:
160,136,71806,1,0,0:0:0:0:
256,256,71892,1,8,0:0:0:0:
360,184,72065,1,8,0:0:0:0:
336,112,72151,1,8,0:0:0:0:
96,160,72237,1,0,0:0:0:0:
200,112,72409,1,8,0:0:0:0:
208,184,72582,1,0,0:0:0:0:
376,248,72927,1,8,0:0:0:0:
296,152,73099,1,8,0:0:0:0:
120,112,73271,1,0,0:0:0:0:
200,168,73358,1,0,0:0:0:0:
200,88,73444,1,8,0:0:0:0:
112,224,73530,1,0,0:0:0:0:
48,72,73616,1,8,0:0:0:0:
336,264,73789,1,8,0:0:0:0:
336,160,73875,1,8,0:0:0:0:
304,64,73961,1,0,0:0:0:0:
216,200,74134,1,0,0:0:0:0:
232,128,74306,1,8,0:0:0:0:
72,120,74478,1,0,0:0:0:0:
120,128,74565,1,0,0:0:0:0:
120,160,74651,1,0,0:0:0:0:
352,248,74737,1,0,0:0:0:0:
304,176,74823,1,8,0:0:0:0:
184,232,74996,1,8,0:0:0:0:
224,88,75169,1,8,0:0:0:0:
344,80,75255,1,8,0:0:0:0:
392,152,75341,1,0,0:0:0:0:
168,160,75514,1,8,0:0:0:0:
280,240,75686,1,0,0:0:0:0:
232,192,76030,1,0,0:0:0:0:
200,184,76375,1,8,0:0:0:0:
232,64,76462,1,8,0:0:0:0:
368,112,76548,1,8,0:0:0:0:
312,144,76634,1,8,0:0:0:0:
120,144,76720,1,0,0:0:0:0:
176,192,77065,1,0,0:0:0:0:
256,216,77152,1,8,0:0:0:0:
312,216,77238,1,8,0:0:0:0:
312,216,77324,1,8,0:0:0:0:
312,192,77410,1,0,0:0:0:0:
232,104,77755,1,0,0:0:0:0:
128,64,77842,1,0,0:0:0:0:
104,120,77928,1,8,0:0:0:0:
144,176,78014,1,8,0:0:0:0:
192,208,78100,1,0,0:0:0:0:
352,192,78273,1,0,0:0:0:0:
304,144,78445,1,0,0:0:0:0:
224,136,78531,1,0,0:0:0:0:
48,104,78617,1,8,0:0:0:0:
152,192,78790,1,0,0:0:0:0:
288,248,79135,1,8,0:0:0:0:
304,120,79307,1,0,0:0:0:0:
192,80,79393,1,0,0:0:0:0:
192,96,79479,1,0,0:0:0:0:
184,144,79566,1,0,0:0:0:0:
184,224,79652,1,8,0:0:0:0:
296,192,79824,1,0,0:0:0:0:
376,208,79911,1,8,0:0:0:0:
384,160,79997,1,0,0:0:0:0:
384,144,80083,1,0,0:0:0:0:
304,144,80169,1,8,0:0:0:0:
192,152,80342,1,4,0:0:0:0:
8,136,80514,1,4,0:0:0:0:
120,208,80687,1,12,0:0:0:0:
336,104,81031,1,8,0:0:0:0:
208,184,81203,1,0,0:0:0:0:
304,216,81290,1,0,0:0:0:0:
144,96,81376,1,0,0:0:0:0:
104,120,81462,1,0,0:0:0:0:
136,224,81548,1,8,0:0:0:0:
384,224,81721,1,8,0:0:0:0:
256,104,81807,1,8,0:0:0:0:
208,120,81893,1,0,0:0:0:0:
248,216,82065,1,8,0:0:0:0:
128,216,82238,1,4,0:0:0:0:
40,80,82410,1,0,0:0:0:0:
120,112,82583,1,0,0:0:0:0:
296,168,82755,1,4,0:0:0:0:
184,96,82927,1,0,0:0:0:0:
224,224,83100,1,0,0:0:0:0:
360,240,83272,1,12,0:0:0:0:
288,80,83445,1,0,0:0:0:0:
240,72,83531,1,0,0:0:0:0:
232,144,83617,1,0,0:0:0:0:
88,120,83962,1,4,0:0:0:0:
144,160,84307,1,4,0:0:0:0:
304,112,84652,1,12,0:0:0:0:
192,72,84824,1,0,0:0:0:0:
240,184,84910,1,0,0:0:0:0:
72,160,84996,1,8,0:0:0:0:
168,144,85169,1,8,0:0:0:0:
336,208,85341,1,8,0:0:0:0:
160,208,85514,1,0,0:0:0:0:
296,120,85686,1,0,0:0:0:0:
56,80,85773,1,0,0:0:0:0:
168,72,85859,1,8,0:0:0:0:
264,200,86031,1,8,0:0:0:0:
400,152,86204,1,0,0:0:0:0:
360,88,86290,1,8,0:0:0:0:
192,176,86376,1,8,0:0:0:0:
88,160,86549,1,8,0:0:0:0:
160,240,86635,1,8,0:0:0:0:
288,312,86721,1,0,0:0:0:0:
232,112,86893,1,8,0:0:0:0:
256,192,87066,1,0,0:0:0:0:
72,168,87411,1,8,0:0:0:0:
144,168,87583,1,8,0:0:0:0:
280,168,87928,1,8,0:0:0:0:
192,208,88100,1,0,0:0:0:0:
328,224,88187,1,0,0:0:0:0:
152,112,88273,1,8,0:0:0:0:
224,72,88359,1,0,0:0:0:0:
168,184,88445,1,0,0:0:0:0:
48,152,88790,1,0,0:0:0:0:
288,192,89135,1,8,0:0:0:0:
224,144,89221,1,8,0:0:0:0:
160,96,89307,1,8,0:0:0:0:
80,192,89479,1,8,0:0:0:0:
352,112,89652,1,0,0:0:0:0:
208,80,89738,1,0,0:0:0:0:
176,248,89824,1,8,0:0:0:0:
304,232,89997,1,12,0:0:0:0:
168,176,90169,1,12,0:0:0:0:
56,120,90342,1,0,0:0:0:0:
64,176,90428,1,0,0:0:0:0:
112,224,90514,1,8,0:0:0:0:
256,296,90601,1,8,0:0:0:0:
256,248,90687,1,0,0:0:0:0:
272,120,90859,1,8,0:0:0:0:
136,104,91032,1,0,0:0:0:0:
312,208,91204,1,8,0:0:0:0:
384,256,91376,1,0,0:0:0:0:
184,176,91549,1,0,0:0:0:0:
64,152,91635,1,0,0:0:0:0:
80,152,91721,1,8,0:0:0:0:
320,128,91894,1,0,0:0:0:0:
144,224,92066,1,0,0:0:0:0:
232,88,92238,1,8,0:0:0:0:
264,232,92411,1,0,0:0:0:0:
352,200,92756,1,0,0:0:0:0:
136,168,92928,1,8,0:0:0:0:
200,112,93100,1,8,0:0:0:0:
232,88,93187,1,8,0:0:0:0:
288,160,93273,1,0,0:0:0:0:
360,248,93618,1,8,0:0:0:0:
392,144,93790,1,0,0:0:0:0:
344,104,93876,1,0,0:0:0:0:
192,104,93962,1,0,0:0:0:0:
200,136,94049,1,0,0:0:0:0:
296,208,94135,1,8,0:0:0:0:
112,208,94307,1,8,0:0:0:0:
360,208,94479,1,0,0:0:0:0:
240,200,94565,1,0,0:0:0:0:
208,224,94651,1,8,0:0:0:0:
256,152,94824,1,8,0:0:0:0:
128,104,94996,1,8,0:0:0:0:
168,136,95169,1,0,0:0:0:0:
264,168,95341,1,0,0:0:0:0:
344,168,95514,1,8,0:0:0:0:
128,232,95686,1,8,0:0:0:0:
192,192,95859,1,0,0:0:0:0:
288,248,95945,1,0,0:0:0:0:
288,200,96031,1,8,0:0:0:0:
272,120,96203,1,8,0:0:0:0:
176,88,96290,1,8,0:0:0:0:
112,112,96376,1,8,0:0:0:0:
216,152,96462,1,8,0:0:0:0:
232,224,96548,1,8,0:0:0:0:
328,240,96634,1,8,0:0:0:0:
344,144,96721,1,0,0:0:0:0:
184,80,97065,1,8,0:0:0:0:
88,200,97152,1,0,0:0:0:0:
232,240,97238,1,8,0:0:0:0:
240,160,97410,1,8,0:0:0:0:
328,192,97583,1,0,0:0:0:0:
96,88,97841,1,0,0:0:0:0:
224,88,97927,1,8,0:0:0:0:
128,192,98100,1,0,0:0:0:0:
224,176,98272,1,0,0:0:0:0:
360,240,98445,1,8,0:0:0:0:
272,120,98531,1,0,0:0:0:0:
224,88,98617,1,0,0:0:0:0:
376,128,98703,1,0,0:0:0:0:
152,88,98876,1,0,0:0:0:0:
152,144,98962,1,8,0:0:0:0:
248,216,99135,1,0,0:0:0:0:
96,240,99307,1,0,0:0:0:0:
184,224,99479,1,8,0:0:0:0:
272,112,99652,1,8,0:0:0:0:
336,152,99738,1,8,0:0:0:0:
168,96,99824,1,8,0:0:0:0:
320,240,99997,1,0,0:0:0:0:
176,184,100169,1,8,0:0:0:0:
256,136,100341,1,8,0:0:0:0:
208,96,100428,1,8,0:0:0:0:
160,128,100514,1,0,0:0:0:0:
224,192,100686,1,0,0:0:0:0:
192,120,100772,1,0,0:0:0:0:
64,64,100859,1,8,0:0:0:0:
112,88,100945,1,0,0:0:0:0:
200,48,101031,1,8,0:0:0:0:
200,48,101117,1,0,0:0:0:0:
152,48,101203,1,8,0:0:0:0:
344,152,101376,1,8,0:0:0:0:
296,96,101462,1,8,0:0:0:0:
232,224,101548,1,0,0:0:0:0:
104,144,101807,1,8,0:0:0:0:
136,216,101893,1,8,0:0:0:0:
200,80,102066,1,8,0:0:0:0:
272,232,102411,1,8,0:0:0:0:
104,168,102755,1,8,0:0:0:0:
288,144,102842,1,8,0:0:0:0:
192,128,102928,1,8,0:0:0:0:
112,216,103100,1,0,0:0:0:0:
232,216,103273,1,0,0:0:0:0:
344,216,103445,1,8,0:0:0:0:
192,64,103617,1,12,0:0:0:0:
256,104,103790,1,12,0:0:0:0:
128,144,103962,1,4,0:0:0:0:
272,168,106376,1,0,0:0:0:0:
256,192,106720,12,0,108444,0:0:0:0:
152,168,108789,5,0,0:0:0:0:
256,192,109134,12,0,110858,0:0:0:0:
248,200,111204,5,8,0:0:0:0:
256,192,111548,12,0,113272,0:0:0:0:
264,168,113618,5,8,0:0:0:0:
256,192,113962,12,0,115686,0:0:0:0:
304,208,116032,5,0,0:0:0:0:
96,176,116204,1,0,0:0:0:0:
224,96,116376,1,8,0:0:0:0:
144,80,116463,1,0,0:0:0:0:
232,232,116549,1,8,0:0:0:0:
304,208,116807,1,0,0:0:0:0:
376,144,116894,1,0,0:0:0:0:
376,288,117152,1,8,0:0:0:0:
112,120,117238,1,8,0:0:0:0:
224,112,117411,1,0,0:0:0:0:
168,192,117583,1,0,0:0:0:0:
296,288,117756,1,8,0:0:0:0:
304,96,117842,1,0,0:0:0:0:
304,248,117928,1,0,0:0:0:0:
256,144,118014,1,0,0:0:0:0:
216,168,118187,1,8,0:0:0:0:
112,144,118273,1,8,0:0:0:0:
248,216,118446,1,0,0:0:0:0:
96,240,118618,1,0,0:0:0:0:
184,224,118790,1,8,0:0:0:0:
272,112,118963,1,8,0:0:0:0:
336,152,119049,1,8,0:0:0:0:
168,96,119135,1,8,0:0:0:0:
320,240,119308,1,0,0:0:0:0:
176,184,119480,1,8,0:0:0:0:
256,136,119652,1,8,0:0:0:0:
208,96,119739,1,8,0:0:0:0:
160,128,119825,1,0,0:0:0:0:
224,192,119997,1,0,0:0:0:0:
192,120,120083,1,0,0:0:0:0:
64,64,120170,1,0,0:0:0:0:
112,88,120256,1,0,0:0:0:0:
200,48,120342,1,8,0:0:0:0:
200,48,120428,1,8,0:0:0:0:
152,48,120514,1,8,0:0:0:0:
344,152,120687,1,8,0:0:0:0:
296,96,120773,1,8,0:0:0:0:
232,224,120859,1,0,0:0:0:0:
104,144,121118,1,8,0:0:0:0:
136,216,121204,1,8,0:0:0:0:
200,80,121377,1,8,0:0:0:0:
272,232,121722,1,8,0:0:0:0:
104,168,122066,1,8,0:0:0:0:
288,144,122153,1,8,0:0:0:0:
192,128,122239,1,8,0:0:0:0:
112,216,122411,1,0,0:0:0:0:
232,216,122584,1,0,0:0:0:0:
344,216,122756,1,8,0:0:0:0:
192,64,122928,1,12,0:0:0:0:
256,104,123101,1,12,0:0:0:0:
128,144,123273,1,4,0:0:0:0:
168,168,124652,1,8,0:0:0:0:
408,160,124824,1,8,0:0:0:0:
256,104,124997,1,8,0:0:0:0:
320,88,125169,1,8,0:0:0:0:
200,48,125341,1,8,0:0:0:0:
160,168,125514,1,8,0:0:0:0:
264,192,125600,1,8,0:0:0:0:
368,208,125686,1,0,0:0:0:0:
176,240,125859,1,0,0:0:0:0:
96,176,125945,1,0,0:0:0:0:
88,128,126031,1,8,0:0:0:0:
136,240,126204,1,0,0:0:0:0:
328,136,126376,1,0,0:0:0:0:
224,160,126549,1,0,0:0:0:0:
176,144,126635,1,0,0:0:0:0:
304,224,126721,1,8,0:0:0:0:
200,232,126893,1,0,0:0:0:0:
88,168,127066,1,0,0:0:0:0:
336,112,127238,1,0,0:0:0:0:
256,72,127324,1,0,0:0:0:0:
88,72,127411,1,8,0:0:0:0:
208,104,127497,1,8,0:0:0:0:
176,152,127583,1,0,0:0:0:0:
272,176,127669,1,0,0:0:0:0:
224,176,127755,1,8,0:0:0:0:
128,120,127928,1,8,0:0:0:0:
304,192,128100,1,4,0:0:0:0:
240,112,128273,1,0,0:0:0:0:
72,56,128445,1,8,0:0:0:0:
192,192,128618,1,8,0:0:0:0:
304,200,129307,1,8,0:0:0:0:
336,144,129480,1,8,0:0:0:0:
152,144,129566,1,8,0:0:0:0:
240,216,129652,1,0,0:0:0:0:
320,240,129825,1,8,0:0:0:0:
192,128,129997,1,8,0:0:0:0:
248,80,130169,1,0,0:0:0:0:
112,72,130256,1,0,0:0:0:0:
104,168,130342,1,8,0:0:0:0:
392,184,130514,1,0,0:0:0:0:
248,160,130686,1,8,0:0:0:0:
168,200,130772,1,0,0:0:0:0:
296,208,130858,1,8,0:0:0:0:
152,88,131031,1,0,0:0:0:0:
48,104,131203,1,0,0:0:0:0:
224,88,131376,1,8,0:0:0:0:
160,168,131462,1,0,0:0:0:0:
288,184,131548,1,8,0:0:0:0:
352,152,131720,1,0,0:0:0:0:
328,88,131893,1,0,0:0:0:0:
104,104,132065,1,8,0:0:0:0:
192,200,132151,1,0,0:0:0:0:
120,224,132238,1,0,0:0:0:0:
208,128,132410,1,8,0:0:0:0:
288,192,132582,1,0,0:0:0:0:
336,104,132755,1,8,0:0:0:0:
256,80,132927,1,4,0:0:0:0:
160,176,133100,1,0,0:0:0:0:
24,112,133272,1,8,0:0:0:0:
256,192,133445,1,8,0:0:0:0:
328,224,134134,1,8,0:0:0:0:
144,184,134307,1,8,0:0:0:0:
248,176,134393,1,8,0:0:0:0:
96,112,134479,1,0,0:0:0:0:
264,224,134652,1,0,0:0:0:0:
152,112,134824,1,8,0:0:0:0:
328,184,134996,1,0,0:0:0:0:
256,104,135083,1,0,0:0:0:0:
184,168,135169,1,8,0:0:0:0:
272,264,135342,1,0,0:0:0:0:
72,80,135514,1,0,0:0:0:0:
72,168,135600,1,8,0:0:0:0:
184,248,135686,1,0,0:0:0:0:
304,160,135859,1,0,0:0:0:0:
184,88,136031,1,8,0:0:0:0:
264,72,136204,1,0,0:0:0:0:
192,144,136290,1,0,0:0:0:0:
264,176,136376,1,8,0:0:0:0:
240,272,136462,1,0,0:0:0:0:
104,224,136548,1,8,0:0:0:0:
368,240,136721,1,0,0:0:0:0:
352,168,136893,1,0,0:0:0:0:
120,144,136979,1,0,0:0:0:0:
344,112,137066,1,8,0:0:0:0:
216,96,137238,1,8,0:0:0:0:
216,192,137324,1,8,0:0:0:0:
272,184,137410,1,0,0:0:0:0:
312,272,137583,1,8,0:0:0:0:
112,176,137755,1,4,0:0:0:0:
64,80,137928,1,0,0:0:0:0:
144,216,138100,1,8,0:0:0:0:
184,128,138273,1,0,0:0:0:0:
304,136,138445,1,8,0:0:0:0:
240,264,138618,1,0,0:0:0:0:
192,192,138962,1,8,0:0:0:0:
168,80,139135,1,8,0:0:0:0:
224,88,139221,1,8,0:0:0:0:
264,144,139307,1,0,0:0:0:0:
336,256,139480,1,0,0:0:0:0:
344,144,139652,1,8,0:0:0:0:
136,176,139824,1,0,0:0:0:0:
192,224,139911,1,0,0:0:0:0:
128,216,139997,1,8,0:0:0:0:
216,128,140170,1,12,0:0:0:0:
128,72,140342,1,0,0:0:0:0:
280,232,140428,1,0,0:0:0:0:
368,224,140514,1,8,0:0:0:0:
104,184,140687,1,0,0:0:0:0:
176,120,140773,1,0,0:0:0:0:
288,136,140859,1,0,0:0:0:0:
272,128,140945,1,0,0:0:0:0:
232,104,141032,1,8,0:0:0:0:
192,200,141204,5,0,0:0:0:0:
224,192,141290,1,0,0:0:0:0:
264,200,141376,1,0,0:0:0:0:
288,216,141463,1,0,0:0:0:0:
344,240,141549,1,8,0:0:0:0:
104,128,141721,1,8,0:0:0:0:
296,128,141894,1,8,0:0:0:0:
200,96,141980,1,0,0:0:0:0:
256,64,142066,1,8,0:0:0:0:
352,56,142152,1,8,0:0:0:0:
352,168,142238,1,0,0:0:0:0:
200,200,142411,1,8,0:0:0:0:
280,232,142583,1,4,0:0:0:0:
88,112,142755,1,8,0:0:0:0:
208,120,142927,1,0,0:0:0:0:
320,160,143100,1,8,0:0:0:0:
264,104,143272,1,8,0:0:0:0:
112,192,143445,1,0,0:0:0:0:
96,96,143617,1,8,0:0:0:0:
280,184,143789,1,8,0:0:0:0:
208,232,143962,1,8,0:0:0:0:
328,176,144134,1,8,0:0:0:0:
376,224,144220,1,8,0:0:0:0:
184,192,144307,1,0,0:0:0:0:
320,80,144565,1,0,0:0:0:0:
280,80,144651,1,0,0:0:0:0:
168,56,144738,1,8,0:0:0:0:
272,184,144824,1,8,0:0:0:0:
128,184,144910,1,0,0:0:0:0:
24,128,144997,1,8,0:0:0:0:
256,192,145169,12,0,147065,0:0:0:0:
