osu file format v14

[General]
AudioFilename: szamar_madar_edit.mp3
AudioLeadIn: 0
PreviewTime: -1
Countdown: 1
SampleSet: None
StackLeniency: 0.7
Mode: 1
LetterboxInBreaks: 0
WidescreenStoryboard: 1

[Editor]
DistanceSpacing: 0.8
BeatDivisor: 2
GridSize: 8
TimelineZoom: 2.699999

[Metadata]
Title:Szamar Madar
TitleUnicode:Szamár Madár
Artist:Venetian Snares
ArtistUnicode:Venetian Snares
Creator:Xay
Version:Kantan
Source:
Tags:classic orchestra breakcore drum and bass
BeatmapID:1454575
BeatmapSetID:685785

[Difficulty]
HPDrainRate:6
CircleSize:2
OverallDifficulty:4
ApproachRate:5
SliderMultiplier:1.39823963363648
SliderTickRate:2

[Events]
//Background and Video events
0,0,"stupid_bird.jpg",0,0
//Break Periods
2,106576,114832
//Storyboard Layer 0 (Background)
//Storyboard Layer 1 (Fail)
//Storyboard Layer 2 (Pass)
//Storyboard Layer 3 (Foreground)
//Storyboard Sound Samples

[TimingPoints]
170,344.827586206897,7,1,0,100,1,0
9825,344.827586206897,4,1,0,100,1,0
12238,344.827586206897,4,1,0,100,1,0
14652,344.827586206897,4,1,0,100,1,0
17066,344.827586206897,4,1,0,100,1,0
19480,344.827586206897,4,1,0,100,1,0
21894,344.827586206897,4,1,0,100,1,0
24307,344.827586206897,4,1,0,100,1,0
26721,344.827586206897,4,1,0,100,1,0
29135,344.827586206897,4,1,0,100,1,1
31549,344.827586206897,4,1,0,100,1,1
32583,344.827586206897,4,1,0,100,1,1
36376,344.827586206897,4,1,0,100,1,1
37411,344.827586206897,4,1,0,100,1,1
41204,344.827586206897,4,1,0,100,1,1
42238,344.827586206897,4,1,0,100,1,1
46032,344.827586206897,4,1,0,100,1,1
46721,344.827586206897,5,1,0,100,1,1
48445,344.827586206897,4,1,0,100,1,0
50859,344.827586206897,4,1,0,100,1,0
53273,344.827586206897,4,1,0,100,1,0
55687,344.827586206897,4,1,0,100,1,0
58101,344.827586206897,4,1,0,100,1,0
60514,344.827586206897,4,1,0,100,1,0
62928,344.827586206897,4,1,0,100,1,0
65342,344.827586206897,4,1,0,100,1,0
67756,344.827586206897,4,1,0,100,1,0
70170,344.827586206897,4,1,0,100,1,0
72583,344.827586206897,4,1,0,100,1,0
74997,344.827586206897,4,1,0,100,1,0
77411,344.827586206897,4,1,0,100,1,1
79825,344.827586206897,4,1,0,100,1,1
80859,344.827586206897,4,1,0,100,1,1
84652,344.827586206897,4,1,0,100,1,1
85687,344.827586206897,4,1,0,100,1,1
89135,344.827586206897,4,1,0,100,1,1
90170,344.827586206897,5,1,0,100,1,1
91894,344.827586206897,4,1,0,100,1,1
94307,344.827586206897,4,1,0,100,1,1
94997,344.827586206897,5,1,0,100,1,1
96721,344.827586206897,4,1,0,100,1,0
99135,344.827586206897,4,1,0,100,1,0
101549,344.827586206897,4,1,0,100,1,0
103963,344.827586206897,4,1,0,100,1,0
106376,344.827586206897,4,1,0,100,1,0
108790,344.827586206897,4,1,0,100,1,0
111204,344.827586206897,4,1,0,100,1,0
113618,344.827586206897,4,1,0,100,1,0
116032,344.827586206897,4,1,0,100,1,0
118445,344.827586206897,4,1,0,100,1,0
120859,344.827586206897,4,1,0,100,1,0
123273,344.827586206897,4,1,0,100,1,0
125687,344.827586206897,4,1,0,100,1,0
128101,344.827586206897,4,1,0,100,1,0
130514,344.827586206897,4,1,0,100,1,0
132928,344.827586206897,4,1,0,100,1,0
135342,344.827586206897,4,1,0,100,1,0
137756,344.827586206897,4,1,0,100,1,0
140170,344.827586206897,4,1,0,100,1,0
142583,344.827586206897,4,1,0,100,1,0
144997,344.827586206897,4,1,0,100,1,0

[HitObjects]
136,112,9825,5,0,0:0:0:0:
144,120,10687,1,0,0:0:0:0:
240,192,11204,1,0,0:0:0:0:
408,120,11893,1,8,0:0:0:0:
152,176,12238,1,0,0:0:0:0:
176,128,13100,1,0,0:0:0:0:
280,176,13617,1,0,0:0:0:0:
160,176,14306,1,8,0:0:0:0:
336,248,14651,1,0,0:0:0:0:
272,176,15514,1,0,0:0:0:0:
280,184,16376,1,0,0:0:0:0:
368,256,16720,1,8,0:0:0:0:
232,176,17065,1,0,0:0:0:0:
264,200,17755,1,0,0:0:0:0:
256,216,18445,1,8,0:0:0:0:
328,128,19134,1,8,0:0:0:0:
280,240,19479,1,0,0:0:0:0:
224,184,20342,1,0,0:0:0:0:
336,200,20859,1,0,0:0:0:0:
208,176,21548,1,8,0:0:0:0:
304,160,21893,1,0,0:0:0:0:
240,192,22756,1,0,0:0:0:0:
288,232,23273,1,0,0:0:0:0:
360,248,23962,1,8,0:0:0:0:
208,192,24307,1,0,0:0:0:0:
280,200,24996,1,8,0:0:0:0:
288,240,25513,1,8,0:0:0:0:
280,112,26375,5,8,0:0:0:0:
152,224,26720,1,0,0:0:0:0:
304,192,27410,1,0,0:0:0:0:
192,176,28100,1,12,0:0:0:0:
256,192,29135,1,0,0:0:0:0:
272,152,29824,1,8,0:0:0:0:
280,208,30514,1,0,0:0:0:0:
288,192,31203,1,0,0:0:0:0:
240,88,31893,1,8,0:0:0:0:
192,208,32583,1,0,0:0:0:0:
160,112,32927,1,0,0:0:0:0:
304,176,33272,1,8,0:0:0:0:
112,176,33962,1,0,0:0:0:0:
272,208,34651,1,8,0:0:0:0:
184,184,35341,1,0,0:0:0:0:
272,216,36031,1,0,0:0:0:0:
208,64,36720,1,8,0:0:0:0:
104,120,37410,1,0,0:0:0:0:
232,136,37755,1,0,0:0:0:0:
248,248,38100,1,8,0:0:0:0:
304,168,38790,1,0,0:0:0:0:
200,184,39479,1,8,0:0:0:0:
79,134,40169,1,0,0:0:0:0:
256,192,40859,1,0,0:0:0:0:
240,88,41548,1,8,0:0:0:0:
96,112,42238,2,0,L|360:224,1,279.647926727296
224,200,43617,1,0,0:0:0:0:
336,216,44306,1,8,0:0:0:0:
160,160,44996,1,0,0:0:0:0:
272,248,45341,1,0,0:0:0:0:
272,200,45686,1,8,0:0:0:0:
104,120,46721,1,0,0:0:0:0:
320,72,47065,1,0,0:0:0:0:
346,209,47410,1,0,0:0:0:0:
312,176,47755,1,0,0:0:0:0:
144,112,48445,1,0,0:0:0:0:
200,168,49307,1,0,0:0:0:0:
256,256,49824,1,0,0:0:0:0:
320,200,50513,1,8,0:0:0:0:
136,168,50858,1,0,0:0:0:0:
264,200,51721,1,0,0:0:0:0:
184,200,52238,1,0,0:0:0:0:
224,128,52927,1,8,0:0:0:0:
141,111,53272,1,0,0:0:0:0:
287,169,54135,1,0,0:0:0:0:
328,144,54652,1,0,0:0:0:0:
106,124,55341,1,12,0:0:0:0:
256,192,55686,12,0,57066,0:0:0:0:
248,184,58101,5,0,0:0:0:0:
56,103,58790,1,0,0:0:0:0:
190,171,59135,1,0,0:0:0:0:
368,216,59480,1,8,0:0:0:0:
336,152,59997,1,0,0:0:0:0:
288,104,60514,1,8,0:0:0:0:
328,144,61548,1,8,0:0:0:0:
58,99,61893,1,8,0:0:0:0:
264,144,62238,1,8,0:0:0:0:
172,166,62927,1,0,0:0:0:0:
307,150,63617,1,8,0:0:0:0:
280,192,64307,1,0,0:0:0:0:
208,200,64824,1,0,0:0:0:0:
200,112,65341,1,8,0:0:0:0:
276,168,65859,1,4,0:0:0:0:
102,143,66376,1,4,0:0:0:0:
156,186,67755,1,0,0:0:0:0:
281,136,68445,1,8,0:0:0:0:
145,108,69135,1,0,0:0:0:0:
264,176,69824,1,0,0:0:0:0:
104,128,70514,1,8,0:0:0:0:
112,104,71204,2,0,L|392:232,1,279.647926727296
240,168,72583,1,0,0:0:0:0:
247,185,73272,1,8,0:0:0:0:
320,216,73962,1,0,0:0:0:0:
331,222,74651,1,8,0:0:0:0:
160,136,75341,1,8,0:0:0:0:
240,232,75686,1,0,0:0:0:0:
272,136,76031,1,0,0:0:0:0:
101,155,76721,1,4,0:0:0:0:
311,92,77065,1,4,0:0:0:0:
222,183,77411,1,4,0:0:0:0:
152,112,78100,1,8,0:0:0:0:
240,184,78790,1,0,0:0:0:0:
304,192,79479,1,8,0:0:0:0:
168,160,80169,1,8,0:0:0:0:
256,112,80514,1,8,0:0:0:0:
256,192,80859,12,0,81548,0:0:0:0:
192,144,82238,5,0,0:0:0:0:
312,176,82755,1,0,0:0:0:0:
192,168,83272,1,8,0:0:0:0:
72,104,83617,1,0,0:0:0:0:
296,160,83962,1,0,0:0:0:0:
184,200,84307,1,0,0:0:0:0:
216,160,84652,1,8,0:0:0:0:
168,208,85686,1,0,0:0:0:0:
160,224,86376,1,8,0:0:0:0:
304,176,87066,1,0,0:0:0:0:
216,192,87755,1,8,0:0:0:0:
344,128,88445,1,0,0:0:0:0:
112,136,88790,1,0,0:0:0:0:
104,144,89135,1,8,0:0:0:0:
160,160,89824,1,0,0:0:0:0:
200,176,90514,1,8,0:0:0:0:
336,160,90859,1,8,0:0:0:0:
248,72,91204,1,8,0:0:0:0:
256,168,91894,1,0,0:0:0:0:
152,168,92411,1,0,0:0:0:0:
288,168,92928,1,8,0:0:0:0:
360,152,93618,1,0,0:0:0:0:
280,120,94135,1,8,0:0:0:0:
152,192,94651,1,0,0:0:0:0:
344,224,95341,1,0,0:0:0:0:
176,128,96031,1,8,0:0:0:0:
240,184,96721,1,0,0:0:0:0:
128,144,97583,1,0,0:0:0:0:
272,152,98100,1,0,0:0:0:0:
136,168,98789,1,8,0:0:0:0:
256,144,99134,1,0,0:0:0:0:
264,176,99997,1,0,0:0:0:0:
144,176,100514,1,0,0:0:0:0:
312,256,101203,1,8,0:0:0:0:
141,111,101548,1,0,0:0:0:0:
287,169,102411,1,0,0:0:0:0:
176,189,102928,1,0,0:0:0:0:
106,124,103617,1,8,0:0:0:0:
296,160,103962,1,12,0:0:0:0:
256,192,104307,12,0,106376,0:0:0:0:
200,112,116032,5,0,0:0:0:0:
312,176,116894,1,0,0:0:0:0:
200,232,117411,1,0,0:0:0:0:
112,104,118100,1,8,0:0:0:0:
200,176,118445,1,0,0:0:0:0:
360,176,119307,1,0,0:0:0:0:
240,208,119824,1,0,0:0:0:0:
360,224,120513,1,8,0:0:0:0:
224,176,120858,1,0,0:0:0:0:
224,152,121721,1,0,0:0:0:0:
168,160,122238,1,0,0:0:0:0:
352,120,122927,1,8,0:0:0:0:
264,176,123273,1,12,0:0:0:0:
256,192,123617,12,0,125341,0:0:0:0:
224,224,125687,5,0,0:0:0:0:
208,176,126376,1,0,0:0:0:0:
272,184,127066,1,0,0:0:0:0:
256,184,128101,1,4,0:0:0:0:
120,160,128445,1,8,0:0:0:0:
272,192,129307,1,8,0:0:0:0:
256,120,129825,1,8,0:0:0:0:
288,240,130514,1,0,0:0:0:0:
240,168,131203,1,0,0:0:0:0:
320,192,131893,1,0,0:0:0:0:
176,88,132582,1,0,0:0:0:0:
280,176,132927,1,4,0:0:0:0:
160,144,133617,1,0,0:0:0:0:
248,160,134134,1,8,0:0:0:0:
288,288,134996,1,8,0:0:0:0:
272,160,135341,1,0,0:0:0:0:
240,192,136031,1,8,0:0:0:0:
320,184,136548,1,8,0:0:0:0:
184,160,137066,1,8,0:0:0:0:
248,168,137755,1,0,0:0:0:0:
384,160,138100,1,8,0:0:0:0:
128,168,138445,1,8,0:0:0:0:
272,168,139652,1,8,0:0:0:0:
392,224,140170,1,4,0:0:0:0:
208,128,140514,1,8,0:0:0:0:
272,176,141032,1,8,0:0:0:0:
352,144,141549,1,8,0:0:0:0:
120,152,142411,1,8,0:0:0:0:
288,160,142755,1,0,0:0:0:0:
240,224,143272,1,0,0:0:0:0:
296,152,143789,1,8,0:0:0:0:
56,184,144651,1,8,0:0:0:0:
272,192,144997,1,4,0:0:0:0:
