osu file format v14

[General]
AudioFilename: szamar_madar_edit.mp3
AudioLeadIn: 0
PreviewTime: -1
Countdown: 1
SampleSet: None
StackLeniency: 0.7
Mode: 1
LetterboxInBreaks: 0
WidescreenStoryboard: 1

[Editor]
DistanceSpacing: 0.8
BeatDivisor: 2
GridSize: 8
TimelineZoom: 2.699999

[Metadata]
Title:Szamar Madar
TitleUnicode:Szamár Madár
Artist:Venetian Snares
ArtistUnicode:Venetian Snares
Creator:Xay
Version:Futsuu
Source:
Tags:classic orchestra breakcore drum and bass
BeatmapID:1455761
BeatmapSetID:685785

[Difficulty]
HPDrainRate:5
CircleSize:2
OverallDifficulty:5
ApproachRate:5
SliderMultiplier:1.39823963363648
SliderTickRate:2

[Events]
//Background and Video events
0,0,"stupid_bird.jpg",0,0
//Break Periods
2,104162,114832
//Storyboard Layer 0 (Background)
//Storyboard Layer 1 (Fail)
//Storyboard Layer 2 (Pass)
//Storyboard Layer 3 (Foreground)
//Storyboard Sound Samples

[TimingPoints]
170,344.827586206897,7,1,0,100,1,0
9825,344.827586206897,4,1,0,100,1,0
12238,344.827586206897,4,1,0,100,1,0
14652,344.827586206897,4,1,0,100,1,0
17066,344.827586206897,4,1,0,100,1,0
19480,344.827586206897,4,1,0,100,1,0
21894,344.827586206897,4,1,0,100,1,0
24307,344.827586206897,4,1,0,100,1,0
26721,344.827586206897,4,1,0,100,1,0
29135,344.827586206897,4,1,0,100,1,1
31549,344.827586206897,4,1,0,100,1,1
32583,344.827586206897,4,1,0,100,1,1
36376,344.827586206897,4,1,0,100,1,1
37411,344.827586206897,4,1,0,100,1,1
41204,344.827586206897,4,1,0,100,1,1
42238,344.827586206897,4,1,0,100,1,1
46032,344.827586206897,4,1,0,100,1,1
46721,344.827586206897,5,1,0,100,1,1
48445,344.827586206897,4,1,0,100,1,0
50859,344.827586206897,4,1,0,100,1,0
53273,344.827586206897,4,1,0,100,1,0
55687,344.827586206897,4,1,0,100,1,0
58101,344.827586206897,4,1,0,100,1,0
60514,344.827586206897,4,1,0,100,1,0
62928,344.827586206897,4,1,0,100,1,0
65342,344.827586206897,4,1,0,100,1,0
67756,344.827586206897,4,1,0,100,1,0
70170,344.827586206897,4,1,0,100,1,0
72583,344.827586206897,4,1,0,100,1,0
74997,344.827586206897,4,1,0,100,1,0
77411,344.827586206897,4,1,0,100,1,1
79825,344.827586206897,4,1,0,100,1,1
80859,344.827586206897,4,1,0,100,1,1
84652,344.827586206897,4,1,0,100,1,1
85687,344.827586206897,4,1,0,100,1,1
89135,344.827586206897,4,1,0,100,1,1
90170,344.827586206897,5,1,0,100,1,1
91894,344.827586206897,4,1,0,100,1,1
94307,344.827586206897,4,1,0,100,1,1
94997,344.827586206897,5,1,0,100,1,1
96721,344.827586206897,4,1,0,100,1,0
99135,344.827586206897,4,1,0,100,1,0
101549,344.827586206897,4,1,0,100,1,0
103963,344.827586206897,4,1,0,100,1,0
106376,344.827586206897,4,1,0,100,1,0
108790,344.827586206897,4,1,0,100,1,0
111204,344.827586206897,4,1,0,100,1,0
113618,344.827586206897,4,1,0,100,1,0
116032,344.827586206897,4,1,0,100,1,0
118445,344.827586206897,4,1,0,100,1,0
120859,344.827586206897,4,1,0,100,1,0
123273,344.827586206897,4,1,0,100,1,0
125687,344.827586206897,4,1,0,100,1,0
128101,344.827586206897,4,1,0,100,1,0
130514,344.827586206897,4,1,0,100,1,0
132928,344.827586206897,4,1,0,100,1,0
135342,344.827586206897,4,1,0,100,1,0
137756,344.827586206897,4,1,0,100,1,0
140170,344.827586206897,4,1,0,100,1,0
142583,344.827586206897,4,1,0,100,1,0
144997,344.827586206897,4,1,0,100,1,0

[HitObjects]
224,224,9825,5,0,0:0:0:0:
128,176,10169,1,8,0:0:0:0:
240,200,10687,1,0,0:0:0:0:
328,112,11031,1,8,0:0:0:0:
120,224,11204,1,0,0:0:0:0:
256,128,11893,1,8,0:0:0:0:
144,200,12238,1,0,0:0:0:0:
64,120,12582,1,8,0:0:0:0:
192,168,13100,1,0,0:0:0:0:
328,200,13272,1,8,0:0:0:0:
264,136,13617,1,0,0:0:0:0:
136,152,13962,1,0,0:0:0:0:
248,184,14306,1,8,0:0:0:0:
352,240,14651,1,0,0:0:0:0:
248,232,14996,1,8,0:0:0:0:
144,136,15514,1,0,0:0:0:0:
264,200,15858,1,8,0:0:0:0:
160,144,16376,1,0,0:0:0:0:
280,200,16720,1,8,0:0:0:0:
224,184,17066,1,0,0:0:0:0:
176,96,17410,1,0,0:0:0:0:
320,168,17583,1,0,0:0:0:0:
184,192,17755,1,8,0:0:0:0:
128,136,18100,1,8,0:0:0:0:
256,208,18445,1,8,0:0:0:0:
232,216,19134,1,8,0:0:0:0:
136,112,19479,1,0,0:0:0:0:
224,184,19824,1,8,0:0:0:0:
296,192,20342,1,0,0:0:0:0:
216,160,20686,1,8,0:0:0:0:
120,176,20859,1,0,0:0:0:0:
184,192,21204,1,0,0:0:0:0:
304,208,21548,1,8,0:0:0:0:
88,120,21893,1,0,0:0:0:0:
272,232,22238,1,8,0:0:0:0:
216,224,22756,1,0,0:0:0:0:
256,168,23100,1,8,0:0:0:0:
136,136,23273,1,0,0:0:0:0:
272,200,23618,1,0,0:0:0:0:
136,176,23962,1,8,0:0:0:0:
264,208,24307,1,0,0:0:0:0:
152,144,24651,1,0,0:0:0:0:
264,160,24824,1,0,0:0:0:0:
216,144,24996,1,8,0:0:0:0:
272,192,25513,1,8,0:0:0:0:
256,240,25858,1,0,0:0:0:0:
104,144,26203,1,0,0:0:0:0:
216,128,26375,1,8,0:0:0:0:
288,192,26720,1,0,0:0:0:0:
168,144,27065,1,8,0:0:0:0:
296,160,27410,1,0,0:0:0:0:
272,240,27755,1,0,0:0:0:0:
152,152,28100,1,12,0:0:0:0:
240,192,29135,1,0,0:0:0:0:
184,192,29479,1,8,0:0:0:0:
104,168,29824,1,0,0:0:0:0:
240,192,30169,1,0,0:0:0:0:
208,200,30514,1,0,0:0:0:0:
168,200,30859,1,8,0:0:0:0:
152,104,31376,1,8,0:0:0:0:
320,120,31548,1,8,0:0:0:0:
224,216,31893,1,8,0:0:0:0:
304,160,32583,1,0,0:0:0:0:
192,120,32927,1,8,0:0:0:0:
296,216,33617,1,8,0:0:0:0:
184,176,33962,1,0,0:0:0:0:
336,264,34307,1,8,0:0:0:0:
208,128,34651,1,0,0:0:0:0:
368,120,34996,1,0,0:0:0:0:
192,192,35341,1,0,0:0:0:0:
328,208,35686,1,8,0:0:0:0:
96,152,36376,1,0,0:0:0:0:
272,208,36720,1,8,0:0:0:0:
312,192,36893,1,8,0:0:0:0:
240,144,37065,1,8,0:0:0:0:
248,200,37411,1,8,0:0:0:0:
384,280,37755,1,8,0:0:0:0:
208,216,38790,1,0,0:0:0:0:
272,160,39135,1,8,0:0:0:0:
136,120,39479,1,0,0:0:0:0:
216,168,39824,1,0,0:0:0:0:
296,224,40169,1,0,0:0:0:0:
152,144,40514,1,8,0:0:0:0:
264,216,41204,1,0,0:0:0:0:
208,152,41548,1,0,0:0:0:0:
104,120,41893,1,8,0:0:0:0:
160,136,42238,2,0,L|440:240,1,279.647926727296
192,176,43617,1,0,0:0:0:0:
112,104,43962,1,8,0:0:0:0:
232,168,44306,1,0,0:0:0:0:
248,120,44651,1,0,0:0:0:0:
192,176,44996,1,0,0:0:0:0:
248,224,45341,1,8,0:0:0:0:
280,224,45858,1,8,0:0:0:0:
136,112,46031,1,8,0:0:0:0:
272,192,46376,1,8,0:0:0:0:
152,112,46721,1,0,0:0:0:0:
272,168,47065,1,0,0:0:0:0:
288,240,47410,1,0,0:0:0:0:
416,232,47755,1,0,0:0:0:0:
216,176,48445,1,0,0:0:0:0:
248,120,48789,1,8,0:0:0:0:
128,152,49307,1,0,0:0:0:0:
248,120,49651,1,8,0:0:0:0:
376,176,49824,1,0,0:0:0:0:
176,144,50169,1,8,0:0:0:0:
256,208,50686,1,8,0:0:0:0:
336,280,50859,1,0,0:0:0:0:
152,144,51203,1,8,0:0:0:0:
272,216,51721,1,0,0:0:0:0:
336,216,51893,1,8,0:0:0:0:
200,184,52238,1,0,0:0:0:0:
272,240,52927,1,8,0:0:0:0:
168,176,53273,1,0,0:0:0:0:
280,160,53617,1,8,0:0:0:0:
216,104,53790,1,8,0:0:0:0:
160,96,54135,1,8,0:0:0:0:
224,176,54479,1,8,0:0:0:0:
328,264,54652,1,8,0:0:0:0:
120,152,54997,1,0,0:0:0:0:
312,224,55341,1,4,0:0:0:0:
272,192,57066,1,8,0:0:0:0:
256,264,57411,1,8,0:0:0:0:
184,168,57755,1,8,0:0:0:0:
304,200,58100,1,0,0:0:0:0:
160,112,58445,1,8,0:0:0:0:
288,136,58618,1,0,0:0:0:0:
192,152,59135,1,8,0:0:0:0:
304,256,59480,1,8,0:0:0:0:
352,184,59652,1,8,0:0:0:0:
320,240,59997,1,8,0:0:0:0:
168,152,60169,1,8,0:0:0:0:
336,160,60514,1,8,0:0:0:0:
120,136,60858,2,0,L|288:200,2,139.823963363648
232,216,62238,1,8,0:0:0:0:
256,232,62928,1,4,0:0:0:0:
240,120,63272,1,8,0:0:0:0:
160,136,63962,1,8,0:0:0:0:
208,240,64307,1,0,0:0:0:0:
320,128,64652,1,8,0:0:0:0:
176,136,64824,1,8,0:0:0:0:
224,200,65341,1,8,0:0:0:0:
104,160,65859,1,4,0:0:0:0:
256,176,66376,1,4,0:0:0:0:
352,168,67066,1,8,0:0:0:0:
184,208,67756,1,0,0:0:0:0:
288,192,68100,1,8,0:0:0:0:
80,184,68445,1,0,0:0:0:0:
224,240,68790,1,0,0:0:0:0:
304,160,69135,1,0,0:0:0:0:
328,256,69480,1,8,0:0:0:0:
392,216,70169,1,0,0:0:0:0:
224,176,70514,1,0,0:0:0:0:
88,144,70859,1,8,0:0:0:0:
216,144,71032,1,8,0:0:0:0:
360,200,71204,1,8,0:0:0:0:
264,200,71894,1,8,0:0:0:0:
184,200,72583,1,0,0:0:0:0:
240,144,72927,1,8,0:0:0:0:
288,240,73272,1,0,0:0:0:0:
120,176,73617,1,0,0:0:0:0:
272,176,73962,1,0,0:0:0:0:
272,208,74307,1,8,0:0:0:0:
208,128,74824,1,8,0:0:0:0:
312,136,74996,1,8,0:0:0:0:
104,168,75341,1,8,0:0:0:0:
264,168,75686,1,0,0:0:0:0:
240,176,76031,1,0,0:0:0:0:
152,120,76376,1,8,0:0:0:0:
224,104,76721,1,4,0:0:0:0:
280,240,77065,1,4,0:0:0:0:
128,192,77410,1,4,0:0:0:0:
184,80,78100,1,8,0:0:0:0:
240,248,78790,1,0,0:0:0:0:
240,160,79135,1,8,0:0:0:0:
136,144,79652,1,8,0:0:0:0:
288,160,79824,1,8,0:0:0:0:
224,184,80169,1,0,0:0:0:0:
320,232,80859,1,0,0:0:0:0:
200,200,81031,1,8,0:0:0:0:
264,152,81376,1,0,0:0:0:0:
160,152,81548,1,8,0:0:0:0:
120,144,82238,1,0,0:0:0:0:
200,200,82755,1,0,0:0:0:0:
288,224,83272,1,8,0:0:0:0:
176,168,83617,1,0,0:0:0:0:
184,128,83962,1,0,0:0:0:0:
328,216,84307,1,0,0:0:0:0:
240,128,84652,1,8,0:0:0:0:
248,184,85341,1,8,0:0:0:0:
88,168,85686,1,8,0:0:0:0:
280,232,85859,1,8,0:0:0:0:
176,136,86031,1,8,0:0:0:0:
312,168,86376,1,8,0:0:0:0:
232,192,87066,1,0,0:0:0:0:
320,208,87411,1,8,0:0:0:0:
88,152,87755,1,0,0:0:0:0:
192,192,88100,1,0,0:0:0:0:
272,128,88445,1,8,0:0:0:0:
320,208,89135,1,8,0:0:0:0:
168,136,89307,1,8,0:0:0:0:
160,136,89479,1,8,0:0:0:0:
264,224,89824,1,8,0:0:0:0:
288,240,89997,1,8,0:0:0:0:
392,216,90169,1,8,0:0:0:0:
232,80,90514,1,0,0:0:0:0:
112,160,90859,1,0,0:0:0:0:
80,128,91549,1,8,0:0:0:0:
168,224,91894,1,0,0:0:0:0:
296,184,92238,1,8,0:0:0:0:
192,128,92411,1,0,0:0:0:0:
104,216,92756,1,0,0:0:0:0:
224,208,92928,1,8,0:0:0:0:
232,160,93273,1,0,0:0:0:0:
288,248,93618,1,8,0:0:0:0:
208,136,94135,1,8,0:0:0:0:
280,176,94307,1,8,0:0:0:0:
144,216,94651,1,0,0:0:0:0:
200,152,94997,1,8,0:0:0:0:
80,112,95169,1,0,0:0:0:0:
200,256,95341,1,0,0:0:0:0:
328,176,95514,1,8,0:0:0:0:
168,168,96031,1,8,0:0:0:0:
216,176,96721,1,0,0:0:0:0:
248,120,97065,1,8,0:0:0:0:
128,152,97583,1,0,0:0:0:0:
248,120,97927,1,8,0:0:0:0:
376,176,98100,1,0,0:0:0:0:
176,144,98445,1,8,0:0:0:0:
256,208,98962,1,8,0:0:0:0:
336,280,99135,1,0,0:0:0:0:
152,144,99479,1,8,0:0:0:0:
272,216,99997,1,0,0:0:0:0:
336,216,100169,1,8,0:0:0:0:
200,184,100514,1,0,0:0:0:0:
272,240,101203,1,8,0:0:0:0:
168,176,101549,1,0,0:0:0:0:
280,160,101893,1,8,0:0:0:0:
216,104,102066,1,8,0:0:0:0:
160,96,102411,1,8,0:0:0:0:
224,176,102755,1,8,0:0:0:0:
328,264,102928,1,8,0:0:0:0:
120,152,103273,1,0,0:0:0:0:
312,224,103617,1,12,0:0:0:0:
208,152,103962,1,4,0:0:0:0:
216,176,116032,5,0,0:0:0:0:
248,120,116376,1,8,0:0:0:0:
128,152,116894,1,0,0:0:0:0:
248,120,117238,1,8,0:0:0:0:
376,176,117411,1,0,0:0:0:0:
176,144,117756,1,8,0:0:0:0:
256,208,118273,1,8,0:0:0:0:
336,280,118446,1,0,0:0:0:0:
152,144,118790,1,8,0:0:0:0:
272,216,119308,1,0,0:0:0:0:
336,216,119480,1,8,0:0:0:0:
200,184,119825,1,0,0:0:0:0:
272,240,120514,1,8,0:0:0:0:
168,176,120860,1,0,0:0:0:0:
280,160,121204,1,8,0:0:0:0:
216,104,121377,1,8,0:0:0:0:
160,96,121722,1,8,0:0:0:0:
224,176,122066,1,8,0:0:0:0:
328,264,122239,1,8,0:0:0:0:
120,152,122584,1,0,0:0:0:0:
312,224,122928,1,12,0:0:0:0:
240,200,123272,1,4,0:0:0:0:
232,176,124652,1,8,0:0:0:0:
320,208,124997,1,8,0:0:0:0:
104,112,125341,1,8,0:0:0:0:
288,208,125686,1,0,0:0:0:0:
192,160,126031,1,8,0:0:0:0:
240,112,126376,1,0,0:0:0:0:
368,152,126721,1,8,0:0:0:0:
272,200,127066,1,0,0:0:0:0:
208,192,127755,1,0,0:0:0:0:
224,120,128100,1,4,0:0:0:0:
304,240,128445,1,8,0:0:0:0:
344,168,128618,1,8,0:0:0:0:
224,184,129307,1,8,0:0:0:0:
112,120,129652,1,0,0:0:0:0:
256,144,129825,1,8,0:0:0:0:
208,48,129997,1,0,0:0:0:0:
256,192,130342,1,8,0:0:0:0:
336,248,130514,1,0,0:0:0:0:
112,176,130858,1,8,0:0:0:0:
232,200,131203,1,0,0:0:0:0:
280,168,131548,1,8,0:0:0:0:
160,144,131893,1,0,0:0:0:0:
288,224,132238,1,0,0:0:0:0:
160,176,132582,1,8,0:0:0:0:
192,184,132927,1,4,0:0:0:0:
264,128,133272,1,8,0:0:0:0:
120,104,133445,1,8,0:0:0:0:
304,240,134134,1,8,0:0:0:0:
192,152,134479,1,0,0:0:0:0:
232,136,134652,1,0,0:0:0:0:
136,96,134824,1,8,0:0:0:0:
288,248,135169,1,8,0:0:0:0:
192,200,135341,1,0,0:0:0:0:
176,128,136031,1,8,0:0:0:0:
280,208,136548,1,8,0:0:0:0:
256,168,136721,1,0,0:0:0:0:
192,160,136893,1,0,0:0:0:0:
176,200,137066,1,8,0:0:0:0:
224,104,137755,1,4,0:0:0:0:
176,200,138100,1,8,0:0:0:0:
312,168,138273,1,8,0:0:0:0:
304,104,138445,1,8,0:0:0:0:
208,104,138618,1,8,0:0:0:0:
216,208,139307,1,0,0:0:0:0:
336,184,139480,1,0,0:0:0:0:
208,168,139652,1,8,0:0:0:0:
176,96,139997,1,8,0:0:0:0:
304,240,140169,1,0,0:0:0:0:
304,144,140514,1,8,0:0:0:0:
200,184,141032,1,8,0:0:0:0:
304,224,141549,1,8,0:0:0:0:
128,152,141721,1,8,0:0:0:0:
272,152,141894,1,8,0:0:0:0:
208,200,142583,1,4,0:0:0:0:
312,168,142927,1,8,0:0:0:0:
176,112,143272,1,0,0:0:0:0:
224,88,143617,1,0,0:0:0:0:
320,184,143962,1,8,0:0:0:0:
216,176,144651,1,8,0:0:0:0:
304,144,144996,1,12,0:0:0:0:
256,192,145341,12,0,147065,0:0:0:0:
