osu file format v14

[General]
AudioFilename: dat gene.mp3
AudioLeadIn: 0
PreviewTime: 117735
Countdown: 0
SampleSet: Soft
StackLeniency: 0.8
Mode: 0
LetterboxInBreaks: 1
WidescreenStoryboard: 1

[Editor]
Bookmarks: 58546,114063,119717,126132
DistanceSpacing: 1
BeatDivisor: 2
GridSize: 4
TimelineZoom: 1.599999

[Metadata]
Title:Szamar Madar
TitleUnicode:Szamar Madar
Artist:Venetian Snares
ArtistUnicode:Venetian Snares
Creator:Don
Version:Normal
Source:Rossz Csillag Alatt Született
Tags:breakcore modern classical
BeatmapID:488896
BeatmapSetID:197362

[Difficulty]
HPDrainRate:4
CircleSize:3
OverallDifficulty:5
ApproachRate:5
SliderMultiplier:1
SliderTickRate:2

[Events]
//Background and Video events
0,0,"natures_fury_cloudbank_lightning_storm_1366x768_80868.jpg",0,0
Video,-141,"Untitled.avi"
//Break Periods
2,144486,155155
//Storyboard Layer 0 (Background)
//Storyboard Layer 1 (Fail)
//Storyboard Layer 2 (Pass)
//Storyboard Layer 3 (Foreground)
//Storyboard Layer 4 (Overlay)
//Storyboard Sound Samples

[TimingPoints]
50149,344.827586206897,7,2,0,60,1,0
69459,-100,5,2,0,60,0,1
88769,-100,5,2,0,60,0,0
117735,-100,5,2,0,60,0,1
137045,-100,5,2,0,60,0,0
166011,-100,5,2,0,60,0,1
185321,-100,5,2,0,60,0,0

[HitObjects]
80,96,50148,6,0,B|88:152|132:152|132:152|188:108|256:160,1,200
276,112,51011,1,0,0:0:0:0:
336,192,51355,1,0,0:0:0:0:
336,192,51528,1,0,0:0:0:0:
192,240,52045,6,0,P|168:280|148:288,2,50,0|0|0,0:0|0:0|0:0,0:0:0:0:
156,204,52562,2,0,B|128:152|152:120|152:120|264:120,1,200
362,109,53597,1,0,0:0:0:0:
376,208,53942,2,0,B|340:264|276:268|240:240|240:240|240:300,1,200
160,340,54976,6,0,B|160:240|160:240|160:208|176:184|196:168|224:164,1,200
244,124,55838,1,0,0:0:0:0:
304,204,56183,1,0,0:0:0:0:
376,72,56700,2,0,P|420:104|444:160,1,100
472,240,57390,6,0,P|424:247|372:215,1,100
332,236,57907,1,0,0:0:0:0:
304,196,58080,2,0,P|256:203|204:171,1,100
140,108,58769,2,0,P|108:152|112:208,2,100,0|0|0,0:0|0:0|0:0,0:0:0:0:
212,177,59804,6,0,B|243:157|254:99|233:65|233:65|317:65,1,200
341,103,60666,1,0,0:0:0:0:
313,199,61011,1,0,0:0:0:0:
313,199,61183,1,0,0:0:0:0:
410,178,61528,1,0,0:0:0:0:
396,277,61873,1,0,0:0:0:0:
299,301,62217,6,0,P|238:265|234:135,1,200
265,112,63080,1,0,0:0:0:0:
322,197,63424,1,0,0:0:0:0:
322,197,63597,2,0,P|249:215|161:124,1,200
265,112,64631,2,0,L|187:307,1,200
91,282,65666,1,0,0:0:0:0:
91,282,65838,1,0,0:0:0:0:
49,191,66183,1,0,0:0:0:0:
142,156,66528,1,0,0:0:0:0:
142,156,66700,1,0,0:0:0:0:
228,105,67045,2,0,P|147:56|61:98,2,200,0|0|0,0:0|0:0|0:0,0:0:0:0:
404,340,69459,6,0,B|436:228|436:228|344:228,1,200
316,192,70321,1,0,0:0:0:0:
280,228,70493,2,0,B|232:228|232:228|212:292,1,100
152,204,71183,2,0,B|172:144|240:144,1,100
260,108,71700,2,0,L|328:108,1,50
384,176,72217,6,0,L|384:240,1,50
344,256,72562,2,0,L|344:320,2,50,0|0|0,0:0|0:0|0:0,0:0:0:0:
304,228,73080,2,0,B|256:228|256:228|228:272|228:272|172:272,1,150
144,308,73769,2,0,B|88:308|88:308|52:272,1,100
60,228,74286,6,0,B|60:160|60:160|120:144|144:104|144:64,1,200
44,60,75321,2,0,B|159:165|159:165|208:164,1,200
244,192,76183,2,0,L|244:248,2,50,0|0|0,0:0|0:0|0:0,0:0:0:0:
288,160,76700,1,0,0:0:0:0:
372,104,77045,6,0,L|372:54,2,50,0|0|0,0:0|0:0|0:0,0:0:0:0:
408,136,77562,2,0,L|408:186,1,50,0|0,0:0|0:0,0:0:0:0:
436,228,77907,1,0,0:0:0:0:
384,228,78080,1,0,0:0:0:0:
316,300,78424,2,0,P|268:306|229:276,1,100
216,228,78942,1,0,0:0:0:0:
168,236,79114,6,0,P|120:242|81:213,1,100,0|0,0:0|0:0,0:0:0:0:
67,163,79631,1,0,0:0:0:0:
141,96,79976,1,0,0:0:0:0:
173,56,80148,2,0,P|201:32|229:24,2,50,0|0|0,0:0|0:0|0:0,0:0:0:0:
250,119,80838,2,0,P|309:152|318:199,1,100
296,220,81355,1,0,0:0:0:0:
271,263,81528,2,0,P|294:306|339:323,1,100
364,280,82045,1,0,0:0:0:0:
396,320,82217,1,0,0:0:0:0:
444,236,82562,6,0,P|420:180|364:168,2,100,0|0|0,0:0|0:0|0:0,0:0:0:0:
348,260,83597,1,0,0:0:0:0:
284,336,83942,6,0,P|248:280|316:164,1,200
340,140,84804,1,0,0:0:0:0:
380,168,84976,2,0,P|416:188|420:204,2,50,0|0|0,0:0|0:0|0:0,0:0:0:0:
348,260,85666,2,0,L|316:316,1,50
280,328,86011,2,0,L|224:328,2,50,0|0|0,0:0|0:0|0:0,0:0:0:0:
376,356,86700,6,0,L|401:313,1,50
424,268,87045,1,0,0:0:0:0:
343,207,87390,1,0,0:0:0:0:
436,172,87735,1,0,0:0:0:0:
355,110,88080,1,0,0:0:0:0:
156,124,88769,6,0,L|116:68,2,50,0|0|0,0:0|0:0|0:0,0:0:0:0:
140,172,89286,2,0,P|140:232|184:256,2,100,0|0|0,0:0|0:0|0:0,0:0:0:0:
156,124,90148,1,0,0:0:0:0:
100,40,90493,2,0,P|152:20|240:64,1,150,0|0,0:0|0:0,0:0:0:0:
256,100,91183,5,0,0:0:0:0:
328,164,91528,1,0,0:0:0:0:
232,196,91873,2,0,L|192:244,2,50,0|0|0,0:0|0:0|0:0,0:0:0:0:
196,104,92562,2,0,P|276:104|328:204,1,200
268,280,93597,6,0,L|264:344,2,50,0|0|0,0:0|0:0|0:0,0:0:0:0:
228,245,94114,2,0,L|232:196,1,50,0|0,0:0|0:0,0:0:0:0:
192,168,94459,2,0,L|195:118,1,50,0|0,0:0|0:0,0:0:0:0:
268,52,94976,1,0,0:0:0:0:
268,52,95148,1,0,0:0:0:0:
268,52,95321,1,0,0:0:0:0:
292,148,95666,1,0,0:0:0:0:
256,192,97390,12,0,98424,0:0:0:0:
152,272,98769,6,0,L|104:216,1,50
120,184,99114,2,0,B|120:124|120:124|160:96|160:96|164:36,1,150
204,24,99804,1,0,0:0:0:0:
252,112,100148,2,0,L|312:152,1,50
304,188,100493,2,0,L|364:228,1,50
336,264,100838,6,0,B|308:292|308:292|280:264|280:264|252:292|252:292|224:264|224:264|196:292|196:292|168:264|168:264|140:292|140:292|112:264,1,300
84,244,102045,2,0,L|84:184,1,50
156,124,102562,1,0,0:0:0:0:
252,156,102907,2,0,L|296:108,1,50
324,84,103252,6,0,B|380:84|380:84|379:123|400:144|444:156,1,150,0|0,0:0|0:0,0:0:0:0:
472,244,104114,1,0,0:0:0:0:
472,244,104286,2,0,P|404:252|364:220,1,100
294,291,104976,1,0,0:0:0:0:
294,291,105148,2,0,P|278:247|322:155,1,150
379,238,106011,1,0,0:0:0:0:
379,238,106183,6,0,L|173:200,1,200
134,192,107045,1,0,0:0:0:0:
79,107,107390,2,0,P|35:158|87:282,1,200
115,364,108424,5,0,0:0:0:0:
115,364,108597,2,0,P|169:319|162:234,1,150
222,160,109459,1,0,0:0:0:0:
317,188,109804,6,0,P|321:122|291:88,2,100,0|0|0,0:0|0:0|0:0,0:0:0:0:
312,287,110838,2,0,L|244:288,1,50
232,247,111183,2,0,L|164:248,1,50
131,247,111528,2,0,B|112:161|112:161|185:168|213:109,1,200
130,55,112562,1,0,0:0:0:0:
36,105,112907,6,0,P|90:155|164:155,1,150
257,191,113769,2,0,L|283:250,1,50
326,244,114114,2,0,L|352:303,1,50
255,332,114631,1,0,0:0:0:0:
159,301,114976,1,0,0:0:0:0:
157,200,115321,1,0,0:0:0:0:
258,191,115666,2,0,L|283:143,1,50
331,151,116011,1,0,0:0:0:0:
256,192,116183,12,0,117735,0:0:0:0:
106,97,118080,5,0,0:0:0:0:
106,97,118252,2,0,P|143:133|189:136,1,100
259,207,118942,1,0,0:0:0:0:
293,113,119286,1,0,0:0:0:0:
293,113,119459,1,0,0:0:0:0:
355,191,119804,6,0,P|363:217|362:246,2,50,0|0|0,0:0|0:0|0:0,0:0:0:0:
416,112,120493,1,0,0:0:0:0:
385,71,120666,2,0,P|377:47|376:22,2,50,0|0|0,0:0|0:0|0:0,0:0:0:0:
287,92,121355,2,0,P|301:137|362:164,1,100
394,163,121873,1,0,0:0:0:0:
374,260,122217,1,0,0:0:0:0:
331,286,122390,1,0,0:0:0:0:
289,258,122562,6,0,B|239:258|239:258|206:221|206:221|149:221,1,150
83,151,123424,1,0,0:0:0:0:
83,151,123597,2,0,P|75:127|81:103,2,50,0|0|0,0:0|0:0|0:0,0:0:0:0:
179,124,124286,1,0,0:0:0:0:
155,221,124631,1,0,0:0:0:0:
252,194,124976,6,0,P|254:243|229:286,2,100,0|0|0,0:0|0:0|0:0,0:0:0:0:
292,102,126011,1,0,0:0:0:0:
366,171,126355,2,0,P|390:129|389:80,2,100,0|0|0,0:0|0:0|0:0,0:0:0:0:
293,241,127390,5,0,0:0:0:0:
224,167,127735,1,0,0:0:0:0:
224,167,127907,1,0,0:0:0:0:
187,260,128252,1,0,0:0:0:0:
187,260,128424,2,0,P|138:231|129:175,2,100,0|0|0,0:0|0:0|0:0,0:0:0:0:
280,216,129459,2,0,P|300:237|335:242,2,50,0|0|0,0:0|0:0|0:0,0:0:0:0:
250,120,130148,2,0,P|230:99|195:94,2,50,0|0|0,0:0|0:0|0:0,0:0:0:0:
280,216,130838,1,0,0:0:0:0:
348,144,131183,1,0,0:0:0:0:
392,236,131528,2,0,P|444:187|440:106,1,150
404,80,132217,6,0,B|365:49|309:55|281:94|281:94|201:94,1,200
178,123,133080,1,0,0:0:0:0:
140,89,133252,2,0,P|133:65|115:48,2,50,0|0|0,0:0|0:0|0:0,0:0:0:0:
103,182,133942,2,0,P|129:208|205:210,2,100,0|0|0,0:0|0:0|0:0,0:0:0:0:
178,123,134976,2,0,L|203:72,2,50,0|0|0,0:0|0:0|0:0,0:0:0:0:
256,192,135666,12,0,137045,0:0:0:0:
372,212,137562,6,0,P|372:152|328:128,2,100,0|0|0,0:0|0:0|0:0,0:0:0:0:
356,260,138424,1,0,0:0:0:0:
412,344,138769,2,0,P|360:364|272:320,1,150,0|0,0:0|0:0,0:0:0:0:
256,284,139459,5,0,0:0:0:0:
184,220,139804,1,0,0:0:0:0:
280,188,140149,2,0,L|320:140,2,50,0|0|0,0:0|0:0|0:0,0:0:0:0:
316,280,140838,2,0,P|236:280|184:180,1,200
244,104,141873,6,0,L|248:40,2,50,0|0|0,0:0|0:0|0:0,0:0:0:0:
284,139,142390,2,0,L|280:188,1,50,0|0,0:0|0:0,0:0:0:0:
320,216,142735,2,0,L|317:266,1,50,0|0,0:0|0:0,0:0:0:0:
244,332,143252,1,0,0:0:0:0:
244,332,143424,1,0,0:0:0:0:
244,332,143597,1,0,0:0:0:0:
176,256,143942,2,0,L|179:206,1,50,0|0,0:0|0:0,0:0:0:0:
140,172,144286,1,0,0:0:0:0:
120,272,156355,6,0,L|76:324,2,50,0|0|0,0:0|0:0|0:0,0:0:0:0:
168,252,156873,2,0,P|232:244|264:192,1,100,0|0,0:0|0:0,0:0:0:0:
184,148,157562,1,0,0:0:0:0:
184,148,157735,1,0,0:0:0:0:
124,68,158080,6,0,B|168:36|236:40|272:92|272:92|308:64,1,200
396,64,159114,1,0,0:0:0:0:
404,164,159459,2,0,P|425:180|462:184,2,50,0|0|0,2:0|0:0|0:0,0:0:0:0:
356,252,160149,2,0,B|300:216|300:168|308:140|308:140|232:204,1,200
168,136,161183,6,0,L|160:64,2,50,0|0|0,0:0|0:0|0:0,0:0:0:0:
136,176,161700,2,0,L|141:225,1,50,0|0,0:0|0:0,0:0:0:0:
108,264,162045,2,0,L|113:313,1,50,0|0,0:0|0:0,0:0:0:0:
208,344,162562,1,0,0:0:0:0:
208,344,162735,1,0,0:0:0:0:
208,344,162907,1,0,0:0:0:0:
276,272,163252,2,0,L|292:208,1,50
332,200,163597,1,0,0:0:0:0:
256,192,163942,12,0,165666,0:0:0:0:
172,168,166011,5,0,0:0:0:0:
240,240,166355,1,0,0:0:0:0:
272,144,166700,1,0,0:0:0:0:
340,216,167044,1,0,0:0:0:0:
371,119,167390,2,0,P|439:186|356:316,1,250
340,340,168424,6,0,L|268:336,1,50
260,296,168769,2,0,L|188:292,1,50,0|0,0:0|0:0,0:0:0:0:
140,220,169286,1,0,0:0:0:0:
236,188,169631,1,0,0:0:0:0:
160,124,169976,2,0,P|140:100|136:72,2,50,0|0|0,0:0|0:0|0:0,0:0:0:0:
140,220,170666,1,0,0:0:0:0:
140,220,170838,2,0,P|183:279|235:282,3,100,0|0|0|0,0:0|0:0|0:0|0:0,0:0:0:0:
292,336,172217,2,0,B|320:288|304:232|268:208|268:208|380:208,1,250
