osu file format v14

[General]
AudioFilename: audio.mp3
AudioLeadIn: 0
PreviewTime: 174561
Countdown: 0
SampleSet: Normal
StackLeniency: 0.2
Mode: 0
LetterboxInBreaks: 0
WidescreenStoryboard: 0

[Editor]
Bookmarks: 768,940,1112,10423,12836,15078,15940,17664,20078,27836,29388,29733,32492,37664,39388,44216,47319,49043,53871,58699,63526,68354,78009,82836,85250,86630,88009,89216,94905,97319,106974,116630,121457,126285,131112,134561,135423,135940,155250,164905,174561,193871,201112,203526,222836,242147,249388,261457,290423,300078,300768,301112,301802,302147,302836,303181,303871,304216,309733,310423,310768,311457,311802,312492,312836,313526,313871,338009
DistanceSpacing: 0.5
BeatDivisor: 4
GridSize: 4
TimelineZoom: 0.9

[Metadata]
Title:Szamar Madar
TitleUnicode:Szamár Madár
Artist:Venetian Snares
ArtistUnicode:Venetian Snares
Creator:Coni
Version:Haziness
Source:
Tags:
BeatmapID:1276493
BeatmapSetID:604220

[Difficulty]
HPDrainRate:5
CircleSize:5
OverallDifficulty:9
ApproachRate:9.5
SliderMultiplier:1.99999990463257
SliderTickRate:1

[Events]
//Background and Video events
0,0,"wallpaper-3016869.jpg",0,0
//Break Periods
2,21657,27236
2,33381,37064
2,42346,43616
2,52002,53271
2,56485,58099
2,61656,62926
2,63898,65340
2,69933,77409
2,86829,94305
2,99933,106374
2,110622,111374
2,174933,299553
//Storyboard Layer 0 (Background)
//Storyboard Layer 1 (Fail)
//Storyboard Layer 2 (Pass)
//Storyboard Layer 3 (Foreground)
//Storyboard Layer 4 (Overlay)
//Storyboard Sound Samples

[TimingPoints]
768,344.827586206897,7,1,0,100,1,0
868,-100,7,1,0,100,0,0
968,-100,7,1,0,100,0,0
1112,-200,7,1,0,5,0,0
12836,-50,7,1,0,100,0,0
15940,-71.4285714285714,7,1,0,20,0,0
17664,-50,7,1,0,80,0,0
17750,-200,7,1,0,20,0,0
20078,-50,7,1,0,100,0,0
27836,-200,7,1,0,5,0,0
28354,-181.818181818182,7,1,0,15,0,0
28699,-166.666666666667,7,1,0,20,0,0
29043,-153.846153846154,7,1,0,25,0,0
29388,-142.857142857143,7,1,0,50,0,0
29733,-50,7,1,0,30,0,0
37664,-200,7,1,0,30,0,0
60768,-100,7,1,0,30,0,0
63526,-76.9230769230769,7,1,0,30,0,0
65940,-200,7,1,0,30,0,0
68354,-50,7,1,0,100,0,0
78009,-50,7,1,0,100,0,0
78354,-50,7,1,0,50,0,0
78526,-50,7,1,0,45,0,0
78699,-50,7,1,0,40,0,0
78871,-50,7,1,0,45,0,0
79043,-50,7,1,0,50,0,0
79216,-50,7,1,0,55,0,0
79388,-50,7,1,0,60,0,0
79561,-50,7,1,0,55,0,0
79733,-50,7,1,0,50,0,0
79905,-50,7,1,0,55,0,0
80078,-50,7,1,0,62,0,0
80250,-50,7,1,0,70,0,0
80423,-50,7,1,0,100,0,0
80768,-50,7,1,0,50,0,0
80940,-50,7,1,0,45,0,0
81112,-50,7,1,0,40,0,0
81285,-50,7,1,0,45,0,0
81457,-50,7,1,0,50,0,0
81630,-50,7,1,0,55,0,0
81802,-50,7,1,0,60,0,0
81974,-50,7,1,0,55,0,0
82147,-50,7,1,0,50,0,0
82319,-50,7,1,0,55,0,0
82492,-50,7,1,0,62,0,0
82664,-50,7,1,0,70,0,0
82836,-50,7,1,0,100,0,0
83181,-50,7,1,0,50,0,0
83354,-50,7,1,0,45,0,0
83526,-50,7,1,0,40,0,0
83699,-50,7,1,0,45,0,0
83871,-50,7,1,0,50,0,0
84043,-50,7,1,0,55,0,0
84216,-50,7,1,0,60,0,0
84388,-50,7,1,0,55,0,0
84561,-50,7,1,0,50,0,0
84733,-50,7,1,0,55,0,0
84905,-50,7,1,0,62,0,0
85078,-50,7,1,0,70,0,0
85250,-50,7,1,0,100,0,0
94905,-200,7,1,0,30,0,0
116630,-200,7,1,0,50,0,0
134561,-200,7,1,0,30,0,0
135423,-200,7,1,0,50,0,0
135595,-200,7,1,0,60,0,0
135768,-200,7,1,0,72,0,0
135940,-200,7,1,0,60,0,0
136285,-200,7,1,0,50,0,0
138181,-200,7,1,0,60,0,0
138354,-200,7,1,0,72,0,0
138699,-200,7,1,0,50,0,0
145423,-200,7,1,0,60,0,0
145595,-200,7,1,0,72,0,0
145940,-200,7,1,0,50,0,0
155250,-100,7,1,0,100,0,0
155595,-70.9219858156028,7,1,0,100,0,0
156112,-100,7,1,0,100,0,0
156457,-70.9219858156028,7,1,0,100,0,0
156630,-100,7,1,0,100,0,0
157319,-50,7,1,0,100,0,0
157492,-100,7,1,0,100,0,0
158009,-70.9219858156028,7,1,0,100,0,0
158526,-100,7,1,0,100,0,0
158699,-70.9219858156028,7,1,0,100,0,0
158871,-100,7,1,0,100,0,0
159216,-70.9219858156028,7,1,0,100,0,0
159733,-70.9219858156028,7,1,0,100,0,0
159905,-100,7,1,0,100,0,0
160423,-70.9219858156028,7,1,0,100,0,0
160940,-100,7,1,0,100,0,0
161285,-70.9219858156028,7,1,0,100,0,0
161802,-100,7,1,0,100,0,0
162147,-50,7,1,0,100,0,0
162319,-100,7,1,0,100,0,0
162836,-70.9219858156028,7,1,0,100,0,0
163009,-100,7,1,0,100,0,0
163526,-70.9219858156028,7,1,0,100,0,0
163699,-100,7,1,0,100,0,0
164561,-50,7,1,0,100,0,0
164733,-100,7,1,0,100,0,0
165250,-70.9219858156028,7,1,0,100,0,0
165768,-100,7,1,0,100,0,0
166112,-70.9219858156028,7,1,0,100,0,0
166285,-100,7,1,0,100,0,0
166974,-50,7,1,0,100,0,0
167147,-100,7,1,0,100,0,0
167664,-70.9219858156028,7,1,0,100,0,0
168181,-100,7,1,0,100,0,0
168526,-70.9219858156028,7,1,0,100,0,0
168699,-100,7,1,0,100,0,0
169388,-70.9219858156028,7,1,0,100,0,0
169561,-100,7,1,0,100,0,0
170078,-70.9219858156028,7,1,0,100,0,0
170250,-100,7,1,0,100,0,0
170423,-70.9219858156028,7,1,0,100,0,0
171285,-100,7,1,0,100,0,0
171802,-50,7,1,0,100,0,0
171974,-100,7,1,0,100,0,0
172147,-100,7,1,0,100,0,0
172492,-70.9219858156028,7,1,0,100,0,0
172664,-100,7,1,0,100,0,0
173526,-70.9219858156028,7,1,0,100,0,0
173871,-200,7,1,0,100,0,0
174561,-62.5,7,1,0,100,0,1
174905,-70.9219858156028,7,1,0,100,0,1
175940,-100,7,1,0,100,0,1
176285,-70.9219858156028,7,1,0,100,0,1
177836,-100,7,1,0,100,0,1
178181,-70.9219858156028,7,1,0,100,0,1
178526,-100,7,1,0,100,0,1
178699,-50,7,1,0,100,0,1
178871,-70.9219858156028,7,1,0,100,0,1
179043,-100,7,1,0,100,0,1
179216,-50,7,1,0,100,0,1
179388,-62.5,7,1,0,100,0,1
179561,-100,7,1,0,100,0,1
179733,-70.9219858156028,7,1,0,100,0,1
193871,-100,7,1,0,100,0,0
203526,-100,7,1,0,100,0,1
221112,-100,7,1,0,100,0,0
222836,-100,7,1,0,100,0,1
242147,-100,7,1,0,100,0,0
300078,-200,7,1,0,100,0,0
304905,-200,7,1,0,5,0,0
309733,-200,7,1,0,100,0,0
314561,-200,7,1,0,5,0,0

[HitObjects]
0,139,768,6,0,B|18:79|64:36|64:36,1,119.999990615845
183,111,1112,2,0,B|180:136|180:136|268:34|365:33|472:93|472:93|358:167|282:279|273:372|273:372|410:384|541:307|454:176|454:176|375:243|347:319|347:319|478:296|446:206|325:121|325:121|285:128|260:153|260:153|289:184|289:184|232:181|232:181|270:211|270:211|210:215|210:215|247:253|247:253|188:253|188:253|230:293|230:293|171:291|171:291|217:339|217:339|139:335|139:335|92:302|34:315|30:375|30:375|59:365|92:379|92:379|97:282|155:192|155:192|108:169|121:110|121:110|80:181|51:263|51:263|12:170|101:29|250:2|250:2|170:-4|95:13|95:13,1,3374.99983906746
58,41,12836,6,0,B|24:72|3:124,26,99.9999952316285
325,190,15940,6,0,B|293:197|261:216,19,69.9999945259097
60,338,17664,6,0,B|70:310|87:292|87:292,1,49.9999976158143
112,269,17750,6,0,B|119:278|119:297|119:297,26,24.9999988079071
312,21,20078,6,0,B|421:22|509:90|509:90|458:119|429:167|429:167|378:119|291:119|291:119|260:153|255:191|255:190|256:191|257:191|257:191|300:181|349:196|349:196|364:129|395:92|395:92|474:124|511:175|511:175|444:253|421:354|421:354|317:293|240:310|240:310|226:332|224:368|224:368|278:353|322:370|322:370|327:312|359:268|359:268|348:260|324:260,1,1599.99992370606
114,318,27836,5,0,0:0:0:0:
117,241,28009,5,0,0:0:0:0:
157,292,28181,1,0,0:0:0:0:
251,185,28354,5,0,0:0:0:0:
191,239,28526,1,0,0:0:0:0:
365,236,28699,5,0,0:0:0:0:
226,204,28871,1,0,0:0:0:0:
84,303,29043,5,0,0:0:0:0:
181,373,29216,1,0,0:0:0:0:
341,360,29388,5,0,0:0:0:0:
341,360,29431,1,0,0:0:0:0:
341,360,29474,1,0,0:0:0:0:
341,360,29518,1,0,0:0:0:0:
341,360,29561,1,0,0:0:0:0:
341,360,29604,1,0,0:0:0:0:
341,360,29647,1,0,0:0:0:0:
341,360,29690,1,0,0:0:0:0:
360,366,29733,6,0,B|422:339|505:328|505:328|493:256|500:173|500:173|347:152|193:207|193:207|188:264|214:297|214:297|256:273|305:261|305:261|302:156|319:101|319:101|405:90|491:101|491:101|495:57|507:16|507:16|438:13|402:23|402:23|367:168|373:264|373:264|384:259|395:256|395:256,1,1599.99992370606
92,158,32492,5,0,0:0:0:0:
342,99,33009,5,0,0:0:0:0:
387,49,33095,1,0,0:0:0:0:
430,155,33181,1,0,0:0:0:0:
256,192,37664,12,0,39216,0:0:0:0:
138,359,39388,6,0,B|240:367|338:329|338:329|309:203|326:110|326:110|378:163|388:223|388:223|243:296|150:277|150:277,1,799.999961853028
401,68,44216,6,0,B|317:143|324:270|324:270|444:245|537:181|558:92|355:76|418:310|418:310|356:336|291:346,1,799.999961853028
256,192,47319,12,0,48871,0:0:0:0:
165,345,49043,6,0,P|95:349|144:274,1,199.999990463257,0|0,0:0|0:0,0:0:0:0:
263,349,49905,2,0,B|359:380|424:287|424:287|434:307|431:327|431:327,1,224.999989271164,0|0,0:0|0:0,0:0:0:0:
313,261,50854,5,0,0:0:0:0:
130,306,50940,2,0,B|129:226|213:180|284:229|284:229|300:223|312:206|312:206,1,249.999988079071,0|0,0:0|0:0,0:0:0:0:
256,192,53871,12,0,56285,0:0:0:0:
169,65,58699,6,0,B|216:48|269:47|269:47,1,99.9999952316285,8|0,0:0|0:0,0:0:0:0:
86,38,59216,1,0,0:0:0:0:
222,125,59388,2,0,B|249:163|262:208|262:208|318:186|366:215|366:215,1,199.999990463257
153,210,60250,5,0,0:0:0:0:
156,332,60423,1,0,0:0:0:0:
272,245,60595,1,0,0:0:0:0:
117,287,60768,2,0,P|38:354|38:354,1,99.9999952316285
178,351,61112,2,0,B|171:313|171:313|184:285|172:251|149:237|149:237|130:164,1,199.999990463257
352,134,63526,6,0,P|482:109|482:109,1,129.99998785019
80,328,65940,6,0,B|88:356|112:366|112:366,1,49.9999976158143
288,336,66457,5,0,0:0:0:0:
250,252,66630,1,0,0:0:0:0:
366,173,66802,1,0,0:0:0:0:
352,301,66974,1,0,0:0:0:0:
464,308,67147,5,0,0:0:0:0:
417,141,67319,1,0,0:0:0:0:
301,158,67664,1,0,0:0:0:0:
287,318,68009,1,0,0:0:0:0:
162,92,68354,6,0,B|222:70|286:76|286:76|270:41|239:13|239:13|153:21|18:80|18:80|72:159|101:234|101:234|184:201|269:197|269:197|251:161|225:139|225:139|120:154|20:213|20:213|13:180|0:152|0:152|44:125|102:113|102:113|158:182|198:279|198:279|133:290|62:321|62:321|75:342|75:342,1,1599.99992370606
272,80,78009,6,0,B|325:71|369:54|369:54|378:107|418:139|418:139,1,199.999990463257
511,193,78354,5,0,0:0:0:0:
428,241,78526,5,0,0:0:0:0:
408,186,78699,1,0,0:0:0:0:
460,138,78871,5,0,0:0:0:0:
396,87,79043,1,0,0:0:0:0:
345,7,79216,1,0,0:0:0:0:
214,24,79388,1,0,0:0:0:0:
209,131,79561,5,0,0:0:0:0:
268,103,79733,1,0,0:0:0:0:
358,172,79905,5,0,0:0:0:0:
289,248,80078,1,0,0:0:0:0:
332,361,80250,1,0,0:0:0:0:
116,364,80423,6,0,B|69:333|21:333|21:333|71:303|92:258|92:258,1,199.999990463257,0|0,0:0|0:0,2:0:0:0:
130,159,80768,1,0,0:0:0:0:
218,161,80940,5,0,0:0:0:0:
242,92,81112,1,0,0:0:0:0:
331,153,81285,5,0,0:0:0:0:
371,274,81457,1,0,0:0:0:0:
456,177,81630,1,0,0:0:0:0:
471,24,81802,1,0,0:0:0:0:
380,10,81974,5,0,0:0:0:0:
336,65,82147,1,0,0:0:0:0:
221,16,82319,5,0,0:0:0:0:
122,105,82492,1,0,0:0:0:0:
243,185,82664,1,0,0:0:0:0:
81,280,82836,6,0,B|60:320|21:360|21:360|72:344|122:346|122:346,1,199.999990463257
257,359,83181,1,0,0:0:0:0:
282,282,83354,5,0,0:0:0:0:
313,315,83526,1,0,0:0:0:0:
404,275,83699,5,0,0:0:0:0:
436,124,83871,1,0,0:0:0:0:
297,8,84043,1,0,0:0:0:0:
229,199,84216,1,0,0:0:0:0:
250,313,84388,5,0,0:0:0:0:
303,253,84561,1,0,0:0:0:0:
433,263,84733,5,0,0:0:0:0:
251,378,84905,1,0,0:0:0:0:
89,284,85078,1,0,0:0:0:0:
301,112,85250,2,0,B|317:141|389:186|389:186|405:157|430:124|430:124|373:86|304:3|304:3|259:64|199:101|199:101|246:171|292:198|292:198|344:105|454:31|454:31|477:76|512:131|512:131|443:195|435:325|435:325|330:309|285:312|285:312|319:267|344:233|344:233|408:274|481:256|481:256,1,1599.99992370606
214,90,94905,6,0,B|243:90|262:80|262:80,1,49.9999976158143
134,190,95250,2,0,B|107:185|93:163|93:163,1,49.9999976158143
262,149,95595,2,0,P|226:244|226:244,1,99.9999952316285
110,281,96285,1,0,0:0:0:0:
77,136,96630,2,0,P|99:233|99:233,1,99.9999952316285
256,192,97319,12,0,99733,0:0:0:0:
57,43,106974,6,0,B|81:32|110:30|110:30|131:34|150:33|150:33|154:38|154:38,1,99.9999952316285
201,113,107492,1,0,0:0:0:0:
120,162,107664,2,0,B|124:203|124:203|134:232|128:265|128:265|136:275|136:275|138:295|144:310|144:310|162:330|168:352|168:352,1,199.999990463257
238,239,108526,2,0,B|250:279|269:293|269:293|276:308|291:314|291:314|303:315|303:315|322:321|338:321|338:321|360:345|384:341|384:341|405:345|405:345|431:334|462:329|462:329|484:305|484:305|498:279|500:257|500:257|497:241|497:241|510:207|497:176|497:176|496:159|496:159|486:124|458:117|458:117|448:114|448:114|427:98|427:98,1,549.999973773957
247,347,111974,6,0,B|276:354|300:350|300:350,1,49.9999976158143
352,278,112319,1,0,0:0:0:0:
267,245,112492,2,0,B|229:256|229:256|198:265|166:262|166:262|153:271|153:271|116:264|69:265|69:265,1,199.999990463257
150,343,113354,2,0,B|116:354|80:343|80:343|65:329|65:329|38:319|27:295|27:295|13:285|13:285|5:265|12:241|12:241|22:230|22:230|29:207|29:179|29:179|49:155|78:143|78:143|89:132|89:132,1,349.9999833107
243,54,114819,2,0,B|269:73|269:73|233:80|233:80|260:101|260:101|241:112|241:112|255:123|255:123|248:133|248:133|249:154|249:154|257:164|257:164|260:192|257:217|257:217|264:229|264:229|269:262|290:286|290:286|319:290|319:290|351:300|369:292|369:292|382:279|382:279|380:256|362:245|362:245|344:247,1,474.999977350235
510,311,116630,6,0,B|495:344|458:366|458:366|436:368|421:380|421:380|396:385|396:385|362:384|337:371,1,199.999990463257
337,331,117405,1,0,0:0:0:0:
368,304,117492,2,0,B|383:256|383:256|402:242|409:220|409:220|407:195|422:170|422:170|426:115|392:72,1,249.999988079071
352,87,118440,1,0,0:0:0:0:
334,125,118526,2,0,B|283:130|283:130|263:143|232:143|232:143|209:134|185:137|185:137|135:120|111:76|111:76,1,249.999988079071
136,246,119647,2,0,B|174:264|207:264|207:264|235:253|259:257|259:257|290:253|305:240|305:240|322:219|322:219|331:209|343:200|343:200|355:196|374:183|374:183|395:176|417:178|417:178|439:191|470:195|470:195|495:217|495:217|522:250|512:290|512:290,1,474.999977350235
452,26,121457,2,0,B|422:66|422:66|416:94|395:107|395:107|393:130|393:130|347:149|336:199|336:199|342:209|342:209|357:209|371:216|371:216|398:204|431:209|431:209|450:243|450:243|471:254|478:276|478:276|473:304|474:330|474:330|453:335|453:335|422:359|383:363|383:363|352:352|352:352|319:361|319:361|304:355|293:356|293:356,1,649.999969005585
32,285,124474,2,0,B|103:311|103:311|137:305|179:310|179:310|191:307|191:307|224:310|259:305|259:305|292:314|326:314|326:314|359:305|396:305|396:305|445:317|484:319|484:319|502:316|502:316,1,474.999977350235
397,28,126285,6,0,B|402:50|402:50|416:65|416:88|416:88,1,62.4999970197678
360,123,126673,2,0,B|343:125|326:134|326:134|300:133,1,62.4999970197678
205,55,127061,2,0,B|191:95|191:95|196:121|176:143|176:143|167:157|167:176|167:176,1,124.999994039536
133,104,127664,2,0,B|135:105|109:97|89:82,1,49.9999976158143
298,147,128009,2,0,B|295:117|311:93|311:93|309:73|309:73|312:50,1,99.9999952316285
462,145,129216,2,0,B|472:209|472:209|457:236|453:271|453:271|441:290|441:290|413:317|371:328|371:328|333:332|299:346|299:346|277:349|277:349|260:355|260:355|234:359|210:353|210:353|158:341|158:341|134:347|109:345,1,499.999976158143
0,343,131112,2,0,B|50:359|50:359|73:357|105:370|105:370|128:369|128:369|146:356|171:348|171:348|191:311|182:279|182:279|185:260|185:260|195:234|215:214|215:214|217:203|217:203|229:187|227:171|227:171|251:150,1,399.999980926514
353,85,132664,2,0,B|348:136|348:136|356:159|353:183|353:183|341:196|341:196|349:229|341:259|341:259|353:281|353:281|355:303|338:325|338:325,1,249.999988079071
283,348,133957,2,0,B|340:358|340:358|365:353|365:353|385:364|412:363|412:363,1,124.999994039536
464,226,134561,5,0,0:0:0:0:
507,101,134905,1,0,0:0:0:0:
412,17,135250,1,0,0:0:0:0:
357,102,135423,5,0,0:0:0:0:
240,27,135595,1,0,0:0:0:0:
137,139,135768,1,0,0:0:0:0:
137,301,135940,6,0,B|134:324|134:324|139:339|137:358,1,49.9999976158143
398,335,136285,2,0,B|334:351|334:351|322:363|322:363|301:356|281:359|281:359|261:370|261:370|245:368|230:375|230:375|208:377|186:370|186:370|166:366|134:370|134:370|110:370|110:370|98:377|98:377|63:366|27:375|27:375|1:366|1:366|0:351|12:337|12:337|37:334|67:324|67:324,1,499.999976158143
93,188,138181,1,0,0:0:0:0:
141,64,138354,6,0,B|144:42|137:22|137:22|138:11,1,49.9999976158143
398,78,138699,2,0,B|338:90|338:90|326:80|326:80|317:90|298:91|298:91|271:87|240:95|240:95|209:92|209:92|186:76|162:78|162:78|144:87|144:87|131:83|120:91|120:91|93:100|53:90|53:90|20:100|20:100|24:118|39:128|39:128|55:133|55:133|87:131|109:143|109:143,1,499.999976158143
289,24,140768,6,0,B|287:47|287:47|294:63|293:74,1,49.9999976158143
180,254,141112,2,0,B|209:262|228:262|228:262|236:256|236:256|253:255|271:265|271:265|285:259|300:257|300:257|311:255|311:255|326:245|333:230|333:230|344:207|344:207|360:200|369:186|369:186|390:172|411:169|411:169|419:174|419:174|435:171|458:181|458:181|471:203|471:203|481:212|481:212|475:225|478:241|478:241|484:252|471:265|471:265|460:270|460:270|458:296|440:314|440:314|424:322|424:322,1,499.999976158143
209,288,143181,6,0,B|144:276|144:276|127:281|127:281|109:264|88:259|88:259|71:262|71:262|64:259|64:259,1,149.999992847443
83,235,143871,2,0,B|118:220|150:216|150:216|159:208|159:208|188:206|211:192|211:192|226:189|226:189,1,149.999992847443
193,173,144561,2,0,B|211:143|234:128|234:128|242:114|242:114|273:98|273:98|279:81|291:66,1,149.999992847443
305,45,145250,2,0,P|321:52|328:59,1,24.9999988079071
343,214,145423,1,0,0:0:0:0:
415,337,145595,6,0,B|422:356|422:356|433:365|435:384,1,49.9999976158143
170,312,145940,2,0,B|192:328|216:334|216:334|228:326|228:326|245:328|259:339|259:339|288:341|314:334|314:334|345:339|345:339|373:339|402:326|402:326|424:323|424:323|457:328|481:323|481:323|491:312|479:293|479:293|463:286|463:286|447:266|414:259|414:259|399:263|380:261|380:261|365:252|345:254|345:254,1,499.999976158143
197,218,147836,1,0,0:0:0:0:
71,143,148009,6,0,B|51:135|51:135|38:123|22:119,1,49.9999976158143
297,15,148354,2,0,B|276:40|253:50|253:50|238:65|238:65|236:81|236:81|205:96|186:115|186:115|164:122|143:125|143:125|131:132|131:132|119:155|95:172|95:172|71:183|71:183|72:193|72:193|56:210|47:226|47:226|43:248|53:262|53:262|76:262|76:262|88:241|113:227|113:227|116:214|116:214|128:201|138:196|138:196,1,499.999976158143
90,54,150423,6,0,B|93:76|93:76|105:86|111:100,1,49.9999976158143
143,28,150768,2,0,B|136:54|137:76|137:76|141:85|141:85|137:102|139:123|139:123|139:154|120:177|120:177|106:177|106:177|105:195|94:223|94:223|95:242|95:242|81:255|81:255|55:278|55:278|44:278|19:285|19:285|3:299|3:317|3:317|5:333|5:333|18:342|30:357|30:357|51:361|70:351|70:351|82:353|82:353|101:348|119:351|119:351,1,499.999976158143
360,252,152836,2,0,B|387:251|406:259|406:259|422:258|445:251|445:251|462:252|485:259|485:259|508:254|508:254,1,149.999992847443
399,182,153526,2,0,B|348:186|348:186|323:177|288:179|288:179|266:188|266:188|247:186,1,149.999992847443
323,310,154216,2,0,B|349:313|371:313|371:313|388:307|406:307|406:307|426:313|426:313|440:313|459:309|459:309|473:313,1,149.999992847443
368,222,154905,2,0,B|347:227|347:227|333:222|318:222,1,49.9999976158143
78,380,155250,6,0,B|53:390|29:382,1,49.9999976158143
0,292,155423,1,0,0:0:0:0:
147,359,155595,2,0,B|181:356|198:337|198:337|213:332,1,70.499993034554
336,323,155768,5,0,0:0:0:0:
368,311,155854,1,0,0:0:0:0:
401,299,155940,1,0,0:0:0:0:
433,287,156026,1,0,0:0:0:0:
465,276,156112,2,0,L|515:259,1,49.9999976158143
456,105,156285,5,0,0:0:0:0:
320,163,156457,2,0,B|295:173|295:173|273:178|255:194,1,70.499993034554
139,150,156630,2,0,B|91:135|91:135,1,49.9999976158143
91,135,157147,1,0,0:0:0:0:
56,121,157319,2,0,P|17:79|14:37,1,99.9999952316285
252,28,157492,2,0,L|281:10,2,33.3333317438762
172,60,157664,6,0,L|185:109,1,49.9999976158143
165,245,157836,1,0,0:0:0:0:
277,105,158009,2,0,B|291:78|313:63|313:63|322:47,1,70.499993034554
464,49,158181,5,0,0:0:0:0:
457,84,158268,1,0,0:0:0:0:
450,119,158354,1,0,0:0:0:0:
443,154,158440,1,0,0:0:0:0:
436,189,158526,2,0,L|424:240,1,49.9999976158143
324,342,158699,6,0,B|304:370|277:374|277:374|255:378,1,70.499993034554
128,379,158871,2,0,B|92:385,2,33.3333317438762
99,294,159043,2,0,L|50:280,1,49.9999976158143
277,264,159216,5,0,0:0:0:0:
244,276,159302,1,0,0:0:0:0:
211,288,159388,1,0,0:0:0:0:
178,300,159475,1,0,0:0:0:0:
145,312,159561,1,0,0:0:0:0:
112,324,159647,1,0,0:0:0:0:
79,336,159733,2,0,B|54:344|54:344|39:359|12:359,1,70.499993034554
7,225,159905,2,0,L|-1:189,2,33.3333317438762
33,172,160078,6,0,L|42:123,1,49.9999976158143
41,0,160250,1,0,0:0:0:0:
168,142,160423,2,0,B|184:161|184:161|202:172|214:195,1,70.499993034554
181,334,160595,5,0,0:0:0:0:
214,343,160681,1,0,0:0:0:0:
248,352,160768,1,0,0:0:0:0:
282,361,160853,1,0,0:0:0:0:
316,370,160940,2,0,L|366:383,1,49.9999976158143
507,310,161112,5,0,0:0:0:0:
345,221,161285,2,0,B|327:207|327:207|321:183|295:171,1,70.499993034554
195,107,161457,1,0,0:0:0:0:
160,101,161543,1,0,0:0:0:0:
124,94,161630,1,0,0:0:0:0:
89,88,161715,1,0,0:0:0:0:
53,82,161802,2,0,L|4:74,1,49.9999976158143
3,73,162147,2,0,B|-1:132|42:163|42:163,1,99.9999952316285
144,291,162319,2,0,P|136:325|136:325,2,33.3333317438762
220,268,162492,6,0,P|267:249|267:249,1,49.9999976158143
427,237,162664,1,0,0:0:0:0:
441,68,162836,2,0,B|461:46|461:46|478:35|487:15|487:15,1,70.499993034554
363,42,163009,6,0,P|353:91|353:91,1,49.9999976158143
277,152,163181,1,0,0:0:0:0:
335,315,163354,2,0,P|343:364|343:364,1,49.9999976158143
446,205,163526,2,0,B|455:181|455:181|471:166|473:140|473:140,1,70.499993034554
339,176,163699,2,0,P|325:223|325:223,1,49.9999976158143
277,324,163871,2,0,P|263:372|263:372,1,49.9999976158143
159,273,164043,5,0,0:0:0:0:
135,282,164130,1,0,0:0:0:0:
111,291,164216,1,0,0:0:0:0:
87,300,164302,1,0,0:0:0:0:
63,309,164388,2,0,P|16:325|16:325,1,49.9999976158143
20,208,164561,2,0,B|19:149|71:130|71:130,1,99.9999952316285
71,129,164733,2,0,P|83:106|83:106,3,24.9999988079071
245,42,164905,6,0,P|254:91|254:91,1,49.9999976158143
314,214,165078,1,0,0:0:0:0:
426,97,165250,2,0,B|437:72|437:72|441:46|457:30|457:30,1,70.499993034554
506,125,165423,5,0,0:0:0:0:
495,158,165509,1,0,0:0:0:0:
484,191,165595,1,0,0:0:0:0:
473,224,165681,1,0,0:0:0:0:
462,257,165768,2,0,P|448:306|448:306,1,49.9999976158143
409,321,165940,1,0,0:0:0:0:
392,339,166026,1,0,0:0:0:0:
291,309,166112,6,0,B|266:316|266:316|246:326|223:325|223:325,1,70.499993034554
197,327,166285,1,0,0:0:0:0:
197,327,166630,1,0,0:0:0:0:
197,327,166974,2,0,B|138:313|121:265|121:265,1,99.9999952316285
33,187,167147,2,0,P|-1:185|-1:185,2,33.3333317438762
76,116,167319,6,0,P|126:108|126:108,1,49.9999976158143
255,168,167492,1,0,0:0:0:0:
375,45,167664,2,0,B|399:37|399:37|423:36|443:26|443:26,1,70.499993034554
446,117,167836,5,0,0:0:0:0:
413,132,167923,1,0,0:0:0:0:
380,147,168009,1,0,0:0:0:0:
347,162,168095,1,0,0:0:0:0:
314,177,168181,2,0,P|268:197|268:197,1,49.9999976158143
245,208,168526,2,0,B|219:217|219:217|203:230|179:233|179:233,1,70.499993034554
80,332,168699,2,0,P|68:382|68:382,1,49.9999976158143
251,369,168871,5,0,0:0:0:0:
275,366,168957,1,0,0:0:0:0:
299,363,169043,1,0,0:0:0:0:
323,360,169130,1,0,0:0:0:0:
347,357,169216,1,0,0:0:0:0:
443,245,169388,2,0,B|465:241|465:241|489:242|512:234|512:234,1,70.499993034554
371,106,169561,2,0,P|382:73|382:73,2,33.3333317438762
290,116,169733,6,0,P|277:165|277:165,1,49.9999976158143
181,261,169905,1,0,0:0:0:0:
87,349,170078,2,0,B|69:360|69:360|51:381|26:385|26:385,1,70.499993034554
79,182,170250,2,0,P|69:132|69:132,1,49.9999976158143
240,323,170423,2,0,B|260:328|260:328|284:341|310:339|310:339,1,70.499993034554
407,335,170595,2,0,P|451:355|451:355,2,46.9999953563693
416,205,170768,1,0,0:0:0:0:
420,170,170854,1,0,0:0:0:0:
424,135,170940,1,0,0:0:0:0:
424,135,171285,2,0,P|473:134|473:134,1,49.9999976158143
428,100,171630,2,0,P|406:55|406:55,1,49.9999976158143
301,59,171802,2,0,B|255:40|203:41|203:41,1,99.9999952316285
89,50,171974,2,0,P|55:38|55:38,2,33.3333317438762
106,125,172147,6,0,B|114:155|124:170|124:170,1,49.9999976158143
222,231,172319,1,0,0:0:0:0:
222,255,172405,1,0,0:0:0:0:
222,279,172492,1,0,0:0:0:0:
127,361,172664,2,0,P|177:365|177:365,1,49.9999976158143
295,372,172836,2,0,P|345:376|345:376,1,49.9999976158143
457,314,173009,1,0,0:0:0:0:
458,289,173095,1,0,0:0:0:0:
459,264,173181,2,0,P|460:214|460:214,1,49.9999976158143
483,99,173354,1,0,0:0:0:0:
482,123,173440,1,0,0:0:0:0:
481,147,173526,2,0,B|456:172|423:179|423:179,1,70.499993034554
284,171,173871,2,0,B|249:157|231:132|231:132|216:111|198:111|198:111|181:112|173:123|173:123|167:132|171:143|171:143|175:152|186:152|186:152,1,174.99999165535
217,156,174561,6,0,P|215:235|215:235,1,79.9999961853028
211,369,174733,1,0,0:0:0:0:
256,192,300078,6,0,B|246:165|242:154|237:148|237:148|231:139|224:123|224:123|217:114|211:104|211:104|208:92|202:83|202:83|197:69|195:60|188:50|188:50|186:45|178:10|178:10|146:22|146:22|136:28|130:36|130:36|122:48|121:54|121:54|116:79|116:79|132:124|151:147|151:147|166:191|166:191|178:219|189:231|189:231|200:249|202:258|202:258|180:263|176:270|176:270|163:273|163:273|153:273|138:268|138:268|109:256|109:256|106:288|112:319|112:319|123:326|134:342|134:342|147:348|162:358|162:358|170:360|183:358|183:358|210:351|210:351|221:343|226:333|226:333|240:337|254:337|254:337|281:332|306:330|306:330|323:336|323:336|336:326|336:326|353:318|363:303|363:303|365:287|364:275|364:275|370:269|401:210|401:210|409:202|409:202|421:195|439:188|439:188|440:177|440:177|449:167|446:156|446:156|448:147|435:120|435:120|432:103|427:94|427:94,1,1199.99994277954
256,192,304905,12,0,309388,1:1:0:0:
255,192,309733,6,0,B|268:171|268:171|274:155|274:145|274:145|282:131|296:127|296:127|309:124|319:112|319:112|342:114|342:114|361:126|363:132|363:132|365:140|371:146|371:146|379:162|380:168|380:168|375:177|375:177|364:190|353:202|353:202|348:211|344:213|344:213|337:224|320:248|320:248|338:261|348:268|348:268|360:273|373:278|373:278|385:275|395:273|404:268|404:268|422:268|436:260|450:260|450:260|467:268|473:275|481:282|481:282|482:293|487:302|487:302|475:309|472:313|472:313|460:315|455:322|455:322|441:326|436:328|436:328|430:330|418:338|418:338|408:340|398:346|398:346|382:345|372:342|372:342|355:341|343:338|343:338|331:338|320:336|320:336|312:336|312:336|306:333|299:329|299:329|295:324|286:318|286:318|281:308|273:299|273:299|265:295|261:291|261:291|251:287|247:282|247:282|234:278|221:279|221:279|223:298|218:308|218:308|218:317|215:328|213:333|213:333|206:338|176:358|176:358|151:344|151:344|127:335|126:313|124:305|124:305|123:293|123:283|123:283|126:271|129:266|131:258|131:258|141:252|147:248|153:245|153:245|160:240|168:232|168:232|171:232|179:207|179:207|174:200|174:200|166:179|157:169|157:169|151:160|141:155|141:155|139:142|122:127|122:127,1,1199.99994277954
256,192,314561,12,0,319044,0:0:0:0:
256,192,319388,12,0,323526,0:0:0:0:
256,192,324216,12,0,328354,0:0:0:0:
256,192,329043,12,0,333181,0:0:0:0:
256,192,333871,12,0,338009,0:0:0:0:
