osu file format v14

[General]
AudioFilename: audio.mp3
AudioLeadIn: 0
PreviewTime: -1
Countdown: 1
SampleSet: Soft
StackLeniency: 0.7
Mode: 2
LetterboxInBreaks: 0
WidescreenStoryboard: 0

[Editor]
Bookmarks: 73865
DistanceSpacing: 0.7
BeatDivisor: 8
GridSize: 16
TimelineZoom: 5.099997

[Metadata]
Title:She Runs
TitleUnicode:She Runs
Artist:Venetian Snares
ArtistUnicode:Venetian Snares
Creator:Enchant
Version:Escape.
Source:
Tags:planet mu breakcore aaron funk my love is a bulldozer
BeatmapID:1389495
BeatmapSetID:655706

[Difficulty]
HPDrainRate:7
CircleSize:4.2
OverallDifficulty:9.6
ApproachRate:9.6
SliderMultiplier:1.7
SliderTickRate:1

[Events]
//Background and Video events
0,0,"23123.jpg",0,0
//Break Periods
2,84611,134494
//Storyboard Layer 0 (Background)
//Storyboard Layer 1 (Fail)
//Storyboard Layer 2 (Pass)
//Storyboard Layer 3 (Foreground)
//Storyboard Sound Samples

[TimingPoints]
60004,267.857142857143,7,2,0,60,1,0
61945,-100,7,2,0,20,0,0
62012,-100,7,2,0,40,0,0
62079,-100,7,2,0,60,0,0
65695,-100,7,2,0,20,0,0
65762,-100,7,2,0,40,0,0
65829,-100,7,2,0,60,0,0
66566,-100,7,2,0,55,0,0
66700,-100,7,2,0,50,0,0
66834,-100,7,2,0,45,0,0
66968,-100,7,2,0,30,0,0
67503,-100,7,2,0,60,0,0
69445,-100,7,2,0,20,0,0
69512,-100,7,2,0,40,0,0
69579,-100,7,2,0,60,0,0
69981,-100,7,2,0,20,0,0
70048,-100,7,2,0,40,0,0
70115,-100,7,2,0,60,0,0
76912,-100,7,2,0,10,0,0
77012,-100,7,2,0,20,0,0
77079,-100,7,2,0,35,0,0
77146,-100,7,2,0,60,0,0
82303,-100,7,2,0,50,0,0
82370,-100,7,2,0,40,0,0
82437,-100,7,2,0,30,0,0
82503,-100,7,2,0,60,0,0
84245,-100,7,2,0,30,0,0
84378,-100,7,2,0,60,0,0
88062,-100,7,2,0,30,0,0
88128,-100,7,2,0,60,0,0
89769,-100,7,2,0,20,0,0
89870,-100,7,2,0,40,0,0
89937,-100,7,2,0,60,0,0
95495,-100,7,2,0,30,0,0
95628,-100,7,2,0,60,0,0
95762,-100,7,2,0,25,0,0
95896,-100,7,2,0,60,0,0
99144,-100,7,2,0,30,0,0
99378,-100,7,2,0,60,0,0
99412,-100,7,2,0,40,0,0
99512,-100,7,2,0,50,0,0
99646,-100,7,2,0,60,0,0
102928,-100,7,2,0,80,0,0
103128,-100,7,2,0,60,0,0
106912,-100,7,2,0,50,0,0
107146,-100,7,2,0,60,0,0
112236,-100,7,2,0,45,0,0
112503,-133.333333333333,7,2,0,60,0,0
113039,-100,7,2,0,60,0,0
115316,-100,7,2,0,50,0,0
115450,-100,7,2,0,45,0,0
115584,-100,7,2,0,40,0,0
115718,-100,7,2,0,60,0,0
116722,-100,7,2,0,30,0,0
116789,-100,7,2,0,60,0,0
119736,-100,7,2,0,45,0,0
120003,-100,7,2,0,60,0,0
120305,-100,7,2,0,30,0,0
120405,-100,7,2,0,45,0,0
120539,-100,7,2,0,60,0,0
122347,-100,7,2,0,30,0,0
122414,-100,7,2,0,60,0,0
124222,-100,7,2,0,30,0,0
124289,-100,7,2,0,60,0,0
124892,-100,7,2,0,40,0,0
124959,-100,7,2,0,45,0,0
125026,-100,7,2,0,40,0,0
125093,-100,7,2,0,60,0,0
127102,-100,7,2,0,50,0,0
127236,-100,7,2,0,45,0,0
127303,-100,7,2,0,40,0,0
127503,-100,7,2,0,60,0,0
127637,-100,7,2,0,20,0,0
127771,-100,7,2,0,60,0,0
129847,-100,7,2,0,30,0,0
129914,-100,7,2,0,60,0,0
131320,-100,7,2,0,50,0,0
131387,-100,7,2,0,40,0,0
131454,-100,7,2,0,30,0,0
131789,-100,7,2,0,60,0,0
133128,-100,7,1,0,50,0,0
135003,-100,7,2,0,70,0,0
136276,-100,7,2,0,40,0,0
136343,-100,7,2,0,70,0,0
155495,-100,7,2,0,50,0,0
155628,-100,7,2,0,70,0,0
156733,-100,7,2,0,30,0,0
156834,-100,7,2,0,50,0,0
156968,-100,7,2,0,70,0,0
158776,-100,7,2,0,40,0,0
158843,-100,7,2,0,70,0,0
160651,-100,7,2,0,40,0,0
160718,-100,7,2,0,70,0,0
165003,-133.333333333333,7,2,0,60,0,0
165137,-133.333333333333,7,2,0,40,0,0
165405,-133.333333333333,7,2,0,20,0,0
165539,-133.333333333333,7,2,0,60,0,0
167280,-133.333333333333,7,2,0,40,0,0
167548,-133.333333333333,7,2,0,20,0,0
167682,-133.333333333333,7,2,0,60,0,0
168887,-133.333333333333,7,2,0,40,0,0
169155,-133.333333333333,7,2,0,20,0,0
169289,-133.333333333333,7,2,0,60,0,0
171030,-133.333333333333,7,2,0,40,0,0
171298,-133.333333333333,7,2,0,20,0,0
171432,-133.333333333333,7,2,0,60,0,0
172637,-133.333333333333,7,2,0,40,0,0
172905,-133.333333333333,7,2,0,20,0,0
173039,-133.333333333333,7,2,0,60,0,0
174780,-133.333333333333,7,2,0,40,0,0
175048,-133.333333333333,7,2,0,20,0,0
175182,-133.333333333333,7,2,0,60,0,0
176387,-133.333333333333,7,2,0,40,0,0
176655,-133.333333333333,7,2,0,20,0,0
176789,-133.333333333333,7,2,0,60,0,0
178530,-133.333333333333,7,2,0,40,0,0
178932,-133.333333333333,7,2,0,60,0,0
180003,-100,7,2,0,80,0,0
181912,-100,7,2,0,40,0,0
182146,-100,7,2,0,80,0,0
182682,-100,7,2,0,60,0,0
183218,-100,7,2,0,80,0,0
185227,-100,7,2,0,60,0,0
185628,-100,7,2,0,80,0,0
187236,-100,7,2,0,60,0,0
187503,-100,7,2,0,80,0,0
192861,-100,7,2,0,65,0,0
192995,-100,7,2,0,50,0,0
193128,-100,7,2,0,80,0,0
194870,-100,7,2,0,50,0,0
195003,-133.333333333333,7,2,0,60,0,0
202503,-100,7,2,0,60,0,0
205483,-100,7,2,0,30,0,0
205584,-100,7,2,0,50,0,0
205718,-100,7,2,0,60,0,0
207325,-100,7,2,0,40,0,0
207593,-100,7,2,0,60,0,0
208865,-100,7,2,0,40,0,0
208932,-100,7,2,0,60,0,0
212146,-83.3333333333333,7,2,0,60,0,0
212950,-100,7,2,0,60,0,0
212983,-100,7,2,0,40,0,0
213084,-100,7,2,0,50,0,0
213218,-83.3333333333333,7,2,0,60,0,0
213486,-100,7,2,0,60,0,0
217303,-100,7,2,0,51,0,0
217370,-100,7,2,0,42,0,0
217437,-100,7,2,0,33,0,0
217504,267.857142857143,11,2,0,60,1,0
220082,-100,11,2,0,40,0,0
220182,-100,11,2,0,50,0,0
220316,-100,11,2,0,60,0,0
220450,267.857142857143,10,2,0,60,1,0
221923,-100,10,2,0,80,0,0
222057,-100,10,2,0,60,0,0
223128,267.857142857143,7,2,0,60,1,0
227982,-100,7,2,0,40,0,0
228083,-100,7,2,0,50,0,0
228217,-100,7,2,0,60,0,0
228753,267.857142857143,8,2,0,60,1,0
230661,-100,8,2,0,50,0,0
230895,267.857142857143,6,2,0,60,1,0
232504,267.857142857143,5,2,0,60,1,0
237626,-100,5,2,0,35,0,0
237861,-100,5,2,0,60,0,0
241644,-100,5,2,0,40,0,0
241879,-100,5,2,0,60,0,0
247771,-100,5,2,0,40,0,0
247838,-100,5,2,0,50,0,0
247905,-100,5,2,0,60,0,0
249111,-100,5,2,0,40,0,0
249178,-100,5,2,0,60,0,0
253932,267.857142857143,7,2,0,60,1,0
258418,-100,7,2,0,40,0,0
258485,-100,7,2,0,60,0,0
260159,-100,7,2,0,45,0,0
260293,-100,7,2,0,60,0,0
260762,-200,7,2,0,80,0,0
261030,-200,7,2,0,5,0,0
261164,-100,7,2,0,80,0,0
261231,-100,7,2,0,40,0,0
261365,-100,7,2,0,30,0,0
261432,-100,7,2,0,50,0,0
265382,-100,7,2,0,40,0,0
265717,-100,7,2,0,50,0,0
268128,-142.857142857143,7,2,0,60,0,0
268262,-142.857142857143,7,2,0,50,0,0
268396,-142.857142857143,7,2,0,40,0,0
268530,-142.857142857143,7,2,0,30,0,0
268798,-142.857142857143,7,2,0,20,0,0
268932,-200,7,2,0,5,0,0
270070,-200,7,2,0,20,0,0
270673,-200,7,2,0,5,0,0
271945,-200,7,2,0,20,0,0
272548,-200,7,2,0,5,0,0
272682,267.857142857143,19,2,0,5,1,0
277770,267.857142857143,7,2,0,5,1,0
278908,-200,7,2,0,20,0,0
279008,-200,7,2,0,5,0,0
280783,-200,7,2,0,20,0,0
281386,-200,7,2,0,5,0,0
281520,267.857142857143,5,2,0,5,1,0
282859,267.857142857143,7,2,0,20,1,0
282859,-200,7,2,0,20,0,0
283729,-200,7,2,0,5,0,0
286609,267.857142857143,11,2,0,60,1,0
289354,-100,11,2,0,40,0,0
289421,-100,11,2,0,60,0,0
289555,267.857142857143,10,2,0,60,1,0
291028,-100,10,2,0,70,0,0
291095,-100,10,2,0,60,0,0
291898,-100,10,2,0,30,0,0
291965,-100,10,2,0,60,0,0
292166,-100,10,2,0,30,0,0
292233,267.857142857143,7,2,0,60,1,0
297087,-100,7,2,0,40,0,0
297188,-100,7,2,0,50,0,0
297322,-100,7,2,0,60,0,0
297858,267.857142857143,8,2,0,60,1,0
300000,267.857142857143,6,2,0,60,1,0
303081,267.857142857143,4,2,0,60,1,0
304018,-100,4,2,0,70,0,0
304152,267.857142857143,6,2,0,60,1,0
307299,-100,6,2,0,40,0,0
307366,267.857142857143,7,2,0,60,1,0
310345,-100,7,2,0,40,0,0
310446,-100,7,2,0,50,0,0
310580,-100,7,2,0,60,0,0
310714,267.857142857143,7,2,0,60,1,0
312254,-100,7,2,0,40,0,0
312321,-100,7,2,0,60,0,0
312589,267.857142857143,6,2,0,60,1,0
315669,267.857142857143,6,2,0,60,1,0
317209,-100,6,2,0,40,0,0
317276,-100,6,2,0,60,0,0
321963,267.857142857143,6,2,0,60,1,0
323503,-100,6,2,0,40,0,0
323570,-100,6,2,0,60,0,0
325177,267.857142857143,4,2,0,60,1,0
326248,267.857142857143,5,2,0,60,1,0
327587,267.857142857143,4,2,0,60,1,0
328658,267.857142857143,5,2,0,60,1,0
329996,267.857142857143,4,2,0,60,1,0
335219,267.857142857143,7,2,0,60,1,0
339504,-100,7,2,0,70,0,0
339638,-100,7,2,0,60,0,0
342585,-100,7,2,0,50,0,0
342719,-100,7,2,0,60,0,0
350352,-100,7,2,0,5,0,0

[HitObjects]
128,192,60003,5,0,0:0:0:0:
128,192,60807,1,0,0:0:0:0:
224,192,61075,2,0,L|320:192,2,85
128,192,61611,1,0,0:0:0:0:
32,128,61945,2,0,L|64:128,6,21.25
320,128,62682,1,0,0:0:0:0:
352,128,63753,1,0,0:0:0:0:
96,192,64557,5,0,0:0:0:0:
32,128,64691,1,0,0:0:0:0:
96,64,64825,1,0,0:0:0:0:
256,128,65093,1,0,0:0:0:0:
160,128,65361,1,0,0:0:0:0:
288,128,65695,2,0,L|320:128,6,21.25
160,256,66432,5,0,0:0:0:0:
256,256,66566,1,0,0:0:0:0:
286,226,66632,1,0,0:0:0:0:
300,187,66699,1,0,0:0:0:0:
296,145,66766,1,0,0:0:0:0:
273,109,66833,1,0,0:0:0:0:
224,192,66901,2,0,L|192:160,1,42.5
224,128,67035,2,0,L|256:96,1,42.5
224,192,67169,1,0,0:0:0:0:
193,162,67235,1,0,0:0:0:0:
179,123,67302,1,0,0:0:0:0:
184,81,67369,1,0,0:0:0:0:
320,64,67503,1,0,0:0:0:0:
256,192,67771,12,0,68910,0:0:0:0:
256,192,69077,5,0,0:0:0:0:
192,192,69445,2,0,L|224:192,6,21.25
320,192,69914,2,0,L|352:192,6,21.25
160,192,70182,1,0,0:0:0:0:
256,192,70450,12,0,71120,0:0:0:0:
0,352,71253,6,0,L|64:192,1,170
128,256,71789,2,0,L|128:198,1,42.5
192,192,71923,2,0,L|192:134,1,42.5
256,128,72057,2,0,L|256:70,1,42.5
320,64,72191,2,0,L|320:6,1,42.5
256,224,72325,5,0,0:0:0:0:
230,190,72391,1,0,0:0:0:0:
224,149,72458,1,0,0:0:0:0:
241,110,72525,1,0,0:0:0:0:
320,256,72593,5,0,0:0:0:0:
340,251,72626,1,0,0:0:0:0:
358,240,72659,1,0,0:0:0:0:
372,224,72693,1,0,0:0:0:0:
381,205,72726,1,0,0:0:0:0:
384,184,72760,1,0,0:0:0:0:
380,163,72793,1,0,0:0:0:0:
370,144,72827,1,0,0:0:0:0:
354,130,72860,1,0,0:0:0:0:
160,128,72995,1,0,0:0:0:0:
352,128,73128,5,0,0:0:0:0:
224,160,73262,1,0,0:0:0:0:
204,152,73295,1,0,0:0:0:0:
192,135,73328,1,0,0:0:0:0:
195,114,73362,1,0,0:0:0:0:
209,99,73395,1,0,0:0:0:0:
416,64,73463,1,0,0:0:0:0:
256,64,73530,1,0,0:0:0:0:
224,64,73597,1,0,0:0:0:0:
384,160,73664,1,0,0:0:0:0:
512,160,73731,1,0,0:0:0:0:
352,160,73798,1,0,0:0:0:0:
320,160,73865,1,0,0:0:0:0:
512,192,73899,2,0,L|512:160,1,21.25
448,96,74066,5,0,0:0:0:0:
416,64,74200,1,0,0:0:0:0:
384,32,74334,1,0,0:0:0:0:
96,160,74468,2,0,L|64:160,1,21.25
256,128,74535,1,0,0:0:0:0:
286,156,74601,1,0,0:0:0:0:
295,197,74668,1,0,0:0:0:0:
279,236,74735,1,0,0:0:0:0:
224,256,74803,2,0,L|172:256,2,42.5
352,256,75003,1,0,0:0:0:0:
64,160,75807,1,0,0:0:0:0:
96,224,76209,6,0,L|192:224,2,85
384,96,76611,2,0,L|384:64,1,21.25
216,224,76878,5,0,0:0:0:0:
195,217,76911,1,0,0:0:0:0:
178,205,76944,1,0,0:0:0:0:
164,189,76978,1,0,0:0:0:0:
154,170,77011,1,0,0:0:0:0:
150,149,77045,1,0,0:0:0:0:
151,128,77078,1,0,0:0:0:0:
158,108,77112,1,0,0:0:0:0:
184,96,77146,2,0,L|232:96,2,42.5
352,224,77682,6,0,L|320:192,1,42.5
384,160,77816,2,0,L|416:128,1,42.5
352,96,77950,2,0,L|320:64,1,42.5
448,32,78084,2,0,L|480:0,1,42.5
96,256,78218,2,0,P|64:160|96:96,1,170
320,256,78753,5,0,0:0:0:0:
358,240,78819,1,0,0:0:0:0:
381,205,78886,1,0,0:0:0:0:
380,163,78953,1,0,0:0:0:0:
352,128,79021,1,0,0:0:0:0:
331,123,79055,1,0,0:0:0:0:
313,112,79088,1,0,0:0:0:0:
299,96,79122,1,0,0:0:0:0:
290,77,79155,1,0,0:0:0:0:
287,56,79189,1,0,0:0:0:0:
291,35,79222,1,0,0:0:0:0:
301,16,79256,1,0,0:0:0:0:
317,2,79289,1,0,0:0:0:0:
64,32,79423,1,0,0:0:0:0:
192,32,79557,6,0,L|320:32,1,127.5
384,32,79825,2,0,L|416:160,1,127.5
352,160,80093,2,0,L|224:96,1,127.5
32,128,80361,2,0,L|32:256,1,127.5
128,256,80628,1,0,0:0:0:0:
320,256,80762,1,0,0:0:0:0:
32,256,80896,1,0,0:0:0:0:
160,192,81432,2,0,L|192:192,1,21.25
320,192,81566,2,0,L|352:192,1,21.25
480,192,81700,2,0,L|512:192,1,21.25
128,160,81834,2,0,L|96:160,1,21.25
416,96,81968,2,0,L|416:64,1,21.25
320,64,82236,1,0,0:0:0:0:
160,64,82303,2,0,L|192:64,4,21.25
96,288,82503,2,0,P|64:224|96:128,1,170
224,192,83307,2,0,L|320:192,2,85
160,192,83709,1,0,0:0:0:0:
96,288,83843,2,0,P|64:192|96:160,1,148.75
224,192,84111,2,0,L|256:64,1,127.5
64,96,84378,2,0,L|64:64,1,21.25
128,288,135003,5,0,0:0:0:0:
166,272,135069,1,0,0:0:0:0:
189,237,135136,1,0,0:0:0:0:
188,195,135203,1,0,0:0:0:0:
162,162,135270,1,0,0:0:0:0:
32,128,135405,2,0,L|88:128,1,42.5
136,128,135539,2,0,L|188:128,2,42.5
32,32,135807,2,0,L|0:32,1,21.25
192,32,135941,2,0,L|224:32,1,21.25
384,32,136075,2,0,B|416:64|416:64|384:96|384:96|416:128|416:128|384:160,1,170
256,224,136477,5,0,0:0:0:0:
232,189,136543,1,0,0:0:0:0:
288,128,136611,2,0,L|320:96,1,42.5
256,64,136745,2,0,L|224:32,1,42.5
288,32,136878,2,0,L|384:32,2,85
128,192,137280,2,0,L|96:160,1,42.5
160,96,137414,2,0,L|192:64,1,42.5
64,64,137548,1,0,0:0:0:0:
33,92,137614,1,0,0:0:0:0:
64,160,137682,2,0,L|96:192,1,42.5
64,288,137816,1,0,0:0:0:0:
32,320,137950,1,0,0:0:0:0:
96,320,138084,1,0,0:0:0:0:
134,304,138150,1,0,0:0:0:0:
157,269,138217,1,0,0:0:0:0:
156,227,138284,1,0,0:0:0:0:
130,194,138351,1,0,0:0:0:0:
64,160,138419,2,0,L|52:112,1,42.5
116,72,138553,2,0,L|124:24,1,42.5
40,48,138687,2,0,L|32:-4,1,42.5
256,288,138820,2,0,L|272:240,1,42.5
208,224,139021,2,0,L|176:176,1,42.5
240,160,139155,2,0,L|272:112,1,42.5
208,96,139289,2,0,L|176:48,1,42.5
320,64,139423,1,0,0:0:0:0:
357,82,139489,1,0,0:0:0:0:
381,117,139556,1,0,0:0:0:0:
383,159,139623,1,0,0:0:0:0:
364,196,139690,1,0,0:0:0:0:
416,192,139758,1,0,0:0:0:0:
480,192,139825,1,0,0:0:0:0:
475,240,139893,1,0,0:0:0:0:
441,266,139959,1,0,0:0:0:0:
408,293,140026,1,0,0:0:0:0:
363,304,140094,1,0,0:0:0:0:
322,291,140160,1,0,0:0:0:0:
292,261,140227,1,0,0:0:0:0:
279,221,140294,1,0,0:0:0:0:
286,180,140361,1,0,0:0:0:0:
311,146,140428,1,0,0:0:0:0:
336,128,140495,2,0,L|384:112,1,42.5
496,48,140628,2,0,L|448:48,1,42.5
400,48,140762,2,0,L|352:48,1,42.5
304,48,140896,1,0,0:0:0:0:
368,80,140963,1,0,0:0:0:0:
398,109,141029,1,0,0:0:0:0:
410,149,141096,1,0,0:0:0:0:
400,190,141163,1,0,0:0:0:0:
372,221,141230,1,0,0:0:0:0:
288,160,141298,2,0,L|272:112,1,42.5
352,64,141432,2,0,L|368:16,1,42.5
224,48,141566,2,0,L|176:48,1,42.5
416,48,141700,1,0,0:0:0:0:
224,256,141834,2,0,L|208:208,1,42.5
384,160,141968,2,0,L|368:112,1,42.5
224,256,142102,2,0,L|208:208,1,42.5
352,160,142236,2,0,L|336:112,1,42.5
192,144,142370,1,0,0:0:0:0:
176,128,142403,1,0,0:0:0:0:
160,112,142437,1,0,0:0:0:0:
448,64,142503,1,0,0:0:0:0:
256,64,142637,1,0,0:0:0:0:
448,80,142771,2,0,L|464:64,1,21.25
240,64,142905,1,0,0:0:0:0:
176,128,142972,1,0,0:0:0:0:
240,192,143039,1,0,0:0:0:0:
336,192,143106,1,0,0:0:0:0:
400,256,143173,1,0,0:0:0:0:
336,320,143240,1,0,0:0:0:0:
112,336,143307,2,0,L|96:304,1,21.25
368,320,143441,2,0,L|384:272,1,42.5
464,256,143575,2,0,L|480:208,1,42.5
336,176,143709,1,0,0:0:0:0:
296,161,143775,1,0,0:0:0:0:
274,126,143842,1,0,0:0:0:0:
277,85,143909,1,0,0:0:0:0:
305,54,143976,1,0,0:0:0:0:
400,48,144111,1,0,0:0:0:0:
357,48,144177,1,0,0:0:0:0:
315,48,144244,1,0,0:0:0:0:
272,48,144311,1,0,0:0:0:0:
230,48,144378,1,0,0:0:0:0:
96,80,144646,2,0,L|80:48,1,21.25
192,80,144780,2,0,L|240:80,2,42.5
128,128,144981,2,0,L|112:176,1,42.5
48,224,145115,1,0,0:0:0:0:
112,288,145182,1,0,0:0:0:0:
133,288,145215,1,0,0:0:0:0:
154,288,145248,1,0,0:0:0:0:
175,288,145282,1,0,0:0:0:0:
197,288,145315,1,0,0:0:0:0:
