osu file format v14

[General]
AudioFilename: audio.mp3
AudioLeadIn: 0
PreviewTime: 326138
Countdown: 0
SampleSet: Normal
StackLeniency: 0.7
Mode: 1
LetterboxInBreaks: 0
WidescreenStoryboard: 0

[Editor]
Bookmarks: 84818,109524,141289,196348,197760,217520,246461,246638,258108,258461,314227
DistanceSpacing: 0.7
BeatDivisor: 4
GridSize: 8
TimelineZoom: 2.599999

[Metadata]
Title:My So-Called Life
TitleUnicode:My So-Called Life
Artist:Venetian Snares
ArtistUnicode:Venetian Snares
Creator:Raiden
Version:Oniric
Source:
Tags:electronic idm analog breakcore jungle Winnipeg
BeatmapID:1323768
BeatmapSetID:627934

[Difficulty]
HPDrainRate:4
CircleSize:2
OverallDifficulty:6
ApproachRate:10
SliderMultiplier:1.4
SliderTickRate:1

[Events]
//Background and Video events
0,0,"spooki.jpg",0,0
//Break Periods
//Storyboard Layer 0 (Background)
//Storyboard Layer 1 (Fail)
//Storyboard Layer 2 (Pass)
//Storyboard Layer 3 (Foreground)
//Storyboard Sound Samples

[TimingPoints]
113,352.941176470588,4,1,0,35,1,0
113,-125,4,1,0,35,0,0
81995,-125,4,1,0,15,0,0
110142,-125,4,1,0,15,0,0
113054,-125,4,1,0,35,0,0
141289,-111.111111111111,4,1,0,35,0,0
169171,-108.695652173913,4,1,0,35,0,0
169260,-106.382978723404,4,1,0,50,0,0
169348,-104.166666666667,4,1,0,60,0,0
169436,-102.040816326531,4,1,0,70,0,0
169524,-100,4,1,0,85,0,0
196348,-100,4,1,0,85,0,0
196436,-98.0392156862745,4,1,0,85,0,0
196524,-96.1538461538461,4,1,0,85,0,0
196612,-94.3396226415094,4,1,0,85,0,0
196701,-92.5925925925926,4,1,0,85,0,0
196789,-90.9090909090909,4,1,0,85,0,0
196877,-89.2857142857143,4,1,0,85,0,0
196965,-87.719298245614,4,1,0,85,0,0
197054,-86.2068965517241,4,1,0,85,0,0
197142,-87.719298245614,4,1,0,85,0,0
197230,-89.2857142857143,4,1,0,85,0,0
197318,-90.9090909090909,4,1,0,85,0,0
197407,-92.5925925925926,4,1,0,85,0,0
197495,-94.3396226415094,4,1,0,85,0,0
197583,-96.1538461538461,4,1,0,85,0,0
197671,-98.0392156862745,4,1,0,85,0,0
197760,352.941176470588,3,1,0,85,1,0
197760,-100,3,1,0,85,0,0
199877,352.941176470588,4,1,0,85,1,0
202700,352.941176470588,3,1,0,85,1,0
204817,352.941176470588,4,1,0,85,1,0
207640,352.941176470588,3,1,0,85,1,0
209757,352.941176470588,4,1,0,85,1,0
212580,352.941176470588,3,1,0,85,1,0
214697,352.941176470588,4,1,0,85,1,0
222285,-100,3,1,0,40,0,0
223520,-100,3,1,0,85,0,0
270196,-100,3,1,0,75,0,0
270549,-100,3,1,0,65,0,0
270902,-100,3,1,0,55,0,0
271255,-100,3,1,0,45,0,0
271608,-100,3,1,0,35,0,0
271873,-100,3,1,0,25,0,0
273995,352.941176470588,4,1,0,75,1,0
277524,352.941176470588,6,1,0,75,1,0
279640,352.941176470588,4,1,0,75,1,0
281051,352.941176470588,10,1,0,75,1,0
284583,352.941176470588,4,1,0,75,1,0
288111,352.941176470588,10,1,0,75,1,0
289522,352.941176470588,6,1,0,75,1,0
293051,352.941176470588,6,1,0,75,1,0
296580,352.941176470588,6,1,0,75,1,0
300110,352.941176470588,6,1,0,75,1,0
303639,352.941176470588,6,1,0,85,1,0
307168,352.941176470588,6,1,0,85,1,0
310697,352.941176470588,6,1,0,85,1,0
314226,352.941176470588,6,1,0,85,1,0
316345,352.941176470588,7,1,0,90,1,0
326227,352.941176470588,4,1,0,100,1,1
326227,-90.9090909090909,4,1,0,100,0,1
354462,-90.9090909090909,4,1,0,100,0,0
355873,-125,4,1,0,35,0,0
379873,375,4,1,0,35,1,8
379873,-125,4,1,0,35,0,0
379929,375,4,1,0,35,1,0
379929,-125,4,1,0,35,0,0
380679,400,4,1,0,35,1,8
380679,-125,4,1,0,35,0,0
381479,410.958904109589,4,1,0,35,1,0
381479,-125,4,1,0,35,0,0

[HitObjects]
137,134,113,5,0,0:0:0:0:
342,244,465,1,8,0:0:0:0:
169,127,818,1,0,0:0:0:0:
359,255,1171,1,8,0:0:0:0:
148,125,1524,1,0,0:0:0:0:
374,249,2230,1,8,0:0:0:0:
374,267,2583,1,8,0:0:0:0:
151,135,2936,1,0,0:0:0:0:
151,135,3642,1,0,0:0:0:0:
381,296,3995,1,8,0:0:0:0:
174,132,4348,1,0,0:0:0:0:
169,116,5054,1,0,0:0:0:0:
367,265,5407,1,8,0:0:0:0:
129,101,5760,5,0,0:0:0:0:
323,296,6465,1,8,0:0:0:0:
332,250,7171,1,8,0:0:0:0:
135,111,7524,1,0,0:0:0:0:
135,111,7877,1,0,0:0:0:0:
380,278,8230,1,8,0:0:0:0:
146,108,8583,1,0,0:0:0:0:
175,122,9289,1,0,0:0:0:0:
175,122,9642,1,0,0:0:0:0:
361,242,9818,1,8,0:0:0:0:
151,108,9995,1,0,0:0:0:0:
151,108,10701,1,0,0:0:0:0:
384,248,11054,1,8,0:0:0:0:
104,96,11407,5,0,0:0:0:0:
408,256,12112,1,8,0:0:0:0:
168,120,12465,1,0,0:0:0:0:
376,256,12642,1,8,0:0:0:0:
120,80,12818,1,0,0:0:0:0:
168,98,13348,1,0,0:0:0:0:
373,234,13524,1,8,0:0:0:0:
176,76,14230,1,0,0:0:0:0:
357,240,14583,1,8,0:0:0:0:
128,91,14936,1,0,0:0:0:0:
369,264,15289,1,8,0:0:0:0:
139,94,15642,1,0,0:0:0:0:
139,94,16348,1,0,0:0:0:0:
122,72,16701,1,0,0:0:0:0:
379,275,16877,1,8,0:0:0:0:
103,67,17054,5,0,0:0:0:0:
161,75,17760,1,0,0:0:0:0:
358,257,18112,1,8,0:0:0:0:
143,110,18465,1,0,0:0:0:0:
143,110,19171,1,0,0:0:0:0:
143,110,19524,1,0,0:0:0:0:
346,276,19701,1,8,0:0:0:0:
111,89,19877,5,0,0:0:0:0:
346,212,20583,1,8,0:0:0:0:
384,274,20936,1,8,0:0:0:0:
193,129,21112,1,0,0:0:0:0:
398,287,21289,1,8,0:0:0:0:
384,274,21465,1,8,0:0:0:0:
366,250,21642,1,8,0:0:0:0:
195,125,21995,1,0,0:0:0:0:
366,250,22348,1,8,0:0:0:0:
138,91,22701,1,0,0:0:0:0:
138,91,23407,1,0,0:0:0:0:
166,112,23760,1,0,0:0:0:0:
410,297,23936,1,8,0:0:0:0:
138,101,24112,5,0,0:0:0:0:
140,84,24818,1,0,0:0:0:0:
334,249,25171,1,8,0:0:0:0:
135,104,25524,1,0,0:0:0:0:
135,104,26230,1,0,0:0:0:0:
360,280,26583,1,8,0:0:0:0:
301,248,26760,1,8,0:0:0:0:
113,92,26936,5,0,0:0:0:0:
133,100,27465,1,0,0:0:0:0:
339,240,27642,1,8,0:0:0:0:
316,248,28348,1,8,0:0:0:0:
145,107,28701,1,0,0:0:0:0:
328,242,28877,1,8,0:0:0:0:
128,92,29054,5,0,0:0:0:0:
335,252,29407,1,8,0:0:0:0:
137,83,29760,1,0,0:0:0:0:
341,273,30289,1,8,0:0:0:0:
147,133,30465,1,0,0:0:0:0:
151,100,30818,1,0,0:0:0:0:
316,235,30995,1,8,0:0:0:0:
171,72,31171,5,0,0:0:0:0:
164,93,31877,1,0,0:0:0:0:
164,93,32054,1,0,0:0:0:0:
312,234,32230,1,8,0:0:0:0:
104,66,32583,1,0,0:0:0:0:
104,66,33289,1,0,0:0:0:0:
312,232,33642,1,8,0:0:0:0:
124,95,33995,5,0,0:0:0:0:
91,100,34701,1,0,0:0:0:0:
323,246,35054,1,8,0:0:0:0:
323,246,35230,1,8,0:0:0:0:
323,246,35407,1,8,0:0:0:0:
105,117,35760,1,0,0:0:0:0:
332,233,35936,1,8,0:0:0:0:
147,118,36112,1,0,0:0:0:0:
337,247,36465,1,8,0:0:0:0:
116,122,36818,5,0,0:0:0:0:
143,120,37524,1,0,0:0:0:0:
317,228,37877,1,8,0:0:0:0:
348,267,38054,1,8,0:0:0:0:
115,113,38230,1,0,0:0:0:0:
139,121,38936,1,0,0:0:0:0:
125,137,39112,1,0,0:0:0:0:
295,253,39289,1,8,0:0:0:0:
134,105,39642,5,0,0:0:0:0:
332,250,39995,1,8,0:0:0:0:
325,237,40171,1,8,0:0:0:0:
126,74,40348,1,0,0:0:0:0:
126,74,40524,1,0,0:0:0:0:
301,242,40701,1,8,0:0:0:0:
122,101,41054,1,0,0:0:0:0:
357,239,41760,1,8,0:0:0:0:
168,97,42465,5,0,0:0:0:0:
171,111,43171,1,0,0:0:0:0:
348,234,43524,1,8,0:0:0:0:
132,99,43877,1,0,0:0:0:0:
347,265,44583,1,8,0:0:0:0:
322,222,44936,1,8,0:0:0:0:
120,99,45289,1,0,0:0:0:0:
120,99,45995,1,0,0:0:0:0:
289,211,46348,1,8,0:0:0:0:
125,84,46701,1,0,0:0:0:0:
156,102,47407,1,0,0:0:0:0:
289,208,48112,5,8,0:0:0:0:
154,89,48818,1,0,0:0:0:0:
154,89,49524,1,0,0:0:0:0:
154,89,50230,1,0,0:0:0:0:
334,243,50583,1,8,0:0:0:0:
123,93,50936,1,0,0:0:0:0:
340,249,51642,1,8,0:0:0:0:
317,268,51995,1,8,0:0:0:0:
147,125,52348,1,0,0:0:0:0:
110,111,53054,1,0,0:0:0:0:
340,280,53407,1,8,0:0:0:0:
140,130,53760,5,0,0:0:0:0:
135,89,54465,1,0,0:0:0:0:
332,234,55171,1,8,0:0:0:0:
298,210,55877,1,8,0:0:0:0:
126,103,56583,1,0,0:0:0:0:
126,103,56936,1,0,0:0:0:0:
336,231,57112,1,8,0:0:0:0:
113,63,57289,1,0,0:0:0:0:
370,226,57642,1,8,0:0:0:0:
152,85,57995,5,0,0:0:0:0:
335,247,58524,1,8,0:0:0:0:
165,93,58701,1,0,0:0:0:0:
322,240,59054,1,8,0:0:0:0:
118,95,59230,1,0,0:0:0:0:
118,95,59407,1,0,0:0:0:0:
118,95,60112,1,0,0:0:0:0:
320,246,60465,1,8,0:0:0:0:
136,98,60818,1,0,0:0:0:0:
136,98,61524,1,0,0:0:0:0:
340,235,61877,1,8,0:0:0:0:
102,92,62230,5,0,0:0:0:0:
370,293,62936,1,8,0:0:0:0:
355,265,63642,1,8,0:0:0:0:
152,103,63995,1,0,0:0:0:0:
383,264,64171,1,8,0:0:0:0:
152,103,64348,1,0,0:0:0:0:
311,214,64701,1,8,0:0:0:0:
123,88,65054,1,0,0:0:0:0:
123,88,65760,1,0,0:0:0:0:
307,236,66112,1,8,0:0:0:0:
330,253,66289,1,8,0:0:0:0:
110,100,66465,1,0,0:0:0:0:
127,119,67171,1,0,0:0:0:0:
127,119,67348,1,0,0:0:0:0:
328,235,67524,1,8,0:0:0:0:
144,122,67877,5,0,0:0:0:0:
342,237,68230,1,8,0:0:0:0:
342,237,68407,1,8,0:0:0:0:
154,122,68583,1,0,0:0:0:0:
154,122,68760,1,0,0:0:0:0:
302,237,68936,1,8,0:0:0:0:
123,109,69289,5,0,0:0:0:0:
301,239,69995,1,8,0:0:0:0:
160,120,70701,1,0,0:0:0:0:
160,120,71407,1,0,0:0:0:0:
301,237,71760,1,8,0:0:0:0:
106,113,72112,1,0,0:0:0:0:
324,253,72818,1,8,0:0:0:0:
292,226,73171,1,8,0:0:0:0:
102,98,73524,1,0,0:0:0:0:
155,103,74230,1,0,0:0:0:0:
340,250,74583,1,8,0:0:0:0:
121,113,74936,1,0,0:0:0:0:
121,113,75642,5,0,0:0:0:0:
346,246,76348,1,8,0:0:0:0:
157,122,77054,1,0,0:0:0:0:
171,107,77760,1,0,0:0:0:0:
171,107,78465,1,0,0:0:0:0:
304,200,78818,1,8,0:0:0:0:
85,84,79171,1,0,0:0:0:0:
324,213,79877,1,8,0:0:0:0:
312,200,80230,1,8,0:0:0:0:
77,74,80583,1,0,0:0:0:0:
121,84,81289,1,0,0:0:0:0:
318,204,81642,1,8,0:0:0:0:
256,192,81995,12,0,84465,0:0:0:0:
123,97,84818,5,0,0:0:0:0:
352,260,84907,1,8,0:0:0:0:
182,118,84995,1,0,0:0:0:0:
182,118,85083,1,0,0:0:0:0:
297,224,85171,1,8,0:0:0:0:
185,127,85260,1,0,0:0:0:0:
341,252,85348,1,8,0:0:0:0:
142,102,85436,1,0,0:0:0:0:
341,252,85524,1,8,0:0:0:0:
301,240,86230,5,8,0:0:0:0:
165,87,86936,1,0,0:0:0:0:
177,117,87642,1,0,0:0:0:0:
179,117,87730,1,0,0:0:0:0:
371,264,87818,1,8,0:0:0:0:
163,104,87907,1,0,0:0:0:0:
364,260,87995,1,8,0:0:0:0:
167,104,88083,1,0,0:0:0:0:
166,103,88171,1,0,0:0:0:0:
380,248,88260,1,8,0:0:0:0:
157,122,88348,1,0,0:0:0:0:
147,118,89054,1,0,0:0:0:0:
164,127,89142,1,0,0:0:0:0:
372,276,89230,1,8,0:0:0:0:
372,276,89318,1,8,0:0:0:0:
193,116,89407,1,0,0:0:0:0:
391,260,89495,1,8,0:0:0:0:
177,104,89583,1,0,0:0:0:0:
176,103,89671,1,0,0:0:0:0:
332,255,89760,1,8,0:0:0:0:
145,74,90465,5,0,0:0:0:0:
395,251,91171,1,8,0:0:0:0:
123,97,91877,5,0,0:0:0:0:
352,260,91965,1,8,0:0:0:0:
182,118,92054,1,0,0:0:0:0:
182,118,92142,1,0,0:0:0:0:
297,224,92230,1,8,0:0:0:0:
185,127,92318,1,0,0:0:0:0:
341,252,92407,1,8,0:0:0:0:
341,252,92495,1,8,0:0:0:0:
142,102,92583,1,0,0:0:0:0:
171,91,93289,5,0,0:0:0:0:
299,189,93995,1,8,0:0:0:0:
177,117,94701,1,0,0:0:0:0:
179,117,94789,1,0,0:0:0:0:
371,264,94877,1,8,0:0:0:0:
163,104,94965,1,0,0:0:0:0:
364,260,95054,1,8,0:0:0:0:
167,104,95142,1,0,0:0:0:0:
337,271,95230,1,8,0:0:0:0:
380,248,95318,1,8,0:0:0:0:
157,122,95407,1,0,0:0:0:0:
256,192,96112,12,0,98583,0:0:0:0:
177,117,98936,5,0,0:0:0:0:
179,117,99024,1,0,0:0:0:0:
371,264,99112,1,8,0:0:0:0:
163,104,99201,1,0,0:0:0:0:
364,260,99289,1,8,0:0:0:0:
167,104,99377,1,0,0:0:0:0:
361,253,99465,1,8,0:0:0:0:
166,103,99554,1,0,0:0:0:0:
380,248,99642,1,8,0:0:0:0:
122,91,99995,1,0,0:0:0:0:
122,91,100348,5,0,0:0:0:0:
349,281,100436,1,8,0:0:0:0:
344,248,100524,1,0,0:0:0:0:
344,249,100612,1,8,0:0:0:0:
340,255,100701,1,8,0:0:0:0:
341,232,100789,1,8,0:0:0:0:
143,94,100877,1,0,0:0:0:0:
143,94,100965,1,0,0:0:0:0:
336,234,101054,1,8,0:0:0:0:
167,90,101760,1,0,0:0:0:0:
307,214,101848,1,8,0:0:0:0:
179,109,101936,1,0,0:0:0:0:
179,109,102024,1,0,0:0:0:0:
343,228,102112,1,8,0:0:0:0:
169,74,102201,1,0,0:0:0:0:
365,234,102289,1,8,0:0:0:0:
365,234,102377,1,8,0:0:0:0:
178,85,102465,1,0,0:0:0:0:
188,92,103171,5,0,0:0:0:0:
135,90,103260,1,0,0:0:0:0:
365,259,103348,1,8,0:0:0:0:
152,101,103436,1,0,0:0:0:0:
326,245,103524,1,8,0:0:0:0:
324,217,103612,1,8,0:0:0:0:
149,97,103701,1,0,0:0:0:0:
122,72,103789,1,0,0:0:0:0:
338,268,103877,1,8,0:0:0:0:
117,60,104583,5,0,0:0:0:0:
286,239,104760,1,8,0:0:0:0:
286,239,104936,1,8,0:0:0:0:
145,103,105289,1,0,0:0:0:0:
305,247,105465,1,8,0:0:0:0:
76,88,105642,1,0,0:0:0:0:
123,97,105995,5,0,0:0:0:0:
352,260,106083,1,8,0:0:0:0:
182,118,106171,1,0,0:0:0:0:
182,118,106260,1,0,0:0:0:0:
297,224,106348,1,8,0:0:0:0:
185,127,106436,1,0,0:0:0:0:
341,252,106524,1,8,0:0:0:0:
142,102,106612,1,0,0:0:0:0:
341,252,106701,1,8,0:0:0:0:
341,252,107054,5,8,0:0:0:0:
138,92,107407,1,0,0:0:0:0:
305,206,107760,1,8,0:0:0:0:
138,92,108112,1,0,0:0:0:0:
294,234,108465,1,8,0:0:0:0:
117,106,108818,1,0,0:0:0:0:
288,273,108907,1,8,0:0:0:0:
88,114,108995,1,0,0:0:0:0:
88,114,109083,1,0,0:0:0:0:
324,235,109171,1,8,0:0:0:0:
324,235,109260,1,8,0:0:0:0:
117,106,109348,1,0,0:0:0:0:
117,106,109436,1,0,0:0:0:0:
334,281,109524,5,12,0:0:0:0:
256,192,110230,12,0,112701,0:0:0:0:
88,109,113054,5,0,0:0:0:0:
352,251,114465,1,8,0:0:0:0:
110,126,114818,1,0,0:0:0:0:
329,221,115877,1,8,0:0:0:0:
111,91,117289,1,0,0:0:0:0:
357,276,118701,1,8,0:0:0:0:
138,113,120112,1,0,0:0:0:0:
323,255,120465,1,8,0:0:0:0:
352,229,120554,1,8,0:0:0:0:
352,229,120642,1,8,0:0:0:0:
352,229,120730,1,8,0:0:0:0:
182,107,120818,1,0,0:0:0:0:
368,322,121524,1,8,0:0:0:0:
333,231,122936,5,8,0:0:0:0:
123,99,123289,1,0,0:0:0:0:
138,74,124348,1,0,0:0:0:0:
138,74,125760,1,0,0:0:0:0:
146,112,125936,1,0,0:0:0:0:
328,229,126112,1,8,0:0:0:0:
360,241,127171,5,8,0:0:0:0:
313,240,127524,1,8,0:0:0:0:
313,240,127612,1,8,0:0:0:0:
313,240,127701,1,8,0:0:0:0:
117,85,127877,1,0,0:0:0:0:
356,250,128583,5,8,0:0:0:0:
141,100,128936,1,0,0:0:0:0:
337,231,129995,1,8,0:0:0:0:
337,231,130348,1,8,0:0:0:0:
154,118,131407,1,0,0:0:0:0:
318,235,131583,1,8,0:0:0:0:
135,109,131760,1,0,0:0:0:0:
303,218,132818,1,8,0:0:0:0:
303,218,132995,1,8,0:0:0:0:
108,97,133171,1,0,0:0:0:0:
159,111,134230,5,0,0:0:0:0:
159,111,134583,1,0,0:0:0:0:
327,240,134671,1,8,0:0:0:0:
159,72,134760,1,0,0:0:0:0:
159,72,134936,1,0,0:0:0:0:
338,233,135642,5,8,0:0:0:0:
113,70,135995,1,0,0:0:0:0:
342,266,137054,1,8,0:0:0:0:
153,107,137407,1,0,0:0:0:0:
327,242,137760,1,8,0:0:0:0:
327,242,138112,1,8,0:0:0:0:
164,103,138465,1,0,0:0:0:0:
289,229,138642,1,8,0:0:0:0:
129,77,138818,1,0,0:0:0:0:
336,240,139171,1,8,0:0:0:0:
336,240,139348,1,8,0:0:0:0:
135,113,139524,1,0,0:0:0:0:
147,120,139877,1,0,0:0:0:0:
274,226,140054,1,8,0:0:0:0:
99,91,140230,5,0,0:0:0:0:
352,247,140583,1,8,0:0:0:0:
352,247,140760,1,8,0:0:0:0:
129,94,140936,1,0,0:0:0:0:
112,114,141289,5,0,0:0:0:0:
341,251,141642,1,8,0:0:0:0:
341,251,141730,1,8,0:0:0:0:
200,155,141818,1,0,0:0:0:0:
304,279,141907,1,8,0:0:0:0:
200,155,141995,1,0,0:0:0:0:
180,132,142348,1,0,0:0:0:0:
347,279,142612,1,8,0:0:0:0:
180,132,142701,1,0,0:0:0:0:
177,101,143054,1,0,0:0:0:0:
363,248,143318,1,8,0:0:0:0:
160,115,143407,1,0,0:0:0:0:
363,248,143671,1,8,0:0:0:0:
351,282,143760,1,8,0:0:0:0:
342,231,144024,1,8,0:0:0:0:
159,128,144112,5,0,0:0:0:0:
159,127,144465,1,0,0:0:0:0:
366,240,144730,1,8,0:0:0:0:
141,94,144818,1,0,0:0:0:0:
149,96,145171,1,0,0:0:0:0:
365,231,145436,1,8,0:0:0:0:
128,106,145524,1,0,0:0:0:0:
353,236,145701,1,8,0:0:0:0:
129,105,145877,1,0,0:0:0:0:
374,247,146142,1,8,0:0:0:0:
123,93,146230,1,0,0:0:0:0:
367,240,146407,1,8,0:0:0:0:
374,251,146495,1,8,0:0:0:0:
143,120,146583,1,0,0:0:0:0:
358,249,146848,1,8,0:0:0:0:
120,121,146936,5,0,0:0:0:0:
87,115,147112,1,0,0:0:0:0:
344,248,147201,1,8,0:0:0:0:
87,108,147289,1,0,0:0:0:0:
347,263,147554,1,8,0:0:0:0:
98,132,147642,1,0,0:0:0:0:
375,261,147818,1,8,0:0:0:0:
328,255,147907,1,8,0:0:0:0:
116,128,147995,1,0,0:0:0:0:
155,133,148171,1,0,0:0:0:0:
155,133,148260,1,0,0:0:0:0:
332,239,148348,5,8,0:0:0:0:
127,81,148701,1,0,0:0:0:0:
331,266,148789,1,8,0:0:0:0:
331,266,148877,1,8,0:0:0:0:
351,252,148965,1,8,0:0:0:0:
145,80,149054,1,0,0:0:0:0:
145,100,149407,1,0,0:0:0:0:
340,251,149671,1,8,0:0:0:0:
163,134,149760,1,0,0:0:0:0:
108,90,150112,1,0,0:0:0:0:
340,251,150377,1,8,0:0:0:0:
108,90,150465,1,0,0:0:0:0:
340,251,150730,1,8,0:0:0:0:
360,266,150818,1,8,0:0:0:0:
340,251,151083,1,8,0:0:0:0:
108,90,151171,1,0,0:0:0:0:
117,79,151524,1,0,0:0:0:0:
340,251,151789,1,8,0:0:0:0:
108,90,151877,1,0,0:0:0:0:
108,90,152230,1,0,0:0:0:0:
340,251,152495,1,8,0:0:0:0:
108,90,152583,5,0,0:0:0:0:
323,255,152760,1,8,0:0:0:0:
123,129,152936,1,0,0:0:0:0:
340,251,153201,1,8,0:0:0:0:
108,90,153289,1,0,0:0:0:0:
100,106,153465,1,0,0:0:0:0:
340,251,153554,1,8,0:0:0:0:
108,90,153642,1,0,0:0:0:0:
340,251,153907,1,8,0:0:0:0:
108,90,153995,1,0,0:0:0:0:
327,232,154171,1,8,0:0:0:0:
340,251,154260,1,8,0:0:0:0:
108,90,154348,5,0,0:0:0:0:
340,251,154612,1,8,0:0:0:0:
108,90,154701,1,0,0:0:0:0:
278,219,154877,1,8,0:0:0:0:
108,90,154965,1,0,0:0:0:0:
340,251,155054,1,8,0:0:0:0:
328,247,155230,1,8,0:0:0:0:
143,114,155318,1,0,0:0:0:0:
143,114,155407,5,0,0:0:0:0:
152,104,155760,1,0,0:0:0:0:
152,104,155848,1,0,0:0:0:0:
290,216,155936,1,8,0:0:0:0:
290,216,156024,1,8,0:0:0:0:
128,108,156112,1,0,0:0:0:0:
108,90,156465,1,0,0:0:0:0:
340,251,156730,1,8,0:0:0:0:
108,90,156818,1,0,0:0:0:0:
108,90,157171,1,0,0:0:0:0:
340,251,157436,1,8,0:0:0:0:
108,90,157524,1,0,0:0:0:0:
340,251,157789,1,8,0:0:0:0:
314,303,157877,1,8,0:0:0:0:
340,251,158142,1,8,0:0:0:0:
108,90,158230,1,0,0:0:0:0:
108,90,158583,1,0,0:0:0:0:
340,251,158848,1,8,0:0:0:0:
108,90,158936,1,0,0:0:0:0:
114,96,159289,5,0,0:0:0:0:
340,251,159554,1,8,0:0:0:0:
108,90,159642,5,0,0:0:0:0:
324,237,159818,1,8,0:0:0:0:
123,106,159995,1,0,0:0:0:0:
340,251,160260,1,8,0:0:0:0:
108,90,160348,1,0,0:0:0:0:
287,244,160524,1,8,0:0:0:0:
287,244,160612,1,8,0:0:0:0:
123,140,160701,1,0,0:0:0:0:
340,251,160965,1,8,0:0:0:0:
108,90,161054,1,0,0:0:0:0:
315,213,161230,1,8,0:0:0:0:
340,251,161318,1,8,0:0:0:0:
108,90,161407,1,0,0:0:0:0:
340,251,161671,1,8,0:0:0:0:
108,90,161760,1,0,0:0:0:0:
137,102,161936,1,0,0:0:0:0:
340,251,162024,1,8,0:0:0:0:
108,90,162112,1,0,0:0:0:0:
317,263,162289,1,8,0:0:0:0:
340,251,162377,1,8,0:0:0:0:
108,90,162465,5,0,0:0:0:0:
164,109,162818,1,0,0:0:0:0:
320,225,162907,1,8,0:0:0:0:
320,225,162995,1,8,0:0:0:0:
320,225,163083,1,8,0:0:0:0:
128,112,163171,1,0,0:0:0:0:
138,105,163524,1,0,0:0:0:0:
340,251,163789,1,8,0:0:0:0:
108,90,163877,1,0,0:0:0:0:
108,90,164230,1,0,0:0:0:0:
340,251,164495,1,8,0:0:0:0:
108,90,164583,1,0,0:0:0:0:
340,251,164848,1,8,0:0:0:0:
320,303,164936,1,8,0:0:0:0:
340,251,165201,1,8,0:0:0:0:
108,90,165289,1,0,0:0:0:0:
108,90,165642,1,0,0:0:0:0:
340,251,165907,1,8,0:0:0:0:
108,90,165995,1,0,0:0:0:0:
108,90,166348,1,0,0:0:0:0:
340,251,166612,1,8,0:0:0:0:
108,90,166701,1,0,0:0:0:0:
148,124,166877,1,0,0:0:0:0:
298,232,166965,1,8,0:0:0:0:
163,120,167054,1,0,0:0:0:0:
351,264,167230,1,8,0:0:0:0:
351,264,167318,1,8,0:0:0:0:
102,96,167407,1,0,0:0:0:0:
133,108,167583,1,0,0:0:0:0:
326,237,167671,1,8,0:0:0:0:
114,100,167760,1,0,0:0:0:0:
329,246,167936,1,8,0:0:0:0:
140,108,168024,1,0,0:0:0:0:
139,108,168112,1,0,0:0:0:0:
163,99,168289,1,0,0:0:0:0:
283,212,168377,1,8,0:0:0:0:
323,227,168465,1,8,0:0:0:0:
324,229,168642,1,8,0:0:0:0:
323,229,168730,1,8,0:0:0:0:
161,118,168818,1,0,0:0:0:0:
161,118,168995,1,0,0:0:0:0:
161,118,169083,1,0,0:0:0:0:
310,225,169171,1,8,0:0:0:0:
304,222,169260,1,8,0:0:0:0:
336,234,169348,1,8,0:0:0:0:
336,234,169436,1,8,0:0:0:0:
128,96,169524,5,0,0:0:0:0:
352,288,169701,1,8,0:0:0:0:
128,96,169789,1,0,0:0:0:0:
352,256,169877,1,8,0:0:0:0:
158,94,170054,1,0,0:0:0:0:
343,259,170230,1,8,0:0:0:0:
112,71,170318,1,0,0:0:0:0:
112,71,170407,1,0,0:0:0:0:
333,226,170583,1,8,0:0:0:0:
126,84,170671,1,0,0:0:0:0:
321,238,170760,1,8,0:0:0:0:
148,108,170936,1,0,0:0:0:0:
309,204,171112,1,8,0:0:0:0:
309,204,171289,1,8,0:0:0:0:
167,81,171465,5,0,0:0:0:0:
341,216,171554,1,8,0:0:0:0:
147,71,171642,1,0,0:0:0:0:
367,223,171730,1,8,0:0:0:0:
367,223,171818,1,8,0:0:0:0:
172,93,171907,1,0,0:0:0:0:
292,218,171995,1,8,0:0:0:0:
167,81,172083,1,0,0:0:0:0:
167,81,172171,1,0,0:0:0:0:
356,220,172260,1,8,0:0:0:0:
106,75,172348,1,0,0:0:0:0:
196,132,172524,1,0,0:0:0:0:
332,228,172612,1,8,0:0:0:0:
332,232,172701,1,8,0:0:0:0:
172,116,172877,1,0,0:0:0:0:
172,120,173054,1,0,0:0:0:0:
340,264,173142,1,8,0:0:0:0:
128,88,173230,1,0,0:0:0:0:
128,88,173318,1,0,0:0:0:0:
304,212,173407,1,8,0:0:0:0:
364,260,173495,1,8,0:0:0:0:
160,92,173583,1,0,0:0:0:0:
356,248,173671,1,8,0:0:0:0:
152,132,173760,5,0,0:0:0:0:
168,92,173936,1,0,0:0:0:0:
340,240,174112,1,8,0:0:0:0:
160,120,174201,1,0,0:0:0:0:
352,240,174289,1,8,0:0:0:0:
352,272,174377,1,8,0:0:0:0:
136,108,174465,1,0,0:0:0:0:
364,268,174554,1,8,0:0:0:0:
364,268,174642,1,8,0:0:0:0:
152,116,174730,1,0,0:0:0:0:
364,268,174818,1,8,0:0:0:0:
172,132,174907,1,0,0:0:0:0:
344,288,174995,1,8,0:0:0:0:
284,240,175083,1,8,0:0:0:0:
128,76,175171,1,0,0:0:0:0:
148,112,175348,1,0,0:0:0:0:
360,236,175524,1,8,0:0:0:0:
332,260,175612,1,8,0:0:0:0:
168,128,175701,1,0,0:0:0:0:
336,264,175789,1,8,0:0:0:0:
148,88,175877,1,0,0:0:0:0:
148,88,175965,1,0,0:0:0:0:
344,280,176054,1,8,0:0:0:0:
160,88,176142,1,0,0:0:0:0:
292,192,176230,1,8,0:0:0:0:
372,240,176318,1,8,0:0:0:0:
372,240,176407,1,8,0:0:0:0:
372,240,176495,1,8,0:0:0:0:
148,104,176583,5,0,0:0:0:0:
168,92,176760,1,0,0:0:0:0:
168,92,176848,1,0,0:0:0:0:
364,272,176936,1,8,0:0:0:0:
116,96,177112,1,0,0:0:0:0:
176,88,177289,1,0,0:0:0:0:
344,236,177377,1,8,0:0:0:0:
152,96,177465,1,0,0:0:0:0:
160,84,177642,1,0,0:0:0:0:
344,248,177730,1,8,0:0:0:0:
344,248,177818,1,8,0:0:0:0:
164,84,177995,1,0,0:0:0:0:
340,252,178171,1,8,0:0:0:0:
340,252,178348,1,8,0:0:0:0:
376,312,178436,1,8,0:0:0:0:
168,84,178524,1,0,0:0:0:0:
160,104,178583,1,0,0:0:0:0:
160,104,178642,1,0,0:0:0:0:
316,236,178701,1,8,0:0:0:0:
376,288,178789,1,8,0:0:0:0:
172,96,178877,1,0,0:0:0:0:
288,240,178965,1,8,0:0:0:0:
156,104,179054,1,0,0:0:0:0:
156,104,179142,1,0,0:0:0:0:
368,276,179230,1,8,0:0:0:0:
368,276,179289,1,8,0:0:0:0:
368,276,179348,1,8,0:0:0:0:
172,136,179407,1,0,0:0:0:0:
172,100,179583,1,0,0:0:0:0:
172,100,179671,1,0,0:0:0:0:
304,244,179760,1,8,0:0:0:0:
156,96,179936,1,0,0:0:0:0:
176,96,180112,1,0,0:0:0:0:
172,100,180201,1,0,0:0:0:0:
328,208,180289,1,8,0:0:0:0:
328,208,180377,1,8,0:0:0:0:
200,116,180465,1,0,0:0:0:0:
360,260,180554,1,8,0:0:0:0:
172,100,180642,1,0,0:0:0:0:
360,260,180730,1,8,0:0:0:0:
176,96,180818,5,0,0:0:0:0:
372,272,180995,1,8,0:0:0:0:
176,116,181083,1,0,0:0:0:0:
284,212,181171,1,8,0:0:0:0:
164,92,181348,1,0,0:0:0:0:
360,252,181524,1,8,0:0:0:0:
360,252,181612,1,8,0:0:0:0:
360,252,181701,1,8,0:0:0:0:
360,252,181789,1,8,0:0:0:0:
180,104,181877,1,0,0:0:0:0:
356,232,181965,1,8,0:0:0:0:
156,92,182054,1,0,0:0:0:0:
400,248,182142,1,8,0:0:0:0:
164,92,182230,1,0,0:0:0:0:
160,84,182407,1,0,0:0:0:0:
408,264,182495,1,8,0:0:0:0:
408,264,182583,1,8,0:0:0:0:
408,264,182671,1,8,0:0:0:0:
192,112,182760,1,0,0:0:0:0:
344,248,182848,1,8,0:0:0:0:
344,252,182936,1,8,0:0:0:0:
168,72,183024,1,0,0:0:0:0:
344,248,183112,1,8,0:0:0:0:
180,104,183201,1,0,0:0:0:0:
344,248,183289,1,8,0:0:0:0:
356,240,183377,1,8,0:0:0:0:
356,240,183465,1,8,0:0:0:0:
328,224,183554,1,8,0:0:0:0:
152,80,183642,5,0,0:0:0:0:
192,104,183818,1,0,0:0:0:0:
192,104,183907,1,0,0:0:0:0:
320,200,183995,1,8,0:0:0:0:
144,88,184171,1,0,0:0:0:0:
384,288,184260,1,8,0:0:0:0:
160,80,184348,1,0,0:0:0:0:
160,80,184436,1,0,0:0:0:0:
360,300,184524,1,8,0:0:0:0:
160,80,184612,1,0,0:0:0:0:
372,308,184701,1,8,0:0:0:0:
332,240,184789,1,8,0:0:0:0:
332,240,184877,1,8,0:0:0:0:
168,80,185054,1,0,0:0:0:0:
352,272,185230,1,8,0:0:0:0:
168,120,185318,1,0,0:0:0:0:
368,260,185407,1,8,0:0:0:0:
368,260,185495,1,8,0:0:0:0:
160,80,185583,1,0,0:0:0:0:
392,264,185671,1,8,0:0:0:0:
184,108,185760,1,0,0:0:0:0:
364,284,185848,1,8,0:0:0:0:
360,228,185936,1,8,0:0:0:0:
192,112,186024,1,0,0:0:0:0:
340,268,186112,1,8,0:0:0:0:
340,268,186201,1,8,0:0:0:0:
340,268,186289,1,8,0:0:0:0:
340,268,186377,1,8,0:0:0:0:
156,116,186465,5,0,0:0:0:0:
196,104,186642,1,0,0:0:0:0:
336,236,186818,1,8,0:0:0:0:
148,88,186995,1,4,0:0:0:0:
148,88,187171,1,4,0:0:0:0:
148,88,187348,1,4,0:0:0:0:
160,92,187524,1,4,0:0:0:0:
316,224,187701,1,8,0:0:0:0:
316,224,187789,1,8,0:0:0:0:
136,96,187877,1,0,0:0:0:0:
176,84,188054,1,0,0:0:0:0:
176,84,188142,1,0,0:0:0:0:
376,264,188230,1,8,0:0:0:0:
344,248,188318,1,8,0:0:0:0:
112,80,188407,1,0,0:0:0:0:
148,96,188583,1,0,0:0:0:0:
148,96,188671,1,0,0:0:0:0:
372,280,188760,1,8,0:0:0:0:
136,96,188848,1,0,0:0:0:0:
328,248,188936,1,8,0:0:0:0:
328,248,189024,1,8,0:0:0:0:
172,120,189112,1,0,0:0:0:0:
344,240,189201,1,8,0:0:0:0:
120,100,189289,1,0,0:0:0:0:
184,120,189465,1,0,0:0:0:0:
312,244,189554,1,8,0:0:0:0:
312,244,189642,1,8,0:0:0:0:
168,112,189730,1,0,0:0:0:0:
308,268,189818,1,8,0:0:0:0:
308,268,189907,1,8,0:0:0:0:
184,120,189995,1,0,0:0:0:0:
320,260,190083,1,8,0:0:0:0:
320,260,190171,1,8,0:0:0:0:
340,248,190260,1,8,0:0:0:0:
156,88,190348,1,0,0:0:0:0:
160,104,190436,1,0,0:0:0:0:
348,272,190524,1,8,0:0:0:0:
316,220,190583,1,8,0:0:0:0:
316,220,190642,1,8,0:0:0:0:
172,108,190701,5,0,0:0:0:0:
188,136,190877,1,0,0:0:0:0:
144,124,190965,1,0,0:0:0:0:
304,220,191054,1,8,0:0:0:0:
152,112,191230,1,0,0:0:0:0:
200,120,191407,1,0,0:0:0:0:
300,256,191495,1,8,0:0:0:0:
200,144,191583,1,0,0:0:0:0:
152,112,191760,1,0,0:0:0:0:
336,240,191848,1,8,0:0:0:0:
336,240,191936,1,8,0:0:0:0:
160,104,192024,1,0,0:0:0:0:
160,104,192112,1,0,0:0:0:0:
328,240,192289,1,8,0:0:0:0:
136,92,192377,1,0,0:0:0:0:
328,240,192465,1,8,0:0:0:0:
136,92,192642,1,0,0:0:0:0:
144,96,192818,1,0,0:0:0:0:
312,228,192907,1,8,0:0:0:0:
312,228,192995,1,8,0:0:0:0:
192,132,193083,1,0,0:0:0:0:
296,212,193171,1,8,0:0:0:0:
152,104,193260,1,0,0:0:0:0:
152,104,193348,1,0,0:0:0:0:
264,208,193436,1,8,0:0:0:0:
208,144,193524,5,0,0:0:0:0:
76,124,193701,1,0,0:0:0:0:
76,124,193789,1,0,0:0:0:0:
304,224,193877,1,8,0:0:0:0:
144,80,194054,1,0,0:0:0:0:
144,80,194230,1,0,0:0:0:0:
352,224,194318,1,8,0:0:0:0:
144,80,194407,1,0,0:0:0:0:
144,80,194495,1,0,0:0:0:0:
316,224,194583,1,8,0:0:0:0:
184,76,194671,1,0,0:0:0:0:
360,236,194760,1,8,0:0:0:0:
360,236,194818,1,8,0:0:0:0:
360,236,194877,1,8,0:0:0:0:
184,144,194936,1,0,0:0:0:0:
192,112,195112,1,0,0:0:0:0:
192,112,195201,1,0,0:0:0:0:
360,236,195289,1,8,0:0:0:0:
196,100,195465,1,0,0:0:0:0:
196,124,195642,1,0,0:0:0:0:
336,260,195730,1,8,0:0:0:0:
180,116,195818,1,0,0:0:0:0:
180,116,195907,1,0,0:0:0:0:
312,244,195995,1,8,0:0:0:0:
352,248,196083,1,8,0:0:0:0:
156,60,196171,1,0,0:0:0:0:
380,280,196260,1,8,0:0:0:0:
172,108,196348,1,0,0:0:0:0:
304,208,196436,1,8,0:0:0:0:
156,60,196524,1,0,0:0:0:0:
156,60,196612,1,0,0:0:0:0:
344,232,196701,1,8,0:0:0:0:
176,124,196789,1,0,0:0:0:0:
332,248,196877,1,8,0:0:0:0:
332,248,196965,1,8,0:0:0:0:
332,248,197054,1,8,0:0:0:0:
196,128,197142,1,0,0:0:0:0:
324,256,197230,1,8,0:0:0:0:
192,112,197318,1,0,0:0:0:0:
352,256,197407,1,8,0:0:0:0:
344,244,197495,1,8,0:0:0:0:
344,244,197583,1,8,0:0:0:0:
344,244,197671,1,8,0:0:0:0:
164,112,197760,5,0,0:0:0:0:
164,84,197936,1,0,0:0:0:0:
164,84,198024,1,0,0:0:0:0:
360,236,198112,1,8,0:0:0:0:
176,128,198289,1,0,0:0:0:0:
368,252,198377,1,8,0:0:0:0:
148,80,198465,1,0,0:0:0:0:
256,176,198554,1,8,0:0:0:0:
368,252,198642,1,8,0:0:0:0:
112,108,198818,1,0,0:0:0:0:
328,232,198995,1,8,0:0:0:0:
328,232,199171,1,8,0:0:0:0:
156,96,199348,1,0,0:0:0:0:
328,244,199436,1,8,0:0:0:0:
140,116,199524,1,0,0:0:0:0:
136,116,199612,1,0,0:0:0:0:
364,260,199701,1,8,0:0:0:0:
144,84,199877,5,0,0:0:0:0:
164,112,200053,1,0,0:0:0:0:
164,112,200141,1,0,0:0:0:0:
384,272,200229,1,8,0:0:0:0:
192,124,200406,1,0,0:0:0:0:
384,260,200494,1,8,0:0:0:0:
352,280,200582,1,8,0:0:0:0:
164,132,200671,1,0,0:0:0:0:
424,288,200759,1,8,0:0:0:0:
176,120,200935,1,0,0:0:0:0:
384,272,201024,1,8,0:0:0:0:
224,160,201112,1,0,0:0:0:0:
400,288,201200,1,8,0:0:0:0:
124,84,201288,1,0,0:0:0:0:
208,120,201465,1,0,0:0:0:0:
208,120,201553,1,0,0:0:0:0:
372,280,201641,1,8,0:0:0:0:
216,152,201818,1,0,0:0:0:0:
344,260,201906,1,8,0:0:0:0:
180,124,201994,1,0,0:0:0:0:
328,252,202082,1,8,0:0:0:0:
328,252,202171,1,8,0:0:0:0:
180,116,202347,1,0,0:0:0:0:
180,116,202435,1,0,0:0:0:0:
344,260,202524,1,8,0:0:0:0:
344,260,202612,1,8,0:0:0:0:
136,88,202700,5,0,0:0:0:0:
172,116,202876,1,0,0:0:0:0:
172,120,202964,1,0,0:0:0:0:
368,296,203052,1,8,0:0:0:0:
188,112,203229,1,0,0:0:0:0:
204,128,203405,1,0,0:0:0:0:
204,128,203494,1,0,0:0:0:0:
360,276,203582,1,8,0:0:0:0:
360,276,203670,1,8,0:0:0:0:
144,84,203758,1,0,0:0:0:0:
360,264,203935,1,8,0:0:0:0:
360,264,204111,1,8,0:0:0:0:
160,72,204288,1,0,0:0:0:0:
336,236,204376,1,8,0:0:0:0:
128,76,204464,1,0,0:0:0:0:
128,76,204552,1,0,0:0:0:0:
340,260,204641,1,8,0:0:0:0:
144,84,204817,5,0,0:0:0:0:
160,152,204993,1,0,0:0:0:0:
360,272,205081,1,8,0:0:0:0:
360,272,205169,1,8,0:0:0:0:
300,220,205346,1,8,0:0:0:0:
144,100,205522,1,0,0:0:0:0:
344,284,205611,1,8,0:0:0:0:
344,284,205699,1,8,0:0:0:0:
336,264,205875,1,8,0:0:0:0:
400,320,205964,1,8,0:0:0:0:
168,112,206052,1,0,0:0:0:0:
384,288,206140,1,8,0:0:0:0:
144,84,206228,5,0,0:0:0:0:
192,116,206405,1,0,0:0:0:0:
192,116,206493,1,0,0:0:0:0:
340,224,206581,1,8,0:0:0:0:
328,220,206758,1,8,0:0:0:0:
184,104,206846,1,0,0:0:0:0:
140,64,206934,1,0,0:0:0:0:
344,260,207022,1,8,0:0:0:0:
344,260,207111,1,8,0:0:0:0:
160,112,207199,1,0,0:0:0:0:
160,112,207287,1,0,0:0:0:0:
368,272,207375,1,8,0:0:0:0:
368,272,207464,1,8,0:0:0:0:
348,264,207552,1,8,0:0:0:0:
144,84,207640,5,0,0:0:0:0:
156,104,207816,1,0,0:0:0:0:
156,104,207904,1,0,0:0:0:0:
388,256,207992,1,8,0:0:0:0:
156,104,208169,1,0,0:0:0:0:
160,84,208345,1,0,0:0:0:0:
368,272,208434,1,8,0:0:0:0:
364,276,208522,1,8,0:0:0:0:
364,276,208610,1,8,0:0:0:0:
144,84,208698,5,0,0:0:0:0:
392,284,208875,1,12,0:0:0:0:
384,276,209051,1,12,0:0:0:0:
380,268,209228,1,12,0:0:0:0:
380,268,209404,1,12,0:0:0:0:
380,268,209581,1,12,0:0:0:0:
192,136,209757,1,0,0:0:0:0:
364,268,209845,1,8,0:0:0:0:
140,128,209933,1,0,0:0:0:0:
368,272,210021,1,8,0:0:0:0:
140,116,210109,1,0,0:0:0:0:
192,136,210286,1,0,0:0:0:0:
340,268,210374,1,8,0:0:0:0:
148,120,210462,1,0,0:0:0:0:
320,260,210551,1,8,0:0:0:0:
168,128,210639,1,0,0:0:0:0:
192,128,210815,1,0,0:0:0:0:
336,264,210904,1,8,0:0:0:0:
192,144,210992,1,0,0:0:0:0:
376,248,211080,1,8,0:0:0:0:
144,84,211168,5,0,0:0:0:0:
202,125,211345,1,0,0:0:0:0:
386,266,211433,1,8,0:0:0:0:
386,266,211521,1,8,0:0:0:0:
195,120,211698,1,0,0:0:0:0:
410,285,211786,1,8,0:0:0:0:
184,111,211874,1,0,0:0:0:0:
371,293,211962,1,8,0:0:0:0:
371,293,212051,1,8,0:0:0:0:
173,107,212227,1,0,0:0:0:0:
380,281,212315,1,8,0:0:0:0:
380,281,212404,1,8,0:0:0:0:
380,281,212492,1,8,0:0:0:0:
126,109,212580,1,0,0:0:0:0:
159,98,212756,1,0,0:0:0:0:
159,98,212844,1,0,0:0:0:0:
305,220,212932,1,8,0:0:0:0:
180,101,213109,1,0,0:0:0:0:
167,96,213285,1,0,0:0:0:0:
167,96,213374,1,0,0:0:0:0:
390,290,213462,1,8,0:0:0:0:
146,103,213638,5,0,0:0:0:0:
362,246,213815,1,8,0:0:0:0:
362,246,213903,1,8,0:0:0:0:
362,246,213991,1,8,0:0:0:0:
374,219,214168,1,8,0:0:0:0:
374,219,214256,1,8,0:0:0:0:
151,92,214344,1,0,0:0:0:0:
151,92,214432,1,0,0:0:0:0:
151,92,214521,1,0,0:0:0:0:
149,238,214697,5,4,0:0:0:0:
139,314,217520,5,4,0:0:0:0:
163,118,217697,1,0,0:0:0:0:
163,118,217785,1,0,0:0:0:0:
361,267,217873,1,8,0:0:0:0:
145,273,218049,1,0,0:0:0:0:
198,114,218226,1,0,0:0:0:0:
195,122,218402,1,0,0:0:0:0:
195,122,218491,1,0,0:0:0:0:
343,272,218579,1,8,0:0:0:0:
340,288,218755,1,8,0:0:0:0:
340,288,218844,1,8,0:0:0:0:
161,88,218932,1,0,0:0:0:0:
198,114,219108,1,0,0:0:0:0:
328,244,219285,1,8,0:0:0:0:
188,130,219461,1,0,0:0:0:0:
332,261,219549,1,8,0:0:0:0:
171,137,219638,1,0,0:0:0:0:
366,263,219726,1,8,0:0:0:0:
170,136,219814,1,0,0:0:0:0:
168,100,219902,1,0,0:0:0:0:
345,257,219991,1,8,0:0:0:0:
164,101,220167,1,0,0:0:0:0:
321,265,220255,1,8,0:0:0:0:
135,128,220344,1,0,0:0:0:0:
178,124,220520,1,0,0:0:0:0:
178,124,220608,1,0,0:0:0:0:
319,229,220697,1,8,0:0:0:0:
345,257,220785,1,8,0:0:0:0:
180,121,220873,1,0,0:0:0:0:
180,121,221049,1,0,0:0:0:0:
180,121,221138,1,0,0:0:0:0:
168,118,221226,1,0,0:0:0:0:
344,273,221314,1,8,0:0:0:0:
329,242,221402,1,8,0:0:0:0:
329,242,221491,1,8,0:0:0:0:
155,111,221579,1,0,0:0:0:0:
100,295,221755,2,0,L|455:39,1,420
148,108,222991,1,0,0:0:0:0:
143,87,223167,5,0,0:0:0:0:
176,107,223344,1,0,0:0:0:0:
148,108,223520,1,0,0:0:0:0:
148,108,223608,1,0,0:0:0:0:
347,246,223697,1,8,0:0:0:0:
347,246,223785,1,8,0:0:0:0:
367,267,223873,1,8,0:0:0:0:
162,95,224049,1,0,0:0:0:0:
174,120,224138,1,0,0:0:0:0:
375,269,224226,1,8,0:0:0:0:
174,120,224402,1,0,0:0:0:0:
174,120,224491,1,0,0:0:0:0:
174,120,224579,5,0,0:0:0:0:
174,120,224755,1,0,0:0:0:0:
174,120,224844,1,0,0:0:0:0:
318,244,224932,1,8,0:0:0:0:
176,100,225108,1,0,0:0:0:0:
176,100,225285,1,0,0:0:0:0:
315,232,225461,1,8,0:0:0:0:
161,105,225638,1,0,0:0:0:0:
353,252,225726,1,8,0:0:0:0:
183,124,225814,1,0,0:0:0:0:
324,228,225902,1,8,0:0:0:0:
157,109,225991,5,0,0:0:0:0:
176,100,226167,1,0,0:0:0:0:
173,106,226255,1,0,0:0:0:0:
306,235,226344,1,8,0:0:0:0:
161,105,226520,1,0,0:0:0:0:
350,270,226608,1,8,0:0:0:0:
350,270,226697,1,8,0:0:0:0:
323,256,226785,1,8,0:0:0:0:
196,143,226873,1,0,0:0:0:0:
350,270,226961,1,8,0:0:0:0:
350,270,227049,1,8,0:0:0:0:
349,247,227226,1,8,0:0:0:0:
349,247,227314,1,8,0:0:0:0:
176,130,227402,1,0,0:0:0:0:
172,106,227579,1,0,0:0:0:0:
172,106,227667,1,0,0:0:0:0:
352,238,227755,1,8,0:0:0:0:
178,100,227932,1,0,0:0:0:0:
178,100,228108,1,0,0:0:0:0:
178,100,228197,1,0,0:0:0:0:
352,254,228285,1,8,0:0:0:0:
341,224,228461,1,8,0:0:0:0:
194,126,228638,1,0,0:0:0:0:
340,257,228726,1,8,0:0:0:0:
199,122,228814,5,0,0:0:0:0:
192,137,228991,1,0,0:0:0:0:
183,119,229079,1,0,0:0:0:0:
371,263,229167,1,8,0:0:0:0:
373,265,229344,1,8,0:0:0:0:
356,245,229432,1,8,0:0:0:0:
177,93,229520,1,0,0:0:0:0:
367,268,229608,1,8,0:0:0:0:
382,265,229697,1,8,0:0:0:0:
175,99,229785,1,0,0:0:0:0:
358,256,229873,1,8,0:0:0:0:
140,97,229961,1,0,0:0:0:0:
371,263,230049,1,8,0:0:0:0:
371,258,230138,1,8,0:0:0:0:
160,106,230226,5,0,0:0:0:0:
188,77,230402,1,0,0:0:0:0:
371,251,230579,1,8,0:0:0:0:
172,75,230755,1,0,0:0:0:0:
373,255,230844,1,8,0:0:0:0:
164,88,230932,1,0,0:0:0:0:
164,88,231020,1,0,0:0:0:0:
335,249,231108,1,8,0:0:0:0:
155,90,231197,1,0,0:0:0:0:
335,237,231285,1,8,0:0:0:0:
135,95,231373,1,0,0:0:0:0:
361,216,231461,1,8,0:0:0:0:
361,216,231549,1,8,0:0:0:0:
121,64,231638,1,0,0:0:0:0:
342,210,231814,1,8,0:0:0:0:
140,80,231902,1,0,0:0:0:0:
140,80,231991,1,0,0:0:0:0:
317,207,232079,1,8,0:0:0:0:
119,82,232167,1,0,0:0:0:0:
119,82,232255,1,0,0:0:0:0:
343,210,232344,1,8,0:0:0:0:
343,210,232432,1,8,0:0:0:0:
147,93,232520,1,0,0:0:0:0:
368,246,232608,1,8,0:0:0:0:
115,72,232697,1,0,0:0:0:0:
389,246,232873,1,8,0:0:0:0:
115,72,233049,5,0,0:0:0:0:
379,250,233226,1,8,0:0:0:0:
185,118,233314,1,0,0:0:0:0:
185,118,233402,1,0,0:0:0:0:
364,252,233579,1,8,0:0:0:0:
131,93,233755,1,0,0:0:0:0:
370,253,233932,1,8,0:0:0:0:
141,111,234020,1,0,0:0:0:0:
141,111,234108,1,0,0:0:0:0:
141,111,234197,1,0,0:0:0:0:
367,219,234285,1,8,0:0:0:0:
367,219,234373,1,8,0:0:0:0:
174,94,234461,1,0,0:0:0:0:
169,70,234638,1,0,0:0:0:0:
169,70,234814,1,0,0:0:0:0:
340,231,234902,1,8,0:0:0:0:
341,232,234991,1,8,0:0:0:0:
133,87,235079,1,0,0:0:0:0:
341,232,235167,1,8,0:0:0:0:
342,237,235255,1,8,0:0:0:0:
340,231,235344,1,8,0:0:0:0:
133,87,235432,1,0,0:0:0:0:
323,251,235520,1,8,0:0:0:0:
323,251,235608,1,8,0:0:0:0:
145,86,235697,1,0,0:0:0:0:
346,249,235785,1,8,0:0:0:0:
145,102,235873,5,0,0:0:0:0:
143,101,236049,1,0,0:0:0:0:
319,225,236226,1,8,0:0:0:0:
171,112,236314,1,0,0:0:0:0:
323,251,236402,1,8,0:0:0:0:
337,257,236491,1,8,0:0:0:0:
140,127,236579,1,0,0:0:0:0:
346,249,236667,1,8,0:0:0:0:
340,246,236755,1,8,0:0:0:0:
340,246,236844,1,8,0:0:0:0:
162,83,236932,1,0,0:0:0:0:
162,83,237020,1,0,0:0:0:0:
349,240,237108,1,8,0:0:0:0:
349,240,237197,1,8,0:0:0:0:
138,85,237285,1,0,0:0:0:0:
173,83,237461,1,0,0:0:0:0:
311,272,237638,1,8,0:0:0:0:
167,112,237814,1,0,0:0:0:0:
290,230,237902,1,8,0:0:0:0:
290,230,237991,1,8,0:0:0:0:
170,122,238167,1,0,0:0:0:0:
325,256,238344,1,8,0:0:0:0:
335,253,238520,1,8,0:0:0:0:
335,253,238579,1,8,0:0:0:0:
325,256,238638,1,8,0:0:0:0:
134,95,238697,5,0,0:0:0:0:
114,97,238873,1,0,0:0:0:0:
361,242,238961,1,8,0:0:0:0:
361,242,239049,1,8,0:0:0:0:
75,94,239226,1,0,0:0:0:0:
341,240,239314,1,8,0:0:0:0:
154,114,239402,1,0,0:0:0:0:
154,114,239491,1,0,0:0:0:0:
321,264,239579,1,8,0:0:0:0:
163,109,239667,1,0,0:0:0:0:
294,237,239755,1,8,0:0:0:0:
294,237,239844,1,8,0:0:0:0:
366,256,239932,1,8,0:0:0:0:
181,125,240108,5,0,0:0:0:0:
401,281,240285,1,8,0:0:0:0:
184,125,240373,1,0,0:0:0:0:
378,276,240461,1,8,0:0:0:0:
346,254,240549,1,8,0:0:0:0:
163,109,240638,1,0,0:0:0:0:
373,275,240726,1,8,0:0:0:0:
373,275,240814,1,8,0:0:0:0:
373,275,240902,1,8,0:0:0:0:
181,125,240991,1,0,0:0:0:0:
379,288,241079,1,8,0:0:0:0:
184,125,241167,1,0,0:0:0:0:
181,91,241255,1,0,0:0:0:0:
361,262,241344,1,8,0:0:0:0:
361,262,241432,1,8,0:0:0:0:
184,125,241520,5,0,0:0:0:0:
192,112,241785,1,0,0:0:0:0:
376,256,241873,1,8,0:0:0:0:
376,240,242049,1,8,0:0:0:0:
368,240,242226,1,8,0:0:0:0:
368,240,242402,1,8,0:0:0:0:
384,240,242579,1,8,0:0:0:0:
384,240,242667,1,8,0:0:0:0:
176,128,242755,1,0,0:0:0:0:
176,128,242844,1,0,0:0:0:0:
176,128,242932,1,0,0:0:0:0:
176,128,243108,1,0,0:0:0:0:
176,128,243196,1,0,0:0:0:0:
336,240,243285,1,8,0:0:0:0:
168,144,243461,1,0,0:0:0:0:
360,296,243549,1,8,0:0:0:0:
208,128,243638,1,0,0:0:0:0:
224,128,243814,1,0,0:0:0:0:
224,128,243902,1,0,0:0:0:0:
376,256,243991,1,8,0:0:0:0:
208,104,244167,1,0,0:0:0:0:
352,256,244255,1,8,0:0:0:0:
184,96,244344,1,0,0:0:0:0:
184,96,244520,1,0,0:0:0:0:
208,136,244608,1,0,0:0:0:0:
384,264,244696,1,8,0:0:0:0:
168,104,244873,1,0,0:0:0:0:
360,256,244961,1,8,0:0:0:0:
360,256,245049,1,8,0:0:0:0:
200,128,245226,1,0,0:0:0:0:
376,264,245314,1,8,0:0:0:0:
376,264,245402,1,8,0:0:0:0:
376,264,245491,1,8,0:0:0:0:
376,264,245579,1,8,0:0:0:0:
352,272,245667,1,8,0:0:0:0:
200,112,245755,5,0,0:0:0:0:
136,128,245932,1,0,0:0:0:0:
136,128,246020,1,0,0:0:0:0:
352,264,246108,1,8,0:0:0:0:
168,136,246285,1,0,0:0:0:0:
168,136,246461,1,0,0:0:0:0:
374,275,246549,1,8,0:0:0:0:
168,136,246638,1,0,0:0:0:0:
168,136,246814,1,0,0:0:0:0:
192,152,246902,1,0,0:0:0:0:
312,256,246991,1,8,0:0:0:0:
176,128,247167,1,0,0:0:0:0:
312,232,247344,1,8,0:0:0:0:
312,232,247520,1,8,0:0:0:0:
168,96,247696,1,0,0:0:0:0:
320,256,247785,1,8,0:0:0:0:
168,144,247873,1,0,0:0:0:0:
168,144,247961,1,0,0:0:0:0:
368,256,248049,1,8,0:0:0:0:
368,256,248226,1,8,0:0:0:0:
176,136,248402,1,0,0:0:0:0:
264,248,248491,1,8,0:0:0:0:
128,112,248579,5,0,0:0:0:0:
160,112,248755,1,0,0:0:0:0:
160,112,248844,1,0,0:0:0:0:
384,304,248932,1,8,0:0:0:0:
184,104,249108,1,0,0:0:0:0:
168,112,249285,1,0,0:0:0:0:
376,248,249373,1,8,0:0:0:0:
376,248,249461,1,8,0:0:0:0:
144,96,249638,1,0,0:0:0:0:
200,120,249814,1,0,0:0:0:0:
360,256,249902,1,8,0:0:0:0:
184,104,249991,1,0,0:0:0:0:
168,112,250167,1,0,0:0:0:0:
336,264,250344,1,8,0:0:0:0:
168,104,250520,1,0,0:0:0:0:
168,104,250608,1,0,0:0:0:0:
304,224,250696,1,8,0:0:0:0:
304,224,250785,1,8,0:0:0:0:
328,232,250873,1,8,0:0:0:0:
168,96,251049,1,0,0:0:0:0:
288,200,251226,1,8,0:0:0:0:
288,200,251314,1,8,0:0:0:0:
152,96,251402,1,0,0:0:0:0:
248,184,251491,1,8,0:0:0:0:
152,96,251579,1,0,0:0:0:0:
312,232,251667,1,8,0:0:0:0:
336,232,251755,1,8,0:0:0:0:
176,80,251844,1,0,0:0:0:0:
336,232,251932,1,8,0:0:0:0:
320,264,252020,1,8,0:0:0:0:
200,112,252108,1,0,0:0:0:0:
336,240,252285,1,8,0:0:0:0:
176,104,252461,1,0,0:0:0:0:
344,240,252638,1,8,0:0:0:0:
152,96,252814,5,0,0:0:0:0:
184,96,252991,1,0,0:0:0:0:
184,96,253079,1,0,0:0:0:0:
352,224,253167,1,8,0:0:0:0:
368,288,253344,1,8,0:0:0:0:
368,288,253402,1,8,0:0:0:0:
368,288,253461,1,8,0:0:0:0:
184,104,253520,1,0,0:0:0:0:
176,96,253608,1,0,0:0:0:0:
344,320,253696,1,8,0:0:0:0:
184,104,253873,1,0,0:0:0:0:
376,280,253961,1,8,0:0:0:0:
208,120,254049,1,0,0:0:0:0:
208,120,254138,1,0,0:0:0:0:
320,248,254226,5,8,0:0:0:0:
184,80,254402,1,0,0:0:0:0:
184,80,254491,1,0,0:0:0:0:
176,80,254579,1,0,0:0:0:0:
176,80,254755,1,0,0:0:0:0:
328,288,254932,1,8,0:0:0:0:
328,288,254991,1,8,0:0:0:0:
328,288,255049,1,8,0:0:0:0:
328,288,255108,1,8,0:0:0:0:
328,288,255285,1,8,0:0:0:0:
328,288,255344,1,8,0:0:0:0:
328,256,255402,1,8,0:0:0:0:
328,288,255461,1,8,0:0:0:0:
176,96,255638,5,0,0:0:0:0:
176,80,255814,1,0,0:0:0:0:
176,80,255902,1,0,0:0:0:0:
392,224,255991,1,8,0:0:0:0:
160,104,256167,1,0,0:0:0:0:
160,104,256344,1,0,0:0:0:0:
160,104,256432,1,0,0:0:0:0:
168,112,256520,1,0,0:0:0:0:
384,248,256608,1,8,0:0:0:0:
168,112,256696,1,0,0:0:0:0:
368,232,256785,1,8,0:0:0:0:
368,232,256873,1,8,0:0:0:0:
160,104,257049,5,0,0:0:0:0:
160,104,257226,1,0,0:0:0:0:
160,104,257314,1,0,0:0:0:0:
360,224,257402,1,8,0:0:0:0:
176,120,257579,1,0,0:0:0:0:
176,112,257755,1,0,0:0:0:0:
344,224,257844,1,8,0:0:0:0:
160,104,257932,1,0,0:0:0:0:
160,104,258020,1,0,0:0:0:0:
176,80,258108,1,0,0:0:0:0:
344,240,258196,1,8,0:0:0:0:
168,112,258285,1,0,0:0:0:0:
344,240,258373,1,8,0:0:0:0:
186,137,258461,1,0,0:0:0:0:
369,239,258549,1,8,0:0:0:0:
184,94,258638,1,0,0:0:0:0:
184,94,258726,1,0,0:0:0:0:
359,238,258814,1,8,0:0:0:0:
359,238,258902,1,8,0:0:0:0:
153,89,258991,1,0,0:0:0:0:
332,225,259079,1,8,0:0:0:0:
351,226,259167,1,8,0:0:0:0:
351,226,259255,1,8,0:0:0:0:
191,95,259344,1,0,0:0:0:0:
324,215,259432,1,8,0:0:0:0:
324,215,259520,1,8,0:0:0:0:
147,75,259608,1,0,0:0:0:0:
373,251,259696,1,8,0:0:0:0:
373,251,259785,1,8,0:0:0:0:
159,67,259873,5,0,0:0:0:0:
192,106,260049,1,0,0:0:0:0:
192,106,260138,1,0,0:0:0:0:
390,228,260226,1,8,0:0:0:0:
182,123,260402,1,0,0:0:0:0:
373,251,260491,1,8,0:0:0:0:
161,100,260579,1,0,0:0:0:0:
161,100,260667,1,0,0:0:0:0:
161,100,260755,1,0,0:0:0:0:
161,100,260844,1,0,0:0:0:0:
342,262,260932,1,8,0:0:0:0:
381,256,261108,1,8,0:0:0:0:
171,95,261196,1,0,0:0:0:0:
171,95,261285,5,0,0:0:0:0:
381,256,261461,1,8,0:0:0:0:
381,256,261638,1,8,0:0:0:0:
345,243,261726,1,8,0:0:0:0:
119,76,261814,1,0,0:0:0:0:
119,76,261902,1,0,0:0:0:0:
119,76,261991,1,0,0:0:0:0:
119,76,262079,1,0,0:0:0:0:
371,256,262167,1,8,0:0:0:0:
155,108,262344,1,0,0:0:0:0:
304,217,262432,1,8,0:0:0:0:
304,217,262520,1,8,0:0:0:0:
304,217,262608,1,8,0:0:0:0:
135,88,262697,5,0,0:0:0:0:
88,100,262873,1,0,0:0:0:0:
311,233,263049,1,8,0:0:0:0:
311,233,263226,1,8,0:0:0:0:
331,244,263314,1,8,0:0:0:0:
152,128,263402,1,0,0:0:0:0:
316,229,263491,1,8,0:0:0:0:
313,258,263579,1,8,0:0:0:0:
348,244,263755,1,8,0:0:0:0:
160,106,263844,1,0,0:0:0:0:
160,106,263932,1,0,0:0:0:0:
353,255,264020,1,8,0:0:0:0:
129,85,264108,5,0,0:0:0:0:
172,96,264285,1,0,0:0:0:0:
172,97,264373,1,0,0:0:0:0:
340,260,264461,1,8,0:0:0:0:
352,250,264638,1,8,0:0:0:0:
356,263,264814,1,8,0:0:0:0:
159,73,264902,1,0,0:0:0:0:
151,96,264991,1,0,0:0:0:0:
327,245,265079,1,8,0:0:0:0:
149,57,265167,1,0,0:0:0:0:
316,223,265255,1,8,0:0:0:0:
311,216,265344,1,8,0:0:0:0:
311,216,265432,1,8,0:0:0:0:
161,97,265520,5,0,0:0:0:0:
160,102,265696,1,0,0:0:0:0:
338,263,265873,1,8,0:0:0:0:
338,263,265932,1,8,0:0:0:0:
338,263,265991,1,8,0:0:0:0:
174,59,266049,1,0,0:0:0:0:
337,278,266138,1,8,0:0:0:0:
352,237,266314,1,8,0:0:0:0:
194,106,266402,1,0,0:0:0:0:
364,298,266579,1,8,0:0:0:0:
296,251,266667,1,8,0:0:0:0:
306,191,266755,1,8,0:0:0:0:
306,191,266844,1,8,0:0:0:0:
166,91,266932,1,0,0:0:0:0:
372,231,267108,1,8,0:0:0:0:
372,231,267285,1,8,0:0:0:0:
145,113,267461,1,0,0:0:0:0:
373,267,267549,1,8,0:0:0:0:
170,109,267638,1,0,0:0:0:0:
378,261,267726,1,8,0:0:0:0:
378,261,267814,1,8,0:0:0:0:
184,123,267991,1,0,0:0:0:0:
288,215,268079,1,8,0:0:0:0:
153,102,268167,1,0,0:0:0:0:
337,271,268255,1,8,0:0:0:0:
130,79,268344,5,0,0:0:0:0:
357,249,268520,1,8,0:0:0:0:
357,249,268696,1,8,0:0:0:0:
351,264,268873,1,8,0:0:0:0:
161,108,268961,1,0,0:0:0:0:
161,108,269049,1,0,0:0:0:0:
372,268,269138,1,8,0:0:0:0:
179,126,269226,1,0,0:0:0:0:
373,282,269314,1,8,0:0:0:0:
335,245,269402,1,8,0:0:0:0:
357,249,269491,1,8,0:0:0:0:
357,249,269579,1,8,0:0:0:0:
357,249,269667,1,8,0:0:0:0:
138,113,269755,5,0,0:0:0:0:
353,268,269932,1,8,0:0:0:0:
129,142,270020,1,0,0:0:0:0:
129,142,270108,1,0,0:0:0:0:
162,131,270285,1,0,0:0:0:0:
323,243,270373,1,8,0:0:0:0:
144,124,270461,1,0,0:0:0:0:
345,231,270638,1,8,0:0:0:0:
162,131,270726,1,0,0:0:0:0:
161,130,270814,1,0,0:0:0:0:
119,90,270991,1,0,0:0:0:0:
374,276,271079,1,8,0:0:0:0:
149,112,271167,5,0,0:0:0:0:
345,231,271344,1,8,0:0:0:0:
162,131,271432,1,0,0:0:0:0:
161,130,271520,1,0,0:0:0:0:
119,90,271696,1,0,0:0:0:0:
374,276,271785,1,8,0:0:0:0:
256,192,271873,12,0,273638,0:0:0:0:
169,95,273995,5,0,0:0:0:0:
200,112,274259,1,0,0:0:0:0:
360,256,274347,1,8,0:0:0:0:
360,256,274524,1,8,0:0:0:0:
160,112,274700,1,0,0:0:0:0:
368,240,274789,1,8,0:0:0:0:
152,96,274877,1,0,0:0:0:0:
360,272,275053,1,8,0:0:0:0:
360,272,275142,1,8,0:0:0:0:
160,144,275230,1,0,0:0:0:0:
416,312,275318,1,8,0:0:0:0:
416,312,275406,1,8,0:0:0:0:
400,264,275583,1,8,0:0:0:0:
376,264,275759,1,8,0:0:0:0:
184,112,275847,1,0,0:0:0:0:
336,232,275936,1,8,0:0:0:0:
336,232,276024,1,8,0:0:0:0:
336,232,276112,1,8,0:0:0:0:
176,112,276289,1,0,0:0:0:0:
256,208,276377,1,8,0:0:0:0:
256,208,276465,1,8,0:0:0:0:
320,224,276642,1,8,0:0:0:0:
320,224,276730,1,8,0:0:0:0:
320,224,276818,1,8,0:0:0:0:
320,216,277083,1,8,0:0:0:0:
176,120,277171,1,0,0:0:0:0:
360,240,277347,1,8,0:0:0:0:
160,112,277524,1,0,0:0:0:0:
160,120,277700,1,0,0:0:0:0:
312,232,277788,1,8,0:0:0:0:
312,232,277876,1,8,0:0:0:0:
144,104,278053,1,0,0:0:0:0:
312,248,278141,1,8,0:0:0:0:
144,104,278229,1,0,0:0:0:0:
248,224,278318,1,8,0:0:0:0:
248,224,278406,1,8,0:0:0:0:
160,136,278494,1,0,0:0:0:0:
264,216,278582,5,8,0:0:0:0:
320,256,278847,1,8,0:0:0:0:
176,136,278935,1,0,0:0:0:0:
336,272,279024,1,8,0:0:0:0:
176,160,279112,1,0,0:0:0:0:
320,272,279200,1,8,0:0:0:0:
320,272,279288,1,8,0:0:0:0:
144,136,279376,1,0,0:0:0:0:
288,272,279465,1,8,0:0:0:0:
288,272,279553,1,8,0:0:0:0:
160,120,279640,1,0,0:0:0:0:
160,120,279816,1,0,0:0:0:0:
368,256,279992,1,8,0:0:0:0:
368,224,280051,1,8,0:0:0:0:
368,224,280110,1,8,0:0:0:0:
368,224,280169,1,8,0:0:0:0:
168,80,280345,1,0,0:0:0:0:
168,80,280404,1,0,0:0:0:0:
192,128,280463,1,0,0:0:0:0:
168,80,280522,1,0,0:0:0:0:
376,296,280698,1,8,0:0:0:0:
376,296,280757,1,8,0:0:0:0:
376,296,280816,1,8,0:0:0:0:
204,126,280875,1,0,0:0:0:0:
336,264,280963,1,8,0:0:0:0:
144,104,281051,5,0,0:0:0:0:
360,288,281140,1,8,0:0:0:0:
168,128,281228,1,0,0:0:0:0:
352,248,281316,1,8,0:0:0:0:
360,240,281404,1,8,0:0:0:0:
352,248,281581,1,8,0:0:0:0:
160,128,281757,1,0,0:0:0:0:
368,272,281845,1,8,0:0:0:0:
160,128,281934,1,0,0:0:0:0:
160,128,282022,1,0,0:0:0:0:
408,320,282110,1,8,0:0:0:0:
176,120,282287,1,0,0:0:0:0:
368,224,282375,1,8,0:0:0:0:
368,224,282463,1,8,0:0:0:0:
368,224,282640,1,8,0:0:0:0:
344,240,282816,1,8,0:0:0:0:
152,128,282991,1,0,0:0:0:0:
152,128,283051,1,0,0:0:0:0:
137,107,283109,1,0,0:0:0:0:
363,302,283168,1,8,0:0:0:0:
384,256,283345,1,8,0:0:0:0:
192,144,283522,1,0,0:0:0:0:
159,95,283580,1,0,0:0:0:0:
160,95,283639,1,0,0:0:0:0:
315,262,283698,1,8,0:0:0:0:
363,302,283875,1,8,0:0:0:0:
347,286,283963,1,8,0:0:0:0:
176,128,284051,1,0,0:0:0:0:
339,254,284140,1,8,0:0:0:0:
304,232,284316,1,8,0:0:0:0:
160,120,284404,1,0,0:0:0:0:
288,224,284492,1,8,0:0:0:0:
136,112,284581,5,0,0:0:0:0:
344,248,284759,1,8,0:0:0:0:
344,248,284847,1,8,0:0:0:0:
344,248,284935,1,8,0:0:0:0:
376,256,285112,1,8,0:0:0:0:
352,248,285200,1,8,0:0:0:0:
152,96,285288,1,0,0:0:0:0:
336,240,285377,1,8,0:0:0:0:
168,112,285465,1,0,0:0:0:0:
168,112,285553,1,0,0:0:0:0:
336,232,285641,1,8,0:0:0:0:
360,240,285818,1,8,0:0:0:0:
184,112,285994,1,0,0:0:0:0:
392,256,286171,1,8,0:0:0:0:
392,256,286347,1,8,0:0:0:0:
184,112,286524,1,0,0:0:0:0:
184,112,286700,1,0,0:0:0:0:
384,232,286788,1,8,0:0:0:0:
384,232,286877,1,8,0:0:0:0:
384,232,286965,1,8,0:0:0:0:
160,64,287053,1,0,0:0:0:0:
384,232,287141,1,8,0:0:0:0:
208,136,287230,1,0,0:0:0:0:
168,88,287406,1,0,0:0:0:0:
368,224,287583,1,8,0:0:0:0:
408,224,287759,1,8,0:0:0:0:
408,224,287818,1,8,0:0:0:0:
408,224,287877,1,8,0:0:0:0:
160,112,287935,1,0,0:0:0:0:
392,216,288024,1,8,0:0:0:0:
176,104,288112,5,0,0:0:0:0:
200,104,288287,1,0,0:0:0:0:
328,216,288375,1,8,0:0:0:0:
328,216,288463,1,8,0:0:0:0:
360,232,288640,1,8,0:0:0:0:
360,232,288728,1,8,0:0:0:0:
192,112,288816,1,0,0:0:0:0:
312,208,288905,1,8,0:0:0:0:
208,128,288993,1,0,0:0:0:0:
384,312,289081,1,8,0:0:0:0:
192,128,289169,1,0,0:0:0:0:
192,112,289258,1,0,0:0:0:0:
352,264,289346,1,8,0:0:0:0:
368,280,289434,1,8,0:0:0:0:
192,112,289522,1,0,0:0:0:0:
368,280,289610,1,8,0:0:0:0:
368,280,289698,1,8,0:0:0:0:
184,112,289786,1,0,0:0:0:0:
312,240,289874,1,8,0:0:0:0:
184,112,289963,1,0,0:0:0:0:
368,264,290051,1,8,0:0:0:0:
368,264,290139,1,8,0:0:0:0:
352,272,290227,1,8,0:0:0:0:
152,104,290316,1,0,0:0:0:0:
184,104,290404,1,0,0:0:0:0:
351,246,290492,1,8,0:0:0:0:
367,310,290580,1,8,0:0:0:0:
96,80,290669,1,0,0:0:0:0:
335,278,290757,1,8,0:0:0:0:
168,112,290845,1,0,0:0:0:0:
335,286,290933,1,8,0:0:0:0:
335,286,291022,1,8,0:0:0:0:
184,120,291110,1,0,0:0:0:0:
359,302,291198,1,8,0:0:0:0:
184,120,291286,1,0,0:0:0:0:
351,294,291374,1,8,0:0:0:0:
351,294,291463,1,8,0:0:0:0:
351,294,291551,1,8,0:0:0:0:
144,96,291639,5,0,0:0:0:0:
184,120,291816,1,0,0:0:0:0:
369,276,291904,1,8,0:0:0:0:
371,277,291992,1,8,0:0:0:0:
371,277,292169,1,8,0:0:0:0:
164,104,292345,1,0,0:0:0:0:
163,97,292404,1,0,0:0:0:0:
164,104,292463,1,0,0:0:0:0:
164,104,292522,1,0,0:0:0:0:
164,104,292580,1,0,0:0:0:0:
164,104,292639,1,0,0:0:0:0:
368,262,292698,1,8,0:0:0:0:
178,108,293051,1,0,0:0:0:0:
367,245,293139,1,8,0:0:0:0:
359,247,293183,1,8,0:0:0:0:
367,245,293227,1,8,0:0:0:0:
385,264,293315,1,8,0:0:0:0:
367,245,293403,1,8,0:0:0:0:
178,108,293492,1,0,0:0:0:0:
138,72,293580,1,0,0:0:0:0:
299,216,293668,1,8,0:0:0:0:
328,242,293712,1,8,0:0:0:0:
328,242,293756,1,8,0:0:0:0:
133,76,293933,1,0,0:0:0:0:
304,209,294021,1,8,0:0:0:0:
304,209,294065,1,8,0:0:0:0:
305,233,294109,1,8,0:0:0:0:
305,233,294198,1,8,0:0:0:0:
305,233,294286,1,8,0:0:0:0:
149,61,294374,1,0,0:0:0:0:
133,76,294462,1,0,0:0:0:0:
355,198,294551,1,8,0:0:0:0:
345,197,294595,1,8,0:0:0:0:
345,197,294639,1,8,0:0:0:0:
169,91,294815,1,0,0:0:0:0:
99,101,294903,1,8,0:0:0:0:
359,267,294992,1,8,0:0:0:0:
363,248,295036,1,8,0:0:0:0:
354,244,295080,1,8,0:0:0:0:
169,91,295168,5,0,0:0:0:0:
169,91,295345,1,0,0:0:0:0:
359,267,295433,1,8,0:0:0:0:
359,267,295521,1,8,0:0:0:0:
346,247,295698,1,8,0:0:0:0:
174,108,295874,1,0,0:0:0:0:
342,236,295962,1,8,0:0:0:0:
169,91,296051,1,0,0:0:0:0:
309,206,296139,1,8,0:0:0:0:
309,206,296227,1,8,0:0:0:0:
363,236,296403,1,8,0:0:0:0:
350,225,296492,1,8,0:0:0:0:
183,128,296580,1,0,0:0:0:0:
328,230,296668,1,8,0:0:0:0:
328,230,296756,1,8,0:0:0:0:
201,137,296844,1,0,0:0:0:0:
322,224,296932,1,8,0:0:0:0:
192,124,297021,1,0,0:0:0:0:
324,210,297109,1,8,0:0:0:0:
324,210,297197,1,8,0:0:0:0:
182,109,297285,1,0,0:0:0:0:
346,215,297374,1,8,0:0:0:0:
201,137,297462,1,0,0:0:0:0:
303,212,297550,1,8,0:0:0:0:
303,212,297638,1,8,0:0:0:0:
165,114,297727,1,0,0:0:0:0:
340,234,297815,1,8,0:0:0:0:
166,106,297903,1,0,0:0:0:0:
166,106,297991,1,0,0:0:0:0:
346,215,298080,1,8,0:0:0:0:
219,135,298168,1,0,0:0:0:0:
358,222,298256,1,8,0:0:0:0:
358,222,298344,1,8,0:0:0:0:
194,110,298432,1,0,0:0:0:0:
195,111,298521,1,0,0:0:0:0:
340,234,298609,1,8,0:0:0:0:
208,116,298697,5,0,0:0:0:0:
182,116,298874,1,0,0:0:0:0:
338,222,298962,1,8,0:0:0:0:
340,223,299050,1,8,0:0:0:0:
340,223,299138,1,8,0:0:0:0:
144,106,299227,1,0,0:0:0:0:
144,106,299315,1,0,0:0:0:0:
315,233,299403,1,8,0:0:0:0:
187,125,299491,1,0,0:0:0:0:
333,227,299580,1,8,0:0:0:0:
333,227,299668,1,8,0:0:0:0:
342,241,299756,1,8,0:0:0:0:
342,241,299844,1,8,0:0:0:0:
342,241,299932,1,8,0:0:0:0:
342,241,300021,1,8,0:0:0:0:
187,125,300109,5,0,0:0:0:0:
158,135,300286,1,0,0:0:0:0:
158,135,300374,1,0,0:0:0:0:
293,189,300462,1,8,0:0:0:0:
156,96,300551,1,0,0:0:0:0:
171,126,300727,1,0,0:0:0:0:
299,210,300815,1,8,0:0:0:0:
325,215,300904,1,8,0:0:0:0:
170,115,300992,1,0,0:0:0:0:
156,96,301168,1,0,0:0:0:0:
156,96,301257,1,0,0:0:0:0:
311,210,301345,1,8,0:0:0:0:
146,90,301433,1,0,0:0:0:0:
319,226,301521,1,8,0:0:0:0:
364,264,301565,1,8,0:0:0:0:
364,264,301610,1,8,0:0:0:0:
342,265,301698,1,8,0:0:0:0:
351,244,301786,1,8,0:0:0:0:
159,75,301874,1,0,0:0:0:0:
357,228,302051,1,8,0:0:0:0:
357,228,302139,1,8,0:0:0:0:
169,96,302227,5,0,0:0:0:0:
190,122,302404,1,0,0:0:0:0:
320,228,302492,1,8,0:0:0:0:
148,84,302580,1,0,0:0:0:0:
331,226,302668,1,8,0:0:0:0:
174,102,302757,1,0,0:0:0:0:
319,252,302845,1,8,0:0:0:0:
175,96,302933,1,0,0:0:0:0:
175,96,303021,1,0,0:0:0:0:
321,215,303110,1,8,0:0:0:0:
321,215,303198,1,8,0:0:0:0:
184,110,303286,1,0,0:0:0:0:
331,236,303374,1,8,0:0:0:0:
191,121,303462,1,0,0:0:0:0:
192,123,303551,1,0,0:0:0:0:
315,239,303639,1,8,0:0:0:0:
187,113,303727,1,0,0:0:0:0:
187,113,303815,1,0,0:0:0:0:
184,110,303903,1,0,0:0:0:0:
335,241,303991,1,8,0:0:0:0:
170,112,304080,1,0,0:0:0:0:
336,231,304256,1,8,0:0:0:0:
331,229,304344,1,8,0:0:0:0:
154,102,304433,1,0,0:0:0:0:
304,217,304521,1,8,0:0:0:0:
168,128,304609,1,0,0:0:0:0:
335,241,304697,1,8,0:0:0:0:
335,241,304786,1,8,0:0:0:0:
180,116,304874,1,0,0:0:0:0:
314,217,304962,1,8,0:0:0:0:
321,210,305139,1,8,0:0:0:0:
359,258,305227,1,8,0:0:0:0:
178,119,305315,1,0,0:0:0:0:
406,262,305403,1,8,0:0:0:0:
200,140,305491,1,0,0:0:0:0:
300,206,305580,1,8,0:0:0:0:
284,213,305668,1,8,0:0:0:0:
178,119,305756,5,0,0:0:0:0:
192,130,305933,1,0,0:0:0:0:
304,220,306021,1,8,0:0:0:0:
306,222,306109,1,8,0:0:0:0:
173,117,306197,1,0,0:0:0:0:
159,120,306286,1,0,0:0:0:0:
347,250,306374,1,8,0:0:0:0:
185,140,306462,1,0,0:0:0:0:
195,152,306550,1,0,0:0:0:0:
320,246,306639,1,8,0:0:0:0:
178,138,306727,1,0,0:0:0:0:
178,138,306815,1,0,0:0:0:0:
351,268,306903,1,8,0:0:0:0:
163,105,306991,1,0,0:0:0:0:
339,272,307080,1,8,0:0:0:0:
193,126,307168,1,0,0:0:0:0:
347,265,307256,1,8,0:0:0:0:
201,143,307344,1,0,0:0:0:0:
201,143,307432,1,0,0:0:0:0:
288,221,307520,1,8,0:0:0:0:
167,112,307609,1,0,0:0:0:0:
167,112,307697,1,0,0:0:0:0:
288,221,307785,1,8,0:0:0:0:
158,98,307873,1,0,0:0:0:0:
158,98,307962,1,0,0:0:0:0:
262,199,308050,1,8,0:0:0:0:
271,180,308138,1,8,0:0:0:0:
161,96,308226,1,0,0:0:0:0:
309,222,308315,1,8,0:0:0:0:
309,222,308403,1,8,0:0:0:0:
289,206,308491,1,8,0:0:0:0:
158,98,308579,1,0,0:0:0:0:
148,94,308668,1,0,0:0:0:0:
312,215,308756,1,8,0:0:0:0:
129,101,308844,1,0,0:0:0:0:
289,203,308932,1,8,0:0:0:0:
285,202,309020,1,8,0:0:0:0:
127,84,309109,1,0,0:0:0:0:
285,202,309197,1,8,0:0:0:0:
132,88,309285,5,0,0:0:0:0:
313,204,309373,1,8,0:0:0:0:
171,129,309462,1,0,0:0:0:0:
303,234,309550,1,8,0:0:0:0:
303,234,309638,1,8,0:0:0:0:
158,132,309726,1,0,0:0:0:0:
313,213,309815,1,8,0:0:0:0:
155,159,309991,1,0,0:0:0:0:
293,246,310079,1,8,0:0:0:0:
149,142,310168,1,0,0:0:0:0:
150,131,310256,1,0,0:0:0:0:
324,220,310344,1,8,0:0:0:0:
150,131,310432,1,0,0:0:0:0:
150,131,310520,1,0,0:0:0:0:
305,250,310609,1,8,0:0:0:0:
175,118,310697,1,0,0:0:0:0:
164,87,310785,1,0,0:0:0:0:
164,87,310829,1,0,0:0:0:0:
175,72,310873,1,0,0:0:0:0:
348,246,310961,1,8,0:0:0:0:
157,114,311049,1,0,0:0:0:0:
160,113,311138,1,0,0:0:0:0:
293,202,311226,1,8,0:0:0:0:
174,108,311402,1,0,0:0:0:0:
321,233,311491,1,8,0:0:0:0:
164,87,311579,1,0,0:0:0:0:
305,204,311667,1,8,0:0:0:0:
178,79,311755,1,0,0:0:0:0:
302,188,311844,1,8,0:0:0:0:
302,188,311932,1,8,0:0:0:0:
174,95,312020,1,0,0:0:0:0:
294,200,312108,1,8,0:0:0:0:
294,200,312197,1,8,0:0:0:0:
302,193,312373,1,8,0:0:0:0:
193,109,312461,1,0,0:0:0:0:
323,221,312549,1,8,0:0:0:0:
151,81,312638,1,0,0:0:0:0:
271,187,312726,1,8,0:0:0:0:
130,68,312814,5,0,0:0:0:0:
335,235,312991,1,8,0:0:0:0:
335,235,313079,1,8,0:0:0:0:
335,235,313167,1,8,0:0:0:0:
159,105,313255,1,0,0:0:0:0:
159,105,313432,1,0,0:0:0:0:
159,105,313608,1,0,0:0:0:0:
325,234,313697,1,8,0:0:0:0:
180,134,313873,1,0,0:0:0:0:
324,241,313961,1,8,0:0:0:0:
336,239,314138,1,8,0:0:0:0:
156,121,314226,5,0,0:0:0:0:
151,116,314402,1,0,0:0:0:0:
151,116,314490,1,0,0:0:0:0:
316,233,314578,1,8,0:0:0:0:
143,94,314667,1,0,0:0:0:0:
153,104,314843,1,0,0:0:0:0:
300,208,314931,1,8,0:0:0:0:
300,208,315020,1,8,0:0:0:0:
147,92,315108,1,0,0:0:0:0:
143,94,315284,1,0,0:0:0:0:
175,129,315373,1,0,0:0:0:0:
317,226,315461,1,8,0:0:0:0:
168,100,315549,1,0,0:0:0:0:
245,184,315637,1,8,0:0:0:0:
166,79,315696,1,0,0:0:0:0:
159,90,315755,1,0,0:0:0:0:
300,208,315814,1,8,0:0:0:0:
317,226,315902,1,8,0:0:0:0:
187,123,315990,1,0,0:0:0:0:
340,219,316167,1,8,0:0:0:0:
340,219,316255,1,8,0:0:0:0:
145,103,316343,5,0,0:0:0:0:
155,117,316521,1,0,0:0:0:0:
316,219,316609,1,8,0:0:0:0:
158,108,316697,1,0,0:0:0:0:
356,226,316786,1,8,0:0:0:0:
144,116,316874,1,0,0:0:0:0:
320,239,316962,1,8,0:0:0:0:
135,106,317050,1,0,0:0:0:0:
319,237,317139,1,8,0:0:0:0:
319,237,317227,1,8,0:0:0:0:
161,121,317403,1,0,0:0:0:0:
158,99,317492,1,0,0:0:0:0:
157,95,317580,1,0,0:0:0:0:
323,212,317668,1,8,0:0:0:0:
334,220,317756,1,8,0:0:0:0:
161,104,317845,1,0,0:0:0:0:
161,104,317933,1,0,0:0:0:0:
365,237,318021,1,8,0:0:0:0:
136,85,318109,1,0,0:0:0:0:
341,223,318197,1,8,0:0:0:0:
341,223,318286,1,8,0:0:0:0:
340,229,318374,1,8,0:0:0:0:
123,89,318462,1,0,0:0:0:0:
318,212,318550,1,8,0:0:0:0:
123,75,318639,1,0,0:0:0:0:
358,233,318727,1,8,0:0:0:0:
161,121,318815,5,0,0:0:0:0:
154,104,318992,1,0,0:0:0:0:
178,100,319168,1,0,0:0:0:0:
178,100,319256,1,0,0:0:0:0:
311,206,319345,1,8,0:0:0:0:
318,214,319433,1,8,0:0:0:0:
127,99,319521,1,0,0:0:0:0:
132,100,319609,1,0,0:0:0:0:
347,240,319697,1,8,0:0:0:0:
347,240,319786,1,8,0:0:0:0:
127,99,319874,1,0,0:0:0:0:
335,231,319962,1,8,0:0:0:0:
323,212,320050,1,8,0:0:0:0:
127,99,320139,1,0,0:0:0:0:
293,225,320227,1,8,0:0:0:0:
119,84,320315,1,0,0:0:0:0:
291,189,320403,1,8,0:0:0:0:
291,190,320492,1,8,0:0:0:0:
145,110,320580,1,0,0:0:0:0:
295,212,320668,1,8,0:0:0:0:
295,212,320756,1,8,0:0:0:0:
295,212,320845,1,8,0:0:0:0:
87,82,320933,1,0,0:0:0:0:
87,82,321021,1,0,0:0:0:0:
142,89,321109,1,0,0:0:0:0:
295,180,321197,1,8,0:0:0:0:
123,78,321286,5,0,0:0:0:0:
149,100,321462,1,0,0:0:0:0:
149,100,321639,1,0,0:0:0:0:
149,100,321727,1,0,0:0:0:0:
149,100,321815,1,0,0:0:0:0:
341,239,321903,1,8,0:0:0:0:
103,95,321992,1,0,0:0:0:0:
103,95,322080,1,0,0:0:0:0:
314,216,322168,1,8,0:0:0:0:
336,229,322345,1,8,0:0:0:0:
161,112,322433,1,0,0:0:0:0:
161,112,322521,1,0,0:0:0:0:
341,239,322609,1,8,0:0:0:0:
161,102,322697,1,0,0:0:0:0:
161,102,322786,1,0,0:0:0:0:
265,202,322874,1,8,0:0:0:0:
265,202,322962,1,8,0:0:0:0:
175,103,323050,1,0,0:0:0:0:
322,226,323139,1,8,0:0:0:0:
322,226,323227,1,8,0:0:0:0:
316,218,323315,1,8,0:0:0:0:
138,118,323403,1,0,0:0:0:0:
152,135,323492,1,0,0:0:0:0:
138,130,323580,1,0,0:0:0:0:
322,241,323668,1,8,0:0:0:0:
153,103,323756,5,0,0:0:0:0:
322,226,323933,1,8,0:0:0:0:
322,226,324021,1,8,0:0:0:0:
168,96,324109,1,0,0:0:0:0:
329,241,324197,1,8,0:0:0:0:
329,241,324286,1,8,0:0:0:0:
135,89,324374,1,0,0:0:0:0:
300,214,324462,1,8,0:0:0:0:
123,88,324550,1,0,0:0:0:0:
340,237,324639,1,8,0:0:0:0:
183,132,324727,1,0,0:0:0:0:
330,248,324815,1,8,0:0:0:0:
329,241,324903,1,8,0:0:0:0:
329,241,324992,1,8,0:0:0:0:
173,123,325080,1,0,0:0:0:0:
183,132,325168,1,0,0:0:0:0:
361,235,325345,1,8,0:0:0:0:
342,229,325433,1,8,0:0:0:0:
162,120,325521,1,0,0:0:0:0:
181,148,325609,1,0,0:0:0:0:
181,148,325697,1,0,0:0:0:0:
360,233,325786,1,8,0:0:0:0:
184,119,325874,1,0,0:0:0:0:
184,119,325962,1,0,0:0:0:0:
184,119,326050,1,0,0:0:0:0:
170,124,326227,5,4,0:0:0:0:
150,121,326403,1,4,0:0:0:0:
316,264,326579,1,8,0:0:0:0:
364,263,326756,1,8,0:0:0:0:
174,105,326844,1,0,0:0:0:0:
174,105,326932,1,0,0:0:0:0:
338,261,327021,1,8,0:0:0:0:
338,261,327109,1,8,0:0:0:0:
338,261,327285,1,8,0:0:0:0:
321,244,327374,1,8,0:0:0:0:
106,99,327462,1,0,0:0:0:0:
153,265,327638,1,4,0:0:0:0:
106,99,327815,1,4,0:0:0:0:
310,235,327991,1,8,0:0:0:0:
310,235,328168,1,8,0:0:0:0:
310,235,328256,1,8,0:0:0:0:
133,120,328344,1,0,0:0:0:0:
343,262,328432,1,8,0:0:0:0:
133,120,328521,1,0,0:0:0:0:
133,120,328609,1,0,0:0:0:0:
256,205,328697,1,8,0:0:0:0:
338,244,328785,1,8,0:0:0:0:
163,135,328874,1,0,0:0:0:0:
153,265,329050,5,4,0:0:0:0:
160,120,329227,1,0,0:0:0:0:
160,120,329315,1,0,0:0:0:0:
371,249,329403,1,8,0:0:0:0:
371,249,329579,1,8,0:0:0:0:
183,137,329756,1,0,0:0:0:0:
340,245,329844,1,8,0:0:0:0:
340,246,329932,1,8,0:0:0:0:
163,128,330109,1,0,0:0:0:0:
346,283,330197,1,8,0:0:0:0:
144,157,330285,1,0,0:0:0:0:
153,265,330462,1,4,0:0:0:0:
152,233,330638,1,4,0:0:0:0:
345,241,330815,1,8,0:0:0:0:
328,234,330991,1,8,0:0:0:0:
328,234,331079,1,8,0:0:0:0:
334,241,331168,1,8,0:0:0:0:
157,119,331256,1,0,0:0:0:0:
315,249,331344,1,8,0:0:0:0:
314,251,331521,1,8,0:0:0:0:
141,123,331609,1,0,0:0:0:0:
300,230,331697,1,8,0:0:0:0:
312,239,331785,1,8,0:0:0:0:
139,97,331874,5,0,0:0:0:0:
322,248,331962,1,8,0:0:0:0:
155,111,332050,1,0,0:0:0:0:
138,108,332138,1,0,0:0:0:0:
329,236,332227,1,8,0:0:0:0:
148,83,332315,1,0,0:0:0:0:
153,231,332403,1,0,0:0:0:0:
351,220,332491,1,8,0:0:0:0:
153,133,332579,1,0,0:0:0:0:
137,90,332668,1,0,0:0:0:0:
313,245,332756,1,8,0:0:0:0:
319,251,332844,1,8,0:0:0:0:
169,213,332932,1,0,0:0:0:0:
303,217,333021,1,8,0:0:0:0:
328,240,333109,1,8,0:0:0:0:
166,247,333285,5,4,0:0:0:0:
157,85,333462,1,0,0:0:0:0:
315,208,333550,1,8,0:0:0:0:
315,208,333638,1,8,0:0:0:0:
352,228,333815,1,8,0:0:0:0:
352,228,333874,1,8,0:0:0:0:
352,228,333932,1,8,0:0:0:0:
161,106,333991,1,0,0:0:0:0:
172,130,334079,1,0,0:0:0:0:
283,213,334168,1,8,0:0:0:0:
181,134,334344,1,0,0:0:0:0:
272,222,334432,1,8,0:0:0:0:
316,228,334521,1,8,0:0:0:0:
171,102,334609,1,0,0:0:0:0:
297,225,334697,5,8,0:0:0:0:
186,87,334874,1,0,0:0:0:0:
309,191,335050,1,8,0:0:0:0:
181,98,335227,1,0,0:0:0:0:
181,98,335315,1,0,0:0:0:0:
184,86,335403,1,0,0:0:0:0:
315,204,335579,1,8,0:0:0:0:
138,80,335756,1,0,0:0:0:0:
138,80,335844,1,0,0:0:0:0:
328,213,335932,1,8,0:0:0:0:
130,221,336109,1,4,0:0:0:0:
130,221,336285,1,4,0:0:0:0:
362,262,336462,1,8,0:0:0:0:
155,118,336638,1,0,0:0:0:0:
328,253,336727,1,8,0:0:0:0:
155,118,336815,1,0,0:0:0:0:
339,237,336903,1,8,0:0:0:0:
339,237,336991,1,8,0:0:0:0:
121,124,337168,1,0,0:0:0:0:
307,258,337256,1,8,0:0:0:0:
128,102,337344,1,0,0:0:0:0:
119,104,337521,5,4,0:0:0:0:
342,247,337697,1,8,0:0:0:0:
342,247,337874,1,8,0:0:0:0:
147,107,338050,1,0,0:0:0:0:
293,239,338138,1,8,0:0:0:0:
165,106,338227,1,0,0:0:0:0:
165,106,338315,1,0,0:0:0:0:
280,215,338403,1,8,0:0:0:0:
166,104,338491,1,0,0:0:0:0:
166,104,338579,1,0,0:0:0:0:
273,204,338668,1,8,0:0:0:0:
152,102,338756,1,0,0:0:0:0:
311,233,338844,1,8,0:0:0:0:
108,89,338932,1,0,0:0:0:0:
159,76,339021,1,0,0:0:0:0:
330,224,339109,1,8,0:0:0:0:
159,97,339197,1,0,0:0:0:0:
286,199,339285,1,8,0:0:0:0:
293,206,339374,1,8,0:0:0:0:
124,96,339462,1,0,0:0:0:0:
295,235,339550,1,8,0:0:0:0:
138,69,339638,1,0,0:0:0:0:
138,69,339727,1,0,0:0:0:0:
305,216,339815,1,8,0:0:0:0:
304,216,339903,1,8,0:0:0:0:
134,80,339991,1,0,0:0:0:0:
304,216,340079,1,8,0:0:0:0:
308,203,340168,1,8,0:0:0:0:
129,264,340344,5,4,0:0:0:0:
165,122,340521,1,0,0:0:0:0:
165,122,340609,1,0,0:0:0:0:
317,229,340697,1,8,0:0:0:0:
128,233,340874,1,4,0:0:0:0:
138,97,341050,1,0,0:0:0:0:
324,243,341138,1,8,0:0:0:0:
138,97,341227,1,0,0:0:0:0:
138,97,341315,1,0,0:0:0:0:
269,219,341403,1,8,0:0:0:0:
324,243,341579,1,8,0:0:0:0:
126,247,341756,5,4,0:0:0:0:
306,257,341932,1,8,0:0:0:0:
306,257,342109,1,8,0:0:0:0:
303,253,342197,1,8,0:0:0:0:
152,129,342285,1,0,0:0:0:0:
305,242,342374,1,8,0:0:0:0:
139,104,342462,1,0,0:0:0:0:
139,104,342550,1,0,0:0:0:0:
329,254,342638,1,8,0:0:0:0:
319,241,342727,1,8,0:0:0:0:
160,84,342815,1,0,0:0:0:0:
315,247,342903,1,8,0:0:0:0:
116,134,342991,1,0,0:0:0:0:
143,222,343168,5,4,0:0:0:0:
143,222,343344,1,4,0:0:0:0:
305,251,343521,1,8,0:0:0:0:
298,235,343697,1,8,0:0:0:0:
143,109,343785,1,0,0:0:0:0:
143,109,343874,1,0,0:0:0:0:
306,226,343962,1,8,0:0:0:0:
306,226,344050,1,8,0:0:0:0:
302,216,344227,1,8,0:0:0:0:
113,94,344315,1,0,0:0:0:0:
116,101,344403,1,0,0:0:0:0:
118,256,344579,5,4,0:0:0:0:
155,222,344756,1,4,0:0:0:0:
320,254,344932,1,8,0:0:0:0:
335,248,345109,1,8,0:0:0:0:
150,105,345197,1,0,0:0:0:0:
150,105,345285,1,0,0:0:0:0:
150,105,345374,1,0,0:0:0:0:
313,239,345462,1,8,0:0:0:0:
324,232,345638,1,8,0:0:0:0:
313,251,345727,1,8,0:0:0:0:
135,122,345815,1,0,0:0:0:0:
97,98,345991,5,4,0:0:0:0:
144,239,346168,1,4,0:0:0:0:
335,270,346344,1,8,0:0:0:0:
315,243,346521,1,8,0:0:0:0:
315,243,346609,1,8,0:0:0:0:
132,111,346697,1,0,0:0:0:0:
132,111,346785,1,0,0:0:0:0:
346,274,346874,1,8,0:0:0:0:
147,108,346962,1,0,0:0:0:0:
274,220,347050,1,8,0:0:0:0:
326,260,347138,1,8,0:0:0:0:
173,107,347227,1,0,0:0:0:0:
143,256,347403,5,4,0:0:0:0:
320,248,347579,1,8,0:0:0:0:
347,243,347756,1,8,0:0:0:0:
347,243,347844,1,8,0:0:0:0:
174,128,347932,1,0,0:0:0:0:
329,252,348021,1,8,0:0:0:0:
149,117,348109,1,0,0:0:0:0:
349,240,348197,1,8,0:0:0:0:
125,108,348285,1,0,0:0:0:0:
349,240,348374,1,8,0:0:0:0:
157,107,348462,1,0,0:0:0:0:
305,230,348550,1,8,0:0:0:0:
305,230,348638,1,8,0:0:0:0:
374,281,348727,1,8,0:0:0:0:
149,266,348815,5,0,0:0:0:0:
351,271,348903,1,8,0:0:0:0:
351,271,348991,1,8,0:0:0:0:
335,247,349079,1,8,0:0:0:0:
335,247,349168,1,8,0:0:0:0:
335,247,349344,1,8,0:0:0:0:
134,73,349432,1,0,0:0:0:0:
134,73,349477,1,0,0:0:0:0:
134,73,349521,1,0,0:0:0:0:
308,245,349609,1,8,0:0:0:0:
134,73,349697,1,0,0:0:0:0:
134,73,349741,1,0,0:0:0:0:
134,73,349785,1,0,0:0:0:0:
308,245,349874,1,8,0:0:0:0:
72,80,349962,1,0,0:0:0:0:
308,245,350050,1,8,0:0:0:0:
308,245,350138,1,8,0:0:0:0:
115,92,350227,5,0,0:0:0:0:
324,250,350403,1,8,0:0:0:0:
158,138,350491,1,0,0:0:0:0:
158,138,350579,1,0,0:0:0:0:
323,228,350756,1,8,0:0:0:0:
323,228,350844,1,8,0:0:0:0:
99,107,350932,1,0,0:0:0:0:
344,235,351109,1,8,0:0:0:0:
344,235,351197,1,8,0:0:0:0:
136,113,351285,1,0,0:0:0:0:
136,113,351374,1,0,0:0:0:0:
348,250,351462,1,8,0:0:0:0:
348,250,351550,1,8,0:0:0:0:
136,113,351638,1,0,0:0:0:0:
139,103,351815,1,0,0:0:0:0:
307,216,351903,1,8,0:0:0:0:
151,92,351991,1,0,0:0:0:0:
322,206,352168,1,8,0:0:0:0:
322,206,352256,1,8,0:0:0:0:
159,68,352344,1,0,0:0:0:0:
159,68,352432,1,0,0:0:0:0:
292,193,352521,1,8,0:0:0:0:
294,196,352609,1,8,0:0:0:0:
178,113,352697,1,0,0:0:0:0:
331,221,352785,1,8,0:0:0:0:
167,96,352874,1,0,0:0:0:0:
167,96,352962,1,0,0:0:0:0:
298,225,353050,1,8,0:0:0:0:
178,113,353138,1,0,0:0:0:0:
178,113,353227,1,0,0:0:0:0:
333,201,353315,1,8,0:0:0:0:
120,84,353403,1,0,0:0:0:0:
159,62,353491,1,0,0:0:0:0:
310,198,353579,1,8,0:0:0:0:
303,216,353668,1,8,0:0:0:0:
191,114,353756,1,0,0:0:0:0:
277,199,353844,1,8,0:0:0:0:
115,66,353932,1,0,0:0:0:0:
115,66,354021,1,0,0:0:0:0:
328,241,354109,1,8,0:0:0:0:
328,241,354197,1,8,0:0:0:0:
328,241,354285,1,8,0:0:0:0:
331,227,354374,1,8,0:0:0:0:
139,263,354462,5,4,0:0:0:0:
158,108,355874,1,0,0:0:0:0:
107,120,356227,1,0,0:0:0:0:
362,252,357285,1,8,0:0:0:0:
148,128,357638,1,0,0:0:0:0:
160,128,358697,1,0,0:0:0:0:
369,241,358874,1,8,0:0:0:0:
143,116,359050,1,0,0:0:0:0:
362,290,360109,1,8,0:0:0:0:
372,281,360285,1,8,0:0:0:0:
147,104,360462,1,0,0:0:0:0:
146,103,361521,1,0,0:0:0:0:
333,260,361874,1,8,0:0:0:0:
333,260,361962,1,8,0:0:0:0:
170,73,362050,1,0,0:0:0:0:
170,73,362138,1,0,0:0:0:0:
170,73,362227,1,0,0:0:0:0:
346,242,362932,1,8,0:0:0:0:
156,76,363285,1,0,0:0:0:0:
378,310,364344,1,8,0:0:0:0:
368,264,364697,1,8,0:0:0:0:
104,96,365756,1,0,0:0:0:0:
364,274,365932,1,8,0:0:0:0:
112,124,366109,1,0,0:0:0:0:
364,274,366462,1,8,0:0:0:0:
364,274,366638,1,8,0:0:0:0:
173,110,366815,1,0,0:0:0:0:
345,252,367168,1,8,0:0:0:0:
183,106,367344,1,0,0:0:0:0:
355,204,367521,1,8,0:0:0:0:
387,240,367874,1,8,0:0:0:0:
350,223,368050,1,8,0:0:0:0:
348,222,368227,1,8,0:0:0:0:
129,111,368579,1,0,0:0:0:0:
366,226,368932,1,8,0:0:0:0:
359,214,369021,1,8,0:0:0:0:
359,214,369109,1,8,0:0:0:0:
359,214,369197,1,8,0:0:0:0:
170,84,369285,1,0,0:0:0:0:
129,111,369991,1,0,0:0:0:0:
166,79,370344,1,0,0:0:0:0:
351,208,371403,1,8,0:0:0:0:
168,104,371756,1,0,0:0:0:0:
163,95,372815,5,0,0:0:0:0:
390,249,372991,1,8,0:0:0:0:
110,90,373168,1,0,0:0:0:0:
339,226,374227,1,8,0:0:0:0:
339,226,374403,1,8,0:0:0:0:
126,77,374579,1,0,0:0:0:0:
172,64,375638,1,0,0:0:0:0:
168,104,375991,1,0,0:0:0:0:
337,240,376079,1,8,0:0:0:0:
146,93,376168,1,0,0:0:0:0:
146,92,376344,1,0,0:0:0:0:
355,245,377050,1,8,0:0:0:0:
175,97,377403,1,0,0:0:0:0:
353,223,378462,1,8,0:0:0:0:
160,102,378815,1,0,0:0:0:0:
166,120,379929,1,0,0:0:0:0:
331,282,380116,1,8,0:0:0:0:
126,105,380304,1,0,0:0:0:0:
136,111,380679,1,0,0:0:0:0:
328,266,380879,1,8,0:0:0:0:
346,275,381079,1,8,0:0:0:0:
165,101,381479,1,0,0:0:0:0:
349,255,381684,1,8,0:0:0:0:
174,121,381889,1,0,0:0:0:0:
204,132,382300,1,0,0:0:0:0:
320,241,382506,1,8,0:0:0:0:
320,241,382711,1,8,0:0:0:0:
