osu file format v14

[General]
AudioFilename: ktsark.mp3
AudioLeadIn: 0
PreviewTime: 403628
Countdown: 0
SampleSet: None
StackLeniency: 0.7
Mode: 0
LetterboxInBreaks: 0
WidescreenStoryboard: 0

[Editor]
Bookmarks: 87421,97077,152077,174404,270870,309318,365697,406042,424663,444663,482766
DistanceSpacing: 1
BeatDivisor: 6
GridSize: 8
TimelineZoom: 1.5

[Metadata]
Title:Ketsarku Mozgalom
TitleUnicode:Kétsarkú Mozgalom
Artist:Venetian Snares
ArtistUnicode:Venetian Snares
Creator:orinel
Version:Last Pigeon
Source:
Tags:Rossz Csillag Alatt Született breakcore classical instrumental marathon
BeatmapID:1155233
BeatmapSetID:545238

[Difficulty]
HPDrainRate:6
CircleSize:4.2
OverallDifficulty:9
ApproachRate:9.4
SliderMultiplier:1.4
SliderTickRate:1

[Events]
//Background and Video events
0,0,"Rossz-Csillag-Alatt-Sz_C3_BCletett-cover.png",0,0
//Break Periods
2,181759,183573
2,188889,193197
2,199059,202350
2,211031,212490
2,217867,222198
2,228013,231763
2,237140,241448
2,247263,251351
2,403456,405472
//Storyboard Layer 0 (Background)
//Storyboard Layer 1 (Fail)
//Storyboard Layer 2 (Pass)
//Storyboard Layer 3 (Foreground)
//Storyboard Sound Samples

[TimingPoints]
39146,344.827586206897,7,2,1,40,1,0
39146,-75.187969924812,7,2,1,40,0,0
40180,-60.2409638554217,7,2,1,40,0,0
40525,-75.187969924812,7,2,1,40,0,0
42594,-60.2409638554217,7,2,1,40,0,0
42939,-75.187969924812,7,2,1,40,0,0
44318,-66.6666666666667,7,2,1,40,0,0
45008,-60.2409638554217,7,2,1,40,0,0
45352,-75.187969924812,7,2,1,40,0,0
46387,-75.187969924812,7,2,1,40,0,0
47421,-60.2409638554217,7,2,1,40,0,0
47766,-75.187969924812,7,2,1,40,0,0
49835,-60.2409638554217,7,2,1,40,0,0
50180,-75.187969924812,7,2,1,40,0,0
52249,-60.2409638554217,7,2,1,40,0,0
52594,-75.187969924812,7,2,1,40,0,0
53973,-66.6666666666667,7,2,1,40,0,0
54663,-60.2409638554217,7,2,1,40,0,0
55008,-75.187969924812,7,2,1,40,0,0
57077,-60.2409638554217,7,2,1,40,0,0
57421,-75.187969924812,7,2,1,40,0,0
58456,-60.2409638554217,7,2,1,40,0,0
68111,-75.187969924812,7,2,1,40,0,0
69145,-60.2409638554217,7,2,1,40,0,0
69490,-75.187969924812,7,2,1,40,0,0
71559,-60.2409638554217,7,2,1,40,0,0
71904,-75.187969924812,7,2,1,40,0,0
73283,-66.6666666666667,7,2,1,40,0,0
73973,-60.2409638554217,7,2,1,40,0,0
74318,-75.187969924812,7,2,1,40,0,0
76387,-60.2409638554217,7,2,1,40,0,0
76732,-75.187969924812,7,2,1,40,0,0
78111,-66.6666666666667,7,2,1,40,0,0
78801,-60.2409638554217,7,2,1,40,0,0
79145,-75.187969924812,7,2,1,40,0,0
81214,-60.2409638554217,7,2,1,40,0,0
81559,-75.187969924812,7,2,1,40,0,0
82939,-66.6666666666667,7,2,1,40,0,0
83628,-60.2409638554217,7,2,1,40,0,0
83973,-75.187969924812,7,2,1,40,0,0
86042,-60.2409638554217,7,2,1,40,0,0
86387,-75.187969924812,7,2,1,40,0,0
87421,-75.187969924812,7,2,1,40,0,0
88456,-60.2409638554217,7,2,1,40,0,0
88801,-75.187969924812,7,2,1,40,0,0
90870,-60.2409638554217,7,2,1,40,0,0
91214,-75.187969924812,7,2,1,40,0,0
95352,-100,7,2,1,40,0,0
96387,-75.187969924812,7,2,1,40,0,0
97077,-75.187969924812,7,3,1,61,0,0
97766,-58.8235294117647,7,3,1,61,0,0
97939,-75.187969924812,7,3,1,5,0,0
98025,-58.8235294117647,7,3,1,61,0,0
98197,-75.187969924812,7,3,1,5,0,0
98283,-75.187969924812,7,3,1,61,0,0
98370,-75.187969924812,7,3,1,5,0,0
98456,-75.187969924812,7,3,1,61,0,0
100180,-58.8235294117647,7,3,1,61,0,0
100352,-75.187969924812,7,3,1,5,0,0
100439,-58.8235294117647,7,3,1,61,0,0
100611,-75.187969924812,7,3,1,5,0,0
100697,-75.187969924812,7,3,1,61,0,0
106732,-75.187969924812,7,3,1,61,0,0
107421,-58.8235294117647,7,3,1,61,0,0
107594,-58.8235294117647,7,3,1,5,0,0
107680,-58.8235294117647,7,3,1,61,0,0
107852,-58.8235294117647,7,3,1,5,0,0
107939,-58.8235294117647,7,3,1,61,0,0
108025,-58.8235294117647,7,3,1,5,0,0
108111,-75.187969924812,7,3,1,61,0,0
109835,-58.8235294117647,7,3,1,61,0,0
110008,-75.187969924812,7,3,1,5,0,0
110094,-58.8235294117647,7,3,1,61,0,0
110266,-75.187969924812,7,3,1,5,0,0
110352,-75.187969924812,7,3,1,61,0,0
110525,-58.8235294117647,7,3,1,61,0,0
110783,-75.187969924812,7,3,1,20,0,0
111387,-75.187969924812,7,3,1,70,0,0
111559,-75.187969924812,7,3,1,61,0,0
114490,-58.8235294117647,7,3,1,61,0,0
114577,-75.187969924812,7,3,1,5,0,0
114663,-58.8235294117647,7,3,1,61,0,0
114835,-75.187969924812,7,3,1,5,0,0
114921,-58.8235294117647,7,3,1,61,0,0
115094,-75.187969924812,7,3,1,5,0,0
115180,-58.8235294117647,7,3,1,61,0,0
115266,-75.187969924812,7,3,1,5,0,0
115352,-75.187969924812,7,3,1,61,0,0
115697,-58.8235294117647,7,3,1,61,0,0
115956,-75.187969924812,7,3,1,5,0,0
116042,-75.187969924812,7,3,1,61,0,0
117766,-75.187969924812,7,3,1,61,0,0
118456,-75.187969924812,7,3,1,61,0,0
120697,-54.6448087431694,7,3,1,80,0,0
121214,-75.187969924812,7,3,1,61,0,0
122594,-58.8235294117647,7,3,1,61,0,0
122766,-75.187969924812,7,3,1,61,0,0
123283,-61.3496932515337,7,3,1,61,0,0
123628,-75.187969924812,7,3,1,61,0,0
125697,-66.6666666666667,7,3,1,61,0,0
126042,-75.187969924812,7,3,1,61,0,0
126732,-60.2409638554217,7,3,1,61,0,0
126990,-75.187969924812,7,3,1,61,0,0
132766,-50,7,3,1,61,0,0
133111,-75.187969924812,7,3,1,61,0,0
135697,-142.857142857143,7,2,1,61,0,0
136128,-142.857142857143,7,2,1,5,0,0
136214,-111.111111111111,7,2,1,30,0,0
137077,-142.857142857143,7,2,1,5,0,0
138111,-333.333333333333,7,2,1,30,0,0
139490,-200,7,2,1,5,0,0
140525,-142.857142857143,7,2,1,30,0,0
141904,-200,7,2,1,5,0,0
142939,-333.333333333333,7,2,1,30,0,0
144835,-200,7,2,1,5,0,0
144921,-75.187969924812,7,3,1,26,0,0
145051,-75.187969924812,7,3,1,44,0,0
145180,-75.187969924812,7,3,1,61,0,0
147421,-50,7,3,1,61,0,0
147766,-75.187969924812,7,3,1,61,0,0
149146,-50,7,3,1,61,0,0
149447,-75.187969924812,7,3,1,20,0,0
150180,-75.187969924812,7,3,1,61,0,0
151042,-100,7,3,1,61,0,0
151387,-133.333333333333,7,3,1,5,0,0
152077,-75.187969924812,7,3,1,5,0,0
152594,-50,7,3,1,20,0,0
153628,-200,7,3,1,5,0,0
154232,-75.187969924812,7,3,1,5,0,0
154490,-75.187969924812,7,3,1,15,0,0
154663,-75.187969924812,7,3,1,30,0,0
154749,-75.187969924812,7,3,1,35,0,0
154835,-75.187969924812,7,3,1,40,0,0
154921,-75.187969924812,7,3,1,45,0,0
155008,-75.187969924812,7,3,1,50,0,0
156387,-75.187969924812,7,3,1,35,0,0
156732,-75.187969924812,7,3,1,50,0,0
156904,-75.187969924812,7,3,1,15,0,0
157077,-75.187969924812,7,3,1,35,0,0
157421,-75.187969924812,7,3,1,50,0,0
158801,-75.187969924812,7,3,1,35,0,0
159146,-75.187969924812,7,3,1,50,0,0
159318,-75.187969924812,7,3,1,15,0,0
159490,-75.187969924812,7,3,1,35,0,0
159835,-75.187969924812,7,3,1,50,0,0
161214,-75.187969924812,7,3,1,35,0,0
161559,-75.187969924812,7,3,1,50,0,0
161732,-75.187969924812,7,3,1,15,0,0
161904,-75.187969924812,7,3,1,35,0,0
162249,-75.187969924812,7,3,1,50,0,0
163628,-75.187969924812,7,3,1,35,0,0
163973,-75.187969924812,7,3,1,50,0,0
164146,-75.187969924812,7,3,1,15,0,0
164318,-75.187969924812,7,3,1,35,0,0
164663,-75.187969924812,7,3,1,50,0,0
166042,-75.187969924812,7,3,1,35,0,0
166387,-75.187969924812,7,3,1,50,0,0
166559,-75.187969924812,7,3,1,15,0,0
166732,-75.187969924812,7,3,1,35,0,0
167077,-75.187969924812,7,3,1,50,0,0
168456,-75.187969924812,7,3,1,35,0,0
168801,-75.187969924812,7,3,1,50,0,0
168973,-75.187969924812,7,3,1,15,0,0
169146,-75.187969924812,7,3,1,35,0,0
169490,-75.187969924812,7,3,1,50,0,0
170870,-75.187969924812,7,3,1,35,0,0
171214,-75.187969924812,7,3,1,50,0,0
171387,-75.187969924812,7,3,1,15,0,0
171559,-75.187969924812,7,3,1,35,0,0
171904,-75.187969924812,7,3,1,50,0,0
176732,-75.187969924812,7,3,1,5,0,0
184113,658.173913043478,3,2,1,30,1,0
184113,-76.9230769230769,7,2,1,30,0,0
184661,-76.9230769230769,7,2,1,5,0,0
184771,-100,7,2,1,30,0,0
185758,-76.9230769230769,7,2,1,5,0,0
185868,-66.6666666666667,7,2,1,30,0,0
186087,-76.9230769230769,7,2,1,5,0,0
186197,-76.9230769230769,7,2,1,30,0,0
186636,-76.9230769230769,7,2,1,5,0,0
186745,-100,7,2,1,30,0,0
187623,-76.9230769230769,7,2,1,5,0,0
187732,-66.6666666666667,7,2,1,30,0,0
187897,-76.9230769230769,7,2,1,5,0,0
188023,666.666666666667,7,2,1,30,1,0
188023,-76.9230769230769,7,2,1,30,0,0
188689,-76.9230769230769,7,2,1,5,0,0
193767,650.173913043478,3,2,1,30,1,0
193767,-100,7,2,1,5,0,0
194308,-76.9230769230769,7,2,1,5,0,0
194417,-76.9230769230769,7,2,1,30,0,0
195392,-76.9230769230769,7,2,1,5,0,0
195500,-76.9230769230769,7,2,1,30,0,0
195717,-76.9230769230769,7,2,1,5,0,0
195825,-71.4285714285714,7,2,1,30,0,0
196367,-76.9230769230769,7,2,1,5,0,0
196476,-66.6666666666667,7,2,1,30,0,0
197234,-76.9230769230769,7,2,1,5,0,0
197342,-76.9230769230769,7,2,1,30,0,0
197559,-76.9230769230769,7,2,1,5,0,0
197668,-76.9230769230769,7,2,1,30,0,0
198318,-76.9230769230769,7,2,1,5,0,0
198426,-100,7,2,1,30,0,0
198860,-76.9230769230769,7,2,1,5,0,0
201362,789.190476190476,3,2,1,30,1,0
203400,-66.6666666666667,7,2,1,30,0,0
203598,-76.9230769230769,7,2,1,5,0,0
203729,-90.9090909090909,7,2,1,30,0,0
204452,-76.9230769230769,7,2,1,5,0,0
204584,-66.6666666666667,7,2,1,30,0,0
205965,-76.9230769230769,7,2,1,5,0,0
206097,-76.9230769230769,7,2,1,30,0,0
206754,-76.9230769230769,7,2,1,5,0,0
206886,-90.9090909090909,7,2,1,30,0,0
207938,-76.9230769230769,7,2,1,5,0,0
208168,-71.4285714285714,7,2,1,30,0,0
210832,-76.9230769230769,7,2,1,5,0,0
213060,658.173913043478,3,2,1,30,1,0
213060,-76.9230769230769,7,2,1,30,0,0
213608,-76.9230769230769,7,2,1,5,0,0
213718,-66.6666666666667,7,2,1,30,0,0
214595,-76.9230769230769,7,2,1,5,0,0
214705,-58.8235294117647,7,2,1,30,0,0
214924,-76.9230769230769,7,2,1,5,0,0
215034,-90.9090909090909,7,2,1,30,0,0
215583,-76.9230769230769,7,2,1,5,0,0
215692,-100,7,2,1,30,0,0
216570,-76.9230769230769,7,2,1,5,0,0
216679,-71.4285714285714,7,2,1,30,0,0
216899,-76.9230769230769,7,2,1,5,0,0
217009,-100,7,2,1,30,0,0
217667,-100,7,2,1,5,0,0
222768,658.173913043478,3,2,1,30,1,0
222768,-76.9230769230769,7,2,1,30,0,0
223316,-76.9230769230769,7,2,1,5,0,0
223426,-100,7,2,1,30,0,0
224303,-76.9230769230769,7,2,1,5,0,0
224413,-66.6666666666667,7,2,1,30,0,0
224632,-76.9230769230769,7,2,1,5,0,0
224742,-66.6666666666667,7,2,1,30,0,0
225291,-76.9230769230769,7,2,1,5,0,0
225400,-100,7,2,1,30,0,0
226278,-76.9230769230769,7,2,1,5,0,0
226387,-76.9230769230769,7,2,1,30,0,0
226607,-76.9230769230769,7,2,1,5,0,0
226717,-71.4285714285714,7,2,1,30,0,0
227320,-76.9230769230769,7,2,1,5,0,0
227430,-62.5,7,2,1,30,0,0
227814,-76.9230769230769,7,2,1,5,0,0
232333,658.173913043478,3,2,1,30,1,0
232333,-90.9090909090909,7,2,1,30,0,0
232881,-76.9230769230769,7,2,1,5,0,0
232991,-71.4285714285714,7,2,1,30,0,0
233978,-76.9230769230769,7,2,1,5,0,0
234088,-66.6666666666667,7,2,1,30,0,0
234307,-76.9230769230769,7,2,1,5,0,0
234417,-76.9230769230769,7,2,1,30,0,0
234965,-76.9230769230769,7,2,1,5,0,0
235075,-90.9090909090909,7,2,1,30,0,0
235843,-76.9230769230769,7,2,1,5,0,0
235952,-66.6666666666667,7,2,1,30,0,0
236172,-76.9230769230769,7,2,1,5,0,0
236282,-90.9090909090909,7,2,1,30,0,0
236940,-76.9230769230769,7,2,1,5,0,0
242018,658.173913043478,3,2,1,30,1,0
242018,-76.9230769230769,7,2,1,30,0,0
242566,-76.9230769230769,7,2,1,5,0,0
242676,-76.9230769230769,7,2,1,30,0,0
243553,-76.9230769230769,7,2,1,5,0,0
243663,-66.6666666666667,7,2,1,30,0,0
243882,-76.9230769230769,7,2,1,5,0,0
243992,-76.9230769230769,7,2,1,30,0,0
244541,-76.9230769230769,7,2,1,5,0,0
244650,-90.9090909090909,7,2,1,30,0,0
245528,-76.9230769230769,7,2,1,5,0,0
245637,-66.6666666666667,7,2,1,30,0,0
245857,-76.9230769230769,7,2,1,5,0,0
245967,-76.9230769230769,7,2,1,30,0,0
246625,-76.9230769230769,7,2,1,5,0,0
246734,-100,7,2,1,30,0,0
247064,-76.9230769230769,7,2,1,5,0,0
251684,712.173913043478,3,2,1,30,1,0
251921,-100,7,2,1,30,0,0
253345,-100,7,2,1,5,0,0
253464,-83.3333333333333,7,2,1,30,0,0
254414,-100,7,2,1,5,0,0
254532,-71.4285714285714,7,2,1,30,0,0
255482,-100,7,2,1,5,0,0
255600,-66.6666666666667,7,2,1,30,0,0
256550,-100,7,2,1,5,0,0
256669,-66.6666666666667,7,2,1,30,0,0
257737,-100,7,2,1,5,0,0
257856,-76.9230769230769,7,2,1,30,0,0
258152,-100,7,2,1,5,0,0
258271,-83.3333333333333,7,2,1,30,0,0
259043,-100,7,2,1,5,0,0
259161,-66.6666666666667,7,2,1,30,0,0
259874,-100,7,2,1,5,0,0
261248,671.173913043478,3,2,1,30,1,0
261248,-100,7,2,1,30,0,0
262142,-100,7,2,1,5,0,0
262254,-76.9230769230769,7,2,1,30,0,0
262478,-100,7,2,1,5,0,0
262590,-76.9230769230769,7,2,1,30,0,0
263149,-100,7,2,1,5,0,0
263261,-100,7,2,1,30,0,0
264156,-100,7,2,1,5,0,0
264268,-76.9230769230769,7,2,1,30,0,0
264492,-100,7,2,1,5,0,0
264603,-100,7,2,1,30,0,0
265275,-100,7,2,1,5,0,0
265386,-100,7,2,1,30,0,0
266393,-100,7,2,1,5,0,0
268457,662.173913043478,3,2,1,30,1,0
268457,-200,7,2,1,30,0,0
269008,-100,7,2,1,5,0,0
270870,344.827586206897,7,2,1,60,1,0
270870,-75.187969924812,7,3,1,61,0,0
296732,-200,7,3,1,61,0,0
297421,-75.187969924812,7,3,1,61,0,0
304490,-60.2409638554217,7,3,1,61,0,0
304663,-75.187969924812,7,3,1,61,0,0
305180,-60.2409638554217,7,3,1,61,0,0
305352,-75.187969924812,7,3,1,61,0,0
305870,-60.2409638554217,7,3,1,60,0,0
306042,-75.187969924812,7,3,1,61,0,0
308456,-75.187969924812,7,3,1,61,0,0
308628,-75.187969924812,7,3,1,50,0,0
308801,-75.187969924812,7,3,1,40,0,0
308973,-75.187969924812,7,3,1,30,0,0
309145,-75.187969924812,7,3,1,20,0,0
309318,-75.187969924812,7,3,1,60,0,0
313542,-133.333333333333,7,3,1,60,0,0
314232,-75.187969924812,7,3,1,60,0,0
315611,-75.187969924812,7,3,1,60,0,0
324921,-60.2409638554217,7,3,1,60,0,0
325266,-75.187969924812,7,3,1,60,0,0
328025,-200,7,3,1,60,0,0
328801,-111.111111111111,7,3,1,60,0,0
329490,-133.333333333333,7,3,1,60,0,0
329749,-75.187969924812,7,3,1,60,0,0
333283,-75.187969924812,7,3,1,5,0,0
333370,-75.187969924812,7,3,1,60,0,0
333456,-75.187969924812,7,3,1,5,0,0
333542,-75.187969924812,7,3,1,60,0,0
334576,-133.333333333333,7,3,1,60,0,0
334921,-75.187969924812,7,3,1,60,0,0
335956,-75.187969924812,7,3,1,61,0,0
336214,-75.187969924812,7,3,1,80,0,0
336732,-75.187969924812,7,3,1,60,0,0
338111,-60.2409638554217,7,3,1,60,0,0
338456,-75.187969924812,7,3,1,60,0,0
340008,-75.187969924812,7,3,1,70,0,0
340525,-75.187969924812,7,3,1,60,0,0
342507,-200,7,3,1,60,0,0
343283,-75.187969924812,7,3,1,60,0,0
346645,-303.030303030303,7,3,1,40,0,0
347852,-75.187969924812,7,3,1,60,0,0
348111,-133.333333333333,7,3,1,60,0,0
348628,-75.187969924812,7,3,1,60,0,0
349749,-181.818181818181,7,3,1,60,0,0
350525,-75.187969924812,7,3,1,60,0,0
352421,-66.6666666666667,7,3,1,60,0,0
352852,-75.187969924812,7,3,1,60,0,0
355352,-58.8235294117647,7,3,1,90,0,0
356042,-75.187969924812,7,3,1,60,0,0
356301,-100,7,3,1,60,0,0
356559,-75.187969924812,7,3,1,60,0,0
360611,-75.187969924812,7,3,1,60,0,0
362163,-75.187969924812,7,3,1,75,0,0
362594,-75.187969924812,7,3,1,60,0,0
364232,-200,7,3,1,60,0,0
364663,-75.187969924812,7,3,1,60,0,0
365008,-151.515151515152,7,3,1,60,0,0
365956,-75.187969924812,7,3,1,61,0,0
370094,-75.187969924812,7,3,1,61,0,0
374663,-60.2409638554217,7,3,1,61,0,0
376387,-75.187969924812,7,3,1,61,0,0
381214,-136.986301369863,7,3,1,61,0,0
381904,-75.187969924812,7,3,1,61,0,0
382938,-50,7,3,1,61,0,0
383341,-100,7,3,1,61,0,0
386387,-75.187969924812,7,3,1,61,0,0
386732,-136.986301369863,7,2,1,61,0,0
389145,-200,7,2,1,40,0,0
389146,-133.333333333333,7,2,1,40,0,0
390870,-133.333333333333,7,2,1,5,0,0
391559,-200,7,2,1,40,0,0
394145,-133.333333333333,7,2,1,40,0,0
395525,-133.333333333333,7,2,1,5,0,0
396387,-200,7,2,1,40,0,0
398973,-133.333333333333,7,2,1,40,0,0
400352,-133.333333333333,7,2,1,5,0,0
401214,-200,7,2,1,40,0,0
406042,-60.2409638554217,7,3,1,80,0,1
415007,-151.515151515152,7,3,1,80,0,1
415525,-60.2409638554217,7,3,1,80,0,1
417594,-100,7,3,1,80,0,1
417852,-50,7,3,1,80,0,1
418111,-60.2409638554217,7,3,1,80,0,1
418801,-50,7,3,1,80,0,1
419318,-60.2409638554217,7,3,1,80,0,1
424146,-151.515151515152,7,3,1,80,0,1
425008,-75.187969924812,7,3,1,80,0,1
425352,-75.187969924812,7,2,1,40,0,0
427766,-75.187969924812,7,3,1,60,0,0
427938,-75.187969924812,7,2,1,40,0,0
430180,-75.187969924812,7,3,1,60,0,0
430352,-75.187969924812,7,2,1,40,0,0
431990,-75.187969924812,7,3,1,40,0,0
432421,-75.187969924812,7,2,1,40,0,0
432594,-75.187969924812,7,3,1,60,0,0
432766,-75.187969924812,7,2,1,40,0,0
434663,-75.187969924812,7,3,1,40,0,0
435007,-75.187969924812,7,3,1,60,0,0
435180,-75.187969924812,7,2,1,40,0,0
437421,-75.187969924812,7,3,1,60,0,0
437594,-75.187969924812,7,2,1,40,0,0
439318,-75.187969924812,7,3,1,40,0,0
439835,-75.187969924812,7,3,1,60,0,0
440007,-75.187969924812,7,2,1,40,0,0
441732,-75.187969924812,7,3,1,40,0,0
442249,-75.187969924812,7,3,1,60,0,0
442421,-75.187969924812,7,2,1,40,0,0
443628,-75.187969924812,7,3,1,60,0,0
443973,-75.187969924812,7,3,1,61,0,0
444663,-60.2409638554217,7,3,1,80,0,1
460094,-75.187969924812,7,3,1,80,0,1
460438,-60.2409638554217,7,3,1,80,0,1
460697,-75.187969924812,7,3,1,80,0,1
460870,-60.2409638554217,7,3,1,80,0,1
462938,-133.333333333333,7,3,1,80,0,1
463801,-60.2409638554217,7,3,1,80,0,1
469663,-75.187969924812,7,3,1,80,0,1
469835,-60.2409638554217,7,3,1,80,0,1
470352,-75.187969924812,7,3,1,80,0,1
470870,-60.2409638554217,7,3,1,80,0,1
475352,-75.187969924812,7,3,1,80,0,1
476042,-60.2409638554217,7,3,1,80,0,1
482249,-100,7,3,1,40,0,0
483283,-133.333333333333,7,3,1,40,0,0
485525,-133.333333333333,7,3,1,5,0,0
485697,-133.333333333333,7,3,1,40,0,0
488111,-200,7,3,1,5,0,0
492939,-151.515151515152,7,3,1,40,0,0
493111,-303.030303030303,7,3,1,5,0,0
497766,-303.030303030303,7,3,1,40,0,0
499835,-303.030303030303,7,3,1,5,0,0
502594,-303.030303030303,7,3,1,40,0,0
503628,-303.030303030303,7,3,1,5,0,0
505007,-303.030303030303,7,3,1,40,0,0
506042,-303.030303030303,7,3,1,5,0,0

[Colours]
Combo1 : 137,137,95
Combo2 : 223,201,176
Combo3 : 139,94,37
Combo4 : 179,167,162

[HitObjects]
81,316,39146,6,0,P|126:323|172:313,1,93.0999961643983
227,264,39490,1,0,0:0:0:0:
257,195,39663,1,0,0:0:0:0:
324,163,39835,1,0,0:0:0:0:
397,175,40008,1,0,0:0:0:0:
418,319,40180,2,0,P|360:318|310:290,1,116.200001684418,4|0,0:0|0:0,0:0:0:0:
292,81,40525,5,0,0:0:0:0:
406,176,40697,1,0,0:0:0:0:
310,290,40870,1,0,0:0:0:0:
196,195,41042,1,0,0:0:0:0:
292,81,41214,2,0,P|337:69|383:74,1,93.0999961643983
470,294,41559,6,0,P|425:281|387:254,1,93.0999961643983
349,190,41904,1,0,0:0:0:0:
284,151,42077,1,0,0:0:0:0:
210,160,42249,1,0,0:0:0:0:
160,215,42422,1,0,0:0:0:0:
227,339,42594,2,0,P|257:290|261:233,1,116.200001684418,4|0,0:0|0:0,0:0:0:0:
96,65,42939,5,0,0:0:0:0:
0,178,43111,1,0,0:0:0:0:
114,273,43284,1,0,0:0:0:0:
210,160,43456,1,0,0:0:0:0:
96,65,43628,2,0,P|109:109|137:146,1,93.0999961643983
363,144,43973,6,0,P|329:112|286:93,1,93.0999961643983
328,287,44318,1,0,0:0:0:0:
369,281,44404,1,0,0:0:0:0:
404,257,44490,1,0,0:0:0:0:
286,93,44663,1,0,0:0:0:0:
130,155,44835,1,0,0:0:0:0:
237,360,45008,2,0,P|273:315|284:259,1,116.200001684418,4|0,0:0|0:0,0:0:0:0:
212,88,45352,5,0,0:0:0:0:
198,236,45525,1,0,0:0:0:0:
278,168,45697,1,0,0:0:0:0:
130,155,45870,1,0,0:0:0:0:
32,240,46042,2,0,P|78:241|122:227,1,93.0999961643983
316,51,46387,6,0,P|361:60|400:85,1,93.0999961643983
448,142,46732,1,0,0:0:0:0:
467,214,46905,1,0,0:0:0:0:
450,286,47077,1,0,0:0:0:0:
393,335,47250,1,0,0:0:0:0:
254,338,47421,2,0,P|204:309|173:260,1,116.200001684418,4|0,0:0|0:0,0:0:0:0:
236,67,47766,5,0,0:0:0:0:
250,215,47939,1,0,0:0:0:0:
170,147,48111,1,0,0:0:0:0:
318,134,48284,1,0,0:0:0:0:
393,242,48456,2,0,P|353:266|308:276,1,93.0999961643983
82,174,48801,6,0,P|123:152|169:146,1,93.0999961643983
242,155,49145,1,0,0:0:0:0:
309,187,49318,1,0,0:0:0:0:
350,248,49490,1,0,0:0:0:0:
362,321,49663,1,0,0:0:0:0:
168,326,49835,2,0,P|167:268|194:217,1,116.200001684418,4|0,0:0|0:0,0:0:0:0:
360,128,50180,5,0,0:0:0:0:
501,153,50352,1,0,0:0:0:0:
335,242,50525,1,0,0:0:0:0:
194,217,50697,1,0,0:0:0:0:
300,57,50870,2,0,P|336:87|359:127,1,93.0999961643983
387,316,51214,6,0,P|354:283|334:241,1,93.0999961643983
282,187,51559,1,0,0:0:0:0:
211,164,51732,1,0,0:0:0:0:
143,189,51904,1,0,0:0:0:0:
101,251,52077,1,0,0:0:0:0:
218,351,52249,2,0,P|236:296|225:239,1,116.200001684418,4|0,0:0|0:0,0:0:0:0:
88,111,52594,5,0,0:0:0:0:
114,260,52766,1,0,0:0:0:0:
235,172,52939,1,0,0:0:0:0:
209,23,53111,1,0,0:0:0:0:
88,111,53283,2,0,P|45:129|0:131,1,93.0999961643983
263,85,53628,6,0,P|309:90|350:111,1,93.0999961643983
436,290,53973,1,0,0:0:0:0:
398,308,54059,1,0,0:0:0:0:
356,306,54145,1,0,0:0:0:0:
350,111,54318,1,0,0:0:0:0:
499,187,54490,1,0,0:0:0:0:
356,306,54663,2,0,P|319:261|308:205,1,116.200001684418,4|0,0:0|0:0,0:0:0:0:
361,25,55008,5,0,0:0:0:0:
361,25,55180,1,0,0:0:0:0:
259,134,55353,1,0,0:0:0:0:
259,134,55525,1,0,0:0:0:0:
140,44,55697,2,0,P|97:25|51:23,1,93.0999961643983
145,236,56042,6,0,P|191:230|232:209,1,93.0999961643983
274,148,56387,1,0,0:0:0:0:
276,73,56560,1,0,0:0:0:0:
228,15,56732,1,0,0:0:0:0:
154,3,56905,1,0,0:0:0:0:
24,119,57077,2,0,P|34:175|71:219,1,116.200001684418,4|0,0:0|0:0,0:0:0:0:
251,264,57421,5,0,0:0:0:0:
251,264,57594,1,0,0:0:0:0:
368,172,57766,1,0,0:0:0:0:
368,172,57939,1,0,0:0:0:0:
182,106,58111,2,0,P|135:111|94:132,1,93.0999961643983
258,258,58456,6,0,P|277:203|283:145,1,116.200001684418
142,47,58801,1,0,0:0:0:0:
194,123,58973,1,0,0:0:0:0:
283,146,59145,1,0,0:0:0:0:
368,110,59317,1,0,0:0:0:0:
219,4,59490,2,0,B|205:60|205:60|204:118,1,116.200001684418
345,218,59835,5,0,0:0:0:0:
293,142,60007,1,0,0:0:0:0:
204,119,60179,1,0,0:0:0:0:
119,155,60351,1,0,0:0:0:0:
285,366,60525,2,0,P|301:311|287:255,1,116.200001684418,4|0,0:0|0:0,0:0:0:0:
104,335,60870,6,0,P|168:326|230:302,1,116.200001684418
145,153,61214,1,0,0:0:0:0:
152,244,61387,1,0,0:0:0:0:
217,309,61559,1,0,0:0:0:0:
309,320,61732,1,0,0:0:0:0:
470,184,61904,6,0,B|415:165|415:165|357:157,1,116.200001684418
319,328,62249,1,0,0:0:0:0:
368,248,62421,1,0,0:0:0:0:
358,158,62594,1,0,0:0:0:0:
292,94,62765,1,0,0:0:0:0:
73,166,62939,2,0,P|123:194|180:192,1,116.200001684418,4|0,0:0|0:0,0:0:0:0:
178,0,63284,6,0,P|155:53|144:110,1,116.200001684418
173,286,63628,1,0,0:0:0:0:
173,286,63800,1,0,0:0:0:0:
220,124,63973,1,0,0:0:0:0:
73,166,64145,1,0,0:0:0:0:
259,228,64318,6,0,B|289:176|289:176|304:121,1,116.200001684418
157,26,64663,5,0,0:0:0:0:
157,26,64836,1,0,0:0:0:0:
180,188,65008,1,0,0:0:0:0:
303,121,65181,1,0,0:0:0:0:
102,85,65352,2,0,P|48:106|13:151,1,116.200001684418,4|0,0:0|0:0,0:0:0:0:
75,293,65697,6,0,P|94:238|102:180,1,116.200001684418
81,11,66042,1,0,0:0:0:0:
81,11,66214,1,0,0:0:0:0:
13,151,66387,1,0,0:0:0:0:
178,102,66559,1,0,0:0:0:0:
318,233,66732,2,0,P|259:236|197:197,1,116.200001684418,4|0,0:0|0:0,0:0:0:0:
102,85,67077,5,0,0:0:0:0:
102,85,67249,1,0,0:0:0:0:
232,34,67422,1,0,0:0:0:0:
344,115,67594,1,0,0:0:0:0:
312,246,67766,1,0,0:0:0:0:
295,276,67852,1,0,0:0:0:0:
268,299,67939,1,0,0:0:0:0:
234,307,68025,1,0,0:0:0:0:
199,302,68111,6,0,P|178:260|175:214,1,93.0999961643983,4|0,0:0|0:0,0:0:0:0:
204,145,68456,1,0,0:0:0:0:
265,101,68629,1,0,0:0:0:0:
337,104,68801,1,0,0:0:0:0:
396,150,68974,1,0,0:0:0:0:
186,205,69145,2,0,P|188:158|226:98,1,116.200001684418,4|0,0:0|0:0,0:0:0:0:
408,45,69490,5,0,0:0:0:0:
503,159,69663,1,0,0:0:0:0:
389,254,69835,1,0,0:0:0:0:
293,140,70008,1,0,0:0:0:0:
415,56,70180,2,0,P|412:103|394:145,1,93.0999961643983
171,82,70525,6,0,P|134:109|111:150,1,93.0999961643983
138,221,70870,1,0,0:0:0:0:
199,265,71043,1,0,0:0:0:0:
271,262,71215,1,0,0:0:0:0:
330,216,71388,1,0,0:0:0:0:
228,151,71559,2,0,P|196:199|189:256,1,116.200001684418,4|0,0:0|0:0,0:0:0:0:
385,357,71904,5,0,0:0:0:0:
481,243,72077,1,0,0:0:0:0:
366,148,72249,1,0,0:0:0:0:
271,262,72422,1,0,0:0:0:0:
394,348,72594,2,0,P|395:301|381:257,1,93.0999961643983
226,139,72939,6,0,P|235:93|260:54,1,93.0999961643983
427,40,73283,1,0,0:0:0:0:
448,75,73369,1,0,0:0:0:0:
450,116,73455,1,0,0:0:0:0:
371,250,73628,1,0,0:0:0:0:
237,149,73800,1,0,0:0:0:0:
459,128,73973,2,0,P|466:185|448:239,1,116.200001684418,4|0,0:0|0:0,0:0:0:0:
233,310,74318,5,0,0:0:0:0:
246,158,74490,1,0,0:0:0:0:
366,88,74663,1,0,0:0:0:0:
379,240,74835,1,0,0:0:0:0:
219,314,75008,2,0,P|178:291|148:256,1,93.0999961643983
221,60,75352,6,0,P|245:99|253:145,1,93.0999961643983
219,211,75697,1,0,0:0:0:0:
161,258,75870,1,0,0:0:0:0:
89,259,76042,1,0,0:0:0:0:
28,216,76215,1,0,0:0:0:0:
96,40,76387,2,0,P|131:85|143:142,1,116.200001684418,4|0,0:0|0:0,0:0:0:0:
133,330,76732,5,0,0:0:0:0:
133,330,76904,1,0,0:0:0:0:
219,211,77077,1,0,0:0:0:0:
219,211,77249,1,0,0:0:0:0:
343,300,77421,2,0,P|384:319|430:325,1,93.0999961643983
506,114,77766,6,0,P|459:115|416:131,1,93.0999961643983
432,326,78111,1,0,0:0:0:0:
471,311,78197,1,0,0:0:0:0:
498,279,78283,1,0,0:0:0:0:
406,138,78456,1,0,0:0:0:0:
243,98,78628,1,0,0:0:0:0:
346,262,78801,2,0,P|391:252|448:206,1,116.200001684418,4|0,0:0|0:0,0:0:0:0:
365,36,79146,5,0,0:0:0:0:
365,36,79318,1,0,0:0:0:0:
312,174,79490,1,0,0:0:0:0:
418,131,79662,1,0,0:0:0:0:
250,88,79835,2,0,P|216:93|164:130,1,93.0999961643983
276,324,80180,6,0,P|290:279|284:233,1,93.0999961643983
243,171,80525,1,0,0:0:0:0:
178,133,80698,1,0,0:0:0:0:
107,143,80870,1,0,0:0:0:0:
54,195,81043,1,0,0:0:0:0:
115,340,81214,2,0,P|157:321|202:268,1,116.200001684418,4|0,0:0|0:0,0:0:0:0:
247,88,81559,5,0,0:0:0:0:
107,143,81732,1,0,0:0:0:0:
249,185,81904,1,0,0:0:0:0:
158,69,82077,1,0,0:0:0:0:
47,207,82249,2,0,P|74:227|145:232,1,93.0999961643983
334,122,82594,6,0,P|377:137|408:171,1,93.0999961643983
319,358,82939,1,0,0:0:0:0:
306,317,83025,1,0,0:0:0:0:
312,275,83111,1,0,0:0:0:0:
467,210,83284,1,0,0:0:0:0:
324,124,83456,1,0,0:0:0:0:
443,29,83629,2,0,P|449:86|431:141,1,116.200001684418,4|0,0:0|0:0,0:0:0:0:
301,271,83973,5,0,0:0:0:0:
261,124,84146,1,0,0:0:0:0:
428,38,84318,1,0,0:0:0:0:
395,183,84491,1,0,0:0:0:0:
246,225,84663,2,0,P|212:257|191:299,1,93.0999961643983
335,131,85008,6,0,P|351:87|353:41,1,93.0999961643983
283,18,85352,1,0,0:0:0:0:
208,25,85525,1,0,0:0:0:0:
150,71,85697,1,0,0:0:0:0:
134,144,85870,1,0,0:0:0:0:
246,225,86042,2,0,P|303:225|356:201,1,116.200001684418,4|0,0:0|0:0,0:0:0:0:
445,37,86387,5,0,0:0:0:0:
445,37,86559,1,0,0:0:0:0:
324,123,86732,1,0,0:0:0:0:
470,148,86904,1,0,0:0:0:0:
328,31,87077,2,0,P|283:41|247:71,1,93.0999961643983
327,288,87421,6,0,L|344:186,1,93.0999961643983
228,319,87766,1,0,0:0:0:0:
190,337,87852,1,0,0:0:0:0:
147,340,87939,2,0,P|121:334|101:319,1,46.5499980821992
32,230,88111,1,0,0:0:0:0:
143,120,88283,1,0,0:0:0:0:
335,172,88456,6,0,P|327:229|304:284,1,116.200001684418,4|0,0:0|0:0,0:0:0:0:
109,249,88801,5,0,0:0:0:0:
255,209,88973,1,0,0:0:0:0:
336,344,89145,1,0,0:0:0:0:
190,304,89317,1,0,0:0:0:0:
163,277,89404,1,0,0:0:0:0:
146,243,89490,2,0,P|139:197|152:152,1,93.0999961643983
369,67,89835,6,0,P|332:95|287:106,1,93.0999961643983
160,53,90180,1,0,0:0:0:0:
123,58,90266,1,0,0:0:0:0:
90,76,90353,1,0,0:0:0:0:
66,104,90439,1,0,0:0:0:0:
55,139,90525,1,0,0:0:0:0:
77,285,90697,1,0,0:0:0:0:
163,167,90870,2,0,P|110:139|49:140,1,116.200001684418,4|0,0:0|0:0,0:0:0:0:
138,332,91214,5,0,0:0:0:0:
166,172,91387,1,0,0:0:0:0:
13,66,91559,1,0,0:0:0:0:
39,216,91732,1,0,0:0:0:0:
53,250,91818,1,0,0:0:0:0:
76,278,91904,2,0,P|114:302|160:311,1,93.0999961643983,0|0,2:0|2:0,2:0:0:0:
389,264,92249,6,0,P|410:223|415:177,1,93.0999961643983,0|0,2:0|2:0,2:0:0:0:
209,48,92594,2,0,P|216:73|231:94,1,46.5499980821992
366,104,92766,2,0,P|346:85|322:76,1,46.5499980821992
136,85,92939,1,0,0:0:0:0:
86,226,93111,2,0,P|93:251|110:270,1,46.5499980821992
249,199,93283,2,0,P|207:178|161:179,1,93.0999961643983,4|0,0:0|0:0,0:0:0:0:
1,309,93628,5,0,0:0:0:0:
1,309,93801,1,0,0:0:0:0:
190,256,93973,1,0,0:0:0:0:
101,122,94145,1,0,0:0:0:0:
78,152,94232,1,0,0:0:0:0:
71,189,94318,2,0,P|80:234|107:271,1,93.0999961643983
341,285,94663,6,0,P|328:329|298:363,1,93.0999961643983
163,192,95008,5,0,0:0:0:0:
196,176,95094,1,0,0:0:0:0:
233,173,95180,2,0,L|223:225,1,46.5499980821992
207,295,95352,6,0,B|169:305|169:305|139:296,1,70
21,232,95611,2,0,B|59:222|59:222|89:231,1,70
213,318,95870,6,0,B|174:324|174:324|145:313,1,70
19,209,96129,2,0,B|57:202|57:202|86:213,1,70
131,286,96387,1,0,0:0:0:0:
213,318,96559,1,0,0:0:0:0:
299,292,96732,2,0,P|327:252|332:194,1,93.0999961643983
145,45,97077,5,0,0:0:0:0:
238,104,97249,1,0,0:0:0:0:
233,140,97335,1,0,0:0:0:0:
216,172,97421,1,0,0:0:0:0:
187,196,97508,1,0,0:0:0:0:
150,202,97594,2,0,P|132:185|123:164,1,46.5499980821992,8|0,0:0|0:0,0:0:0:0:
312,164,97766,6,0,P|360:196|384:250,1,119.000002269745
291,368,98025,2,0,B|247:308|293:246,1,119.000002269745
421,131,98283,2,0,P|426:108|425:85,1,46.5499980821992
238,104,98456,1,0,0:0:0:0:
219,146,98542,1,0,0:0:0:0:
221,193,98628,1,0,0:0:0:0:
245,232,98714,2,0,P|263:247|285:256,2,46.5499980821992,8|0|0,0:0|0:0|0:0,0:0:0:0:
375,239,98973,2,0,P|385:259|391:282,1,46.5499980821992
312,164,99146,6,0,P|325:143|342:127,1,46.5499980821992
470,140,99318,2,0,P|450:153|429:162,1,46.5499980821992,8|0,0:0|0:0,0:0:0:0:
134,203,99490,2,0,P|90:192|55:161,1,93.0999961643983
87,10,99749,2,0,P|121:44|130:88,1,93.0999961643983
54,160,100008,1,8,0:0:0:0:
275,38,100180,6,0,P|333:36|387:68,1,119.000002269745
212,167,100439,2,0,P|161:139|130:84,1,119.000002269745
309,135,100697,2,0,P|313:163|313:190,1,46.5499980821992
138,326,100870,5,0,0:0:0:0:
142,289,100956,1,0,0:0:0:0:
162,259,101042,1,0,0:0:0:0:
193,239,101128,1,0,0:0:0:0:
230,233,101214,1,0,0:0:0:0:
266,244,101301,1,0,0:0:0:0:
299,260,101387,2,0,P|327:260|350:254,1,46.5499980821992
425,263,101559,2,0,P|445:243|457:222,1,46.5499980821992
475,95,101732,1,8,0:0:0:0:
108,54,101904,5,0,0:0:0:0:
194,133,102077,2,0,P|216:127|236:115,1,46.5499980821992
309,135,102249,2,0,P|325:118|336:98,1,46.5499980821992
423,191,102421,1,0,0:0:0:0:
431,227,102508,1,0,0:0:0:0:
425,263,102594,2,0,P|414:283|397:299,1,46.5499980821992
184,316,102766,5,0,0:0:0:0:
198,262,102852,1,0,0:0:0:0:
239,223,102939,1,0,0:0:0:0:
293,211,103025,1,0,0:0:0:0:
346,230,103111,1,4,0:0:0:0:
81,112,103283,5,0,0:0:0:0:
62,79,103370,1,0,0:0:0:0:
62,41,103456,1,0,0:0:0:0:
379,112,103628,1,8,0:0:0:0:
151,176,103801,1,8,0:0:0:0:
296,256,103973,2,0,P|297:232|292:210,1,46.5499980821992
233,30,104146,1,0,0:0:0:0:
464,154,104318,6,0,P|435:189|392:207,1,93.0999961643983
285,344,104577,2,0,P|242:326|215:289,1,93.0999961643983
216,191,104835,6,2,P|222:179|226:169,2,23.2749990410996
32,210,105008,6,2,P|21:214|12:222,2,23.2749990410996
154,48,105266,2,2,P|159:38|160:26,2,23.2749990410996
62,283,105525,2,2,P|60:293|62:305,2,23.2749990410996
129,158,105697,5,0,0:0:0:0:
383,222,105870,1,0,0:0:0:0:
200,253,106042,5,0,0:0:0:0:
390,74,106215,1,0,0:0:0:0:
383,222,106387,6,0,L|375:198,1,23.2749990410996,8|0,0:0|0:0,0:0:0:0:
270,15,106559,2,0,L|276:37,1,23.2749990410996,8|0,0:0|0:0,0:0:0:0:
236,310,106732,5,0,0:0:0:0:
93,347,106904,1,0,0:0:0:0:
56,337,106990,1,0,2:0:0:0:
26,314,107076,1,0,2:0:0:0:
9,280,107163,1,0,2:0:0:0:
1,243,107249,2,0,P|3:221|14:197,1,46.5499980821992,8|0,0:0|0:0,0:0:0:0:
190,109,107421,6,0,P|155:156|100:175,1,119.000002269745
10,20,107680,2,0,P|65:37|101:84,1,119.000002269745
146,252,107939,2,0,B|140:284|119:303,1,59.5000011348725,8|0,0:0|0:0,0:0:0:0:
90,174,108111,5,0,0:0:0:0:
133,157,108197,1,0,0:0:0:0:
179,162,108283,1,0,0:0:0:0:
217,188,108370,1,0,0:0:0:0:
239,228,108456,2,0,L|244:263,2,23.2749990410996,8|0|0,0:0|0:0|0:0,0:0:0:0:
269,102,108628,2,0,P|275:77|293:49,1,46.5499980821992
430,166,108801,2,0,P|432:189|429:214,1,46.5499980821992
339,354,108973,1,8,0:0:0:0:
354,108,109146,5,0,0:0:0:0:
390,79,109232,1,0,0:0:0:0:
435,70,109318,1,0,0:0:0:0:
479,83,109404,2,0,P|501:99|515:119,2,46.5499980821992
353,188,109663,2,0,P|330:186|310:175,1,46.5499980821992,8|0,0:0|0:0,0:0:0:0:
87,220,109835,6,0,P|70:163|91:108,1,119.000002269745
253,118,110094,6,0,P|211:158|154:168,1,119.000002269745
26,60,110352,2,0,P|8:40|0:18,1,46.5499980821992,8|0,0:0|0:0,0:0:0:0:
110,25,110525,2,0,P|172:84|153:168,1,178.500003404617,4|0,0:0|0:0,0:0:0:0:
49,248,110870,2,0,L|42:276,10,23.2749990410996
93,110,111387,6,8,L|98:87,2,23.2749990410996
174,247,111559,2,0,P|156:263|135:273,1,46.5499980821992
115,189,111732,1,0,0:0:0:0:
156,167,111818,1,0,0:0:0:0:
202,171,111904,1,0,0:0:0:0:
239,198,111990,1,0,0:0:0:0:
266,235,112077,2,0,P|285:250|306:258,1,46.5499980821992,8|0,0:0|0:0,0:0:0:0:
364,150,112249,2,0,P|342:159|324:174,1,46.5499980821992
392,233,112421,5,0,0:0:0:0:
431,207,112508,1,0,0:0:0:0:
450,165,112594,1,8,0:0:0:0:
446,119,112680,1,8,0:0:0:0:
420,81,112766,2,0,P|410:66|408:49,6,23.2749990410996,8|0|0|0|0|0|0,0:0|0:0|0:0|0:0|0:0|0:0|0:0,0:0:0:0:
226,85,113111,5,0,0:0:0:0:
138,186,113284,1,0,0:0:0:0:
218,289,113456,1,0,0:0:0:0:
311,131,113628,6,0,P|321:86|308:40,1,93.0999961643983
131,321,113973,2,0,P|158:359|199:380,1,93.0999961643983
320,318,114232,2,0,P|367:322|422:295,1,93.0999961643983
385,13,114490,6,2,B|373:71,1,59.5000011348725
311,131,114663,2,0,B|316:191|316:191|356:238,1,119.000002269745
512,170,114921,2,0,B|458:142|458:142|401:153,1,119.000002269745
252,271,115180,2,2,B|221:274|221:274|193:265,1,59.5000011348725
128,34,115352,5,4,0:0:0:0:
311,131,115525,1,4,0:0:0:0:
120,331,115697,2,0,P|72:284|88:175,1,178.500003404617
216,78,116042,1,8,0:0:0:0:
114,145,116215,1,4,0:0:0:0:
155,242,116387,6,0,P|192:214|215:174,1,93.0999961643983,4|0,0:0|0:0,0:0:0:0:
0,151,116646,2,0,P|37:177|83:180,1,93.0999961643983,4|0,0:0|0:0,0:0:0:0:
228,88,116904,1,8,0:0:0:0:
264,99,116991,1,0,0:0:0:0:
292,124,117077,2,0,P|307:167|298:212,1,93.0999961643983,4|0,0:0|0:0,0:0:0:0:
157,241,117335,2,0,P|126:275|118:320,1,93.0999961643983,4|0,0:0|0:0,0:0:0:0:
213,381,117594,1,8,0:0:0:0:
455,282,117766,5,4,0:0:0:0:
429,255,117852,1,4,0:0:0:0:
395,239,117938,1,0,0:0:0:0:
357,241,118024,1,0,0:0:0:0:
323,257,118110,1,0,0:0:0:0:
285,262,118197,1,0,0:0:0:0:
248,252,118283,1,0,0:0:0:0:
221,225,118370,1,0,0:0:0:0:
212,188,118456,6,2,P|213:164|222:143,1,46.5499980821992,10|2,0:0|0:0,0:0:0:0:
359,148,118628,2,2,P|341:163|319:171,1,46.5499980821992,10|2,0:0|0:0,0:0:0:0:
133,145,118801,5,0,0:0:0:0:
310,14,118973,1,0,0:0:0:0:
315,51,119059,2,2,P|311:73|300:94,1,46.5499980821992
93,66,119232,1,0,0:0:0:0:
129,57,119318,2,2,P|151:58|172:68,1,46.5499980821992,10|2,0:0|0:0,0:0:0:0:
319,170,119490,6,0,P|340:210|345:256,1,93.0999961643983
434,247,119749,2,0,P|434:269|428:292,1,46.5499980821992
415,316,119921,1,0,0:0:0:0:
393,336,120008,1,8,0:0:0:0:
149,299,120180,5,0,0:0:0:0:
181,280,120266,1,0,0:0:0:0:
217,276,120352,1,0,0:0:0:0:
253,284,120439,1,0,0:0:0:0:
282,305,120525,2,0,P|288:316|297:325,2,23.2749990410996
265,259,120697,5,0,0:0:0:0:
282,208,120783,1,0,0:0:0:0:
319,170,120870,1,0,0:0:0:0:
338,122,120956,1,0,0:0:0:0:
333,71,121042,1,0,0:0:0:0:
304,28,121128,1,0,0:0:0:0:
261,3,121214,5,0,0:0:0:0:
61,87,121387,1,0,0:0:0:0:
41,106,121473,2,0,L|82:128,1,46.5499980821992,8|0,0:0|0:0,0:0:0:0:
213,121,121646,1,0,0:0:0:0:
237,107,121732,2,0,L|191:96,1,46.5499980821992,8|0,0:0|0:0,0:0:0:0:
35,206,121904,2,0,P|10:245|1:290,1,93.0999961643983
175,257,122163,2,0,P|169:210|150:168,1,93.0999961643983
41,106,122421,1,8,0:0:0:0:
240,336,122594,6,0,P|261:305|273:273,1,59.5000011348725
316,65,122766,1,4,0:0:0:0:
374,217,122939,1,4,0:0:0:0:
374,217,123283,6,2,B|354:197|354:197|316:182,1,57.0499999564743,10|2,0:0|0:0,0:0:0:0:
175,257,123456,2,2,B|205:256|205:256|228:242,1,57.0499999564743,10|2,0:0|0:0,0:0:0:0:
401,85,123628,5,0,0:0:0:0:
269,39,123801,1,0,0:0:0:0:
243,65,123887,2,0,P|234:86|232:109,1,46.5499980821992
92,176,124059,1,0,0:0:0:0:
57,186,124145,2,0,P|33:184|11:177,1,46.5499980821992,8|0,0:0|0:0,0:0:0:0:
101,31,124318,6,0,P|136:67|150:121,1,93.0999961643983
202,191,124577,2,0,P|197:217|183:243,1,46.5499980821992
175,257,124749,1,0,0:0:0:0:
153,273,124835,1,8,0:0:0:0:
361,95,125008,6,0,P|382:86|405:84,1,46.5499980821992
322,174,125180,2,0,P|298:172|277:163,1,46.5499980821992
215,106,125353,2,0,P|209:95|206:83,2,23.2749990410996
153,273,125525,2,0,P|142:294|140:317,1,46.5499980821992
225,307,125697,2,2,P|223:231|158:192,1,157.500006008148,6|2,0:0|0:0,0:0:0:0:
314,235,126042,5,0,0:0:0:0:
359,227,126128,1,0,0:0:0:0:
399,204,126214,1,0,0:0:0:0:
429,166,126301,2,0,P|440:142|460:121,2,46.5499980821992,8|0|0,0:0|0:0|0:0,0:0:0:0:
464,282,126559,2,0,P|461:305|453:327,1,46.5499980821992
270,371,126732,2,0,P|231:327|220:271,1,116.200001684418
314,235,126990,6,0,P|330:251|342:272,2,46.5499980821992,8|0|0,0:0|0:0|0:0,0:0:0:0:
429,166,127248,2,0,P|434:142|432:118,1,46.5499980821992,8|0,0:0|0:0,0:0:0:0:
334,26,127421,5,0,0:0:0:0:
328,53,127507,1,0,0:0:0:0:
329,81,127594,1,0,0:0:0:0:
338,107,127680,1,0,0:0:0:0:
353,127,127766,5,8,0:0:0:0:
298,122,127852,1,8,0:0:0:0:
246,143,127939,1,8,0:0:0:0:
212,187,128025,1,8,0:0:0:0:
203,242,128111,2,0,L|208:264,6,23.2749990410996
121,323,128456,6,0,L|112:369,1,46.5499980821992
55,210,128628,1,0,0:0:0:0:
39,187,128714,2,0,L|48:141,1,46.5499980821992
144,52,128887,1,0,0:0:0:0:
168,65,128973,2,0,L|177:111,1,46.5499980821992,8|0,0:0|0:0,0:0:0:0:
299,287,129146,2,0,L|314:236,1,46.5499980821992
354,113,129318,5,0,0:0:0:0:
328,101,129404,2,0,L|282:109,1,46.5499980821992
229,230,129577,5,0,0:0:0:0:
203,242,129663,2,0,L|157:234,1,46.5499980821992,8|0,0:0|0:0,0:0:0:0:
98,166,129835,2,0,P|101:99|163:33,1,139.649994246598,4|0,0:0|0:0,0:0:0:0:
238,21,130180,2,0,L|272:27,10,23.2749990410996
209,127,130697,6,8,L|186:132,2,23.2749990410996
365,38,130870,6,0,P|408:22|453:27,1,93.0999961643983
373,199,131128,2,0,P|327:190|291:163,1,93.0999961643983
108,72,131387,2,0,P|85:72|58:81,1,46.5499980821992,8|0,0:0|0:0,0:0:0:0:
69,160,131559,2,0,P|54:175|40:202,1,46.5499980821992
111,301,131732,1,0,0:0:0:0:
91,329,131818,2,0,P|73:341|51:348,2,46.5499980821992,8|0|0,0:0|0:0|0:0,0:0:0:0:
170,237,132077,1,8,0:0:0:0:
193,44,132249,6,2,P|198:64|211:84,1,46.5499980821992,10|2,0:0|0:0,0:0:0:0:
399,128,132421,2,2,P|376:120|353:121,1,46.5499980821992,6|2,0:0|0:0,0:0:0:0:
170,237,132594,1,4,0:0:0:0:
349,301,132766,2,0,B|387:312|422:266|418:215|368:198|368:198|352:224|351:250,1,210
244,165,133111,2,2,P|243:188|246:211,1,46.5499980821992
75,296,133283,6,0,P|105:328|154:348,1,93.0999961643983,4|0,0:0|0:0,0:0:0:0:
238,328,133542,2,0,P|259:308|272:284,1,46.5499980821992,4|0,0:0|0:0,0:0:0:0:
237,62,133714,1,0,0:0:0:0:
192,75,133801,1,8,0:0:0:0:
158,106,133887,1,0,0:0:0:0:
142,150,133973,6,0,P|146:196|169:236,1,93.0999961643983,4|0,0:0|0:0,0:0:0:0:
243,164,134232,2,0,P|265:171|284:185,1,46.5499980821992
374,189,134404,1,0,0:0:0:0:
417,169,134491,1,0,0:0:0:0:
445,130,134577,1,0,0:0:0:0:
451,84,134663,5,0,0:0:0:0:
278,240,135697,6,0,P|249:292|263:351,1,122.499996261597
337,307,136214,2,0,B|342:316|358:333|380:341|380:341|401:350|460:354|487:314|487:314|509:280|494:241|448:224|416:261,1,314.999990386963
337,307,138111,2,0,P|257:326|188:283,1,167.999994873047
274,135,140525,5,0,0:0:0:0:
274,135,141042,2,0,B|189:77|136:212|38:168,1,244.999992523194
46,171,142939,2,0,P|80:275|189:283,1,230.99999295044
266,328,144921,6,0,L|270:350,4,23.2749990410996
325,267,145180,2,0,P|331:242|329:221,1,46.5499980821992
233,122,145352,6,0,P|232:147|240:167,1,46.5499980821992
412,246,145525,1,0,0:0:0:0:
449,244,145611,1,0,0:0:0:0:
481,225,145697,1,0,0:0:0:0:
504,196,145783,1,0,0:0:0:0:
512,159,145870,2,0,P|508:135|498:113,1,46.5499980821992,8|0,0:0|0:0,0:0:0:0:
345,29,146042,5,2,0:0:0:0:
338,56,146128,1,2,0:0:0:0:
339,84,146214,1,2,0:0:0:0:
348,110,146301,2,2,P|390:150|436:163,1,93.0999961643983
215,45,146559,2,2,P|191:46|169:53,1,46.5499980821992
98,97,146732,2,0,P|88:105|80:118,8,23.2749990410996,0|0|0|0|0|0|0|0|0,0:3|0:3|0:3|0:3|0:3|0:3|0:3|0:3|0:3,0:0:0:0:
245,178,147163,2,8,P|253:156|255:133,2,46.5499980821992
156,212,147421,2,0,B|133:232|119:302|172:370|261:298|206:248,1,210
171,134,147766,6,0,P|129:115|68:118,1,93.0999961643983,4|0,0:0|0:0,0:0:0:0:
344,49,148025,2,0,P|364:36|395:31,1,46.5499980821992,4|0,0:0|0:0,0:0:0:0:
481,162,148197,5,0,0:0:0:0:
458,191,148283,2,0,L|395:201,1,46.5499980821992,8|0,0:0|0:0,0:0:0:0:
255,134,148456,1,0,0:0:0:0:
230,106,148542,2,0,L|293:116,1,46.5499980821992,8|0,0:0|0:0,0:0:0:0:
367,275,148714,6,0,L|304:285,1,46.5499980821992,8|0,0:0|0:0,0:0:0:0:
81,133,148973,6,0,L|144:143,1,46.5499980821992,8|0,0:0|0:0,0:0:0:0:
178,190,149146,2,0,B|198:227|118:278|80:203|107:131|153:126,1,175,4|0,0:0|0:0,0:0:0:0:
161,76,149447,6,8,P|163:62|163:47,15,23.2749990410996,12|8|8|8|8|8|8|8|8|8|8|8|8|8|8|8,0:0|0:0|0:0|0:0|0:0|0:0|0:0|0:0|0:0|0:0|0:0|0:0|0:0|0:0|0:0|0:0,0:0:0:0:
178,190,150180,6,0,P|133:188|82:158,1,93.0999961643983,4|0,0:0|0:0,0:0:0:0:
276,114,150439,2,0,P|313:139|346:201,1,116.374995205498,4|0,0:0|0:0,0:0:0:0:
296,314,150740,2,0,P|298:284|310:257,1,46.5499980821992,4|0,0:0|0:0,0:0:0:0:
346,201,150913,2,4,P|365:190|386:184,2,34.9124985616494
242,216,151128,2,0,P|195:204|176:188,1,70
179,283,151387,6,0,P|160:333|130:362,2,91.8750035047532
71,197,152077,2,0,P|0:243|100:271,1,232.749990410996
141,155,152594,2,10,P|143:133|140:104,22,35
169,226,153628,2,0,B|166:236|156:249|156:249|174:301|222:311,1,122.5
245,312,154318,5,0,0:0:0:0:
263,310,154404,1,0,0:0:0:0:
280,304,154490,1,0,0:0:0:0:
296,294,154576,1,0,0:0:0:0:
281,259,154662,5,0,0:0:0:0:
282,221,154749,1,0,0:0:0:0:
299,188,154835,1,0,0:0:0:0:
330,168,154921,1,0,0:0:0:0:
367,169,155008,6,0,P|408:187|471:187,1,93.0999961643983
219,81,155352,2,0,P|189:89|166:103,1,46.5499980821992,8|0,0:0|0:0,0:0:0:0:
316,72,155525,2,0,P|326:48|327:23,2,46.5499980821992
223,161,155783,5,8,0:0:0:0:
218,198,155870,1,8,0:0:0:0:
230,233,155956,1,8,0:0:0:0:
251,263,156042,2,0,L|285:284,2,23.2749990410996
145,167,156214,2,0,P|120:161|94:165,1,46.5499980821992,8|0,0:0|0:0,0:0:0:0:
23,246,156387,5,0,0:0:0:0:
50,271,156473,1,0,0:0:0:0:
85,283,156559,1,0,0:0:0:0:
122,285,156646,1,0,0:0:0:0:
157,274,156732,2,0,P|181:261|196:244,1,46.5499980821992,8|0,0:0|0:0,0:0:0:0:
304,193,156904,5,0,0:0:0:0:
341,193,156991,1,0,0:0:0:0:
373,210,157077,1,0,0:0:0:0:
393,241,157163,1,0,0:0:0:0:
394,278,157249,1,0,0:0:0:0:
379,312,157335,1,0,0:0:0:0:
348,332,157421,6,0,P|346:285|365:244,1,93.0999961643983,0|0,0:3|0:3,0:3:0:0:
512,113,157766,2,0,P|511:89|502:68,1,46.5499980821992,8|0,0:0|0:0,0:0:0:0:
468,215,157939,2,0,P|483:232|503:244,2,46.5499980821992
430,107,158197,5,8,0:0:0:0:
395,93,158283,1,8,0:0:0:0:
357,93,158370,1,8,0:0:0:0:
322,105,158456,2,0,P|314:112|304:121,2,23.2749990410996
274,270,158628,2,0,P|282:296|294:312,1,46.5499980821992,8|0,0:0|0:0,0:0:0:0:
338,220,158801,5,0,0:0:0:0:
309,196,158887,1,0,0:0:0:0:
272,188,158973,1,0,0:0:0:0:
236,197,159059,1,0,0:0:0:0:
208,222,159146,2,0,P|187:234|162:239,1,46.5499980821992,8|0,0:0|0:0,0:0:0:0:
72,165,159318,5,0,0:0:0:0:
65,128,159404,1,0,0:0:0:0:
72,91,159490,1,0,0:0:0:0:
91,59,159577,1,0,0:0:0:0:
122,38,159663,1,0,0:0:0:0:
158,30,159749,1,0,0:0:0:0:
194,33,159835,5,0,0:0:0:0:
283,194,160008,1,8,0:0:0:0:
162,127,160180,1,0,0:0:0:0:
281,97,160352,2,0,P|306:70|313:53,2,46.5499980821992
186,207,160611,5,8,0:0:0:0:
195,242,160697,1,8,0:0:0:0:
216,272,160783,1,8,0:0:0:0:
247,293,160870,2,0,P|258:296|269:298,2,23.2749990410996
327,197,161042,2,0,P|303:195|281:200,1,46.5499980821992,8|0,0:0|0:0,0:0:0:0:
106,199,161214,6,0,P|85:209|68:225,1,46.5499980821992
111,356,161387,2,0,P|129:342|143:323,1,46.5499980821992
185,207,161559,2,0,P|185:183|179:161,3,46.5499980821992
77,110,161904,1,0,0:0:0:0:
99,80,161990,1,0,0:0:0:0:
129,58,162077,1,0,0:0:0:0:
165,48,162163,1,0,0:0:0:0:
202,49,162249,6,0,P|240:75|284:85,1,93.0999961643983
427,32,162594,1,8,0:0:0:0:
448,163,162766,6,0,P|459:182|477:197,2,46.5499980821992
337,144,163025,1,8,0:0:0:0:
303,160,163111,1,8,0:0:0:0:
281,190,163197,1,8,0:0:0:0:
274,226,163283,2,0,P|274:237|277:248,2,23.2749990410996
398,237,163456,2,0,P|376:227|354:223,1,46.5499980821992,8|0,0:0|0:0,0:0:0:0:
225,130,163628,6,0,P|200:131|180:138,1,46.5499980821992,8|0,0:0|0:0,0:0:0:0:
116,261,163801,2,0,P|126:239|130:217,1,46.5499980821992,8|0,0:0|0:0,0:0:0:0:
98,102,163973,2,0,P|85:82|67:67,3,46.5499980821992,8|0|0|0,0:0|0:0|0:0|0:0,0:0:0:0:
217,207,164318,6,0,P|224:228|225:252,1,46.5499980821992,8|0,0:0|0:0,0:0:0:0:
299,206,164490,2,0,P|316:221|329:240,1,46.5499980821992,8|0,0:0|0:0,0:0:0:0:
377,173,164663,2,0,P|405:137|414:89,1,93.0999961643983
282,0,165008,1,8,0:0:0:0:
266,108,165180,2,0,P|287:120|309:125,2,46.5499980821992
203,43,165439,5,8,0:0:0:0:
166,48,165525,1,8,0:0:0:0:
139,74,165611,1,8,0:0:0:0:
130,110,165697,2,0,P|130:121|134:132,2,23.2749990410996
99,204,165870,2,0,P|111:223|130:236,1,46.5499980821992,8|0,0:0|0:0,0:0:0:0:
322,145,166042,6,0,P|341:158|357:175,1,46.5499980821992
431,172,166214,2,0,P|439:190|444:219,1,46.5499980821992
492,273,166387,2,0,P|492:295|484:321,3,46.5499980821992,8|0|0|0,0:0|0:0|0:0|0:0,0:0:0:0:
304,257,166732,2,0,P|281:250|253:251,1,46.5499980821992
206,321,166904,2,0,P|185:331|166:352,1,46.5499980821992
336,335,167077,6,0,P|373:305|387:260,1,93.0999961643983
347,76,167421,1,8,0:0:0:0:
211,154,167594,2,0,P|191:166|169:172,2,46.5499980821992
282,26,167852,5,8,0:0:0:0:
268,60,167939,1,8,0:0:0:0:
269,97,168025,1,8,0:0:0:0:
286,129,168111,2,0,L|309:149,2,23.2749990410996
380,219,168283,2,0,P|388:237|390:266,1,46.5499980821992,8|0,0:0|0:0,0:0:0:0:
199,267,168456,6,0,P|176:262|154:251,1,46.5499980821992
109,130,168628,2,0,P|114:153|114:176,1,46.5499980821992,8|0,0:0|0:0,0:0:0:0:
74,270,168801,2,0,P|56:286|36:297,3,46.5499980821992,8|0|0|0,0:0|0:0|0:0|0:0,0:0:0:0:
203,182,169146,6,0,P|225:175|248:174,1,46.5499980821992
313,133,169318,2,0,P|335:138|356:149,1,46.5499980821992
487,244,169490,5,0,0:0:0:0:
344,327,169663,1,0,0:0:0:0:
416,73,169835,1,8,0:0:0:0:
431,172,170008,2,0,P|421:193|405:211,2,46.5499980821992
309,213,170266,5,8,0:0:0:0:
316,249,170352,1,8,0:0:0:0:
336,280,170439,1,8,0:0:0:0:
365,299,170525,2,0,P|376:303|388:306,2,23.2749990410996
239,306,170697,2,0,P|217:315|199:330,1,46.5499980821992,8|0,0:0|0:0,0:0:0:0:
108,279,170870,5,0,0:0:0:0:
77,258,170956,1,0,0:0:0:0:
55,227,171042,1,0,0:0:0:0:
44,191,171128,1,0,0:0:0:0:
44,153,171214,2,0,P|50:130|62:110,1,46.5499980821992,8|0,0:0|0:0,0:0:0:0:
189,56,171387,5,0,0:0:0:0:
224,67,171473,1,0,0:0:0:0:
250,93,171559,1,0,0:0:0:0:
260,129,171646,1,0,0:0:0:0:
271,164,171732,1,0,0:0:0:0:
297,190,171818,1,0,0:0:0:0:
333,198,171904,5,0,0:0:0:0:
421,97,172076,1,0,0:0:0:0:
183,134,172249,1,8,0:0:0:0:
271,275,172421,2,0,P|265:298|265:321,2,46.5499980821992
250,93,172680,5,8,0:0:0:0:
214,62,172766,1,8,0:0:0:0:
167,57,172852,1,8,0:0:0:0:
125,79,172939,2,0,P|111:90|101:101,2,23.2749990410996
105,178,173111,2,0,P|102:200|105:228,1,46.5499980821992,8|0,0:0|0:0,0:0:0:0:
349,315,173283,6,0,P|340:283|322:258,1,46.5499980821992,4|0,0:0|0:0,0:0:0:0:
181,204,173456,2,0,P|188:224|202:243,1,46.5499980821992,4|0,0:0|0:0,0:0:0:0:
450,202,173628,2,0,P|452:178|449:156,1,46.5499980821992,4|0,0:0|0:0,0:0:0:0:
290,69,173801,1,8,0:0:0:0:
274,112,173887,1,8,0:0:0:0:
278,162,173973,1,8,0:0:0:0:
314,204,174059,1,8,0:0:0:0:
378,219,174146,1,8,0:0:0:0:
450,202,174232,1,8,0:0:0:0:
502,137,174318,5,4,0:0:0:0:
256,192,174404,12,0,181559,0:0:0:0:
101,278,184113,6,0,P|163:304|244:285,1,151.666659723918
373,161,184771,2,0,B|375:182|368:202|368:202|358:224|338:243|312:248|312:248|336:270|323:294|323:294|316:308|314:328|321:342,1,210
297,174,185868,2,0,P|275:153|227:144,1,70.0000026702882
130,237,186197,2,0,P|198:247|240:213,1,121.333327779134
146,38,186745,2,0,B|137:70|110:82|110:82|126:105|152:106|152:106|144:149|175:178,1,186.666666666667
224,121,187732,2,0,P|251:108|285:108,1,52.5000020027161
428,187,188023,2,0,P|325:217|267:177,1,181.999991668702
363,234,193767,6,0,P|388:181|388:124,1,116.666666666667
295,60,194417,2,0,B|321:84|321:84|295:103|295:103|327:136|314:195|273:213|273:213|227:200|192:218,1,272.999987503052
143,149,195500,2,0,P|112:143|74:152,1,60.6666638895672
111,226,195825,2,0,P|157:290|236:290,1,163.333328348796
315,320,196476,2,0,B|340:303|374:305|374:305|330:254|356:169|425:167,1,245.000009346009
490,229,197342,2,0,P|464:244|434:246,1,60.6666638895672
273,253,197668,2,0,B|256:256|244:246|244:246|245:221|245:221|202:198|261:158|187:103,1,181.999991668702
69,139,198426,2,0,P|103:169|148:177,1,93.3333333333333
396,84,203400,6,0,P|380:52|380:23,1,52.5000020027161
472,109,203729,2,0,B|458:149|417:162|417:162|430:175|430:175|415:193|418:216,1,141.166670974732
352,125,204584,2,0,B|343:141|340:172|349:187|349:187|341:216|350:241|350:241|361:271|392:284|392:284|421:295|457:283|471:261|471:261|489:222|452:193|414:218,1,367.500014019013
370,285,206097,2,0,P|440:295|501:231,1,151.666659723918
448,74,206886,2,0,B|407:62|362:106|383:154|383:154|404:168|404:168|419:189|419:189|417:216,1,205.33333959961
316,296,208168,6,0,B|303:286|291:231|291:231|282:299|246:341|195:350|195:350|139:358|108:325|108:325|115:304|115:304|107:294|107:294|123:265|123:265|117:256|117:256|129:231|129:231|111:207|111:207|141:196|176:176|186:129|166:107|136:91|103:119|102:159|141:165,1,661.499979812623
316,299,213060,6,0,P|385:324|449:288,1,151.666659723918
429,168,213718,2,0,B|395:178|376:208|376:247|376:247|296:186|273:269|206:193,1,280.000010681153
261,73,214705,2,0,P|275:109|273:149,1,79.3333348464966
139,221,215034,2,0,P|136:186|202:125,1,128.333337249756
361,183,215692,2,0,B|367:234|327:267|327:267|303:257|303:257|265:270|233:250,1,186.666666666667
133,186,216679,2,0,P|122:159|123:119,1,65.3333313395183
209,144,217009,2,0,P|256:184|229:260,1,140
49,258,222768,6,0,B|48:231|75:215|75:215|99:217|99:217|128:183|127:127,1,151.666659723918
160,263,223426,2,0,P|208:333|306:330,1,186.666666666667
397,256,224413,2,0,P|436:250|480:263,1,70.0000026702882
316,252,224742,2,0,B|290:228|291:190|291:190|309:158|309:158|309:117|279:96,1,175.00000667572
67,120,225400,2,0,B|77:133|77:133|79:151|79:151|100:153|113:168|113:168|127:183|184:184|222:147,1,186.666666666667
372,98,226387,2,0,P|398:84|433:81,1,60.6666638895672
394,174,226717,2,0,B|349:186|306:163|296:127|296:127|284:85|247:76,1,179.666661183675
217,151,227430,2,0,P|212:207|171:274,1,130.666666666667
34,169,232333,6,0,P|50:112|113:75,1,128.333337249756
268,43,232991,2,0,B|280:75|295:87|295:87|291:133|248:146|248:146|232:176|232:176|161:208|113:155,1,293.999991027832
175,41,234088,2,0,P|185:74|180:109,1,70.0000026702882
116,157,234417,2,0,P|93:250|131:292,1,151.666659723918
167,219,235075,2,0,B|226:180|280:227|280:227|298:233|298:233|312:252|313:268,1,179.666672149658
225,364,235952,2,0,P|227:329|241:297,1,70.0000026702882
426,192,236282,2,0,P|396:248|310:266,1,154.000004699707
370,117,242018,6,0,P|428:168|442:250,1,151.666659723918
329,309,242676,2,0,B|283:292|261:238|284:198|284:198|312:184|312:184|346:183|365:198|367:231,1,242.666655558269
232,333,243663,2,0,P|199:344|150:335,1,70.0000026702882
190,266,243992,2,0,P|137:207|160:128,1,151.666659723918
334,182,244650,2,0,B|317:209|253:225|215:189|215:189|233:154|228:118,1,205.33333959961
321,38,245637,2,0,P|319:73|307:109,1,70.0000026702882
183,265,245967,2,0,P|126:212|112:113,1,181.999991668702
228,118,246734,2,0,P|226:152|214:190,1,70
145,219,251921,6,0,B|131:257|95:283|95:283|206:266|269:354,1,280
334,287,253464,2,0,B|375:275|417:284|417:284|358:239|351:155,1,223.999993164063
228,48,254532,2,0,B|201:50|158:75|148:119|148:119|216:121|244:171|242:211,1,261.333325358073
153,211,255600,2,0,B|137:272|177:307|177:307|102:301|67:246|81:173,1,280.000010681153
231,83,256669,2,0,B|179:175|92:116|46:50|46:50|97:30|136:51,1,315.000012016297
231,83,257856,6,0,P|248:106|253:159,1,75.833329861959
73,255,258271,2,0,P|19:188|29:85,1,181.999994445801
141,195,259161,2,0,P|89:140|181:141,1,210.000008010865
141,99,261248,6,0,P|208:177|181:259,1,186.666666666667
65,335,262254,2,0,P|64:304|73:276,1,60.6666638895672
265,273,262590,2,0,P|214:326|142:317,1,151.666659723918
214,165,263261,6,0,P|305:163|373:223,1,186.666666666667
291,326,264268,2,0,P|275:306|263:263,1,60.6666638895672
480,215,264603,2,0,P|462:280|404:325,1,140
324,168,265386,2,0,P|400:100|501:110,1,210
483,121,268457,6,0,P|454:115|429:101,1,58.3333333333333
326,123,270870,5,0,0:0:0:0:
267,274,271042,1,0,0:0:0:0:
238,272,271128,2,0,P|216:266|197:254,1,46.6666666666667
132,156,271301,1,0,0:0:0:0:
110,173,271387,2,0,P|94:191|87:211,1,46.6666666666667,8|0,0:0|0:0,0:0:0:0:
109,359,271559,1,0,0:0:0:0:
256,185,271732,5,0,0:0:0:0:
257,138,271818,1,0,0:0:0:0:
242,93,271904,1,0,0:0:0:0:
211,58,271990,1,0,0:0:0:0:
170,35,272076,2,0,P|144:36|116:48,1,46.5499980821992,8|0,0:0|0:0,0:0:0:0:
30,96,272249,5,8,0:0:0:0:
10,115,272335,1,0,0:0:0:0:
3,142,272421,2,0,P|28:147|58:143,1,46.5499980821992
304,100,272594,1,4,0:0:0:0:
304,100,272938,5,0,0:0:0:0:
284,142,273025,1,0,0:0:0:0:
239,155,273111,1,0,0:0:0:0:
195,137,273197,1,0,0:0:0:0:
178,93,273283,5,0,0:0:0:0:
311,17,273456,1,0,0:0:0:0:
338,25,273543,2,0,P|357:36|372:57,1,46.5499980821992
393,220,273714,1,8,0:0:0:0:
420,228,273801,2,0,P|443:228|467:221,1,46.5499980821992,8|0,0:0|0:0,0:0:0:0:
482,88,273973,2,0,P|496:66|522:48,2,46.5499980821992
319,167,274232,2,0,P|312:212|328:255,1,93.0999961643983
432,155,274490,2,0,P|415:138|394:128,1,46.5499980821992,8|0,0:0|0:0,0:0:0:0:
255,39,274663,5,0,0:0:0:0:
218,40,274749,1,0,0:0:0:0:
183,52,274835,1,0,0:0:0:0:
153,73,274921,1,0,0:0:0:0:
130,102,275007,2,0,P|111:168|133:233,1,139.649994246598,4|0,0:0|0:0,0:0:0:0:
230,328,275352,2,0,L|222:361,6,23.2749990410996
294,270,275697,6,0,P|252:244|195:249,1,93.0999961643983
65,329,275956,2,0,P|114:330|161:297,1,93.0999961643983
244,158,276214,1,8,0:0:0:0:
4,97,276387,6,2,B|9:130|-5:153|-5:153|10:196,1,93.0999961643983
93,254,276645,2,2,B|88:221|103:198|103:198|87:155,1,93.0999961643983
171,244,276904,2,0,P|220:263|265:256,1,93.0999961643983,8|0,0:3|0:0,0:0:0:0:
396,157,277163,5,0,0:0:0:0:
407,130,277249,2,0,P|409:107|404:85,1,46.6666666666667
317,79,277421,2,0,P|307:58|292:41,1,46.6666666666667
244,124,277594,1,0,0:0:0:0:
198,134,277680,1,8,0:0:0:0:
155,116,277766,1,4,0:0:0:0:
367,11,277938,1,4,0:0:0:0:
316,158,278111,6,0,P|317:213|337:250,1,93.0999961643983
424,282,278370,1,0,0:0:0:0:
384,256,278456,1,0,0:0:0:0:
338,252,278542,1,0,0:0:0:0:
294,271,278628,1,0,0:0:0:0:
262,305,278714,1,0,0:0:0:0:
220,326,278801,6,0,P|196:329|170:327,1,46.5499980821992,8|0,0:0|0:0,0:0:0:0:
62,259,278973,1,0,0:0:0:0:
45,236,279059,2,0,P|35:201|52:161,1,46.6666666666667,8|0,0:0|0:0,0:0:0:0:
97,52,279232,1,0,0:0:0:0:
113,74,279318,2,0,P|124:108|107:148,1,46.6666666666667,8|0,0:0|0:0,0:0:0:0:
170,241,279490,5,0,0:0:0:0:
208,266,279576,1,0,0:0:0:0:
253,275,279663,1,0,0:0:0:0:
299,269,279749,1,0,0:0:0:0:
334,246,279835,5,0,0:0:0:0:
360,213,279921,1,0,0:0:0:0:
393,197,280007,1,0,0:0:0:0:
430,201,280094,1,0,0:0:0:0:
455,220,280180,1,0,0:0:0:0:
470,242,280266,2,8,L|476:269,4,23.2749990410996
403,269,280525,6,0,P|374:232|367:176,1,93.0999961643983,4|0,0:0|0:0,0:0:0:0:
431,31,280783,2,0,P|436:76|416:128,1,93.0999961643983,4|0,0:0|0:0,0:0:0:0:
259,167,281042,1,8,0:0:0:0:
111,102,281214,6,0,P|103:75|111:38,1,46.6666666666667
228,252,281387,1,0,0:0:0:0:
221,278,281473,2,0,P|202:309|184:323,1,46.6666666666667
72,271,281645,1,0,0:0:0:0:
45,277,281731,2,0,P|9:275|-11:267,1,46.6666666666667,8|0,0:0|0:0,0:0:0:0:
94,193,281904,2,0,P|116:199|135:214,1,46.6666666666667,8|0,0:0|0:0,0:0:0:0:
218,207,282076,2,0,P|226:228|227:252,1,46.5499980821992
269,364,282249,2,0,L|281:319,1,46.5499980821992,4|8,0:0|0:0,0:0:0:0:
302,114,282421,2,0,L|290:159,1,46.5499980821992,4|8,0:0|0:0,0:0:0:0:
350,253,282594,6,0,L|339:277,1,23.2749990410996
396,258,282680,2,0,L|395:293,1,23.2749990410996
440,243,282766,2,0,L|461:270,1,23.2749990410996
472,209,282852,2,0,L|501:225,1,23.2749990410996
484,164,282938,1,0,0:0:0:0:
475,117,283025,2,0,P|461:97|433:77,1,46.5499980821992,8|0,0:0|0:0,0:0:0:0:
243,57,283197,1,0,0:0:0:0:
247,345,283370,5,0,0:0:0:0:
263,300,283456,1,0,0:0:0:0:
258,254,283542,1,8,0:0:0:0:
236,212,283628,2,0,P|218:196|198:188,1,46.5499980821992
31,193,283801,2,0,P|13:179|0:159,2,46.5499980821992
161,282,284059,1,0,0:0:0:0:
185,297,284145,6,0,L|129:313,1,46.5499980821992
23,296,284318,1,8,0:0:0:0:
0,280,284404,2,0,L|56:264,1,46.5499980821992
221,360,284576,5,8,0:0:0:0:
253,326,284663,1,8,0:0:0:0:
255,279,284749,1,8,0:0:0:0:
230,239,284835,1,8,0:0:0:0:
185,225,284921,1,8,0:0:0:0:
140,199,285007,1,8,0:0:0:0:
119,151,285094,1,8,0:0:0:0:
127,100,285180,1,8,0:0:0:0:
164,65,285266,1,8,0:0:0:0:
214,58,285352,6,0,P|246:89|296:103,1,93.0999961643983,4|0,0:0|0:0,0:0:0:0:
447,50,285611,2,0,P|402:39|352:51,1,93.0999961643983,4|0,0:0|0:0,0:0:0:0:
201,145,285870,1,8,0:0:0:0:
408,317,286042,2,0,P|410:270|392:228,1,93.0999961643983,4|0,0:0|0:0,0:0:0:0:
300,104,286301,2,0,P|290:58|301:14,1,93.0999961643983,4|0,0:0|0:0,0:0:0:0:
450,81,286559,2,2,P|456:103|454:131,1,46.5499980821992
380,149,286732,5,0,0:0:0:0:
346,182,286818,1,0,0:0:0:0:
300,194,286904,1,0,0:0:0:0:
254,183,286990,1,0,0:0:0:0:
217,154,287076,2,0,L|206:120,2,23.2749990410996
140,192,287249,5,0,0:0:0:0:
112,229,287335,1,0,0:0:0:0:
112,275,287421,1,0,0:0:0:0:
138,314,287508,1,0,0:0:0:0:
178,332,287594,2,2,P|199:309|218:279,1,46.5499980821992
300,104,287766,5,0,0:0:0:0:
155,82,287939,1,8,0:0:0:0:
128,90,288025,1,0,0:0:0:0:
106,107,288111,2,0,P|123:122|146:130,1,46.5499980821992,8|0,0:0|0:0,0:0:0:0:
201,184,288283,2,0,P|223:188|247:183,1,46.5499980821992,8|0,0:0|0:0,0:0:0:0:
393,65,288456,6,0,P|419:68|444:81,1,46.5499980821992
499,198,288628,1,8,0:0:0:0:
507,224,288714,2,0,P|463:197|441:155,1,93.0999961643983
509,40,288973,2,0,P|520:19|525:-10,1,46.5499980821992
325,195,289145,5,0,0:0:0:0:
184,168,289318,1,8,0:0:0:0:
169,144,289404,2,0,L|182:91,1,46.5499980821992,8|0,0:0|0:0,0:0:0:0:
324,26,289576,1,8,0:0:0:0:
310,50,289662,2,0,L|257:65,1,46.5499980821992,8|0,0:0|0:0,0:0:0:0:
91,108,289835,5,8,0:0:0:0:
368,138,290007,1,8,0:0:0:0:
158,323,290180,5,0,0:0:0:0:
158,323,290438,1,0,0:0:0:0:
158,323,290697,1,8,0:0:0:0:
265,62,290870,5,0,0:0:0:0:
265,62,291128,1,0,0:0:0:0:
265,62,291387,1,8,0:0:0:0:
303,346,291559,5,4,0:0:0:0:
303,346,291904,5,0,0:0:0:0:
279,317,291990,1,0,0:0:0:0:
243,306,292076,1,0,0:0:0:0:
205,310,292163,1,0,0:0:0:0:
175,332,292249,2,2,P|160:313|150:292,1,46.6666666666667
77,274,292421,2,2,P|75:251|79:228,1,46.6666666666667
256,198,292594,6,0,P|278:189|297:176,2,46.6666666666667
134,173,292852,1,0,0:0:0:0:
91,152,292939,1,0,0:0:0:0:
65,113,293025,1,0,0:0:0:0:
66,66,293111,2,0,P|88:70|109:81,1,46.5499980821992,8|0,0:0|0:0,0:0:0:0:
174,27,293283,6,0,P|186:46|194:68,2,46.5499980821992,8|0|0,0:0|0:0|0:0,0:0:0:0:
301,131,293542,2,0,P|296:153|297:176,2,46.5499980821992,8|0|0,0:0|0:0|0:0,0:0:0:0:
410,36,293800,1,0,0:0:0:0:
378,160,293973,5,0,0:0:0:0:
418,182,294059,1,0,0:0:0:0:
464,177,294145,1,0,0:0:0:0:
500,146,294232,1,0,0:0:0:0:
510,104,294318,2,0,P|475:44|403:39,1,139.649994246598,4|0,0:0|0:0,0:0:0:0:
187,93,294663,2,0,P|174:93|162:90,6,23.2749990410996
252,37,295007,6,0,P|267:81|263:128,1,93.0999961643983
127,231,295266,2,0,P|166:207|194:170,1,93.0999961643983
111,34,295525,1,8,0:0:0:0:
343,227,295697,6,0,B|368:228|389:201|389:201|366:208|338:200,1,93.0999961643983,8|0,0:0|0:0,0:0:0:0:
194,169,295956,2,0,B|167:164|143:188|143:188|167:184|194:194,1,93.0999961643983,8|0,0:0|0:0,0:0:0:0:
362,124,296214,2,0,B|379:105|372:71|372:71|350:84|339:110,1,93.0999961643983,8|0,0:0|0:0,0:0:0:0:
273,187,296473,1,0,0:0:0:0:
259,211,296559,1,0,0:0:0:0:
253,239,296645,1,0,0:0:0:0:
256,268,296732,2,0,P|297:298|353:302,1,105,8|0,0:0|0:0,0:0:0:0:
382,167,297335,5,0,0:0:0:0:
357,177,297421,2,0,P|339:192|326:214,1,46.5499980821992
438,321,297594,1,0,0:0:0:0:
441,294,297680,2,0,P|436:271|423:249,1,46.5499980821992
250,173,297852,5,8,0:0:0:0:
240,122,297938,1,8,0:0:0:0:
264,76,298025,1,8,0:0:0:0:
310,55,298111,2,2,B|333:52|333:52|355:57,2,46.5499980821992
159,111,298370,2,0,B|114:95|114:95|80:64,1,93.0999961643983
331,137,298628,2,2,B|342:158|342:158|346:184,1,46.5499980821992
306,322,298801,5,0,0:0:0:0:
275,356,298887,1,0,0:0:0:0:
231,374,298973,1,8,0:0:0:0:
186,366,299059,1,0,0:0:0:0:
180,320,299145,5,0,0:0:0:0:
158,279,299232,1,0,0:0:0:0:
118,256,299318,1,0,0:0:0:0:
100,214,299404,1,0,0:0:0:0:
104,169,299490,2,8,B|116:148|116:148|137:136,1,46.5499980821992
381,152,299663,2,8,B|360:165|360:165|336:167,1,46.5499980821992
212,108,299835,6,0,P|194:64|196:12,1,93.0999961643983
279,222,300094,2,0,P|272:269|244:313,1,93.0999961643983
101,362,300353,1,8,0:0:0:0:
2,131,300525,2,0,P|50:131|94:156,1,93.0999961643983
248,307,300784,1,0,0:0:0:0:
0,324,300956,5,0,0:0:0:0:
25,285,301042,1,0,0:0:0:0:
64,261,301128,1,0,0:0:0:0:
109,254,301214,6,0,P|131:248|154:236,1,46.5499980821992,4|0,0:0|0:0,0:0:0:0:
214,297,301387,2,0,P|227:277|235:254,1,46.5499980821992,4|0,0:0|0:0,0:0:0:0:
317,269,301559,2,0,P|318:211|289:161,1,116.374995205498
131,28,302033,2,0,P|135:62|156:98,1,69.8249971232988
221,145,302249,5,0,0:0:0:0:
244,157,302335,2,0,P|267:163|289:161,1,46.5499980821992,8|0,0:0|0:0,0:0:0:0:
450,21,302507,1,0,0:0:0:0:
307,41,302680,1,0,0:0:0:0:
274,74,302766,1,0,0:0:0:0:
268,120,302852,1,8,0:0:0:0:
289,161,302938,2,0,P|297:189|298:216,2,46.5499980821992
382,231,303197,2,0,L|376:263,4,23.2749990410996
279,344,303456,1,8,0:0:0:0:
463,235,303628,5,4,0:0:0:0:
456,198,303714,1,4,0:0:0:0:
429,164,303801,1,4,0:0:0:0:
384,150,303887,1,4,0:0:0:0:
335,165,303973,5,4,0:0:0:0:
292,200,304059,1,4,0:0:0:0:
235,204,304146,1,4,0:0:0:0:
187,175,304232,1,4,0:0:0:0:
166,137,304318,2,0,L|159:114,2,23.2749990410996
172,256,304490,2,2,B|149:333,1,72.6250010527611
7,302,304663,6,0,P|40:269|84:256,1,93.0999961643983
285,333,304921,2,0,P|259:331|232:318,1,46.6666666666667
98,183,305094,1,0,0:0:0:0:
97,155,305180,2,2,B|113:128|113:128|144:109,1,58.1000008422089,10|2,0:0|0:0,0:0:0:0:
230,147,305352,6,0,P|235:100|199:36,2,116.374995205498
172,211,305870,2,2,B|182:280,1,58.1000008422089
251,225,306042,5,0,0:0:0:0:
268,219,306128,1,0,0:0:0:0:
286,218,306215,1,0,0:0:0:0:
304,221,306301,1,0,0:0:0:0:
321,227,306387,1,0,0:0:0:0:
336,237,306473,1,8,0:0:0:0:
371,200,306559,5,0,0:0:0:0:
421,191,306646,1,0,0:0:0:0:
468,208,306732,1,0,0:0:0:0:
493,252,306818,1,0,0:0:0:0:
490,303,306904,2,0,P|465:300|442:293,1,46.5499980821992
313,123,307076,1,0,0:0:0:0:
195,326,307249,5,8,0:0:0:0:
167,329,307335,1,0,0:0:0:0:
140,321,307421,2,0,P|155:301|175:289,1,46.5499980821992,8|0,0:0|0:0,0:0:0:0:
215,206,307594,2,0,P|238:197|261:195,1,46.5499980821992,8|0,0:0|0:0,0:0:0:0:
371,200,307766,6,0,P|398:162|406:116,1,93.3333333333333,4|0,0:0|0:0,0:0:0:0:
293,34,308025,2,0,P|293:81|313:123,1,93.3333333333333,4|0,0:0|0:0,0:0:0:0:
410,223,308283,2,0,P|391:209|370:199,1,46.5499980821992,4|0,0:0|0:0,0:0:0:0:
148,232,308456,2,2,B|97:242|64:276|73:330|73:330|83:365|117:390|151:378|151:378|184:367|189:337|189:337|193:319|185:307|185:307|174:294|160:290|160:290|145:287|130:297|129:308|129:308|127:317|135:326,1,418.949982739793
303,287,309318,1,8,0:0:0:0:
324,268,309404,1,8,0:0:0:0:
345,249,309490,6,0,B|350:175|350:175|311:121,1,139.649994246598
175,42,309921,5,8,0:0:0:0:
174,69,310007,2,0,P|200:113|235:149,1,93.0999961643983,8|0,0:0|0:0,0:0:0:0:
487,116,310438,2,0,P|465:117|438:125,1,46.5499980821992,8|0,0:0|0:0,0:0:0:0:
171,273,310783,5,8,0:0:0:0:
171,273,310870,2,0,P|180:294|193:313,2,46.5499980821992
206,182,311128,2,0,P|219:163|230:142,2,46.5499980821992
117,198,311387,2,0,P|93:195|70:196,2,46.5499980821992
252,254,311645,1,0,0:0:0:0:
279,247,311732,1,0,0:0:0:0:
303,233,311818,1,8,0:0:0:0:
323,213,311904,6,0,B|332:140|332:140|297:78,1,139.649994246598
418,200,312335,1,8,0:0:0:0:
408,223,312421,2,0,P|395:271|394:316,1,93.0999961643983,8|0,0:0|0:0,0:0:0:0:
502,99,312852,2,0,P|506:72|508:41,1,46.5499980821992,8|0,0:0|0:0,0:0:0:0:
123,36,313197,5,8,0:0:0:0:
129,64,313282,1,0,0:0:0:0:
145,88,313369,1,0,0:0:0:0:
167,106,313455,1,0,0:0:0:0:
197,116,313542,2,0,P|187:187|88:223,1,183.750007009506
209,30,314232,1,0,0:0:0:0:
231,23,314318,6,0,P|248:38|263:56,1,46.5499980821992
360,74,314490,1,8,0:0:0:0:
374,92,314576,2,0,P|352:99|329:103,1,46.5499980821992
265,176,314749,1,8,0:0:0:0:
243,180,314835,2,0,P|247:157|255:135,1,46.5499980821992,8|0,0:0|0:0,0:0:0:0:
336,24,315007,1,0,0:0:0:0:
18,144,315266,6,0,P|19:203|83:261,1,139.649994246598
153,304,315611,1,0,0:0:0:0:
162,277,315697,2,0,P|163:252|156:220,2,46.5499980821992
249,277,315956,2,0,P|268:291|298:303,1,46.5499980821992
390,305,316128,1,0,0:0:0:0:
425,299,316214,1,0,0:0:0:0:
455,278,316300,1,0,0:0:0:0:
473,246,316386,1,4,0:0:0:0:
476,210,316472,1,0,0:0:0:0:
466,174,316559,1,0,0:0:0:0:
439,149,316645,1,4,0:0:0:0:
404,134,316732,6,0,B|334:154|334:154|307:216,1,139.649994246598
177,298,317163,5,0,0:0:0:0:
195,277,317249,2,0,P|220:235|237:183,1,93.0999961643983,8|0,0:0|0:0,0:0:0:0:
351,31,317507,2,0,P|339:53|332:74,1,46.5499980821992
263,112,317680,2,0,P|193:111|142:66,1,139.649994246598
154,102,318025,5,8,0:0:0:0:
151,139,318111,1,0,0:0:0:0:
138,173,318197,1,0,0:0:0:0:
109,196,318283,1,0,0:0:0:0:
83,223,318370,1,4,0:0:0:0:
72,258,318456,2,0,P|72:281|77:303,2,46.5499980821992
155,268,318714,5,0,0:0:0:0:
184,291,318801,1,0,0:0:0:0:
220,296,318887,1,0,0:0:0:0:
255,284,318973,1,0,0:0:0:0:
281,257,319059,5,8,0:0:0:0:
310,234,319145,2,0,P|336:225|364:221,1,46.5499980821992
428,329,319318,1,0,0:0:0:0:
400,329,319404,2,0,P|377:324|356:313,1,46.5499980821992
220,296,319576,5,0,0:0:0:0:
207,270,319663,2,0,P|201:246|204:224,1,46.5499980821992,8|0,0:0|0:0,0:0:0:0:
289,70,319835,1,0,0:0:0:0:
289,70,320094,5,8,0:0:0:0:
274,93,320180,2,0,P|236:117|185:122,1,93.0999961643983
79,88,320438,1,0,0:0:0:0:
55,72,320525,2,0,L|50:25,2,46.5499980821992
115,165,320783,2,0,L|110:212,2,46.5499980821992
5,191,321042,2,0,L|-1:144,2,46.5499980821992
54,292,321301,1,0,0:0:0:0:
88,306,321387,1,0,0:0:0:0:
125,307,321473,1,0,0:0:0:0:
161,299,321559,6,0,B|205:261|205:261|217:178,1,139.649994246598
439,200,321990,5,0,0:0:0:0:
457,220,322076,2,0,P|473:265|481:321,2,93.0999961643983,8|0|0,0:0|0:0|0:0,0:0:0:0:
330,87,322507,2,0,P|342:67|360:52,1,46.5499980821992,8|0,0:0|0:0,0:0:0:0:
411,129,322680,1,0,0:0:0:0:
386,157,322766,1,0,0:0:0:0:
352,173,322852,1,8,0:0:0:0:
314,175,322938,5,0,0:0:0:0:
279,160,323025,1,0,0:0:0:0:
253,132,323111,1,0,0:0:0:0:
241,96,323197,2,0,P|229:77|208:56,2,46.5499980821992,8|0|0,0:0|0:0|0:0,0:0:0:0:
164,131,323456,1,0,0:0:0:0:
118,156,323542,1,0,0:0:0:0:
91,200,323628,1,0,0:0:0:0:
89,251,323714,1,0,0:0:0:0:
110,299,323801,1,0,0:0:0:0:
150,328,323887,1,8,0:0:0:0:
200,336,323973,6,0,B|221:266|221:266|191:202,1,139.649994246598
214,52,324404,5,0,0:0:0:0:
215,80,324490,2,0,P|231:128|256:167,1,93.0999961643983,8|0,0:0|0:0,0:0:0:0:
254,164,324921,6,0,P|180:162|216:223,1,174.300002526627
328,193,325266,1,8,0:0:0:0:
353,165,325352,2,0,L|341:105,2,46.5499980821992
443,190,325611,2,0,L|446:128,2,46.5499980821992
373,287,325870,1,0,0:0:0:0:
339,303,325956,1,0,0:0:0:0:
301,305,326042,1,4,0:0:0:0:
265,294,326128,1,0,0:0:0:0:
234,273,326214,1,0,0:0:0:0:
214,241,326301,1,8,0:0:0:0:
202,205,326387,6,0,B|258:163|258:163|334:168,1,139.649994246598
489,95,326818,5,0,0:0:0:0:
461,100,326904,2,0,P|414:101|364:93,1,93.0999961643983,8|0,0:0|0:0,0:0:0:0:
231,16,327163,2,0,P|261:17|289:21,1,46.5499980821992
328,168,327335,2,0,P|345:217|314:296,1,139.649994246598
148,238,327680,1,8,0:0:0:0:
169,220,327766,1,0,0:0:0:0:
195,211,327852,1,0,0:0:0:0:
222,212,327938,1,0,0:0:0:0:
244,222,328025,6,0,P|237:159|245:99,1,122.5
369,264,328714,1,8,0:0:0:0:
360,284,328801,2,0,P|304:337|143:306,1,251.999992309571
245,101,329749,2,0,L|239:158,1,46.5499980821992,8|0,0:0|0:0,0:0:0:0:
478,161,330094,5,0,0:0:0:0:
460,137,330180,1,0,0:0:0:0:
437,120,330266,1,0,0:0:0:0:
410,111,330352,1,0,0:0:0:0:
382,115,330438,1,0,0:0:0:0:
356,126,330524,1,0,0:0:0:0:
330,153,330610,5,0,0:0:0:0:
308,188,330696,1,0,0:0:0:0:
278,217,330782,1,0,0:0:0:0:
237,228,330869,1,0,0:0:0:0:
191,221,330955,5,8,0:0:0:0:
154,192,331041,1,8,0:0:0:0:
141,147,331127,1,8,0:0:0:0:
151,101,331214,2,0,L|182:71,3,31.0333320547994
231,140,331904,6,0,P|254:181|254:227,1,93.0999961643983
108,296,332163,1,8,0:0:0:0:
113,266,332249,2,0,P|136:226|176:203,1,93.0999961643983
196,286,332507,5,0,0:0:0:0:
209,309,332593,1,0,0:0:0:0:
229,328,332680,1,0,0:0:0:0:
252,342,332766,1,0,0:0:0:0:
279,348,332852,5,0,0:0:0:0:
306,347,332938,1,0,0:0:0:0:
333,340,333025,1,0,0:0:0:0:
357,326,333111,2,2,B|367:281|367:281|412:235,1,93.0999961643983
512,227,333370,2,2,L|479:260,1,46.5499980821992
283,239,333542,1,8,0:0:0:0:
262,222,333628,2,2,P|232:159|241:91,1,139.649994246598
401,32,334059,5,0,0:0:0:0:
399,69,334145,2,0,P|378:115|338:146,1,93.0999961643983,8|0,0:0|0:0,0:0:0:0:
78,78,334576,2,0,L|87:157,1,78.7500030040742
174,117,334921,5,8,0:0:0:0:
203,151,335007,1,0,0:0:0:0:
213,197,335094,1,0,0:0:0:0:
200,241,335180,1,0,0:0:0:0:
88,294,335266,5,4,0:0:0:0:
112,253,335352,1,0,0:0:0:0:
155,235,335439,1,0,0:0:0:0:
200,241,335525,1,0,0:0:0:0:
233,273,335611,1,0,0:0:0:0:
249,316,335697,6,0,L|241:370,2,46.5499980821992,4|0|4,0:0|0:0|0:0,0:0:0:0:
441,258,335956,2,4,L|449:312,2,46.5499980821992,0|4|0,0:0|0:0|0:0,0:0:0:0:
334,257,336214,1,4,0:0:0:0:
300,212,336300,1,4,0:0:0:0:
297,156,336386,1,4,0:0:0:0:
324,107,336472,1,4,0:0:0:0:
375,84,336559,1,4,0:0:0:0:
480,169,336732,6,0,P|435:181|388:177,1,93.0999961643983,4|0,0:0|0:0,0:0:0:0:
214,40,336990,6,0,P|284:54|326:117,1,139.649994246598,4|0,0:0|0:0,0:0:0:0:
150,242,337335,1,4,0:0:0:0:
141,278,337421,2,2,P|158:307|213:338,1,93.0999961643983
240,212,337680,2,0,P|200:165|77:179,1,186.199992328797,0|4,0:0|0:0,0:0:0:0:
65,193,338111,2,0,L|55:255,4,38.7333338948059
118,25,338456,5,0,0:0:0:0:
146,61,338542,1,0,0:0:0:0:
189,78,338628,1,0,0:0:0:0:
234,66,338714,1,0,0:0:0:0:
279,53,338801,1,0,0:0:0:0:
324,60,338887,1,0,0:0:0:0:
362,86,338973,2,0,P|377:109|384:133,1,46.5499980821992,8|0,0:0|0:0,0:0:0:0:
305,270,339145,6,2,P|307:224|332:185,1,93.0999961643983
449,173,339404,2,0,P|433:190|412:200,1,46.5499980821992,8|0,0:0|0:0,0:0:0:0:
39,190,339749,5,8,0:0:0:0:
56,168,339835,2,0,P|78:158|101:158,2,46.5499980821992
94,246,340094,5,12,0:0:0:0:
162,260,340180,1,12,0:0:0:0:
224,229,340266,1,12,0:0:0:0:
246,163,340352,1,12,0:0:0:0:
141,13,340525,1,0,0:0:0:0:
126,36,340611,2,0,L|137:90,1,46.5499980821992
395,122,340783,5,0,0:0:0:0:
420,113,340870,2,0,P|454:112|489:124,2,69.8249971232988
386,286,341301,1,0,0:0:0:0:
407,274,341387,2,0,P|433:236|439:188,1,93.0999961643983,8|0,0:0|0:0,0:0:0:0:
259,235,341818,2,0,P|252:257|251:280,1,46.5499980821992,8|0,0:0|0:0,0:0:0:0:
338,169,342163,5,0,0:0:0:0:
310,143,342249,1,0,0:0:0:0:
274,131,342335,1,0,0:0:0:0:
236,133,342421,1,0,0:0:0:0:
200,148,342507,2,0,P|160:99|164:23,1,140
130,202,343283,6,0,P|132:248|105:301,1,93.0999961643983
215,224,343542,1,0,0:0:0:0:
258,205,343628,1,0,0:0:0:0:
304,215,343714,1,0,0:0:0:0:
341,244,343801,1,8,0:0:0:0:
399,65,343973,6,2,P|435:36|482:27,1,93.0999961643983
472,112,344232,2,0,P|482:177|445:234,1,139.649994246598
392,159,344576,5,0,0:0:0:0:
347,143,344663,1,0,0:0:0:0:
316,107,344749,1,0,0:0:0:0:
306,61,344835,1,0,0:0:0:0:
319,16,344921,1,4,0:0:0:0:
191,289,345438,5,0,0:0:0:0:
158,321,345524,1,0,0:0:0:0:
112,331,345610,1,8,0:0:0:0:
68,315,345696,1,0,0:0:0:0:
235,90,345870,5,0,0:0:0:0:
257,120,345956,2,0,P|267:164|255:209,1,93.0999961643983
234,234,346214,1,0,0:0:0:0:
69,178,346387,1,0,0:0:0:0:
312,171,346645,6,0,P|238:142|162:165,1,161.699999506531
206,294,347938,1,8,0:0:0:0:
231,311,348025,1,8,0:0:0:0:
257,315,348111,2,0,L|388:287,1,131.25000500679
427,210,348628,2,0,L|475:201,2,46.5499980821992
249,185,349059,5,0,0:0:0:0:
224,198,349145,2,0,P|221:147|242:107,1,93.0999961643983
313,235,349404,5,0,0:0:0:0:
283,272,349490,1,0,0:0:0:0:
242,292,349576,1,0,0:0:0:0:
196,290,349663,1,0,0:0:0:0:
149,267,349749,2,0,L|120:135,1,134.750004112244
277,337,350438,1,8,0:0:0:0:
298,325,350525,6,2,P|313:278|312:233,1,93.0999961643983
224,198,350783,2,2,P|209:151|210:106,1,93.0999961643983
376,88,351042,1,0,0:0:0:0:
362,117,351128,1,0,0:0:0:0:
341,136,351215,2,0,P|321:147|297:153,2,46.5499980821992
424,211,351473,1,8,0:0:0:0:
453,204,351559,2,0,P|476:203|498:210,2,46.5499980821992
288,320,351818,1,8,0:0:0:0:
259,318,351904,6,0,P|244:299|234:277,2,46.5499980821992,4|0|0,0:0|0:0|0:0,0:0:0:0:
154,275,352163,2,0,P|150:251|152:226,2,46.5499980821992,4|0|0,0:0|0:0|0:0,0:0:0:0:
319,260,352421,2,0,P|372:265|421:291,1,105.000004005432
440,309,352680,1,0,0:0:0:0:
89,350,352852,1,8,0:0:0:0:
63,339,352938,6,0,P|49:274|74:205,1,139.649994246598
185,105,353370,5,0,0:0:0:0:
186,142,353456,2,0,P|175:190|151:230,1,93.0999961643983,8|0,0:0|0:0,0:0:0:0:
264,355,353887,2,0,P|249:333|240:313,1,46.5499980821992
218,40,354232,5,0,0:0:0:0:
238,71,354318,1,0,0:0:0:0:
270,88,354404,1,0,0:0:0:0:
306,92,354490,1,0,0:0:0:0:
287,134,354576,5,4,0:0:0:0:
293,180,354663,1,0,0:0:0:0:
325,212,354749,1,0,0:0:0:0:
370,221,354835,1,0,0:0:0:0:
410,244,354921,1,0,0:0:0:0:
434,283,355007,1,4,0:0:0:0:
436,329,355094,6,0,L|432:365,4,23.2749990410996,0|0|0|0|4,0:0|0:0|0:0|0:0|0:0,0:0:0:0:
336,322,355352,6,2,P|312:306|293:283,1,59.5000011348725,6|2,0:0|0:0,0:0:0:0:
205,229,355525,2,2,P|206:200|217:172,1,59.5000011348725,6|2,0:0|0:0,0:0:0:0:
401,104,355697,2,2,P|385:127|362:146,1,59.5000011348725,6|2,0:0|0:0,0:0:0:0:
53,194,355870,1,8,0:0:0:0:
147,124,356042,6,0,P|162:78|160:27,1,93.0999961643983,8|0,0:0|0:0,0:0:0:0:
129,225,356301,6,0,P|135:263|157:293,1,70
319,132,356559,2,0,L|310:100,2,23.2749990410996
268,209,356732,2,0,P|238:226|204:228,1,69.8249971232988,0|8,0:0|0:0,0:0:0:0:
347,206,356990,2,4,P|371:215|391:232,2,46.5499980821992,4|4|12,0:0|0:0|0:0,0:0:0:0:
217,151,357249,5,4,0:0:0:0:
223,95,357335,1,4,0:0:0:0:
256,50,357421,1,4,0:0:0:0:
307,29,357507,1,4,0:0:0:0:
362,37,357594,1,4,0:0:0:0:
404,72,357680,1,4,0:0:0:0:
428,122,357766,6,0,B|441:199|398:266|349:288|349:288|356:254|347:207,1,279.299988493195
160,96,358456,6,2,P|165:143|199:190,1,93.0999961643983
266,210,358714,2,0,P|271:187|270:164,1,46.5499980821992,8|0,0:0|0:0,0:0:0:0:
368,45,359059,5,8,0:0:0:0:
391,74,359145,2,0,L|382:129,2,46.5499980821992
460,148,359404,2,0,L|451:203,2,46.5499980821992
358,238,359663,2,0,L|366:284,2,46.5499980821992
276,162,359921,1,0,0:0:0:0:
242,146,360007,1,0,0:0:0:0:
204,147,360094,1,8,0:0:0:0:
172,166,360180,6,0,B|154:233|154:233|185:299,1,139.649994246598
53,190,360611,1,0,0:0:0:0:
55,227,360697,2,0,P|67:279|95:330,1,93.0999961643983,8|0,0:0|0:0,0:0:0:0:
119,67,361128,2,0,P|111:45|99:22,1,46.5499980821992,8|0,0:0|0:0,0:0:0:0:
346,170,361473,5,8,0:0:0:0:
320,197,361560,1,0,0:0:0:0:
311,233,361646,1,0,0:0:0:0:
319,269,361732,1,0,0:0:0:0:
344,296,361818,2,2,L|354:337,6,23.2749990410996
414,258,362163,2,0,P|417:235|412:212,1,46.5499980821992
435,136,362335,2,0,P|407:98|362:74,1,93.0999961643983
249,151,362594,5,0,0:0:0:0:
211,151,362680,1,0,0:0:0:0:
177,134,362766,1,0,0:0:0:0:
152,106,362852,1,0,0:0:0:0:
115,100,362938,1,0,0:0:0:0:
78,110,363025,1,0,0:0:0:0:
52,137,363111,2,0,P|43:157|41:185,1,46.5499980821992
139,269,363283,2,0,P|138:223|120:181,1,93.3333333333333
326,290,363542,6,0,L|334:359,2,69.8249971232988,0|8|0,0:0|0:0|0:0,0:0:0:0:
251,170,363930,5,4,0:0:0:0:
381,219,364059,5,8,0:0:0:0:
195,288,364232,6,2,P|165:282|138:269,1,61.25
80,177,364663,2,0,L|75:154,6,23.2749990410996
95,186,365008,2,2,P|162:185|203:82,1,184.799999436035,6|2,0:0|0:0,0:0:0:0:
256,192,365956,12,0,367249,0:0:0:0:
129,114,367421,6,0,L|142:206,1,93.0999961643983
217,242,367680,1,0,0:0:0:0:
245,218,367766,1,0,0:0:0:0:
280,208,367852,1,0,0:0:0:0:
316,212,367938,1,8,0:0:0:0:
409,322,368111,2,2,P|362:314|326:285,1,93.0999961643983
437,107,368370,2,0,P|432:183|390:241,1,139.649994246598
305,135,368714,5,8,0:0:0:0:
284,103,368801,2,0,L|293:42,2,46.5499980821992
210,195,369059,2,0,L|219:256,2,46.5499980821992
138,105,369318,5,0,0:0:0:0:
93,94,369404,1,0,0:0:0:0:
49,108,369490,1,0,0:0:0:0:
18,142,369576,1,0,0:0:0:0:
7,187,369663,2,0,P|51:197|95:181,1,93.0999961643983
290,56,370094,5,0,0:0:0:0:
264,95,370180,1,0,0:0:0:0:
261,141,370266,1,0,0:0:0:0:
280,183,370352,6,0,P|317:210|337:251,1,93.0999961643983,8|0,0:0|0:0,0:0:0:0:
247,271,370611,1,0,0:0:0:0:
211,301,370697,1,0,0:0:0:0:
165,307,370783,1,8,0:0:0:0:
121,288,370870,2,0,P|105:271|94:250,2,46.5499980821992
154,142,371128,5,8,0:0:0:0:
173,174,371214,2,0,P|178:196|177:222,2,46.5499980821992
93,79,371473,2,0,P|79:98|70:122,2,46.5499980821992
177,57,371732,2,0,P|194:42|217:32,1,46.5499980821992
383,59,371904,5,0,0:0:0:0:
409,108,371990,1,0,0:0:0:0:
407,163,372076,1,0,0:0:0:0:
374,208,372163,1,0,0:0:0:0:
319,219,372249,6,0,L|328:164,2,46.5499980821992,4|0|0,0:0|0:0|0:0,0:0:0:0:
413,295,372507,2,0,L|405:340,2,46.5499980821992,4|0|0,0:0|0:0|0:0,0:0:0:0:
299,339,372766,5,4,0:0:0:0:
256,321,372852,1,4,0:0:0:0:
222,287,372939,1,4,0:0:0:0:
268,118,373111,2,0,P|288:101|311:95,1,46.5499980821992,4|0,0:0|0:0,0:0:0:0:
242,203,373283,5,0,0:0:0:0:
201,178,373370,1,0,0:0:0:0:
182,135,373456,1,0,0:0:0:0:
145,106,373542,1,0,0:0:0:0:
98,103,373628,1,0,0:0:0:0:
57,126,373714,1,0,0:0:0:0:
38,169,373801,1,0,0:0:0:0:
43,215,373887,1,0,0:0:0:0:
73,250,373973,2,0,P|82:271|86:294,2,46.5499980821992
116,181,374318,5,4,0:0:0:0:
255,336,374490,5,8,0:0:0:0:
287,110,374663,6,0,P|259:175|193:201,1,145.250002105522,4|0,0:0|0:0,0:0:0:0:
114,75,374964,2,0,P|156:83|191:108,1,87.1500012633133,4|0,0:0|0:0,0:0:0:0:
116,181,375180,6,0,L|131:141,2,29.0500004211044,0|0|0,0:3|0:3|0:3,0:3:0:0:
26,220,375352,2,2,B|38:246|38:246|68:265,1,58.1000008422089
141,289,375525,2,2,B|169:291|169:291|200:275,1,58.1000008422089
261,220,375697,2,0,L|271:191,6,29.0500004211044
365,351,376042,6,0,P|337:301|339:243,1,116.200001684418
455,89,376387,1,0,0:0:0:0:
466,133,376473,1,0,0:0:0:0:
453,177,376559,1,0,0:0:0:0:
422,211,376645,2,0,P|428:237|443:261,4,46.5499980821992
253,170,377076,6,0,P|232:162|208:160,2,46.5499980821992
285,190,377335,1,0,0:0:0:0:
308,217,377421,1,0,0:0:0:0:
321,251,377507,1,0,0:0:0:0:
322,288,377594,1,8,0:0:0:0:
455,89,377766,2,0,P|464:134|452:178,1,93.0999961643983
313,330,378025,2,0,L|308:353,6,23.2749990410996
283,306,378370,5,0,0:0:0:0:
248,292,378456,1,0,0:0:0:0:
210,291,378542,1,0,0:0:0:0:
175,303,378628,1,0,0:0:0:0:
145,325,378714,2,0,L|82:339,6,46.5499980821992
79,256,379318,6,0,P|57:248|39:233,1,46.5499980821992
166,239,379490,2,0,B|172:261|172:261|163:306|143:326,1,93.0999961643983
103,177,379749,2,0,B|95:155|95:155|104:109|124:90,1,93.0999961643983
243,105,380008,2,0,P|263:128|272:160,1,46.6666666666667
255,316,380180,6,0,P|268:248|303:218,1,93.3333333333333
349,301,380439,2,0,P|362:310|393:316,1,46.5499980821992
446,259,380611,2,0,P|473:250|498:232,3,46.5499980821992
282,231,380956,2,0,P|243:174|244:113,1,93.0999961643983
243,105,381214,2,0,L|424:79,1,178.850004912262
512,123,381904,5,8,0:0:0:0:
478,167,381990,1,8,0:0:0:0:
424,183,382076,1,8,0:0:0:0:
367,176,382163,2,0,P|346:162|332:144,2,46.5499980821992
295,70,382421,5,8,0:0:0:0:
231,56,382507,1,8,0:0:0:0:
170,76,382594,1,8,0:0:0:0:
127,125,382680,1,8,0:0:0:0:
112,188,382766,1,8,0:0:0:0:
135,248,382852,1,8,0:0:0:0:
191,282,382938,2,0,P|274:232|185:194,1,233.333333333333
127,125,383341,2,0,P|109:147|58:171,1,70
43,175,383571,1,0,0:0:0:0:
256,192,383801,12,0,386214,0:0:0:0:
336,268,386387,6,0,B|326:307,6,23.2749990410996
400,192,386732,6,0,P|382:152|352:124,5,76.6500021052552
140,86,389145,2,0,L|144:66,2,11.6666666666667
128,93,389318,2,0,B|70:124|50:188|74:240|74:240|115:229|140:196|140:196|204:208|204:208|189:274|117:303|90:308,1,472.500018024445
438,210,391559,6,0,P|461:135|443:59,1,157.5
393,291,393973,2,0,L|397:311,2,11.6666666666667
382,283,394145,2,0,B|334:269|287:292|287:292|244:313|199:300|182:261|182:261|171:226|185:193|216:182|216:182|241:174|268:188|268:188|242:242,1,420.000016021729
8,160,396387,6,0,P|63:118|150:124,1,157.5
344,107,398801,2,0,L|340:87,2,11.6666666666667
339,119,398973,2,0,B|325:124|298:161|320:210|320:210|337:247|324:293|286:308|286:308|250:320|223:298|223:298|209:285|207:269|207:269|206:250|216:236|216:236|229:219|249:223|257:230|257:230|268:239|262:249,1,420.000016021729
262,248,401214,6,0,B|244:215|261:180|261:180|276:145|262:109,1,140
218,297,406042,5,0,0:0:0:0:
297,77,406215,1,0,0:0:0:0:
306,110,406301,2,0,P|317:129|355:154,1,58.1000008422089
508,168,406473,1,0,0:0:0:0:
489,197,406559,2,0,L|425:208,1,58.1000008422089,8|0,0:0|0:0,0:0:0:0:
197,190,406732,6,0,L|254:179,1,58.1000008422089
382,264,406904,1,0,0:0:0:0:
398,291,406990,2,0,P|408:317|408:346,1,58.1000008422089
246,276,407163,1,0,0:0:0:0:
218,297,407249,2,0,L|160:286,1,58.1000008422089,8|0,0:0|0:0,0:0:0:0:
129,29,407421,6,0,P|107:48|96:75,1,58.1000008422089,8|0,0:0|0:0,0:0:0:0:
65,283,407594,2,0,P|87:265|101:239,1,58.1000008422089,4|0,0:0|0:0,0:0:0:0:
0,85,407766,5,4,0:0:0:0:
22,138,407852,1,4,0:0:0:0:
70,169,407938,1,4,0:0:0:0:
128,167,408025,1,4,0:0:0:0:
175,133,408111,2,0,L|240:144,1,58.1000008422089,4|0,0:0|0:0,0:0:0:0:
418,27,408283,2,0,L|355:37,1,58.1000008422089,8|0,0:0|0:0,0:0:0:0:
257,259,408456,6,0,P|251:287|257:315,1,58.1000008422089
447,253,408628,1,0,0:0:0:0:
462,221,408714,6,0,P|464:192|456:164,1,58.1000008422089
278,74,408887,1,0,0:0:0:0:
297,102,408973,2,0,P|320:118|348:125,1,58.1000008422089,8|0,0:0|0:0,0:0:0:0:
202,26,409145,5,0,0:0:0:0:
177,79,409232,1,0,0:0:0:0:
181,136,409318,1,0,0:0:0:0:
209,186,409404,2,0,P|214:227|209:247,2,58.1000008422089
144,332,409663,1,8,0:0:0:0:
297,102,409835,5,0,0:0:0:0:
346,71,409921,1,0,0:0:0:0:
403,71,410007,1,0,0:0:0:0:
450,104,410094,1,0,0:0:0:0:
471,157,410180,2,0,P|469:185|459:213,1,58.1000008422089,8|0,0:0|0:0,0:0:0:0:
316,295,410352,1,0,0:0:0:0:
269,295,410438,1,0,0:0:0:0:
224,280,410525,5,4,0:0:0:0:
136,59,410697,5,8,0:0:0:0:
179,66,410783,1,8,0:0:0:0:
218,89,410870,2,0,P|217:123|210:152,1,58.1000008422089
50,165,411042,1,0,0:0:0:0:
21,185,411128,2,0,P|22:219|29:248,1,58.1000008422089
241,299,411301,1,0,0:0:0:0:
272,314,411387,2,0,P|239:324|210:328,1,58.1000008422089,8|0,0:0|0:0,0:0:0:0:
134,238,411559,5,0,0:0:0:0:
103,223,411645,2,0,P|135:212|164:208,1,58.1000008422089,8|0,0:0|0:0,0:0:0:0:
319,227,411818,2,0,P|350:239|375:256,2,58.1000008422089
239,221,412076,5,8,0:0:0:0:
228,175,412163,1,8,0:0:0:0:
233,128,412249,1,0,0:0:0:0:
259,89,412335,1,0,0:0:0:0:
299,66,412421,2,0,L|356:57,1,58.1000008422089
112,154,412594,2,0,L|54:145,1,58.1000008422089,4|0,0:0|0:0,0:0:0:0:
306,282,412766,2,0,P|316:255|318:226,1,58.1000008422089
178,83,412938,2,0,P|182:111|195:137,1,58.1000008422089
461,181,413111,1,8,0:0:0:0:
296,8,413283,6,0,P|292:36|298:65,1,58.1000008422089
434,104,413456,1,0,0:0:0:0:
463,123,413542,2,0,P|466:151|460:180,2,58.1000008422089,8|0|0,0:0|0:0|0:0,0:0:0:0:
370,33,413801,1,8,0:0:0:0:
78,278,413973,6,0,B|70:312|70:312|70:344,1,58.1000008422089,8|0,0:0|0:0,0:0:0:0:
298,65,414232,6,0,B|293:30|293:30|282:0,1,58.1000008422089,8|0,0:0|0:0,0:0:0:0:
434,317,414490,6,0,B|461:338|461:338|491:351,1,58.1000008422089,8|0,0:0|0:0,0:0:0:0:
341,168,414663,5,0,0:0:0:0:
295,161,414749,1,0,0:0:0:0:
249,171,414835,1,0,0:0:0:0:
213,201,414921,1,0,0:0:0:0:
195,245,415007,2,0,P|251:261|303:243,1,115.499999647522,8|0,0:0|0:0,0:0:0:0:
388,137,415525,2,0,P|362:146|337:175,1,58.1000008422089
258,359,415697,5,0,0:0:0:0:
77,207,415870,1,0,0:0:0:0:
54,223,415956,2,0,L|46:297,1,58.1000008422089,8|0,0:0|0:0,0:0:0:0:
125,322,416128,2,0,L|117:396,1,58.1000008422089,8|0,0:0|0:0,0:0:0:0:
477,259,416387,5,0,0:0:0:0:
285,183,416559,1,0,0:0:0:0:
262,167,416645,2,0,L|256:100,1,58.1000008422089,8|0,0:0|0:0,0:0:0:0:
332,64,416818,2,0,L|326:-3,1,58.1000008422089,8|0,0:0|0:0,0:0:0:0:
354,287,417076,2,0,P|335:308|308:324,1,58.1000008422089
213,344,417249,2,0,P|184:347|155:340,1,58.1000008422089
0,224,417421,1,4,0:0:0:0:
286,193,417594,6,0,L|313:209,1,17.5
254,231,417680,2,0,L|268:251,1,17.5
208,244,417766,2,0,L|205:269,1,17.5
165,228,417852,2,0,P|124:173|139:107,1,140
430,47,418111,6,0,L|422:115,1,58.1000008422089
293,274,418283,1,0,0:0:0:0:
295,246,418369,2,0,P|317:229|348:223,1,58.1000008422089
497,211,418542,1,0,0:0:0:0:
486,186,418628,2,0,P|458:178|422:183,1,58.1000008422089,8|0,0:0|0:0,0:0:0:0:
341,363,418801,2,0,P|398:321|420:254,1,140,4|0,0:0|0:0,0:0:0:0:
341,91,419059,2,0,P|323:161|348:225,1,140,4|0,0:0|0:0,0:0:0:0:
69,106,419318,6,2,B|38:99|38:99|7:101,1,58.1000008422089
245,216,419490,2,0,P|228:238|203:252,1,58.1000008422089
178,27,419663,2,0,P|172:55|178:83,1,58.1000008422089
364,145,419835,5,0,0:0:0:0:
382,187,419921,1,0,0:0:0:0:
381,233,420007,1,0,0:0:0:0:
369,278,420094,1,8,0:0:0:0:
334,324,420180,5,0,0:0:0:0:
282,351,420266,1,0,0:0:0:0:
224,353,420352,1,0,0:0:0:0:
169,332,420438,1,0,0:0:0:0:
129,288,420525,5,4,0:0:0:0:
81,49,420697,1,0,0:0:0:0:
109,68,420783,2,0,L|116:125,1,58.1000008422089,8|0,0:0|0:0,0:0:0:0:
202,210,420956,2,0,L|194:152,1,58.1000008422089,8|8,0:0|0:0,0:0:0:0:
266,21,421214,6,0,B|250:45|250:45|247:74,1,58.1000008422089,8|0,0:0|0:0,0:0:0:0:
73,298,421473,6,0,B|101:299|101:299|128:287,1,58.1000008422089,8|0,0:0|0:0,0:0:0:0:
404,322,421732,6,0,B|391:296|391:296|367:279,1,58.1000008422089,8|0,0:0|0:0,0:0:0:0:
232,271,421904,2,0,L|219:296,2,29.0500004211044
243,226,422076,5,8,0:0:0:0:
229,181,422163,1,8,0:0:0:0:
192,152,422249,1,8,0:0:0:0:
145,149,422335,1,8,0:0:0:0:
105,172,422421,2,0,P|88:201|84:232,2,58.1000008422089
165,226,422680,5,8,0:0:0:0:
239,212,422766,1,8,0:0:0:0:
287,154,422852,1,8,0:0:0:0:
285,78,422938,2,0,L|276:39,4,29.0500004211044
379,108,423197,2,0,L|392:69,4,29.0500004211044
363,182,423456,5,0,0:0:0:0:
400,247,423542,1,0,0:0:0:0:
470,273,423628,2,0,L|513:276,4,29.0500004211044
423,361,423887,2,0,L|467:383,4,29.0500004211044
272,289,424145,6,0,L|240:274,18,29.0500004211044,8|0|0|0|0|0|0|0|0|0|0|0|0|0|0|0|0|0|0,0:0|0:0|0:0|0:0|0:0|0:0|0:0|0:0|0:0|0:0|0:0|0:0|0:0|0:0|0:0|0:0|0:0|0:0|0:0,0:0:0:0:
351,257,425007,1,8,0:0:0:0:
377,218,425094,1,8,0:0:0:0:
377,173,425180,1,8,0:0:0:0:
73,333,425352,5,0,0:0:0:0:
219,360,425525,1,0,0:0:0:0:
303,126,425697,5,0,0:0:0:0:
157,153,425870,1,0,0:0:0:0:
219,360,426042,1,8,0:0:0:0:
245,321,426129,1,0,0:0:0:0:
245,276,426215,1,0,0:0:0:0:
91,213,426387,5,8,0:0:0:0:
70,171,426473,1,0,0:0:0:0:
73,124,426559,1,0,0:0:0:0:
98,85,426645,1,0,0:0:0:0:
139,64,426732,2,0,P|163:61|185:66,1,46.5499980821992
259,196,426904,5,0,0:0:0:0:
293,208,426990,1,0,0:0:0:0:
329,203,427076,1,0,0:0:0:0:
361,184,427163,1,0,0:0:0:0:
380,152,427249,1,0,0:0:0:0:
384,115,427335,1,0,0:0:0:0:
371,80,427421,2,0,P|352:64|339:41,1,46.5499980821992,8|0,0:0|0:0,0:0:0:0:
222,34,427594,1,8,0:0:0:0:
176,37,427680,1,0,0:0:0:0:
139,64,427766,5,0,0:0:0:0:
170,247,427938,1,0,0:0:0:0:
20,78,428111,5,0,0:0:0:0:
202,117,428283,1,0,0:0:0:0:
255,297,428456,5,8,0:0:0:0:
222,330,428542,1,0,0:0:0:0:
178,345,428628,1,0,0:0:0:0:
26,272,428801,1,0,0:0:0:0:
159,171,428973,1,0,0:0:0:0:
20,78,429145,1,0,0:0:0:0:
161,285,429318,5,8,0:0:0:0:
196,280,429404,1,0,0:0:0:0:
228,262,429490,1,0,0:0:0:0:
254,236,429576,1,0,0:0:0:0:
269,201,429663,1,0,0:0:0:0:
273,165,429749,1,0,0:0:0:0:
265,129,429835,1,8,0:0:0:0:
256,93,429921,1,8,0:0:0:0:
263,58,430007,1,8,0:0:0:0:
288,30,430094,1,8,0:0:0:0:
321,16,430180,5,0,0:0:0:0:
370,218,430352,1,0,0:0:0:0:
159,171,430525,1,0,0:0:0:0:
338,93,430697,5,0,0:0:0:0:
384,87,430783,1,0,0:0:0:0:
429,99,430870,1,8,0:0:0:0:
465,127,430956,1,0,0:0:0:0:
490,165,431042,1,0,0:0:0:0:
370,218,431214,1,0,0:0:0:0:
321,16,431387,1,8,0:0:0:0:
232,171,431559,5,0,0:0:0:0:
216,203,431645,1,0,0:0:0:0:
213,241,431732,1,0,0:0:0:0:
219,276,431818,1,0,0:0:0:0:
237,310,431904,1,0,0:0:0:0:
264,338,431990,2,0,P|275:317|281:295,1,46.5499980821992,8|0,0:0|0:0,0:0:0:0:
364,255,432163,1,8,0:0:0:0:
370,218,432249,2,0,P|363:195|352:175,1,46.5499980821992,4|0,0:0|0:0,0:0:0:0:
118,187,432421,1,8,0:0:0:0:
72,175,432508,1,0,0:0:0:0:
42,139,432594,5,0,0:0:0:0:
184,39,432766,1,0,0:0:0:0:
95,263,432938,1,0,0:0:0:0:
115,105,433111,1,0,0:0:0:0:
274,54,433283,1,0,0:0:0:0:
294,211,433456,1,0,0:0:0:0:
451,241,433628,1,0,0:0:0:0:
471,83,433801,1,0,0:0:0:0:
274,54,433973,6,0,P|292:98|327:128,1,93.0999961643983
471,83,434232,1,8,0:0:0:0:
435,113,434318,1,8,0:0:0:0:
420,156,434404,1,8,0:0:0:0:
426,201,434490,1,8,0:0:0:0:
450,222,434576,1,0,0:0:0:0:
476,241,434663,2,8,L|508:235,2,23.2749990410996
295,273,434835,2,2,P|267:273|241:266,1,46.5499980821992,10|2,0:0|0:0,0:0:0:0:
19,140,435007,5,0,0:0:0:0:
156,115,435180,1,0,0:0:0:0:
250,269,435352,1,0,0:0:0:0:
113,244,435525,1,0,0:0:0:0:
84,99,435697,5,8,0:0:0:0:
101,65,435783,1,0,0:0:0:0:
136,44,435870,1,8,0:0:0:0:
276,178,436042,1,8,0:0:0:0:
320,192,436128,1,0,0:0:0:0:
366,185,436214,1,0,0:0:0:0:
401,153,436301,1,0,0:0:0:0:
417,109,436387,6,0,P|418:85|413:63,7,46.5499980821992
276,178,437076,2,0,P|271:201|275:224,1,46.5499980821992
397,298,437249,2,0,P|401:274|397:251,1,46.5499980821992
326,98,437421,5,0,0:0:0:0:
177,42,437594,1,0,0:0:0:0:
114,216,437766,5,0,0:0:0:0:
236,114,437939,1,0,0:0:0:0:
53,147,438111,5,8,0:0:0:0:
80,303,438284,1,0,0:0:0:0:
263,346,438456,2,0,P|287:345|309:339,2,46.5499980821992,8|0|0,0:0|0:0|0:0,0:0:0:0:
114,216,438801,5,8,0:0:0:0:
139,186,438887,1,0,0:0:0:0:
173,174,438973,1,0,0:0:0:0:
210,177,439059,1,0,0:0:0:0:
242,195,439145,1,0,0:0:0:0:
279,200,439232,1,0,0:0:0:0:
314,188,439318,2,0,P|331:172|344:152,1,46.6666666666667,8|0,0:0|0:0,0:0:0:0:
270,71,439490,2,0,P|266:94|269:117,1,46.6666666666667,8|0,0:0|0:0,0:0:0:0:
463,248,439663,1,0,0:0:0:0:
436,221,439749,1,8,0:0:0:0:
400,209,439835,5,0,0:0:0:0:
309,340,440007,1,0,0:0:0:0:
178,249,440180,1,0,0:0:0:0:
270,118,440352,1,0,0:0:0:0:
341,273,440525,1,8,0:0:0:0:
333,310,440611,1,0,0:0:0:0:
309,340,440697,5,0,0:0:0:0:
178,249,440870,5,8,0:0:0:0:
147,228,440956,1,8,0:0:0:0:
110,224,441042,1,8,0:0:0:0:
74,235,441128,1,0,0:0:0:0:
88,191,441214,5,0,0:0:0:0:
125,162,441301,1,0,0:0:0:0:
171,156,441387,1,0,0:0:0:0:
215,169,441473,1,0,0:0:0:0:
261,165,441559,1,0,0:0:0:0:
298,137,441645,1,0,0:0:0:0:
313,92,441732,2,0,P|311:68|304:44,2,46.5499980821992,8|0|8,0:0|0:0|0:0,0:0:0:0:
376,189,441990,2,0,P|397:199|422:205,2,46.5499980821992,8|0|8,0:0|0:0|0:0,0:0:0:0:
225,84,442249,5,0,0:0:0:0:
388,26,442421,1,0,0:0:0:0:
345,263,442594,1,0,0:0:0:0:
313,92,442766,1,0,0:0:0:0:
509,207,442938,5,8,0:0:0:0:
509,207,443025,1,0,0:0:0:0:
509,207,443111,1,8,0:0:0:0:
353,165,443283,1,8,0:0:0:0:
306,171,443370,1,0,0:0:0:0:
269,199,443456,1,0,0:0:0:0:
357,312,443628,5,0,0:0:0:0:
355,294,443714,1,0,0:0:0:0:
346,276,443801,1,0,0:0:0:0:
331,263,443887,1,0,0:0:0:0:
313,256,443973,5,8,0:0:0:0:
278,281,444060,1,0,0:0:0:0:
233,291,444146,1,0,0:0:0:0:
187,287,444232,1,0,0:0:0:0:
146,266,444318,1,0,0:0:0:0:
118,234,444404,2,0,L|108:212,4,23.2749990410996
188,366,444663,5,0,0:0:0:0:
227,160,444835,1,0,0:0:0:0:
194,112,444921,1,0,0:0:0:0:
143,84,445007,1,0,0:0:0:0:
84,82,445094,1,0,0:0:0:0:
29,104,445181,2,0,P|10:120|-9:155,1,58.1000008422089,8|0,0:0|0:0,0:0:0:0:
39,326,445352,6,0,P|35:297|42:269,1,58.1000008422089
277,226,445525,1,0,0:0:0:0:
248,246,445612,2,0,L|184:237,1,58.1000008422089
29,104,445783,1,0,0:0:0:0:
58,84,445870,2,0,L|122:93,1,58.1000008422089,8|0,0:0|0:0,0:0:0:0:
387,156,446042,6,0,P|386:184|377:212,1,58.1000008422089,8|0,0:0|0:0,0:0:0:0:
123,280,446215,2,0,P|113:252|112:223,1,58.1000008422089,8|0,0:0|0:0,0:0:0:0:
262,59,446387,5,0,0:0:0:0:
313,33,446473,1,0,0:0:0:0:
370,39,446559,1,0,0:0:0:0:
413,77,446646,1,0,0:0:0:0:
457,114,446732,2,0,P|479:124|517:128,1,58.1000008422089
265,143,446904,2,0,P|236:137|210:124,1,58.1000008422089,8|0,0:0|0:0,0:0:0:0:
402,288,447076,6,0,P|387:313|365:332,1,58.1000008422089
189,204,447249,1,0,0:0:0:0:
135,226,447335,1,0,0:0:0:0:
109,277,447421,1,0,0:0:0:0:
122,334,447508,1,0,0:0:0:0:
165,372,447594,2,0,L|234:363,1,58.1000008422089,8|0,0:0|0:0,0:0:0:0:
346,218,447766,6,0,L|415:209,2,58.1000008422089,8|0|0,0:0|0:0|0:0,0:0:0:0:
189,204,448025,2,0,P|179:231|178:260,1,58.1000008422089
439,340,448197,2,0,P|433:311|420:285,1,58.1000008422089,0|8,0:0|0:0,0:0:0:0:
141,29,448456,5,0,0:0:0:0:
151,86,448542,1,0,0:0:0:0:
186,131,448628,1,0,0:0:0:0:
241,149,448715,1,0,0:0:0:0:
298,145,448801,2,0,P|278:123|252:110,1,58.1000008422089
51,232,448973,1,0,0:0:0:0:
82,243,449059,1,0,0:0:0:0:
116,244,449146,1,4,0:0:0:0:
423,129,449318,6,0,P|452:115|485:114,1,58.1000008422089
444,229,449491,2,0,P|455:255|457:284,2,58.1000008422089
231,188,449749,2,0,P|219:214|217:243,2,58.1000008422089
352,65,450007,2,0,P|343:37|327:12,1,58.1000008422089,8|0,0:0|0:0,0:0:0:0:
298,237,450180,5,0,0:0:0:0:
316,267,450267,2,0,L|373:273,1,58.1000008422089
181,117,450438,2,0,L|123:110,2,58.1000008422089,8|0|0,0:0|0:0|0:0,0:0:0:0:
464,42,450697,1,0,0:0:0:0:
459,100,450784,1,8,0:0:0:0:
428,149,450870,1,0,0:0:0:0:
377,176,450956,1,0,0:0:0:0:
319,174,451042,2,0,P|311:147|311:116,1,58.1000008422089,4|0,0:0|0:0,0:0:0:0:
472,229,451215,6,0,P|454:289|407:329,1,116.200001684418,4|0,0:0|0:0,0:0:0:0:
274,322,451473,2,0,P|302:315|325:298,2,58.1000008422089
190,292,451732,1,0,0:0:0:0:
156,276,451818,1,8,0:0:0:0:
132,250,451904,6,0,P|120:227|122:177,1,58.1000008422089
311,34,452076,1,0,0:0:0:0:
292,63,452162,2,0,L|214:77,1,58.1000008422089,8|0,0:0|0:0,0:0:0:0:
17,71,452335,2,0,L|74:60,1,58.1000008422089,0|8,0:0|0:0,0:0:0:0:
433,180,452594,5,0,0:0:0:0:
420,236,452680,1,0,0:0:0:0:
375,273,452766,1,0,0:0:0:0:
318,284,452852,2,0,L|260:273,1,58.1000008422089
61,186,453025,2,0,L|118:196,1,58.1000008422089
180,330,453284,5,0,0:0:0:0:
164,262,453370,1,0,0:0:0:0:
196,200,453456,1,0,0:0:0:0:
261,176,453542,1,0,0:0:0:0:
329,190,453628,2,0,L|399:211,5,58.1000008422089,8|0|0|0|0|0,0:0|0:0|0:0|0:0|0:0|0:0,0:0:0:0:
483,236,454145,1,8,0:0:0:0:
187,139,454318,5,4,0:0:0:0:
181,81,454404,1,4,0:0:0:0:
213,33,454490,1,4,0:0:0:0:
266,103,454576,2,0,L|323:119,2,58.1000008422089,4|0|0,0:0|0:0|0:0,0:0:0:0:
77,139,454835,1,0,0:0:0:0:
46,188,454921,1,0,0:0:0:0:
44,245,455007,6,0,P|47:267|66:303,1,58.1000008422089
257,245,455180,1,0,0:0:0:0:
284,223,455267,2,0,L|211:236,1,58.1000008422089
122,330,455438,1,0,0:0:0:0:
95,352,455525,2,0,L|168:339,1,58.1000008422089,8|0,0:0|0:0,0:0:0:0:
447,224,455697,6,0,P|458:197|462:168,1,58.1000008422089,8|0,0:0|0:0,0:0:0:0:
211,177,455870,2,0,P|215:205|226:232,1,58.1000008422089,8|0,0:0|0:0,0:0:0:0:
407,112,456042,1,0,0:0:0:0:
384,61,456128,1,0,0:0:0:0:
340,27,456214,1,0,0:0:0:0:
283,20,456301,1,0,0:0:0:0:
231,39,456387,5,4,0:0:0:0:
194,81,456473,1,0,0:0:0:0:
160,126,456559,1,0,0:0:0:0:
114,157,456645,1,0,0:0:0:0:
57,169,456732,6,0,P|29:169|1:161,2,58.1000008422089
183,240,456990,2,0,P|208:254|228:274,2,58.1000008422089
60,300,457249,2,0,P|70:273|88:250,1,58.1000008422089,8|0,0:0|0:0,0:0:0:0:
311,119,457421,5,4,0:0:0:0:
385,127,457507,1,4,0:0:0:0:
435,184,457594,1,4,0:0:0:0:
436,259,457680,2,0,P|421:287|394:310,2,58.1000008422089,4|0|0,0:0|0:0|0:0,0:0:0:0:
311,119,457938,2,0,P|309:92|322:52,1,58.1000008422089,8|0,0:0|0:0,0:0:0:0:
337,222,458111,5,0,0:0:0:0:
318,264,458197,1,0,0:0:0:0:
275,283,458283,1,0,0:0:0:0:
228,274,458370,1,0,0:0:0:0:
202,209,458456,5,0,0:0:0:0:
156,156,458542,1,0,0:0:0:0:
87,143,458628,1,0,0:0:0:0:
24,173,458714,1,0,0:0:0:0:
2,239,458801,2,0,L|13:304,1,58.1000008422089,4|0,0:0|0:0,0:0:0:0:
184,357,458973,1,8,0:0:0:0:
200,344,459059,1,0,0:0:0:0:
218,331,459145,6,0,L|227:273,2,58.1000008422089,4|0|0,0:0|0:0|0:0,0:0:0:0:
156,156,459404,2,0,L|165:98,1,58.1000008422089,4|0,0:0|0:0,0:0:0:0:
320,72,459576,1,0,0:0:0:0:
340,100,459663,2,0,P|312:109|282:110,1,58.1000008422089,8|0,0:0|0:0,0:0:0:0:
97,63,459835,1,0,0:0:0:0:
79,33,459922,2,0,P|107:26|137:28,1,58.1000008422089,8|0,0:0|0:0,0:0:0:0:
450,131,460094,6,0,L|475:143,1,23.2749990410996
421,181,460180,2,0,L|443:203,1,23.2749990410996
371,211,460266,2,0,L|381:246,1,23.2749990410996
313,211,460352,2,0,L|305:244,1,23.2749990410996
261,184,460438,2,0,P|240:172|203:168,1,58.1000008422089,8|0,0:0|0:0,0:0:0:0:
176,384,460611,5,0,0:0:0:0:
175,356,460697,2,0,L|142:354,1,23.2749990410996
188,329,460783,2,0,L|153:309,1,23.2749990410996
209,307,460870,2,0,P|216:278|213:246,1,58.1000008422089,4|0,0:0|0:0,0:0:0:0:
9,138,461042,2,0,P|14:166|29:191,1,58.1000008422089,4|0,0:0|0:0,0:0:0:0:
282,68,461214,1,0,0:0:0:0:
241,45,461301,1,0,0:0:0:0:
194,46,461387,2,0,P|165:52|140:67,1,58.1000008422089
70,304,461559,5,0,0:0:0:0:
117,270,461645,1,0,0:0:0:0:
144,218,461732,1,0,0:0:0:0:
143,161,461818,2,0,L|90:136,1,58.1000008422089
291,315,461990,2,0,L|343:339,1,58.1000008422089
248,99,462249,5,0,0:0:0:0:
300,73,462335,1,0,0:0:0:0:
358,76,462422,1,0,0:0:0:0:
409,103,462508,2,0,P|402:132|403:160,1,58.1000008422089
208,341,462680,2,0,P|204:309|193:283,1,58.1000008422089
450,230,462938,6,0,P|431:298|279:304,1,236.250009012223
282,201,463801,6,0,L|278:230,4,29.0500004211044
308,45,464145,1,0,0:0:0:0:
339,60,464232,2,0,L|349:130,1,58.1000008422089
194,227,464404,1,0,0:0:0:0:
165,247,464491,2,0,L|95:234,1,58.1000008422089
326,195,464663,6,0,P|347:214|362:239,2,58.1000008422089
234,91,464921,2,0,P|225:63|225:34,2,58.1000008422089
339,60,465180,5,0,0:0:0:0:
356,90,465266,1,8,0:0:0:0:
427,113,465352,5,0,0:0:0:0:
429,147,465438,1,8,0:0:0:0:
474,208,465525,5,0,0:0:0:0:
461,239,465611,1,8,0:0:0:0:
404,289,465697,5,0,0:0:0:0:
335,299,465783,1,0,0:0:0:0:
268,277,465870,1,0,0:0:0:0:
229,216,465956,1,0,0:0:0:0:
303,111,466042,5,0,0:0:0:0:
268,141,466128,1,0,0:0:0:0:
222,146,466214,1,0,0:0:0:0:
180,126,466301,1,0,0:0:0:0:
237,67,466387,6,0,P|245:46|247:7,2,58.1000008422089
126,246,466645,1,0,0:0:0:0:
97,266,466732,2,0,P|67:265|39:258,1,58.1000008422089,8|0,0:0|0:0,0:0:0:0:
303,111,466904,2,0,L|360:118,1,58.1000008422089,8|0,0:0|0:0,0:0:0:0:
380,359,467076,2,0,P|348:359|322:351,1,58.1000008422089,8|0,0:0|0:0,0:0:0:0:
93,138,467249,1,0,0:0:0:0:
122,118,467336,2,0,P|153:118|179:125,1,58.1000008422089,8|0,0:0|0:0,0:0:0:0:
347,256,467507,1,0,0:0:0:0:
318,276,467594,2,0,P|286:275|260:268,1,58.1000008422089,8|0,0:0|0:0,0:0:0:0:
233,84,467766,5,0,0:0:0:0:
264,70,467852,1,0,0:0:0:0:
331,95,467938,5,0,0:0:0:0:
363,81,468024,1,0,0:0:0:0:
421,123,468111,5,4,0:0:0:0:
458,181,468197,1,8,0:0:0:0:
452,250,468283,1,8,0:0:0:0:
409,306,468370,1,8,0:0:0:0:
343,328,468456,2,2,B|314:309|314:309|296:273,1,58.1000008422089,10|2,0:0|0:0,0:0:0:0:
233,84,468628,2,2,B|262:103|262:103|280:139,1,58.1000008422089,10|2,0:0|0:0,0:0:0:0:
136,339,468801,5,4,0:0:0:0:
236,227,468973,5,0,0:0:0:0:
264,206,469059,2,0,P|291:198|321:199,1,58.1000008422089,8|0,0:0|0:0,0:0:0:0:
442,258,469232,1,0,0:0:0:0:
475,266,469318,2,0,P|455:244|431:229,1,58.1000008422089,8|0,0:0|0:0,0:0:0:0:
149,279,469490,5,0,0:0:0:0:
165,309,469576,1,0,0:0:0:0:
191,324,469663,2,0,P|201:311|205:301,1,23.2749990410996
223,326,469749,2,0,P|233:313|237:301,1,23.2749990410996
251,316,469835,2,0,P|271:262|263:205,1,116.200001684418
450,146,470180,6,2,P|471:124|496:112,1,58.1000008422089
400,78,470352,2,2,B|350:123|353:205|353:205|307:223|250:200,1,232.749990410996
209,144,470870,2,0,P|162:145|114:195,1,116.200001684418
134,291,471128,5,8,0:0:0:0:
147,322,471214,2,0,P|182:276|188:219,1,116.200001684418
70,116,471473,2,0,P|59:88|59:59,2,58.1000008422089,8|0|0,0:0|0:0|0:0,0:0:0:0:
236,94,471732,2,0,P|226:121|209:143,1,58.1000008422089,8|0,0:0|0:0,0:0:0:0:
94,240,471904,6,2,L|61:248,4,29.0500004211044
317,272,472163,6,2,L|357:281,4,29.0500004211044
294,191,472421,2,0,P|295:162|307:135,1,58.1000008422089,8|0,0:0|0:0,0:0:0:0:
430,57,472594,5,0,0:0:0:0:
410,108,472680,1,0,0:0:0:0:
364,139,472766,1,0,0:0:0:0:
308,136,472852,1,0,0:0:0:0:
264,66,472938,5,8,0:0:0:0:
327,86,473025,1,8,0:0:0:0:
364,139,473111,1,8,0:0:0:0:
364,204,473197,1,8,0:0:0:0:
330,259,473283,1,8,0:0:0:0:
270,285,473370,1,8,0:0:0:0:
205,283,473456,2,0,P|179:265|157:238,1,58.1000008422089,8|0,0:0|0:0,0:0:0:0:
164,22,473628,5,4,0:0:0:0:
227,48,473714,1,4,0:0:0:0:
262,108,473800,1,4,0:0:0:0:
256,178,473887,2,0,P|284:185|321:185,2,58.1000008422089,8|0|0,0:0|0:0|0:0,0:0:0:0:
142,144,474145,6,0,B|113:150|113:150|88:164,1,58.1000008422089,0|8,0:0|0:0,0:0:0:0:
363,269,474318,2,0,B|384:249|384:249|399:224,1,58.1000008422089,0|8,0:0|0:0,0:0:0:0:
304,39,474490,2,0,B|295:66|295:66|295:95,1,58.1000008422089,0|8,0:0|0:0,0:0:0:0:
269,318,474663,5,0,0:0:0:0:
319,363,474749,1,0,0:0:0:0:
385,375,474835,1,0,0:0:0:0:
443,340,474921,1,0,0:0:0:0:
469,278,475007,2,2,B|477:217|477:217,1,58.1000008422089,10|2,0:0|0:0,0:0:0:0:
295,95,475180,2,0,L|304:165,1,58.1000008422089
226,350,475352,6,0,P|77:308|62:156,1,325.849986575394
199,41,476042,5,0,0:0:0:0:
231,54,476128,2,0,L|241:111,1,58.1000008422089,8|0,0:0|0:0,0:0:0:0:
181,222,476301,1,8,0:0:0:0:
229,190,476387,1,8,0:0:0:0:
286,186,476473,1,8,0:0:0:0:
336,213,476559,1,8,0:0:0:0:
460,325,476732,6,0,P|488:327|516:319,4,58.1000008422089
336,213,477163,1,0,0:0:0:0:
306,248,477249,1,0,0:0:0:0:
301,296,477335,1,0,0:0:0:0:
322,339,477421,2,0,P|349:329|374:312,5,58.1000008422089
306,248,477938,5,0,0:0:0:0:
263,227,478025,1,0,0:0:0:0:
216,226,478111,1,0,0:0:0:0:
173,245,478197,1,0,0:0:0:0:
150,275,478283,2,0,P|140:296|138:336,1,58.1000008422089,8|0,0:0|0:0,0:0:0:0:
390,160,478456,6,0,P|392:136|385:98,1,58.1000008422089,8|0,0:0|0:0,0:0:0:0:
207,42,478628,1,8,0:0:0:0:
196,75,478714,2,0,P|208:101|228:123,1,58.1000008422089,8|0,0:0|0:0,0:0:0:0:
34,157,478887,1,8,0:0:0:0:
50,187,478973,2,0,P|77:197|105:199,1,58.1000008422089,8|0,0:0|0:0,0:0:0:0:
227,375,479145,5,0,0:0:0:0:
276,341,479232,1,0,0:0:0:0:
294,286,479318,1,0,0:0:0:0:
277,230,479404,2,0,P|256:209|230:196,2,58.1000008422089,8|0|0,0:0|0:0|0:0,0:0:0:0:
362,339,479663,5,0,0:0:0:0:
408,343,479749,1,0,0:0:0:0:
452,331,479835,1,0,0:0:0:0:
485,298,479921,1,0,0:0:0:0:
502,242,480007,1,0,0:0:0:0:
492,184,480094,1,0,0:0:0:0:
451,143,480180,6,0,P|431:130|391:121,1,58.1000008422089,4|0,0:0|0:0,0:0:0:0:
111,159,480352,2,0,P|85:145|65:124,1,58.1000008422089,4|0,0:0|0:0,0:0:0:0:
324,19,480525,2,0,P|327:47|318:82,1,58.1000008422089,4|0,0:0|0:0,0:0:0:0:
326,175,480697,2,0,P|311:197|280:214,1,58.1000008422089,4|0,0:0|0:0,0:0:0:0:
49,243,480870,5,0,0:0:0:0:
180,197,481042,1,0,0:0:0:0:
209,215,481128,2,0,L|218:281,2,58.1000008422089,8|0|0,0:0|0:0|0:0,0:0:0:0:
189,40,481387,1,8,0:0:0:0:
320,209,481559,5,0,0:0:0:0:
358,234,481645,1,0,0:0:0:0:
404,239,481732,1,0,0:0:0:0:
446,220,481818,2,0,L|457:163,2,58.1000008422089,8|0|0,0:0|0:0|0:0,0:0:0:0:
422,362,482076,1,0,0:0:0:0:
234,130,482249,6,0,B|178:90|87:115|56:179|56:179|90:172|128:186,1,280
213,281,483025,1,0,0:0:0:0:
228,313,483111,1,0,0:0:0:0:
255,336,483197,1,0,0:0:0:0:
283,345,483283,2,0,B|303:350|324:349|345:341|345:341|338:303|313:276|313:276|394:314|470:274|470:274|408:269|366:226|366:226|350:210|345:183|358:160|358:160|371:140|394:129|418:140|418:140|433:176|459:207|459:207|432:200|413:181,1,682.50002603531
132,102,485697,6,0,B|42:118|1:189|1:189|29:218|62:227|62:227|84:185|126:174|126:174|164:164|194:188|194:188|228:216|220:257|220:257|215:292|185:312|159:311|159:311|135:311|114:292|118:267|118:267|125:243|147:228|162:247,1,682.50002603531
256,192,488111,12,0,490180,0:0:0:0:
256,192,490525,12,0,492594,0:0:0:0:
257,287,492939,6,0,L|257:241,1,46.1999998590088
256,192,493197,12,0,494404,0:0:0:0:
256,192,495352,12,0,496732,0:0:0:0:
120,191,497766,6,0,B|124:208|147:228|147:228|108:229|84:257|84:275|85:289|85:289|86:299|88:322|109:337|131:346|153:340|153:340|166:338|180:331|186:324,1,277.199999154053
256,192,500180,12,0,501904,0:0:0:0:
220,182,502594,6,0,B|222:150|254:134|254:134|233:120|233:120|263:103|248:78,1,138.599999577026
291,198,505007,6,0,B|289:230|257:246|257:246|278:260|278:260|249:277|264:303,1,138.599999577026
256,192,507421,12,0,510525,0:0:0:0:
256,192,510611,12,0,513801,0:0:0:0:
256,192,513887,12,0,518973,0:0:0:0:
