osu file format v14

[General]
AudioFilename: audio.mp3
AudioLeadIn: 0
PreviewTime: 255877
Countdown: 0
SampleSet: Normal
StackLeniency: 0.7
Mode: 1
LetterboxInBreaks: 0
WidescreenStoryboard: 0

[Editor]
Bookmarks: 96781
DistanceSpacing: 0.6
BeatDivisor: 6
GridSize: 32
TimelineZoom: 4.699997

[Metadata]
Title:Contain
TitleUnicode:Contain
Artist:Venetian Snares
ArtistUnicode:Venetian Snares
Creator:ginjani
Version:Hell Oni
Source:osu!
Tags:electronic instrumental breakcore meathole idm analog jungle featured artist fa
BeatmapID:2566904
BeatmapSetID:1234756

[Difficulty]
HPDrainRate:5
CircleSize:5
OverallDifficulty:6.5
ApproachRate:5
SliderMultiplier:1.4
SliderTickRate:1

[Events]
//Background and Video events
0,0,"rgrsgrerdff.jpg",0,-30
//Break Periods
2,83589,88891
//Storyboard Layer 0 (Background)
//Storyboard Layer 1 (Fail)
//Storyboard Layer 2 (Pass)
//Storyboard Layer 3 (Foreground)
//Storyboard Layer 4 (Overlay)
//Storyboard Sound Samples

[TimingPoints]
411,319.148936170213,5,1,0,60,1,0
490,-100,5,1,0,30,0,0
3442,-100,5,1,0,60,0,0
6873,-100,5,1,0,30,0,0
9905,-100,5,1,0,60,0,0
11501,-100,5,1,0,30,0,0
13097,-100,5,1,0,60,0,0
13256,-100,5,1,0,30,0,0
14692,-100,5,1,0,60,0,0
16448,-100,5,1,0,30,0,0
19400,-100,5,1,0,60,0,0
19639,-100,5,1,0,30,0,0
22591,-100,5,1,0,60,0,0
26022,-100,5,1,0,30,0,0
32246,-100,5,1,0,60,0,0
32405,-100,5,1,0,20,0,0
35357,-100,5,1,0,60,0,0
36075,-100,5,1,0,20,0,0
38549,-100,5,1,0,30,0,0
40145,-100,5,1,0,60,0,0
41740,-100,5,1,0,20,0,0
42219,-100,5,1,0,21,0,0
42299,-100,5,1,0,22,0,0
42379,-100,5,1,0,23,0,0
42458,-100,5,1,0,24,0,0
42538,-100,5,1,0,25,0,0
42618,-100,5,1,0,26,0,0
42698,-100,5,1,0,26,0,0
42778,-100,5,1,0,27,0,0
42857,-100,5,1,0,28,0,0
42937,-100,5,1,0,29,0,0
43017,-100,5,1,0,30,0,0
43176,-100,5,1,0,30,0,0
43256,-100,5,1,0,29,0,0
43336,-100,5,1,0,28,0,0
43416,-100,5,1,0,27,0,0
43496,-100,5,1,0,26,0,0
43575,-100,5,1,0,25,0,0
45012,-100,5,1,0,60,0,0
48422,-100,5,1,0,30,0,0
49799,-100,5,1,0,60,0,0
50597,-100,5,1,0,30,0,0
51395,-100,5,1,0,60,0,0
53788,-100,5,1,0,30,0,0
54586,-100,5,1,0,60,0,0
64081,-100,5,1,0,20,0,0
64879,-100,5,1,0,30,0,0
67751,-100,5,1,0,25,0,0
69028,-100,5,1,0,35,0,0
70942,-100,5,1,0,30,0,0
72538,-100,5,1,0,33,0,0
73176,-100,5,1,0,30,0,0
76926,-100,5,1,0,35,0,0
81155,-100,5,1,0,40,0,0
90056,-100,5,1,0,20,0,0
92006,-100,5,1,0,30,0,0
96758,-100,5,1,0,20,0,0
98070,-100,5,1,0,30,0,0
105889,-100,5,1,0,60,0,0
110357,-100,5,1,0,30,0,0
113708,-100,5,1,0,35,0,0
116900,-100,5,1,0,25,0,0
118416,-100,5,1,0,60,0,0
123841,-100,5,1,0,30,0,0
128030,-100,5,1,0,90,0,0
179134,-111.111111111111,5,1,0,45,0,0
227964,-100,5,1,0,60,0,0
230198,-76.9230769230769,5,1,0,100,0,0
230517,-83.3333333333333,5,1,0,100,0,1
233389,-83.3333333333333,5,1,0,100,0,0
233708,-83.3333333333333,5,1,0,100,0,1
236581,-83.3333333333333,5,1,0,100,0,0
236900,-83.3333333333333,5,1,0,100,0,1
238655,-84.7457627118644,5,1,0,100,0,1
238735,-86.2068965517241,5,1,0,100,0,1
238815,-87.719298245614,5,1,0,100,0,0
238895,-89.2857142857143,5,1,0,100,0,0
238974,-90.9090909090909,5,1,0,100,0,0
255730,319.148936170213,5,1,0,100,1,8
255730,-83.3333333333333,5,1,0,100,0,8
255889,319.148936170213,5,1,0,100,1,0
255889,-83.3333333333333,5,1,0,100,0,1
267059,-74.0740740740741,5,1,0,100,0,0
267697,-83.3333333333333,5,1,0,100,0,1
279825,-74.0740740740741,5,1,0,100,0,0
280463,-83.3333333333333,5,1,0,100,0,1
292591,-74.0740740740741,5,1,0,100,0,0
293229,-83.3333333333333,5,1,0,100,0,1
305357,-74.0740740740741,5,1,0,100,0,0
305995,-83.3333333333333,5,1,0,100,0,1
318123,-83.3333333333333,5,1,0,100,0,0
319718,-83.3333333333333,5,1,0,100,0,1
334080,-83.3333333333333,5,1,0,100,0,0
334692,-83.3333333333333,5,1,0,70,0,0
337271,-90.9090909090909,5,1,0,60,0,0
338867,-90.9090909090909,5,1,0,50,0,0
340463,-90.9090909090909,5,1,0,40,0,0
343654,-90.9090909090909,5,1,0,30,0,0
346846,-90.9090909090909,5,1,0,25,0,0
350037,-90.9090909090909,5,1,0,20,0,0
351633,-90.9090909090909,5,1,0,15,0,0

[HitObjects]
220,157,411,5,8,0:0:0:0:
256,192,570,12,0,1368,0:0:0:0:
246,181,3602,5,0,0:0:0:0:
246,181,4240,1,0,0:0:0:0:
246,181,4400,1,8,0:0:0:0:
246,181,4559,1,8,0:0:0:0:
246,181,4719,1,8,0:0:0:0:
246,181,4879,1,0,0:0:0:0:
282,141,6793,1,8,0:0:0:0:
256,192,6953,12,0,8868,0:0:0:0:
216,179,9985,6,0,L|213:228,18,35
256,192,11581,12,0,12059,0:0:0:0:
244,151,13176,5,8,0:0:0:0:
256,192,13336,12,0,14134,0:0:0:0:
257,187,14772,5,8,0:0:0:0:
257,187,14852,1,8,0:0:0:0:
257,187,14932,1,8,0:0:0:0:
257,187,15012,1,0,0:0:0:0:
257,185,15411,1,8,0:0:0:0:
257,185,15490,1,8,0:0:0:0:
257,185,15570,1,0,0:0:0:0:
257,185,15650,1,0,0:0:0:0:
221,188,16368,1,8,0:0:0:0:
256,192,16528,12,0,17645,0:0:0:0:
163,143,19559,5,0,0:0:0:0:
256,192,19719,12,0,20517,0:0:0:0:
238,139,22751,5,8,0:0:0:0:
238,139,22911,1,8,0:0:0:0:
238,139,23070,1,0,0:0:0:0:
271,139,25942,1,0,0:0:0:0:
256,192,26102,12,0,26474,0:0:0:0:
256,192,29134,12,0,29453,0:0:0:0:
210,165,32325,5,8,0:0:0:0:
256,192,32485,12,0,35198,0:0:0:0:
158,161,35517,5,0,0:0:0:0:
208,139,35676,1,8,0:0:0:0:
208,139,35756,1,8,0:0:0:0:
208,139,35836,1,0,0:0:0:0:
213,147,35996,1,0,0:0:0:0:
256,192,36155,12,0,38389,0:0:0:0:
256,192,38708,12,0,39240,0:0:0:0:
251,170,40304,5,8,0:0:0:0:
251,170,40384,1,8,0:0:0:0:
251,170,40464,1,8,0:0:0:0:
251,170,40543,1,0,0:0:0:0:
252,166,40942,1,8,0:0:0:0:
252,166,41022,1,8,0:0:0:0:
252,166,41102,1,0,0:0:0:0:
252,166,41182,1,0,0:0:0:0:
215,208,41900,1,4,0:0:0:0:
256,192,41980,12,0,43017,0:0:0:0:
256,192,43176,12,0,44772,0:0:0:0:
239,170,45091,5,0,0:0:0:0:
239,170,45171,1,8,0:0:0:0:
239,170,45251,1,8,0:0:0:0:
239,170,45331,1,8,0:0:0:0:
239,170,45411,1,8,0:0:0:0:
239,170,45490,1,8,0:0:0:0:
239,170,45570,1,8,0:0:0:0:
239,170,45650,1,8,0:0:0:0:
239,170,45730,1,8,0:0:0:0:
239,170,45809,1,8,0:0:0:0:
239,170,45889,1,0,0:0:0:0:
273,174,48283,1,0,0:0:0:0:
273,174,48363,1,0,0:0:0:0:
256,192,48442,12,0,49400,0:0:0:0:
134,215,49506,5,0,0:0:0:0:
273,171,49879,5,8,0:0:0:0:
247,188,50357,1,8,0:0:0:0:
237,179,50437,1,0,0:0:0:0:
256,192,50676,12,0,51315,0:0:0:0:
262,183,51474,5,0,0:0:0:0:
262,183,51514,1,0,0:0:0:0:
262,183,51554,1,8,0:0:0:0:
152,150,52751,1,0,0:0:0:0:
269,209,53123,1,8,0:0:0:0:
216,145,53549,1,8,0:0:0:0:
216,145,53629,1,0,0:0:0:0:
256,192,53868,12,0,54506,0:0:0:0:
180,151,54666,5,0,0:0:0:0:
180,151,54706,1,0,0:0:0:0:
180,151,54746,1,8,0:0:0:0:
189,146,55903,1,0,0:0:0:0:
206,132,56315,1,8,0:0:0:0:
243,160,57857,1,8,0:0:0:0:
243,160,57937,1,0,0:0:0:0:
213,149,58615,1,8,0:0:0:0:
189,149,58775,1,0,0:0:0:0:
259,165,59506,1,0,0:0:0:0:
254,121,59586,1,8,0:0:0:0:
303,178,60091,1,8,0:0:0:0:
303,178,60251,1,8,0:0:0:0:
194,156,60411,1,0,0:0:0:0:
256,192,64240,12,0,67432,0:0:0:0:
256,192,67751,12,0,70623,0:0:0:0:
256,192,70942,12,0,72219,0:0:0:0:
256,192,72538,12,0,73815,0:0:0:0:
256,192,77006,12,0,80198,0:0:0:0:
256,192,81155,12,0,83389,0:0:0:0:
256,192,90091,12,0,94559,0:0:0:0:
256,192,96793,12,0,100942,0:0:0:0:
256,192,104134,12,0,105730,0:0:0:0:
284,163,105889,6,0,L|285:243,18,70
256,192,110517,12,0,115145,0:0:0:0:
256,192,116900,12,0,118176,0:0:0:0:
195,143,118496,6,0,L|215:143,32,17.5
220,135,120411,2,0,L|250:130,42,17.5
256,192,123921,12,0,126474,0:0:0:0:
256,192,126634,12,0,127671,0:0:0:0:
251,189,128070,5,0,0:0:0:0:
251,189,128230,1,8,0:0:0:0:
251,189,128309,1,0,0:0:0:0:
251,180,128469,1,0,0:0:0:0:
251,180,128549,1,8,0:0:0:0:
249,174,128629,1,8,0:0:0:0:
249,174,128708,1,0,0:0:0:0:
257,171,128788,1,0,0:0:0:0:
257,171,128868,1,8,0:0:0:0:
251,163,128948,1,0,0:0:0:0:
257,171,129028,1,8,0:0:0:0:
252,163,129187,1,8,0:0:0:0:
251,163,129267,1,8,0:0:0:0:
252,163,129347,1,0,0:0:0:0:
251,163,129506,1,8,0:0:0:0:
253,154,129586,1,8,0:0:0:0:
251,163,129666,1,0,0:0:0:0:
249,145,129825,1,8,0:0:0:0:
251,163,129905,1,0,0:0:0:0:
222,149,130065,1,0,0:0:0:0:
222,149,130145,1,8,0:0:0:0:
232,134,130224,1,8,0:0:0:0:
232,134,130304,1,8,0:0:0:0:
227,142,130384,1,0,0:0:0:0:
227,142,130464,1,8,0:0:0:0:
218,136,130543,1,0,0:0:0:0:
219,137,130623,1,0,0:0:0:0:
183,182,130703,1,8,0:0:0:0:
218,136,130783,1,8,0:0:0:0:
218,136,130863,1,0,0:0:0:0:
218,136,130942,1,8,0:0:0:0:
223,135,131102,1,8,0:0:0:0:
238,141,131262,1,0,0:0:0:0:
238,141,131421,1,8,0:0:0:0:
238,141,131501,1,0,0:0:0:0:
257,146,131661,1,0,0:0:0:0:
257,146,131740,1,0,0:0:0:0:
257,146,131820,1,8,0:0:0:0:
257,146,131900,1,0,0:0:0:0:
257,146,131980,1,8,0:0:0:0:
262,133,132059,1,8,0:0:0:0:
170,147,132219,1,0,0:0:0:0:
170,147,132272,1,0,0:0:0:0:
170,147,132325,1,0,0:0:0:0:
170,147,132379,1,8,0:0:0:0:
167,153,132458,1,8,0:0:0:0:
178,145,132538,1,0,0:0:0:0:
180,135,132698,1,8,0:0:0:0:
180,135,132857,1,0,0:0:0:0:
215,145,132937,1,8,0:0:0:0:
215,145,133017,1,8,0:0:0:0:
215,145,133097,1,0,0:0:0:0:
232,145,133256,1,8,0:0:0:0:
229,132,133336,1,0,0:0:0:0:
231,135,133416,1,8,0:0:0:0:
223,130,133496,1,8,0:0:0:0:
229,143,133575,1,0,0:0:0:0:
229,144,133655,1,8,0:0:0:0:
240,150,133815,1,0,0:0:0:0:
240,150,133895,1,0,0:0:0:0:
240,150,133974,1,8,0:0:0:0:
240,150,134054,1,8,0:0:0:0:
259,152,134134,1,8,0:0:0:0:
258,152,134214,1,0,0:0:0:0:
259,152,134293,1,8,0:0:0:0:
258,140,134453,1,0,0:0:0:0:
258,140,134613,1,8,0:0:0:0:
258,140,134692,1,0,0:0:0:0:
225,168,134852,1,0,0:0:0:0:
225,168,134932,1,0,0:0:0:0:
225,168,135012,1,8,0:0:0:0:
222,179,135091,1,0,0:0:0:0:
222,179,135171,1,8,0:0:0:0:
222,179,135251,1,8,0:0:0:0:
303,164,135331,1,0,0:0:0:0:
270,165,135411,1,0,0:0:0:0:
264,165,135490,1,0,0:0:0:0:
245,157,135570,1,8,0:0:0:0:
245,157,135650,1,8,0:0:0:0:
245,157,135730,1,0,0:0:0:0:
237,163,135889,1,8,0:0:0:0:
237,163,135969,1,8,0:0:0:0:
237,163,136049,1,0,0:0:0:0:
274,179,136208,1,8,0:0:0:0:
280,181,136288,1,0,0:0:0:0:
239,172,136448,1,0,0:0:0:0:
244,175,136528,1,8,0:0:0:0:
259,183,136607,1,8,0:0:0:0:
259,183,136687,1,0,0:0:0:0:
265,174,136767,1,8,0:0:0:0:
265,174,136847,1,8,0:0:0:0:
260,170,137006,1,8,0:0:0:0:
260,170,137086,1,0,0:0:0:0:
260,170,137166,1,8,0:0:0:0:
265,153,137246,1,0,0:0:0:0:
265,153,137325,1,8,0:0:0:0:
265,153,137485,1,8,0:0:0:0:
253,149,137645,1,0,0:0:0:0:
253,149,137804,1,8,0:0:0:0:
253,149,137884,1,0,0:0:0:0:
184,162,138043,1,0,0:0:0:0:
215,161,138123,1,8,0:0:0:0:
208,164,138283,1,8,0:0:0:0:
229,161,138442,1,0,0:0:0:0:
229,161,138522,1,0,0:0:0:0:
229,161,138602,1,8,0:0:0:0:
232,152,138682,1,8,0:0:0:0:
233,153,138762,1,0,0:0:0:0:
233,153,138841,1,8,0:0:0:0:
232,152,138921,1,0,0:0:0:0:
233,153,139001,1,0,0:0:0:0:
233,153,139081,1,8,0:0:0:0:
233,153,139161,1,8,0:0:0:0:
224,167,139240,1,0,0:0:0:0:
224,167,139280,1,0,0:0:0:0:
233,153,139320,1,8,0:0:0:0:
231,141,139480,1,0,0:0:0:0:
187,187,139519,1,0,0:0:0:0:
226,151,139559,1,8,0:0:0:0:
238,149,139719,1,0,0:0:0:0:
238,149,139799,1,8,0:0:0:0:
238,149,139879,1,0,0:0:0:0:
223,139,139958,1,8,0:0:0:0:
212,144,140038,1,0,0:0:0:0:
222,136,140078,1,0,0:0:0:0:
229,115,140118,1,8,0:0:0:0:
229,125,140198,1,0,0:0:0:0:
229,125,140278,1,0,0:0:0:0:
229,125,140357,1,8,0:0:0:0:
229,125,140437,1,8,0:0:0:0:
229,125,140517,1,0,0:0:0:0:
229,125,140676,1,8,0:0:0:0:
233,139,140836,1,0,0:0:0:0:
233,139,140996,1,8,0:0:0:0:
233,139,141075,1,0,0:0:0:0:
217,134,141235,1,0,0:0:0:0:
217,134,141315,1,8,0:0:0:0:
221,139,141395,1,0,0:0:0:0:
221,139,141474,1,8,0:0:0:0:
251,159,141634,1,0,0:0:0:0:
251,159,141714,1,0,0:0:0:0:
251,159,141793,1,8,0:0:0:0:
233,159,141953,1,8,0:0:0:0:
209,156,142033,1,8,0:0:0:0:
233,159,142113,1,0,0:0:0:0:
248,154,142272,1,8,0:0:0:0:
233,139,142432,1,0,0:0:0:0:
233,139,142592,1,8,0:0:0:0:
233,139,142671,1,0,0:0:0:0:
252,138,142831,1,0,0:0:0:0:
252,138,142911,1,8,0:0:0:0:
252,138,142990,1,8,0:0:0:0:
252,138,143070,1,0,0:0:0:0:
293,139,143150,1,8,0:0:0:0:
293,139,143230,1,0,0:0:0:0:
267,134,143309,1,0,0:0:0:0:
267,134,143389,1,0,0:0:0:0:
267,134,143469,1,8,0:0:0:0:
267,134,143549,1,8,0:0:0:0:
282,137,143629,1,0,0:0:0:0:
282,137,143708,1,8,0:0:0:0:
301,144,143788,1,0,0:0:0:0:
301,144,143868,1,8,0:0:0:0:
233,139,144028,1,0,0:0:0:0:
233,139,144188,1,8,0:0:0:0:
233,139,144267,1,0,0:0:0:0:
240,136,144426,1,0,0:0:0:0:
240,136,144506,1,0,0:0:0:0:
240,136,144586,1,8,0:0:0:0:
240,136,144666,1,0,0:0:0:0:
230,139,144746,1,8,0:0:0:0:
243,132,144825,1,8,0:0:0:0:
243,132,144879,1,8,0:0:0:0:
216,183,144932,1,8,0:0:0:0:
243,132,144985,1,0,0:0:0:0:
244,141,145038,1,0,0:0:0:0:
241,144,145091,1,0,0:0:0:0:
243,142,145145,1,8,0:0:0:0:
223,142,145224,1,8,0:0:0:0:
241,144,145304,1,0,0:0:0:0:
226,169,145464,1,8,0:0:0:0:
233,139,145623,1,0,0:0:0:0:
233,139,145783,1,8,0:0:0:0:
233,139,145862,1,0,0:0:0:0:
242,139,146022,1,0,0:0:0:0:
242,139,146102,1,8,0:0:0:0:
242,139,146182,1,8,0:0:0:0:
242,139,146262,1,0,0:0:0:0:
242,139,146341,1,0,0:0:0:0:
240,120,146421,1,8,0:0:0:0:
244,128,146581,1,8,0:0:0:0:
244,128,146661,1,0,0:0:0:0:
244,128,146740,1,8,0:0:0:0:
244,128,146820,1,0,0:0:0:0:
244,128,146900,1,8,0:0:0:0:
243,133,146980,1,0,0:0:0:0:
244,128,147059,1,8,0:0:0:0:
233,139,147219,1,0,0:0:0:0:
233,139,147379,1,8,0:0:0:0:
233,139,147458,1,0,0:0:0:0:
236,135,147618,1,0,0:0:0:0:
236,135,147698,1,8,0:0:0:0:
236,135,147778,1,0,0:0:0:0:
236,135,147857,1,8,0:0:0:0:
236,135,147937,1,8,0:0:0:0:
236,135,148017,1,8,0:0:0:0:
224,128,148097,1,0,0:0:0:0:
224,128,148176,1,0,0:0:0:0:
224,128,148256,1,8,0:0:0:0:
224,128,148336,1,8,0:0:0:0:
224,128,148416,1,8,0:0:0:0:
224,128,148496,1,0,0:0:0:0:
129,186,148575,1,0,0:0:0:0:
224,128,148655,1,8,0:0:0:0:
224,128,148735,1,8,0:0:0:0:
224,128,148815,1,0,0:0:0:0:
224,192,148974,1,8,0:0:0:0:
224,192,149054,1,0,0:0:0:0:
256,256,149214,1,8,0:0:0:0:
256,256,149293,1,0,0:0:0:0:
256,192,149373,1,8,0:0:0:0:
256,192,149453,1,0,0:0:0:0:
256,192,149533,1,8,0:0:0:0:
256,192,149613,1,8,0:0:0:0:
224,160,149692,1,0,0:0:0:0:
224,160,149772,1,0,0:0:0:0:
224,160,149852,1,8,0:0:0:0:
224,160,149932,1,8,0:0:0:0:
224,160,150012,1,0,0:0:0:0:
224,160,150091,1,8,0:0:0:0:
224,160,150171,1,0,0:0:0:0:
224,160,150251,1,8,0:0:0:0:
224,160,150411,1,0,0:0:0:0:
224,160,150570,1,8,0:0:0:0:
224,160,150650,1,0,0:0:0:0:
224,160,150809,1,0,0:0:0:0:
224,160,150889,1,8,0:0:0:0:
224,160,151049,1,8,0:0:0:0:
224,160,151208,1,0,0:0:0:0:
224,160,151368,1,0,0:0:0:0:
243,171,151421,1,0,0:0:0:0:
243,171,151474,1,0,0:0:0:0:
224,160,151528,1,8,0:0:0:0:
256,160,151687,1,8,0:0:0:0:
256,160,151767,1,8,0:0:0:0:
256,160,151847,1,0,0:0:0:0:
224,160,152006,1,0,0:0:0:0:
202,179,152045,1,0,0:0:0:0:
224,160,152085,1,8,0:0:0:0:
256,160,152245,1,0,0:0:0:0:
202,179,152285,1,0,0:0:0:0:
256,160,152325,1,8,0:0:0:0:
192,192,152804,1,0,0:0:0:0:
373,343,152844,1,0,0:0:0:0:
192,192,152884,1,8,0:0:0:0:
192,192,153123,1,8,0:0:0:0:
192,192,153203,1,8,0:0:0:0:
192,192,153283,1,8,0:0:0:0:
192,192,153363,1,8,0:0:0:0:
192,192,153442,1,8,0:0:0:0:
192,192,153522,1,8,0:0:0:0:
192,192,153602,1,0,0:0:0:0:
192,192,153762,1,8,0:0:0:0:
192,192,153841,1,0,0:0:0:0:
160,192,154001,1,0,0:0:0:0:
160,192,154081,1,8,0:0:0:0:
160,192,154240,1,8,0:0:0:0:
224,160,154400,1,0,0:0:0:0:
192,160,154480,1,0,0:0:0:0:
192,160,154559,1,8,0:0:0:0:
192,160,154719,1,8,0:0:0:0:
192,160,154799,1,8,0:0:0:0:
192,160,154879,1,0,0:0:0:0:
128,128,155038,1,8,0:0:0:0:
192,192,155198,1,0,0:0:0:0:
192,192,155358,1,8,0:0:0:0:
192,192,155437,1,0,0:0:0:0:
192,192,155597,1,0,0:0:0:0:
192,192,155676,1,8,0:0:0:0:
192,192,155756,1,8,0:0:0:0:
192,192,155836,1,8,0:0:0:0:
192,192,155916,1,0,0:0:0:0:
192,192,155996,1,8,0:0:0:0:
192,192,156075,1,8,0:0:0:0:
192,192,156155,1,0,0:0:0:0:
192,192,156235,1,8,0:0:0:0:
192,192,156315,1,0,0:0:0:0:
192,192,156395,1,8,0:0:0:0:
192,192,156474,1,8,0:0:0:0:
128,160,156554,1,0,0:0:0:0:
160,160,156634,1,8,0:0:0:0:
192,192,156793,1,0,0:0:0:0:
192,192,156953,1,8,0:0:0:0:
192,192,157032,1,0,0:0:0:0:
224,192,157192,1,0,0:0:0:0:
224,192,157272,1,8,0:0:0:0:
224,192,157352,1,8,0:0:0:0:
224,192,157432,1,0,0:0:0:0:
224,192,157512,1,0,0:0:0:0:
224,192,157591,1,8,0:0:0:0:
224,192,157645,1,8,0:0:0:0:
224,192,157698,1,8,0:0:0:0:
224,192,157751,1,0,0:0:0:0:
224,192,157831,1,0,0:0:0:0:
224,192,157911,1,0,0:0:0:0:
224,192,157990,1,8,0:0:0:0:
156,199,158070,1,8,0:0:0:0:
224,96,159825,1,8,0:0:0:0:
192,192,159985,1,0,0:0:0:0:
192,192,160145,1,8,0:0:0:0:
192,192,160224,1,0,0:0:0:0:
128,160,160384,1,0,0:0:0:0:
192,192,160464,1,8,0:0:0:0:
192,192,160543,1,8,0:0:0:0:
192,192,160623,1,0,0:0:0:0:
184,187,160703,1,0,0:0:0:0:
187,186,160783,1,8,0:0:0:0:
200,189,160942,1,0,0:0:0:0:
200,189,161102,1,8,0:0:0:0:
200,189,161182,1,8,0:0:0:0:
200,189,161262,1,0,0:0:0:0:
216,191,161341,1,0,0:0:0:0:
216,191,161421,1,8,0:0:0:0:
216,191,161501,1,8,0:0:0:0:
192,192,161581,1,0,0:0:0:0:
192,192,161741,1,8,0:0:0:0:
192,192,161820,1,0,0:0:0:0:
204,182,161980,1,8,0:0:0:0:
204,182,162059,1,0,0:0:0:0:
204,182,162139,1,0,0:0:0:0:
204,182,162219,1,0,0:0:0:0:
218,175,162299,1,8,0:0:0:0:
218,175,162379,1,8,0:0:0:0:
218,175,162458,1,0,0:0:0:0:
218,175,162538,1,8,0:0:0:0:
238,163,162618,1,8,0:0:0:0:
238,163,162698,1,0,0:0:0:0:
238,163,162778,1,0,0:0:0:0:
244,157,162857,1,8,0:0:0:0:
244,158,162937,1,0,0:0:0:0:
244,158,163017,1,8,0:0:0:0:
192,192,163176,1,0,0:0:0:0:
192,192,163336,1,8,0:0:0:0:
192,192,163415,1,0,0:0:0:0:
184,187,163575,1,0,0:0:0:0:
184,187,163655,1,8,0:0:0:0:
184,187,163815,1,8,0:0:0:0:
198,179,163974,1,8,0:0:0:0:
198,179,164054,1,8,0:0:0:0:
205,179,164134,1,0,0:0:0:0:
205,180,164214,1,0,0:0:0:0:
222,176,164293,1,8,0:0:0:0:
222,176,164453,1,0,0:0:0:0:
227,171,164533,1,0,0:0:0:0:
227,170,164613,1,8,0:0:0:0:
237,158,164692,1,8,0:0:0:0:
237,159,164772,1,0,0:0:0:0:
237,168,164812,1,0,0:0:0:0:
237,159,164852,1,8,0:0:0:0:
244,156,165012,1,0,0:0:0:0:
237,168,165052,1,0,0:0:0:0:
244,156,165091,1,8,0:0:0:0:
192,192,165251,1,0,0:0:0:0:
192,192,165411,1,0,0:0:0:0:
205,189,165570,1,0,0:0:0:0:
236,171,165610,1,0,0:0:0:0:
236,171,165650,1,8,0:0:0:0:
221,183,165730,1,8,0:0:0:0:
244,187,165889,1,8,0:0:0:0:
244,187,165969,1,8,0:0:0:0:
244,187,166049,1,0,0:0:0:0:
239,171,166208,1,8,0:0:0:0:
192,192,166368,1,0,0:0:0:0:
192,192,166528,1,8,0:0:0:0:
192,192,166607,1,0,0:0:0:0:
202,186,166767,1,0,0:0:0:0:
202,186,166847,1,8,0:0:0:0:
227,175,167006,1,8,0:0:0:0:
226,166,167166,1,0,0:0:0:0:
226,166,167246,1,0,0:0:0:0:
226,166,167325,1,8,0:0:0:0:
226,166,167485,1,8,0:0:0:0:
226,166,167565,1,8,0:0:0:0:
226,166,167645,1,0,0:0:0:0:
217,160,167804,1,8,0:0:0:0:
192,192,167964,1,0,0:0:0:0:
192,192,168124,1,8,0:0:0:0:
192,192,168203,1,0,0:0:0:0:
204,163,168363,1,0,0:0:0:0:
204,163,168442,1,8,0:0:0:0:
206,153,168482,1,0,0:0:0:0:
204,163,168522,1,0,0:0:0:0:
194,159,168602,1,8,0:0:0:0:
206,153,168642,1,0,0:0:0:0:
194,159,168682,1,0,0:0:0:0:
201,156,168762,1,8,0:0:0:0:
201,156,168841,1,8,0:0:0:0:
200,153,168921,1,0,0:0:0:0:
223,157,169081,1,8,0:0:0:0:
223,157,169161,1,0,0:0:0:0:
207,162,169240,1,0,0:0:0:0:
223,157,169320,1,8,0:0:0:0:
226,159,169400,1,8,0:0:0:0:
192,192,169559,1,0,0:0:0:0:
192,192,169719,1,8,0:0:0:0:
192,192,169798,1,0,0:0:0:0:
199,186,169958,1,0,0:0:0:0:
199,186,170038,1,8,0:0:0:0:
199,186,170118,1,0,0:0:0:0:
199,186,170198,1,8,0:0:0:0:
199,186,170278,1,0,0:0:0:0:
189,178,170357,1,8,0:0:0:0:
189,178,170411,1,8,0:0:0:0:
189,178,170464,1,8,0:0:0:0:
189,178,170517,1,0,0:0:0:0:
202,165,170597,1,0,0:0:0:0:
202,165,170676,1,0,0:0:0:0:
202,165,170756,1,8,0:0:0:0:
202,165,170836,1,8,0:0:0:0:
126,162,172591,1,8,0:0:0:0:
192,192,172751,1,0,0:0:0:0:
192,192,172911,1,8,0:0:0:0:
192,192,172990,1,0,0:0:0:0:
181,185,173150,1,0,0:0:0:0:
183,189,173230,1,8,0:0:0:0:
209,209,173389,1,0,0:0:0:0:
209,209,173469,1,8,0:0:0:0:
209,209,173549,1,0,0:0:0:0:
209,209,173629,1,8,0:0:0:0:
231,207,173708,1,0,0:0:0:0:
230,208,173788,1,0,0:0:0:0:
238,212,173868,1,8,0:0:0:0:
238,212,173948,1,8,0:0:0:0:
222,184,174028,1,0,0:0:0:0:
225,187,174107,1,0,0:0:0:0:
225,187,174187,1,8,0:0:0:0:
196,194,174240,1,8,0:0:0:0:
196,194,174293,1,8,0:0:0:0:
192,192,174347,1,0,0:0:0:0:
192,192,174507,1,8,0:0:0:0:
192,192,174586,1,0,0:0:0:0:
197,192,174746,1,0,0:0:0:0:
197,192,174825,1,0,0:0:0:0:
197,192,174905,1,0,0:0:0:0:
197,192,174985,1,0,0:0:0:0:
199,180,175065,1,0,0:0:0:0:
199,180,175145,1,8,0:0:0:0:
199,180,175224,1,8,0:0:0:0:
199,180,175304,1,0,0:0:0:0:
207,170,175384,1,8,0:0:0:0:
207,170,175464,1,8,0:0:0:0:
207,162,175543,1,0,0:0:0:0:
214,163,175623,1,8,0:0:0:0:
214,163,175783,1,8,0:0:0:0:
192,192,175942,1,0,0:0:0:0:
192,192,176102,1,8,0:0:0:0:
192,192,176181,1,0,0:0:0:0:
201,181,176341,1,0,0:0:0:0:
201,181,176421,1,8,0:0:0:0:
209,179,176581,1,8,0:0:0:0:
209,168,176740,1,0,0:0:0:0:
209,168,176820,1,0,0:0:0:0:
209,168,176900,1,8,0:0:0:0:
193,163,176980,1,8,0:0:0:0:
192,163,177059,1,8,0:0:0:0:
193,163,177139,1,8,0:0:0:0:
192,163,177219,1,0,0:0:0:0:
202,147,177299,1,0,0:0:0:0:
202,147,177379,1,8,0:0:0:0:
218,176,177538,1,0,0:0:0:0:
180,194,177578,1,0,0:0:0:0:
180,194,177618,1,8,0:0:0:0:
227,166,177778,1,0,0:0:0:0:
203,212,177817,1,0,0:0:0:0:
227,166,177857,1,8,0:0:0:0:
193,192,178336,1,0,0:0:0:0:
184,199,178376,1,0,0:0:0:0:
193,192,178416,1,8,0:0:0:0:
244,172,179134,1,0,0:0:0:0:
244,172,179293,1,8,0:0:0:0:
244,172,179453,1,8,0:0:0:0:
244,172,179613,1,8,0:0:0:0:
244,172,179772,1,8,0:0:0:0:
244,172,179932,1,8,0:0:0:0:
244,172,180091,1,8,0:0:0:0:
244,172,180251,1,8,0:0:0:0:
244,172,180411,1,0,0:0:0:0:
233,193,180570,1,8,0:0:0:0:
233,193,180730,1,8,0:0:0:0:
233,193,180889,1,8,0:0:0:0:
233,193,181049,1,0,0:0:0:0:
102,167,181208,1,8,0:0:0:0:
244,188,181368,1,8,0:0:0:0:
244,188,181528,1,8,0:0:0:0:
244,188,181687,1,8,0:0:0:0:
244,188,181847,1,8,0:0:0:0:
169,171,181926,1,8,0:0:0:0:
244,188,182006,1,0,0:0:0:0:
244,188,182166,1,8,0:0:0:0:
246,180,182246,1,8,0:0:0:0:
246,180,182325,1,0,0:0:0:0:
167,203,182485,1,8,0:0:0:0:
226,179,182645,1,0,0:0:0:0:
226,179,182804,1,8,0:0:0:0:
226,179,182964,1,8,0:0:0:0:
226,179,183123,1,8,0:0:0:0:
326,165,183283,1,0,0:0:0:0:
307,162,183442,1,8,0:0:0:0:
307,162,183602,1,8,0:0:0:0:
307,162,183762,1,8,0:0:0:0:
314,160,183921,1,0,0:0:0:0:
282,152,184240,1,0,0:0:0:0:
282,152,184559,1,8,0:0:0:0:
282,152,184719,1,0,0:0:0:0:
289,149,185038,1,8,0:0:0:0:
289,149,185118,1,8,0:0:0:0:
282,152,185198,1,0,0:0:0:0:
282,152,185357,1,8,0:0:0:0:
251,178,185517,1,0,0:0:0:0:
274,161,185676,1,8,0:0:0:0:
274,161,185836,1,8,0:0:0:0:
274,161,185996,1,8,0:0:0:0:
274,161,186155,1,8,0:0:0:0:
274,161,186315,1,8,0:0:0:0:
274,161,186474,1,8,0:0:0:0:
274,161,186634,1,8,0:0:0:0:
277,149,186714,1,0,0:0:0:0:
289,154,186793,1,0,0:0:0:0:
281,148,186953,1,8,0:0:0:0:
281,148,187033,1,0,0:0:0:0:
281,148,187113,1,0,0:0:0:0:
276,156,187272,1,8,0:0:0:0:
276,156,187432,1,0,0:0:0:0:
260,165,187591,1,8,0:0:0:0:
260,165,187751,1,8,0:0:0:0:
260,165,187911,1,8,0:0:0:0:
260,165,188070,1,8,0:0:0:0:
260,165,188230,1,8,0:0:0:0:
241,154,188309,1,8,0:0:0:0:
260,165,188389,1,0,0:0:0:0:
260,165,188549,1,8,0:0:0:0:
244,153,188629,1,8,0:0:0:0:
211,160,188708,1,0,0:0:0:0:
251,182,188868,1,8,0:0:0:0:
251,182,189028,1,8,0:0:0:0:
251,182,189187,1,8,0:0:0:0:
251,182,189347,1,8,0:0:0:0:
251,182,189506,1,8,0:0:0:0:
251,182,189666,1,0,0:0:0:0:
251,182,189825,1,8,0:0:0:0:
251,182,189985,1,8,0:0:0:0:
256,162,190145,1,8,0:0:0:0:
256,162,190304,1,8,0:0:0:0:
236,170,190464,1,8,0:0:0:0:
236,170,190623,1,8,0:0:0:0:
252,162,190783,1,8,0:0:0:0:
252,162,190942,1,0,0:0:0:0:
252,162,191102,1,8,0:0:0:0:
252,162,191262,1,8,0:0:0:0:
252,162,191421,1,0,0:0:0:0:
252,162,191581,1,0,0:0:0:0:
252,162,191740,1,0,0:0:0:0:
252,162,191900,1,0,0:0:0:0:
266,169,192059,1,8,0:0:0:0:
266,169,192219,1,0,0:0:0:0:
266,169,192379,1,8,0:0:0:0:
266,169,192538,1,8,0:0:0:0:
266,169,192618,1,8,0:0:0:0:
221,164,192698,1,0,0:0:0:0:
244,170,192778,1,0,0:0:0:0:
244,170,192857,1,8,0:0:0:0:
254,158,193017,1,8,0:0:0:0:
254,158,193176,1,0,0:0:0:0:
224,176,193336,1,8,0:0:0:0:
244,165,193496,1,8,0:0:0:0:
229,154,193655,1,8,0:0:0:0:
229,168,193815,1,0,0:0:0:0:
233,164,193974,1,8,0:0:0:0:
233,164,194134,1,8,0:0:0:0:
233,164,194293,1,0,0:0:0:0:
233,164,194453,1,8,0:0:0:0:
238,154,194613,1,8,0:0:0:0:
238,154,194692,1,0,0:0:0:0:
238,154,194772,1,8,0:0:0:0:
238,154,194852,1,0,0:0:0:0:
241,149,194932,1,8,0:0:0:0:
241,149,195012,1,0,0:0:0:0:
241,149,195091,1,0,0:0:0:0:
269,175,195411,1,0,0:0:0:0:
269,175,195570,1,0,0:0:0:0:
269,175,195730,1,8,0:0:0:0:
287,167,196049,1,0,0:0:0:0:
313,147,196847,1,0,0:0:0:0:
304,152,197006,1,8,0:0:0:0:
306,151,197645,1,8,0:0:0:0:
306,151,197804,1,8,0:0:0:0:
292,151,198123,1,0,0:0:0:0:
292,151,198283,1,0,0:0:0:0:
287,162,198602,1,0,0:0:0:0:
287,162,198762,1,8,0:0:0:0:
263,141,198921,1,8,0:0:0:0:
267,143,199081,1,8,0:0:0:0:
267,143,199161,1,8,0:0:0:0:
267,143,199240,1,0,0:0:0:0:
266,156,199400,1,8,0:0:0:0:
266,156,199480,1,8,0:0:0:0:
266,156,199559,1,0,0:0:0:0:
291,152,199719,1,8,0:0:0:0:
285,153,199879,1,8,0:0:0:0:
284,137,200038,1,8,0:0:0:0:
294,139,200198,1,0,0:0:0:0:
277,144,200357,1,8,0:0:0:0:
277,144,200517,1,8,0:0:0:0:
277,144,200676,1,0,0:0:0:0:
277,144,200836,1,8,0:0:0:0:
277,144,200996,1,8,0:0:0:0:
277,144,201075,1,0,0:0:0:0:
277,144,201155,1,8,0:0:0:0:
266,147,201235,1,8,0:0:0:0:
266,147,201315,1,0,0:0:0:0:
262,143,201395,1,0,0:0:0:0:
266,147,201474,1,0,0:0:0:0:
227,205,201793,1,0,0:0:0:0:
261,148,201953,1,0,0:0:0:0:
261,148,202113,1,8,0:0:0:0:
254,156,202432,1,0,0:0:0:0:
254,156,203229,1,0,0:0:0:0:
254,156,203389,1,8,0:0:0:0:
251,158,204028,1,8,0:0:0:0:
251,158,204187,1,8,0:0:0:0:
251,158,204347,1,0,0:0:0:0:
251,158,204506,1,8,0:0:0:0:
251,158,204666,1,0,0:0:0:0:
242,161,204825,1,0,0:0:0:0:
242,161,204985,1,0,0:0:0:0:
242,161,205145,1,8,0:0:0:0:
243,161,205304,1,8,0:0:0:0:
242,165,205623,1,8,0:0:0:0:
242,165,205703,1,8,0:0:0:0:
242,165,205783,1,0,0:0:0:0:
242,165,205863,1,8,0:0:0:0:
220,150,205942,1,0,0:0:0:0:
227,153,206262,1,0,0:0:0:0:
240,150,206581,1,0,0:0:0:0:
215,111,207219,1,8,0:0:0:0:
225,131,207379,1,8,0:0:0:0:
229,139,207538,1,0,0:0:0:0:
229,139,207618,1,0,0:0:0:0:
229,139,207698,1,8,0:0:0:0:
246,153,207857,1,0,0:0:0:0:
258,159,208336,1,0,0:0:0:0:
258,159,208496,1,8,0:0:0:0:
246,153,208815,1,0,0:0:0:0:
246,153,209613,1,0,0:0:0:0:
256,139,209772,1,8,0:0:0:0:
244,144,210411,1,8,0:0:0:0:
244,144,210570,1,8,0:0:0:0:
244,144,210730,1,0,0:0:0:0:
251,154,210889,1,8,0:0:0:0:
251,154,211049,1,0,0:0:0:0:
251,145,211208,1,8,0:0:0:0:
260,154,211368,1,8,0:0:0:0:
260,154,211528,1,0,0:0:0:0:
260,154,211687,1,8,0:0:0:0:
224,132,211767,1,8,0:0:0:0:
231,133,211847,1,0,0:0:0:0:
231,133,211926,1,0,0:0:0:0:
266,150,212006,1,8,0:0:0:0:
251,141,212086,1,0,0:0:0:0:
251,140,212166,1,8,0:0:0:0:
261,134,212246,1,8,0:0:0:0:
260,139,212325,1,0,0:0:0:0:
253,161,212964,1,0,0:0:0:0:
242,152,213442,1,0,0:0:0:0:
242,152,213602,1,8,0:0:0:0:
223,147,213762,1,8,0:0:0:0:
220,149,213842,1,0,0:0:0:0:
242,152,213921,1,8,0:0:0:0:
235,151,214001,1,8,0:0:0:0:
228,148,214081,1,0,0:0:0:0:
229,149,214161,1,8,0:0:0:0:
229,149,214240,1,0,0:0:0:0:
235,151,214719,1,0,0:0:0:0:
235,151,214879,1,8,0:0:0:0:
204,151,215198,1,0,0:0:0:0:
208,151,215996,1,0,0:0:0:0:
208,151,216155,1,8,0:0:0:0:
220,147,216793,1,8,0:0:0:0:
220,147,216953,1,8,0:0:0:0:
220,147,217113,1,0,0:0:0:0:
220,147,217272,1,8,0:0:0:0:
244,134,217432,1,0,0:0:0:0:
267,174,217911,1,8,0:0:0:0:
276,176,218070,1,0,0:0:0:0:
207,143,218708,1,8,0:0:0:0:
207,143,218868,1,8,0:0:0:0:
207,143,219028,1,8,0:0:0:0:
218,114,219187,1,8,0:0:0:0:
223,127,219347,1,0,0:0:0:0:
242,154,219666,1,0,0:0:0:0:
202,151,219985,1,8,0:0:0:0:
224,148,220464,1,0,0:0:0:0:
224,148,220543,1,0,0:0:0:0:
224,148,220623,1,0,0:0:0:0:
224,148,220783,1,8,0:0:0:0:
242,150,220942,1,8,0:0:0:0:
242,150,221102,1,8,0:0:0:0:
242,150,221261,1,8,0:0:0:0:
235,156,221421,1,8,0:0:0:0:
235,156,221581,1,8,0:0:0:0:
235,156,221740,1,8,0:0:0:0:
235,156,221900,1,8,0:0:0:0:
229,150,222059,1,8,0:0:0:0:
229,150,222219,1,8,0:0:0:0:
229,150,222379,1,8,0:0:0:0:
229,150,222538,1,8,0:0:0:0:
229,150,222698,1,8,0:0:0:0:
229,150,222857,1,8,0:0:0:0:
229,150,223017,1,8,0:0:0:0:
229,150,223176,1,8,0:0:0:0:
229,150,223336,1,8,0:0:0:0:
229,150,223496,1,8,0:0:0:0:
229,150,223655,1,8,0:0:0:0:
229,150,223815,1,0,0:0:0:0:
229,150,223974,1,0,0:0:0:0:
211,141,224134,1,0,0:0:0:0:
211,141,224293,1,0,0:0:0:0:
211,141,224453,1,8,0:0:0:0:
233,154,224613,1,0,0:0:0:0:
233,154,224772,1,8,0:0:0:0:
233,154,224932,1,0,0:0:0:0:
249,147,225091,1,8,0:0:0:0:
249,147,225251,1,8,0:0:0:0:
248,154,225411,1,8,0:0:0:0:
248,154,225570,1,0,0:0:0:0:
248,154,225730,1,0,0:0:0:0:
275,155,225889,1,8,0:0:0:0:
263,141,226049,1,8,0:0:0:0:
263,141,226208,1,0,0:0:0:0:
269,154,226368,1,8,0:0:0:0:
269,154,226847,1,0,0:0:0:0:
269,154,227006,1,8,0:0:0:0:
231,149,227964,1,8,0:0:0:0:
231,149,228043,1,0,0:0:0:0:
231,149,228123,1,0,0:0:0:0:
231,149,228203,1,8,0:0:0:0:
235,138,228283,1,8,0:0:0:0:
235,138,228363,1,0,0:0:0:0:
224,127,228442,1,8,0:0:0:0:
224,127,228522,1,8,0:0:0:0:
224,127,228602,1,0,0:0:0:0:
224,127,228682,1,8,0:0:0:0:
218,139,228762,1,8,0:0:0:0:
218,139,228841,1,0,0:0:0:0:
218,139,228921,1,8,0:0:0:0:
218,139,229001,1,8,0:0:0:0:
218,139,229081,1,0,0:0:0:0:
223,142,229161,1,8,0:0:0:0:
223,142,229240,1,8,0:0:0:0:
218,121,229320,1,0,0:0:0:0:
218,121,229400,1,8,0:0:0:0:
218,130,229480,1,8,0:0:0:0:
222,131,229559,1,0,0:0:0:0:
222,131,229639,1,8,0:0:0:0:
222,131,229719,1,8,0:0:0:0:
232,132,229799,1,0,0:0:0:0:
232,132,229879,1,0,0:0:0:0:
232,132,229958,1,0,0:0:0:0:
232,132,230038,1,8,0:0:0:0:
276,141,230118,1,8,0:0:0:0:
247,135,230198,1,4,0:0:0:0:
258,139,230517,1,0,0:0:0:0:
258,139,230597,1,8,0:0:0:0:
258,139,230676,1,0,0:0:0:0:
258,139,230756,1,8,0:0:0:0:
258,139,230836,1,8,0:0:0:0:
258,139,230916,1,8,0:0:0:0:
258,139,230996,1,0,0:0:0:0:
258,139,231075,1,0,0:0:0:0:
258,139,231155,1,8,0:0:0:0:
258,139,231235,1,8,0:0:0:0:
258,139,231315,1,0,0:0:0:0:
258,139,231395,1,8,0:0:0:0:
258,139,231474,1,0,0:0:0:0:
258,139,231554,1,8,0:0:0:0:
258,139,231634,1,8,0:0:0:0:
258,139,231714,1,8,0:0:0:0:
258,139,231793,1,0,0:0:0:0:
258,139,231873,1,8,0:0:0:0:
258,139,231953,1,0,0:0:0:0:
258,139,232033,1,0,0:0:0:0:
258,139,232113,1,8,0:0:0:0:
258,139,232192,1,8,0:0:0:0:
258,139,232272,1,0,0:0:0:0:
258,139,232352,1,8,0:0:0:0:
258,139,232432,1,8,0:0:0:0:
262,134,232512,1,0,0:0:0:0:
262,134,232591,1,8,0:0:0:0:
262,134,232671,1,0,0:0:0:0:
262,134,232751,1,0,0:0:0:0:
262,134,232831,1,8,0:0:0:0:
262,134,232911,1,8,0:0:0:0:
270,137,232990,1,0,0:0:0:0:
270,137,233070,1,8,0:0:0:0:
266,129,233150,1,8,0:0:0:0:
267,130,233230,1,0,0:0:0:0:
266,131,233309,1,8,0:0:0:0:
266,129,233349,1,8,0:0:0:0:
266,129,233389,1,0,0:0:0:0:
258,139,233708,1,8,0:0:0:0:
258,139,233788,1,8,0:0:0:0:
258,139,233867,1,0,0:0:0:0:
258,139,233947,1,8,0:0:0:0:
258,139,234027,1,0,0:0:0:0:
258,139,234107,1,8,0:0:0:0:
258,139,234187,1,0,0:0:0:0:
258,139,234266,1,0,0:0:0:0:
258,139,234346,1,8,0:0:0:0:
258,139,234426,1,8,0:0:0:0:
258,139,234506,1,0,0:0:0:0:
258,139,234586,1,8,0:0:0:0:
258,139,234665,1,0,0:0:0:0:
258,139,234745,1,0,0:0:0:0:
258,139,234825,1,8,0:0:0:0:
258,139,234905,1,8,0:0:0:0:
258,139,234984,1,0,0:0:0:0:
258,139,235064,1,8,0:0:0:0:
258,139,235144,1,0,0:0:0:0:
258,139,235224,1,0,0:0:0:0:
258,139,235304,1,8,0:0:0:0:
258,139,235383,1,8,0:0:0:0:
258,139,235463,1,0,0:0:0:0:
258,139,235543,1,8,0:0:0:0:
258,139,235623,1,8,0:0:0:0:
262,134,235703,1,0,0:0:0:0:
262,134,235782,1,8,0:0:0:0:
262,134,235862,1,0,0:0:0:0:
262,134,235942,1,0,0:0:0:0:
262,134,236022,1,8,0:0:0:0:
262,134,236102,1,8,0:0:0:0:
270,137,236181,1,0,0:0:0:0:
270,137,236261,1,8,0:0:0:0:
266,129,236341,1,0,0:0:0:0:
267,130,236421,1,0,0:0:0:0:
266,131,236500,1,8,0:0:0:0:
266,129,236540,1,8,0:0:0:0:
266,129,236580,1,0,0:0:0:0:
258,139,236900,1,8,0:0:0:0:
258,139,236980,1,8,0:0:0:0:
258,139,237059,1,0,0:0:0:0:
258,139,237139,1,8,0:0:0:0:
258,139,237219,1,0,0:0:0:0:
258,139,237299,1,8,0:0:0:0:
258,139,237379,1,8,0:0:0:0:
258,139,237458,1,0,0:0:0:0:
258,139,237538,1,8,0:0:0:0:
258,139,237618,1,8,0:0:0:0:
258,139,237698,1,0,0:0:0:0:
258,139,237778,1,8,0:0:0:0:
258,139,237857,1,8,0:0:0:0:
258,139,237937,1,0,0:0:0:0:
258,139,238017,1,0,0:0:0:0:
258,139,238097,1,8,0:0:0:0:
258,139,238176,1,0,0:0:0:0:
258,139,238256,1,8,0:0:0:0:
258,139,238336,1,8,0:0:0:0:
258,139,238416,1,0,0:0:0:0:
258,139,238496,1,8,0:0:0:0:
258,139,238575,1,8,0:0:0:0:
258,139,238655,1,0,0:0:0:0:
258,139,238735,1,8,0:0:0:0:
258,139,238815,1,8,0:0:0:0:
258,139,238974,1,0,0:0:0:0:
258,139,239054,1,0,0:0:0:0:
258,139,239134,1,8,0:0:0:0:
258,139,239214,1,0,0:0:0:0:
263,140,239293,1,8,0:0:0:0:
261,146,239453,1,0,0:0:0:0:
261,146,239533,1,0,0:0:0:0:
261,146,239613,1,8,0:0:0:0:
261,146,239692,1,8,0:0:0:0:
267,151,239772,1,0,0:0:0:0:
275,156,239932,1,0,0:0:0:0:
275,156,240012,1,0,0:0:0:0:
275,156,240091,1,8,0:0:0:0:
275,156,240251,1,8,0:0:0:0:
275,156,240331,1,8,0:0:0:0:
275,156,240411,1,0,0:0:0:0:
256,144,240490,1,0,0:0:0:0:
257,145,240570,1,8,0:0:0:0:
261,146,240650,1,0,0:0:0:0:
262,147,240730,1,8,0:0:0:0:
271,147,240889,1,0,0:0:0:0:
271,147,240969,1,8,0:0:0:0:
271,147,241049,1,0,0:0:0:0:
282,143,241208,1,8,0:0:0:0:
282,143,241288,1,8,0:0:0:0:
282,143,241368,1,8,0:0:0:0:
290,144,241448,1,0,0:0:0:0:
290,144,241528,1,8,0:0:0:0:
295,152,241687,1,0,0:0:0:0:
295,152,241847,1,8,0:0:0:0:
295,152,241926,1,0,0:0:0:0:
295,152,242006,1,8,0:0:0:0:
304,162,242166,1,0,0:0:0:0:
304,162,242246,1,8,0:0:0:0:
304,162,242325,1,8,0:0:0:0:
232,141,242964,1,4,0:0:0:0:
226,150,243442,1,0,0:0:0:0:
226,150,243522,1,8,0:0:0:0:
226,150,243602,1,8,0:0:0:0:
237,141,243682,1,0,0:0:0:0:
193,148,243762,1,8,0:0:0:0:
233,153,243921,1,0,0:0:0:0:
233,153,244001,1,0,0:0:0:0:
233,153,244081,1,8,0:0:0:0:
233,153,244161,1,8,0:0:0:0:
229,148,244240,1,0,0:0:0:0:
228,150,244400,1,8,0:0:0:0:
243,146,244559,1,0,0:0:0:0:
243,146,244639,1,8,0:0:0:0:
243,146,244719,1,8,0:0:0:0:
243,146,244799,1,0,0:0:0:0:
243,146,244879,1,0,0:0:0:0:
234,131,245517,1,8,0:0:0:0:
234,131,245597,1,8,0:0:0:0:
158,124,245676,1,0,0:0:0:0:
195,129,245756,1,0,0:0:0:0:
195,129,245836,1,8,0:0:0:0:
195,129,245916,1,0,0:0:0:0:
233,136,245996,1,8,0:0:0:0:
233,136,246075,1,8,0:0:0:0:
250,145,246155,1,0,0:0:0:0:
250,145,246315,1,8,0:0:0:0:
250,145,246395,1,0,0:0:0:0:
250,145,246554,1,0,0:0:0:0:
250,145,246634,1,0,0:0:0:0:
250,145,246714,1,8,0:0:0:0:
250,145,246793,1,0,0:0:0:0:
249,136,246873,1,8,0:0:0:0:
249,136,246953,1,8,0:0:0:0:
242,166,247166,1,0,0:0:0:0:
242,166,247219,1,0,0:0:0:0:
242,166,247272,1,8,0:0:0:0:
268,167,247352,1,8,0:0:0:0:
258,156,247432,1,0,0:0:0:0:
200,140,247591,1,8,0:0:0:0:
271,172,247751,1,0,0:0:0:0:
271,172,247831,1,0,0:0:0:0:
271,172,247911,1,8,0:0:0:0:
271,172,247990,1,8,0:0:0:0:
239,164,248070,1,0,0:0:0:0:
251,183,248549,1,0,0:0:0:0:
251,183,248629,1,0,0:0:0:0:
251,183,248708,1,8,0:0:0:0:
267,167,248868,1,8,0:0:0:0:
267,167,248947,1,8,0:0:0:0:
267,167,249027,1,0,0:0:0:0:
267,167,249107,1,0,0:0:0:0:
270,158,249187,1,8,0:0:0:0:
266,184,249347,1,0,0:0:0:0:
254,206,249825,1,0,0:0:0:0:
254,206,249905,1,8,0:0:0:0:
254,206,249985,1,0,0:0:0:0:
254,206,250065,1,0,0:0:0:0:
251,194,250145,1,8,0:0:0:0:
251,194,250224,1,0,0:0:0:0:
228,153,250304,1,8,0:0:0:0:
228,153,250357,1,8,0:0:0:0:
228,153,250411,1,8,0:0:0:0:
228,153,250464,1,8,0:0:0:0:
228,153,250517,1,8,0:0:0:0:
228,153,250570,1,8,0:0:0:0:
250,144,250623,1,0,0:0:0:0:
224,171,250783,1,8,0:0:0:0:
231,154,250942,1,8,0:0:0:0:
231,152,251022,1,0,0:0:0:0:
231,154,251102,1,8,0:0:0:0:
238,147,251182,1,8,0:0:0:0:
238,147,251262,1,0,0:0:0:0:
210,160,251900,1,8,0:0:0:0:
210,160,251980,1,8,0:0:0:0:
210,160,252059,1,0,0:0:0:0:
210,160,252139,1,0,0:0:0:0:
210,160,252219,1,8,0:0:0:0:
210,160,252299,1,0,0:0:0:0:
227,154,252379,1,8,0:0:0:0:
227,154,252458,1,8,0:0:0:0:
230,147,252538,1,0,0:0:0:0:
256,192,252857,12,0,255091,0:0:0:0:
203,186,255730,5,0,0:0:0:0:
216,172,255889,1,12,0:0:0:0:
151,185,256128,1,8,0:0:0:0:
170,185,256208,1,0,0:0:0:0:
191,171,256367,1,8,0:0:0:0:
189,162,256527,1,0,0:0:0:0:
189,162,256607,1,0,0:0:0:0:
189,162,256686,1,8,0:0:0:0:
189,162,256766,1,8,0:0:0:0:
194,154,256846,1,0,0:0:0:0:
194,154,257006,1,8,0:0:0:0:
194,154,257165,1,8,0:0:0:0:
202,154,257245,1,8,0:0:0:0:
202,154,257325,1,0,0:0:0:0:
272,142,257484,1,12,0:0:0:0:
279,152,257724,1,8,0:0:0:0:
279,152,257803,1,0,0:0:0:0:
287,153,257963,1,8,0:0:0:0:
279,157,258123,1,0,0:0:0:0:
279,157,258202,1,0,0:0:0:0:
279,157,258282,1,8,0:0:0:0:
279,157,258362,1,8,0:0:0:0:
268,168,258442,1,0,0:0:0:0:
269,167,258521,1,8,0:0:0:0:
265,156,258601,1,8,0:0:0:0:
265,156,258681,1,0,0:0:0:0:
265,156,258761,1,8,0:0:0:0:
265,146,258841,1,0,0:0:0:0:
265,146,258920,1,0,0:0:0:0:
259,132,259080,1,12,0:0:0:0:
261,150,259319,1,8,0:0:0:0:
260,109,259399,1,0,0:0:0:0:
251,157,259559,1,8,0:0:0:0:
205,154,259718,1,0,0:0:0:0:
184,157,259798,1,0,0:0:0:0:
205,154,259878,1,0,0:0:0:0:
205,154,259958,1,8,0:0:0:0:
209,161,260037,1,8,0:0:0:0:
209,161,260117,1,0,0:0:0:0:
209,161,260197,1,8,0:0:0:0:
209,153,260357,1,8,0:0:0:0:
209,153,260436,1,8,0:0:0:0:
209,153,260516,1,0,0:0:0:0:
209,153,260676,1,12,0:0:0:0:
184,150,260915,1,8,0:0:0:0:
189,133,260995,1,0,0:0:0:0:
202,143,261154,1,8,0:0:0:0:
202,143,261314,1,8,0:0:0:0:
202,143,261394,1,8,0:0:0:0:
202,143,261474,1,0,0:0:0:0:
202,143,261553,1,0,0:0:0:0:
202,143,261633,1,0,0:0:0:0:
211,141,261713,1,8,0:0:0:0:
208,144,261793,1,0,0:0:0:0:
211,141,261873,1,8,0:0:0:0:
210,135,261952,1,8,0:0:0:0:
206,130,262112,1,0,0:0:0:0:
219,137,262271,1,12,0:0:0:0:
222,135,262511,1,8,0:0:0:0:
222,135,262591,1,0,0:0:0:0:
222,201,262750,1,8,0:0:0:0:
225,193,262910,1,0,0:0:0:0:
225,193,262990,1,0,0:0:0:0:
225,193,263069,1,8,0:0:0:0:
225,193,263149,1,8,0:0:0:0:
219,187,263229,1,0,0:0:0:0:
219,188,263309,1,8,0:0:0:0:
163,176,263389,1,8,0:0:0:0:
219,177,263548,1,0,0:0:0:0:
219,177,263628,1,8,0:0:0:0:
219,177,263708,1,0,0:0:0:0:
225,174,263867,1,12,0:0:0:0:
232,165,264106,1,8,0:0:0:0:
232,165,264186,1,0,0:0:0:0:
244,163,264266,1,0,0:0:0:0:
244,163,264346,1,8,0:0:0:0:
250,214,264426,1,0,0:0:0:0:
230,154,264506,1,0,0:0:0:0:
230,154,264585,1,8,0:0:0:0:
230,154,264665,1,8,0:0:0:0:
242,181,264825,1,8,0:0:0:0:
242,181,264904,1,8,0:0:0:0:
255,181,264984,1,0,0:0:0:0:
255,181,265064,1,0,0:0:0:0:
255,181,265144,1,8,0:0:0:0:
255,181,265224,1,0,0:0:0:0:
255,181,265303,1,0,0:0:0:0:
255,181,265383,1,0,0:0:0:0:
255,181,265463,1,12,0:0:0:0:
258,192,265702,1,8,0:0:0:0:
258,192,265782,1,0,0:0:0:0:
271,190,265862,1,0,0:0:0:0:
271,190,265942,1,8,0:0:0:0:
111,198,266021,1,8,0:0:0:0:
257,192,266101,1,0,0:0:0:0:
257,192,266181,1,0,0:0:0:0:
257,192,266261,1,8,0:0:0:0:
257,192,266341,1,8,0:0:0:0:
237,169,266420,1,0,0:0:0:0:
224,185,266580,1,8,0:0:0:0:
214,158,266740,1,8,0:0:0:0:
214,158,266819,1,8,0:0:0:0:
217,162,266899,1,0,0:0:0:0:
236,179,267059,1,12,0:0:0:0:
244,166,267298,1,12,0:0:0:0:
244,166,267537,1,12,0:0:0:0:
243,149,267697,1,0,0:0:0:0:
169,154,267777,1,0,0:0:0:0:
169,154,267857,1,8,0:0:0:0:
187,118,267896,1,8,0:0:0:0:
197,136,267936,1,8,0:0:0:0:
219,159,268016,1,0,0:0:0:0:
219,159,268096,1,0,0:0:0:0:
219,159,268176,1,8,0:0:0:0:
219,159,268256,1,8,0:0:0:0:
220,153,268335,1,0,0:0:0:0:
220,153,268415,1,8,0:0:0:0:
225,146,268495,1,0,0:0:0:0:
225,146,268654,1,12,0:0:0:0:
232,151,268894,1,0,0:0:0:0:
232,151,268974,1,8,0:0:0:0:
211,170,269053,1,0,0:0:0:0:
216,167,269133,1,8,0:0:0:0:
255,154,269293,1,0,0:0:0:0:
233,163,269373,1,0,0:0:0:0:
233,163,269452,1,8,0:0:0:0:
233,163,269532,1,8,0:0:0:0:
229,158,269612,1,0,0:0:0:0:
229,158,269771,1,8,0:0:0:0:
229,158,269931,1,8,0:0:0:0:
243,158,270011,1,8,0:0:0:0:
243,158,270091,1,0,0:0:0:0:
239,145,270250,1,12,0:0:0:0:
243,150,270490,1,8,0:0:0:0:
243,150,270569,1,0,0:0:0:0:
253,149,270649,1,0,0:0:0:0:
253,150,270729,1,8,0:0:0:0:
258,137,270889,1,0,0:0:0:0:
258,137,270968,1,0,0:0:0:0:
258,137,271048,1,8,0:0:0:0:
258,137,271128,1,8,0:0:0:0:
258,137,271208,1,0,0:0:0:0:
259,147,271287,1,8,0:0:0:0:
259,147,271367,1,0,0:0:0:0:
259,147,271447,1,8,0:0:0:0:
260,138,271527,1,8,0:0:0:0:
260,138,271607,1,8,0:0:0:0:
260,138,271686,1,0,0:0:0:0:
275,138,271846,1,12,0:0:0:0:
275,143,272085,1,8,0:0:0:0:
275,143,272165,1,0,0:0:0:0:
202,155,272325,1,8,0:0:0:0:
243,151,272484,1,0,0:0:0:0:
243,151,272564,1,0,0:0:0:0:
243,151,272644,1,0,0:0:0:0:
243,151,272724,1,8,0:0:0:0:
249,139,272803,1,0,0:0:0:0:
249,139,272883,1,8,0:0:0:0:
249,139,272963,1,8,0:0:0:0:
244,144,273123,1,8,0:0:0:0:
222,143,273202,1,8,0:0:0:0:
244,144,273282,1,0,0:0:0:0:
259,140,273442,1,12,0:0:0:0:
256,140,273681,1,8,0:0:0:0:
256,140,273761,1,0,0:0:0:0:
264,135,273841,1,0,0:0:0:0:
263,136,273920,1,8,0:0:0:0:
258,138,274080,1,0,0:0:0:0:
258,138,274160,1,0,0:0:0:0:
258,138,274240,1,8,0:0:0:0:
258,138,274319,1,8,0:0:0:0:
244,147,274399,1,0,0:0:0:0:
242,147,274479,1,8,0:0:0:0:
244,147,274559,1,0,0:0:0:0:
242,147,274639,1,8,0:0:0:0:
241,154,274718,1,8,0:0:0:0:
256,147,274878,1,0,0:0:0:0:
243,146,275037,1,12,0:0:0:0:
243,146,275277,1,8,0:0:0:0:
243,146,275357,1,0,0:0:0:0:
207,139,275436,1,8,0:0:0:0:
222,146,275516,1,8,0:0:0:0:
242,153,275676,1,0,0:0:0:0:
242,153,275756,1,8,0:0:0:0:
242,153,275835,1,0,0:0:0:0:
242,153,275915,1,8,0:0:0:0:
254,140,275995,1,0,0:0:0:0:
256,139,276035,1,0,0:0:0:0:
256,139,276075,1,0,0:0:0:0:
254,140,276154,1,8,0:0:0:0:
247,141,276314,1,0,0:0:0:0:
252,138,276394,1,8,0:0:0:0:
252,138,276474,1,0,0:0:0:0:
268,151,276633,1,12,0:0:0:0:
267,148,276873,1,8,0:0:0:0:
267,148,276952,1,0,0:0:0:0:
245,142,277032,1,0,0:0:0:0:
253,143,277112,1,8,0:0:0:0:
258,138,277271,1,0,0:0:0:0:
258,138,277351,1,0,0:0:0:0:
258,138,277431,1,8,0:0:0:0:
258,138,277510,1,8,0:0:0:0:
244,147,277590,1,0,0:0:0:0:
242,147,277670,1,8,0:0:0:0:
244,147,277750,1,0,0:0:0:0:
242,147,277830,1,8,0:0:0:0:
241,154,277909,1,8,0:0:0:0:
263,152,277990,1,8,0:0:0:0:
260,147,278069,1,0,0:0:0:0:
260,147,278149,1,0,0:0:0:0:
260,147,278229,1,12,0:0:0:0:
260,139,278468,1,8,0:0:0:0:
260,139,278548,1,0,0:0:0:0:
233,144,278628,1,0,0:0:0:0:
233,144,278708,1,8,0:0:0:0:
247,175,278787,1,0,0:0:0:0:
258,138,278867,1,8,0:0:0:0:
258,138,278947,1,0,0:0:0:0:
258,138,279027,1,8,0:0:0:0:
258,138,279106,1,8,0:0:0:0:
244,147,279186,1,0,0:0:0:0:
242,147,279266,1,8,0:0:0:0:
244,147,279346,1,8,0:0:0:0:
229,163,279506,1,8,0:0:0:0:
226,165,279585,1,8,0:0:0:0:
229,163,279665,1,0,0:0:0:0:
214,154,279825,1,12,0:0:0:0:
271,159,280064,1,12,0:0:0:0:
271,159,280303,1,12,0:0:0:0:
251,151,280463,1,8,0:0:0:0:
249,150,280543,1,0,0:0:0:0:
251,151,280623,1,8,0:0:0:0:
255,134,280662,1,8,0:0:0:0:
255,134,280702,1,8,0:0:0:0:
251,141,280782,1,0,0:0:0:0:
251,141,280862,1,0,0:0:0:0:
251,141,280942,1,8,0:0:0:0:
256,142,281021,1,0,0:0:0:0:
261,138,281101,1,8,0:0:0:0:
235,126,281261,1,0,0:0:0:0:
228,123,281341,1,0,0:0:0:0:
233,117,281420,1,12,0:0:0:0:
193,140,281660,1,8,0:0:0:0:
210,139,281740,1,0,0:0:0:0:
210,139,281819,1,0,0:0:0:0:
210,139,281899,1,8,0:0:0:0:
203,107,282059,1,0,0:0:0:0:
209,114,282139,1,0,0:0:0:0:
213,121,282218,1,8,0:0:0:0:
213,121,282298,1,0,0:0:0:0:
213,121,282378,1,8,0:0:0:0:
213,121,282458,1,8,0:0:0:0:
189,140,282537,1,8,0:0:0:0:
216,127,282697,1,0,0:0:0:0:
216,127,282777,1,8,0:0:0:0:
216,127,282857,1,0,0:0:0:0:
175,133,283016,1,12,0:0:0:0:
209,134,283256,1,8,0:0:0:0:
202,147,283295,1,8,0:0:0:0:
202,147,283335,1,8,0:0:0:0:
214,136,283415,1,0,0:0:0:0:
215,136,283495,1,8,0:0:0:0:
215,136,283654,1,0,0:0:0:0:
215,136,283734,1,8,0:0:0:0:
215,136,283814,1,0,0:0:0:0:
215,136,283894,1,8,0:0:0:0:
204,158,283974,1,8,0:0:0:0:
198,126,284133,1,0,0:0:0:0:
168,170,284173,1,0,0:0:0:0:
204,129,284213,1,0,0:0:0:0:
204,131,284293,1,8,0:0:0:0:
185,149,284333,1,8,0:0:0:0:
182,163,284373,1,8,0:0:0:0:
204,129,284452,1,0,0:0:0:0:
201,120,284612,1,12,0:0:0:0:
201,120,284851,1,8,0:0:0:0:
201,120,284931,1,0,0:0:0:0:
216,118,285091,1,8,0:0:0:0:
227,116,285250,1,0,0:0:0:0:
227,116,285330,1,0,0:0:0:0:
227,116,285410,1,8,0:0:0:0:
227,116,285490,1,8,0:0:0:0:
219,117,285569,1,0,0:0:0:0:
219,117,285649,1,8,0:0:0:0:
223,113,285729,1,8,0:0:0:0:
223,113,285889,1,8,0:0:0:0:
223,113,286048,1,0,0:0:0:0:
218,97,286128,1,0,0:0:0:0:
222,105,286208,1,12,0:0:0:0:
224,110,286447,1,8,0:0:0:0:
232,112,286527,1,0,0:0:0:0:
222,102,286607,1,8,0:0:0:0:
223,104,286686,1,8,0:0:0:0:
218,114,286846,1,8,0:0:0:0:
180,119,286926,1,0,0:0:0:0:
197,109,287006,1,0,0:0:0:0:
195,118,287085,1,8,0:0:0:0:
215,112,287165,1,0,0:0:0:0:
225,109,287245,1,0,0:0:0:0:
169,184,287325,1,8,0:0:0:0:
169,184,287378,1,0,0:0:0:0:
169,184,287431,1,0,0:0:0:0:
169,184,287484,1,8,0:0:0:0:
169,184,287537,1,8,0:0:0:0:
169,184,287591,1,8,0:0:0:0:
190,176,287644,1,0,0:0:0:0:
224,90,287803,1,12,0:0:0:0:
217,91,288043,1,8,0:0:0:0:
217,91,288123,1,0,0:0:0:0:
140,137,288202,1,0,0:0:0:0:
140,137,288282,1,8,0:0:0:0:
44,130,288442,1,8,0:0:0:0:
114,124,288521,1,8,0:0:0:0:
114,124,288601,1,0,0:0:0:0:
114,124,288681,1,0,0:0:0:0:
196,146,288761,1,8,0:0:0:0:
116,179,288814,1,0,0:0:0:0:
116,179,288867,1,0,0:0:0:0:
165,135,288920,1,8,0:0:0:0:
165,135,289080,1,8,0:0:0:0:
174,161,289120,1,8,0:0:0:0:
174,161,289160,1,8,0:0:0:0:
170,137,289240,1,0,0:0:0:0:
158,112,289399,1,12,0:0:0:0:
158,112,289559,1,8,0:0:0:0:
136,160,289612,1,8,0:0:0:0:
136,160,289665,1,0,0:0:0:0:
136,160,289718,1,8,0:0:0:0:
131,164,289771,1,0,0:0:0:0:
171,127,289825,1,0,0:0:0:0:
189,136,289878,1,8,0:0:0:0:
189,136,290037,1,8,0:0:0:0:
189,136,290117,1,0,0:0:0:0:
189,136,290197,1,8,0:0:0:0:
184,136,290357,1,0,0:0:0:0:
156,138,290436,1,0,0:0:0:0:
184,136,290516,1,8,0:0:0:0:
173,127,290596,1,8,0:0:0:0:
173,127,290676,1,8,0:0:0:0:
178,116,290756,1,8,0:0:0:0:
177,117,290835,1,0,0:0:0:0:
178,125,290915,1,0,0:0:0:0:
178,126,290995,1,12,0:0:0:0:
146,112,291234,1,8,0:0:0:0:
146,112,291314,1,0,0:0:0:0:
194,131,291354,1,0,0:0:0:0:
194,131,291394,1,0,0:0:0:0:
171,135,291474,1,8,0:0:0:0:
194,129,291633,1,0,0:0:0:0:
194,128,291713,1,0,0:0:0:0:
194,128,291793,1,8,0:0:0:0:
194,128,291873,1,8,0:0:0:0:
194,128,291952,1,0,0:0:0:0:
206,129,292032,1,0,0:0:0:0:
206,129,292112,1,8,0:0:0:0:
136,130,292271,1,8,0:0:0:0:
142,142,292431,1,0,0:0:0:0:
142,142,292591,1,12,0:0:0:0:
152,137,292830,1,12,0:0:0:0:
152,137,293069,1,12,0:0:0:0:
160,138,293229,1,0,0:0:0:0:
160,138,293309,1,0,0:0:0:0:
160,138,293389,1,8,0:0:0:0:
209,174,293428,1,8,0:0:0:0:
209,174,293468,1,8,0:0:0:0:
160,138,293548,1,0,0:0:0:0:
163,147,293628,1,8,0:0:0:0:
163,147,293708,1,0,0:0:0:0:
184,141,293787,1,8,0:0:0:0:
184,141,293867,1,0,0:0:0:0:
184,141,293947,1,8,0:0:0:0:
186,150,294027,1,0,0:0:0:0:
178,150,294186,1,12,0:0:0:0:
198,157,294426,1,8,0:0:0:0:
202,162,294506,1,0,0:0:0:0:
202,162,294585,1,0,0:0:0:0:
202,162,294665,1,8,0:0:0:0:
202,162,294825,1,0,0:0:0:0:
202,162,294904,1,8,0:0:0:0:
202,162,294984,1,8,0:0:0:0:
209,147,295064,1,8,0:0:0:0:
200,149,295144,1,0,0:0:0:0:
233,155,295184,1,0,0:0:0:0:
233,155,295224,1,0,0:0:0:0:
233,155,295264,1,0,0:0:0:0:
213,143,295303,1,8,0:0:0:0:
238,150,295463,1,8,0:0:0:0:
238,150,295543,1,8,0:0:0:0:
238,150,295623,1,0,0:0:0:0:
233,147,295702,1,0,0:0:0:0:
233,147,295782,1,12,0:0:0:0:
248,140,296021,1,8,0:0:0:0:
242,141,296101,1,0,0:0:0:0:
208,163,296181,1,0,0:0:0:0:
214,159,296261,1,8,0:0:0:0:
242,143,296420,1,8,0:0:0:0:
235,143,296500,1,8,0:0:0:0:
225,135,296580,1,0,0:0:0:0:
225,135,296660,1,8,0:0:0:0:
236,127,296740,1,0,0:0:0:0:
236,127,296819,1,8,0:0:0:0:
234,130,296899,1,0,0:0:0:0:
236,127,296979,1,8,0:0:0:0:
237,122,297059,1,0,0:0:0:0:
237,122,297139,1,8,0:0:0:0:
231,155,297218,1,0,0:0:0:0:
228,129,297378,1,12,0:0:0:0:
230,130,297617,1,8,0:0:0:0:
230,130,297697,1,0,0:0:0:0:
222,123,297857,1,8,0:0:0:0:
214,150,298016,1,8,0:0:0:0:
274,153,298056,1,8,0:0:0:0:
214,150,298096,1,0,0:0:0:0:
214,150,298176,1,8,0:0:0:0:
274,153,298256,1,0,0:0:0:0:
263,135,298335,1,0,0:0:0:0:
263,135,298415,1,0,0:0:0:0:
263,135,298495,1,8,0:0:0:0:
189,139,298654,1,8,0:0:0:0:
243,127,298694,1,8,0:0:0:0:
243,127,298734,1,8,0:0:0:0:
243,127,298774,1,8,0:0:0:0:
243,127,298814,1,0,0:0:0:0:
219,130,298974,1,12,0:0:0:0:
219,130,299213,1,8,0:0:0:0:
219,130,299293,1,0,0:0:0:0:
213,141,299373,1,0,0:0:0:0:
213,141,299452,1,8,0:0:0:0:
206,137,299612,1,0,0:0:0:0:
206,137,299692,1,8,0:0:0:0:
181,178,299771,1,0,0:0:0:0:
181,178,299825,1,0,0:0:0:0:
176,175,299878,1,0,0:0:0:0:
199,187,299931,1,8,0:0:0:0:
181,178,300011,1,8,0:0:0:0:
184,177,300091,1,0,0:0:0:0:
181,178,300170,1,0,0:0:0:0:
225,129,300250,1,8,0:0:0:0:
208,131,300410,1,0,0:0:0:0:
224,132,300569,1,12,0:0:0:0:
224,132,300809,1,8,0:0:0:0:
224,132,300889,1,0,0:0:0:0:
203,121,300968,1,0,0:0:0:0:
207,121,301048,1,8,0:0:0:0:
110,140,301128,1,8,0:0:0:0:
223,116,301208,1,0,0:0:0:0:
223,116,301287,1,8,0:0:0:0:
223,116,301367,1,0,0:0:0:0:
227,108,301447,1,0,0:0:0:0:
227,108,301527,1,8,0:0:0:0:
227,108,301607,1,0,0:0:0:0:
227,108,301686,1,8,0:0:0:0:
166,141,301846,1,8,0:0:0:0:
200,137,302006,1,0,0:0:0:0:
171,154,302165,1,12,0:0:0:0:
162,121,302325,1,8,0:0:0:0:
221,145,302404,1,8,0:0:0:0:
171,151,302484,1,0,0:0:0:0:
199,143,302564,1,0,0:0:0:0:
199,143,302644,1,8,0:0:0:0:
220,142,302803,1,0,0:0:0:0:
217,142,302883,1,0,0:0:0:0:
220,142,302963,1,8,0:0:0:0:
239,143,303123,1,8,0:0:0:0:
239,143,303202,1,0,0:0:0:0:
239,143,303282,1,8,0:0:0:0:
239,143,303362,1,0,0:0:0:0:
204,163,303442,1,0,0:0:0:0:
204,163,303495,1,0,0:0:0:0:
204,163,303548,1,0,0:0:0:0:
204,163,303601,1,8,0:0:0:0:
227,145,303681,1,0,0:0:0:0:
227,145,303761,1,12,0:0:0:0:
188,145,304000,1,8,0:0:0:0:
204,144,304080,1,0,0:0:0:0:
191,135,304160,1,0,0:0:0:0:
198,130,304240,1,8,0:0:0:0:
222,144,304399,1,0,0:0:0:0:
211,136,304479,1,0,0:0:0:0:
212,136,304559,1,8,0:0:0:0:
211,136,304639,1,8,0:0:0:0:
246,133,304718,1,0,0:0:0:0:
246,133,304798,1,0,0:0:0:0:
246,133,304878,1,8,0:0:0:0:
143,147,304958,1,0,0:0:0:0:
176,142,305037,1,8,0:0:0:0:
162,131,305117,1,8,0:0:0:0:
105,136,305197,1,0,0:0:0:0:
159,141,305357,1,12,0:0:0:0:
160,140,305596,1,12,0:0:0:0:
160,140,305835,1,12,0:0:0:0:
160,140,305995,1,0,0:0:0:0:
160,140,306075,1,0,0:0:0:0:
160,140,306154,1,8,0:0:0:0:
163,113,306234,1,8,0:0:0:0:
175,118,306314,1,0,0:0:0:0:
175,118,306394,1,0,0:0:0:0:
175,118,306474,1,12,0:0:0:0:
175,118,306713,1,8,0:0:0:0:
175,118,306793,1,0,0:0:0:0:
191,122,306873,1,0,0:0:0:0:
191,122,306952,1,12,0:0:0:0:
191,122,307112,1,0,0:0:0:0:
191,122,307192,1,8,0:0:0:0:
191,122,307271,1,0,0:0:0:0:
193,127,307351,1,0,0:0:0:0:
193,127,307431,1,8,0:0:0:0:
211,121,307591,1,0,0:0:0:0:
211,121,307670,1,8,0:0:0:0:
211,121,307750,1,8,0:0:0:0:
211,121,307830,1,0,0:0:0:0:
211,121,307910,1,8,0:0:0:0:
218,120,307990,1,0,0:0:0:0:
218,120,308069,1,8,0:0:0:0:
213,111,308149,1,8,0:0:0:0:
217,112,308229,1,0,0:0:0:0:
226,111,308309,1,8,0:0:0:0:
226,110,308389,1,0,0:0:0:0:
233,116,308468,1,0,0:0:0:0:
233,116,308548,1,12,0:0:0:0:
142,118,308787,1,8,0:0:0:0:
167,114,308867,1,0,0:0:0:0:
167,114,308947,1,0,0:0:0:0:
167,114,309027,1,8,0:0:0:0:
209,125,309186,1,0,0:0:0:0:
197,123,309266,1,0,0:0:0:0:
198,123,309346,1,0,0:0:0:0:
198,123,309426,1,8,0:0:0:0:
184,120,309506,1,0,0:0:0:0:
184,120,309545,1,0,0:0:0:0:
184,120,309585,1,0,0:0:0:0:
184,120,309625,1,0,0:0:0:0:
184,120,309665,1,8,0:0:0:0:
194,122,309745,1,0,0:0:0:0:
194,122,309785,1,0,0:0:0:0:
194,122,309825,1,0,0:0:0:0:
194,122,309865,1,0,0:0:0:0:
194,122,309904,1,8,0:0:0:0:
188,129,309984,1,0,0:0:0:0:
188,129,310064,1,0,0:0:0:0:
193,135,310144,1,12,0:0:0:0:
207,144,310303,1,0,0:0:0:0:
207,144,310383,1,8,0:0:0:0:
207,144,310463,1,0,0:0:0:0:
207,144,310543,1,0,0:0:0:0:
207,144,310623,1,8,0:0:0:0:
207,144,310702,1,8,0:0:0:0:
220,146,310782,1,0,0:0:0:0:
220,146,310862,1,8,0:0:0:0:
220,146,310942,1,0,0:0:0:0:
229,163,311021,1,0,0:0:0:0:
229,163,311101,1,8,0:0:0:0:
229,163,311181,1,0,0:0:0:0:
229,163,311261,1,8,0:0:0:0:
229,163,311341,1,8,0:0:0:0:
229,163,311420,1,0,0:0:0:0:
229,163,311500,1,8,0:0:0:0:
229,163,311580,1,0,0:0:0:0:
229,163,311660,1,0,0:0:0:0:
233,163,311740,1,12,0:0:0:0:
236,159,311979,1,8,0:0:0:0:
236,159,312059,1,0,0:0:0:0:
236,159,312139,1,0,0:0:0:0:
236,159,312218,1,8,0:0:0:0:
240,162,312378,1,0,0:0:0:0:
240,162,312458,1,0,0:0:0:0:
240,162,312537,1,8,0:0:0:0:
240,162,312617,1,8,0:0:0:0:
264,143,312697,1,0,0:0:0:0:
264,143,312777,1,8,0:0:0:0:
268,134,312857,1,8,0:0:0:0:
265,131,312936,1,0,0:0:0:0:
265,131,312976,1,0,0:0:0:0:
265,131,313016,1,0,0:0:0:0:
268,134,313056,1,0,0:0:0:0:
268,134,313096,1,8,0:0:0:0:
270,132,313176,1,0,0:0:0:0:
268,134,313256,1,0,0:0:0:0:
270,132,313335,1,12,0:0:0:0:
268,134,313495,1,0,0:0:0:0:
270,132,313575,1,8,0:0:0:0:
270,132,313654,1,0,0:0:0:0:
268,134,313734,1,0,0:0:0:0:
270,132,313814,1,8,0:0:0:0:
283,134,313974,1,0,0:0:0:0:
283,134,314014,1,0,0:0:0:0:
283,134,314053,1,0,0:0:0:0:
283,134,314093,1,0,0:0:0:0:
283,134,314133,1,8,0:0:0:0:
255,141,314213,1,0,0:0:0:0:
272,137,314293,1,8,0:0:0:0:
272,137,314373,1,0,0:0:0:0:
272,137,314452,1,8,0:0:0:0:
272,126,314532,1,8,0:0:0:0:
286,127,314612,1,0,0:0:0:0:
286,127,314692,1,8,0:0:0:0:
286,127,314771,1,0,0:0:0:0:
278,130,314851,1,0,0:0:0:0:
274,131,314931,1,12,0:0:0:0:
278,130,315170,1,8,0:0:0:0:
278,130,315250,1,0,0:0:0:0:
284,125,315330,1,0,0:0:0:0:
282,127,315410,1,8,0:0:0:0:
293,128,315569,1,8,0:0:0:0:
293,128,315649,1,8,0:0:0:0:
293,128,315729,1,0,0:0:0:0:
293,128,315809,1,8,0:0:0:0:
280,129,315889,1,0,0:0:0:0:
280,129,315968,1,0,0:0:0:0:
280,129,316048,1,8,0:0:0:0:
280,129,316128,1,0,0:0:0:0:
272,123,316208,1,8,0:0:0:0:
231,140,316287,1,8,0:0:0:0:
220,163,316367,1,0,0:0:0:0:
189,152,316447,1,0,0:0:0:0:
218,147,316527,1,12,0:0:0:0:
203,139,316686,1,0,0:0:0:0:
203,139,316766,1,0,0:0:0:0:
217,142,316846,1,8,0:0:0:0:
210,131,316926,1,0,0:0:0:0:
209,130,317006,1,8,0:0:0:0:
220,141,317085,1,0,0:0:0:0:
231,138,317165,1,8,0:0:0:0:
221,127,317245,1,0,0:0:0:0:
226,115,317325,1,8,0:0:0:0:
226,115,317404,1,8,0:0:0:0:
226,115,317484,1,8,0:0:0:0:
239,119,317564,1,0,0:0:0:0:
239,119,317644,1,0,0:0:0:0:
239,119,317724,1,0,0:0:0:0:
239,119,317803,1,8,0:0:0:0:
239,119,317883,1,8,0:0:0:0:
239,119,317963,1,0,0:0:0:0:
236,126,318043,1,8,0:0:0:0:
249,127,318123,1,8,0:0:0:0:
249,127,318202,1,0,0:0:0:0:
249,127,318282,1,8,0:0:0:0:
256,123,318362,1,8,0:0:0:0:
256,123,318442,1,8,0:0:0:0:
186,133,318521,1,0,0:0:0:0:
211,144,318601,1,0,0:0:0:0:
211,144,318681,1,0,0:0:0:0:
211,144,318761,1,8,0:0:0:0:
211,144,318841,1,8,0:0:0:0:
211,144,318920,1,8,0:0:0:0:
263,163,319000,1,0,0:0:0:0:
256,160,319080,1,0,0:0:0:0:
254,160,319160,1,0,0:0:0:0:
249,163,319240,1,8,0:0:0:0:
252,166,319319,1,8,0:0:0:0:
249,163,319399,1,0,0:0:0:0:
262,164,319479,1,8,0:0:0:0:
263,172,319559,1,0,0:0:0:0:
264,172,319639,1,0,0:0:0:0:
264,172,319718,1,12,0:0:0:0:
269,164,319878,1,0,0:0:0:0:
303,156,319958,1,8,0:0:0:0:
269,164,320037,1,0,0:0:0:0:
269,164,320117,1,0,0:0:0:0:
269,164,320197,1,8,0:0:0:0:
278,165,320357,1,8,0:0:0:0:
278,165,320436,1,8,0:0:0:0:
278,165,320516,1,0,0:0:0:0:
278,165,320596,1,8,0:0:0:0:
284,159,320676,1,8,0:0:0:0:
289,156,320756,1,0,0:0:0:0:
284,159,320835,1,8,0:0:0:0:
291,154,320915,1,0,0:0:0:0:
291,154,320955,1,0,0:0:0:0:
294,154,320995,1,0,0:0:0:0:
294,154,321035,1,0,0:0:0:0:
296,155,321075,1,8,0:0:0:0:
277,146,321154,1,0,0:0:0:0:
277,146,321234,1,0,0:0:0:0:
277,146,321314,1,12,0:0:0:0:
262,139,321553,1,8,0:0:0:0:
262,139,321633,1,0,0:0:0:0:
245,139,321713,1,0,0:0:0:0:
245,139,321793,1,8,0:0:0:0:
262,132,321952,1,0,0:0:0:0:
262,132,322032,1,8,0:0:0:0:
262,132,322112,1,0,0:0:0:0:
267,124,322192,1,8,0:0:0:0:
267,124,322271,1,8,0:0:0:0:
276,125,322351,1,0,0:0:0:0:
276,125,322431,1,8,0:0:0:0:
280,130,322511,1,0,0:0:0:0:
267,134,322591,1,0,0:0:0:0:
272,126,322670,1,8,0:0:0:0:
249,120,322750,1,0,0:0:0:0:
249,120,322830,1,0,0:0:0:0:
265,110,322910,1,12,0:0:0:0:
265,110,323069,1,0,0:0:0:0:
265,110,323149,1,8,0:0:0:0:
265,110,323229,1,0,0:0:0:0:
273,107,323309,1,0,0:0:0:0:
273,107,323389,1,8,0:0:0:0:
291,109,323468,1,8,0:0:0:0:
291,109,323548,1,8,0:0:0:0:
307,111,323628,1,0,0:0:0:0:
307,110,323708,1,0,0:0:0:0:
307,110,323787,1,0,0:0:0:0:
307,111,323867,1,8,0:0:0:0:
320,116,323947,1,8,0:0:0:0:
307,111,324027,1,0,0:0:0:0:
316,110,324107,1,8,0:0:0:0:
316,110,324186,1,0,0:0:0:0:
316,115,324266,1,8,0:0:0:0:
316,115,324346,1,0,0:0:0:0:
320,128,324426,1,0,0:0:0:0:
333,134,324506,1,12,0:0:0:0:
320,128,324745,1,8,0:0:0:0:
320,128,324825,1,0,0:0:0:0:
307,136,324904,1,0,0:0:0:0:
309,136,324984,1,8,0:0:0:0:
281,136,325144,1,0,0:0:0:0:
281,136,325224,1,0,0:0:0:0:
281,136,325303,1,8,0:0:0:0:
281,136,325383,1,8,0:0:0:0:
285,124,325463,1,0,0:0:0:0:
286,125,325543,1,0,0:0:0:0:
287,125,325623,1,8,0:0:0:0:
285,124,325702,1,8,0:0:0:0:
276,115,325782,1,0,0:0:0:0:
266,112,325862,1,0,0:0:0:0:
276,115,325942,1,8,0:0:0:0:
276,115,326021,1,0,0:0:0:0:
279,114,326101,1,12,0:0:0:0:
239,144,326261,1,0,0:0:0:0:
239,144,326341,1,8,0:0:0:0:
239,144,326420,1,0,0:0:0:0:
226,145,326500,1,8,0:0:0:0:
239,144,326580,1,8,0:0:0:0:
248,134,326740,1,0,0:0:0:0:
248,134,326779,1,0,0:0:0:0:
248,134,326819,1,0,0:0:0:0:
248,134,326859,1,0,0:0:0:0:
248,134,326899,1,8,0:0:0:0:
265,138,326979,1,8,0:0:0:0:
265,138,327059,1,0,0:0:0:0:
238,129,327139,1,0,0:0:0:0:
238,129,327218,1,8,0:0:0:0:
238,129,327298,1,0,0:0:0:0:
279,150,327378,1,8,0:0:0:0:
262,123,327458,1,8,0:0:0:0:
271,129,327537,1,0,0:0:0:0:
271,129,327617,1,0,0:0:0:0:
271,130,327697,1,12,0:0:0:0:
271,130,327936,1,0,0:0:0:0:
271,130,328016,1,8,0:0:0:0:
213,138,328096,1,8,0:0:0:0:
280,116,328176,1,0,0:0:0:0:
280,116,328256,1,0,0:0:0:0:
280,116,328335,1,8,0:0:0:0:
261,135,328415,1,8,0:0:0:0:
296,119,328495,1,0,0:0:0:0:
296,119,328575,1,0,0:0:0:0:
296,119,328654,1,8,0:0:0:0:
296,119,328734,1,8,0:0:0:0:
302,120,328814,1,0,0:0:0:0:
301,121,328894,1,0,0:0:0:0:
296,119,328974,1,8,0:0:0:0:
296,121,329053,1,8,0:0:0:0:
281,128,329133,1,0,0:0:0:0:
287,127,329213,1,0,0:0:0:0:
287,127,329293,1,12,0:0:0:0:
243,121,329452,1,0,0:0:0:0:
205,118,329532,1,8,0:0:0:0:
243,121,329612,1,8,0:0:0:0:
250,126,329692,1,0,0:0:0:0:
224,139,329771,1,8,0:0:0:0:
224,139,329851,1,0,0:0:0:0:
200,130,329931,1,8,0:0:0:0:
176,128,330011,1,8,0:0:0:0:
242,121,330091,1,0,0:0:0:0:
242,121,330170,1,0,0:0:0:0:
242,121,330250,1,8,0:0:0:0:
242,121,330330,1,8,0:0:0:0:
220,121,330410,1,0,0:0:0:0:
220,121,330490,1,0,0:0:0:0:
220,121,330569,1,8,0:0:0:0:
213,123,330649,1,0,0:0:0:0:
213,123,330729,1,0,0:0:0:0:
213,123,330809,1,0,0:0:0:0:
213,123,330889,1,8,0:0:0:0:
213,123,330968,1,0,0:0:0:0:
226,120,331048,1,8,0:0:0:0:
226,120,331128,1,8,0:0:0:0:
227,117,331208,1,0,0:0:0:0:
226,120,331287,1,0,0:0:0:0:
227,117,331367,1,8,0:0:0:0:
226,120,331447,1,8,0:0:0:0:
253,116,331527,1,0,0:0:0:0:
252,118,331607,1,8,0:0:0:0:
253,116,331686,1,0,0:0:0:0:
253,116,331766,1,0,0:0:0:0:
253,116,331846,1,8,0:0:0:0:
253,116,331926,1,8,0:0:0:0:
251,121,332006,1,0,0:0:0:0:
251,121,332085,1,8,0:0:0:0:
241,116,332165,1,0,0:0:0:0:
243,116,332245,1,8,0:0:0:0:
253,128,332325,1,0,0:0:0:0:
253,128,332404,1,0,0:0:0:0:
269,128,332484,1,8,0:0:0:0:
269,128,332524,1,8,0:0:0:0:
234,114,332564,1,0,0:0:0:0:
269,128,332644,1,0,0:0:0:0:
242,114,332724,1,8,0:0:0:0:
242,114,332764,1,8,0:0:0:0:
242,114,332803,1,0,0:0:0:0:
195,143,332883,1,0,0:0:0:0:
195,143,332963,1,8,0:0:0:0:
195,143,333003,1,8,0:0:0:0:
195,143,333043,1,8,0:0:0:0:
202,144,333123,1,0,0:0:0:0:
202,144,333202,1,0,0:0:0:0:
211,132,333282,1,8,0:0:0:0:
211,132,333322,1,8,0:0:0:0:
211,132,333362,1,8,0:0:0:0:
212,119,333442,1,0,0:0:0:0:
213,119,333521,1,0,0:0:0:0:
213,119,333601,1,8,0:0:0:0:
212,119,333641,1,8,0:0:0:0:
213,119,333681,1,8,0:0:0:0:
245,128,333761,1,0,0:0:0:0:
245,128,333841,1,0,0:0:0:0:
245,128,333920,1,8,0:0:0:0:
245,128,333960,1,8,0:0:0:0:
245,128,334000,1,8,0:0:0:0:
211,126,334080,1,4,0:0:0:0:
100,130,334359,1,8,0:0:0:0:
156,147,334399,1,8,0:0:0:0:
389,120,334599,1,8,0:0:0:0:
389,120,334639,1,8,0:0:0:0:
214,174,334678,1,8,0:0:0:0:
256,192,334718,12,0,353229,0:0:0:0:
