osu file format v14

[General]
AudioFilename: TOHKA (feat. Raya).mp3
AudioLeadIn: 0
PreviewTime: 135699
Countdown: 0
SampleSet: Normal
StackLeniency: 0.7
Mode: 3
LetterboxInBreaks: 0
SpecialStyle: 0
WidescreenStoryboard: 1

[Editor]
DistanceSpacing: 2
BeatDivisor: 4
GridSize: 8
TimelineZoom: 2.600001

[Metadata]
Title:TOHKA (feat. Raya)
TitleUnicode:TOHKA (feat. Raya)
Artist:Vena Cava
ArtistUnicode:Vena Cava
Creator:Jingshenbing
Version:Dedication
Source:
Tags:
BeatmapID:595751
BeatmapSetID:260825

[Difficulty]
HPDrainRate:9
CircleSize:7
OverallDifficulty:8.5
ApproachRate:5
SliderMultiplier:1.4
SliderTickRate:1

[Events]
//Background and Video events
0,0,"maxresdefault.jpg",0,0
//Break Periods
//Storyboard Layer 0 (Background)
//Storyboard Layer 1 (Fail)
//Storyboard Layer 2 (Pass)
//Storyboard Layer 3 (Foreground)
//Storyboard Sound Samples

[TimingPoints]
170,352.941176470588,4,1,0,11,1,0
111699,-1000,4,1,0,11,0,0
112228,-66.6666666666667,4,1,0,11,0,0
112405,-100,4,1,0,11,0,0
113111,-100,4,1,0,11,0,1
134640,-1000,4,1,0,11,0,1
134728,-66.6666666666667,4,1,0,11,0,1
134817,-100,4,1,0,11,0,1
135699,-100,4,1,0,11,0,0
158287,-142.857142857143,4,1,0,11,0,0
169581,-117.647058823529,4,1,0,11,0,0
180875,-100,4,1,0,11,0,0
226052,-100,4,1,0,11,0,1
247405,-1000,4,1,0,11,0,1
247581,-66.6666666666667,4,1,0,11,0,1
247758,-100,4,1,0,11,0,1
248640,-100,4,1,0,11,0,0
282214,750,4,1,0,11,1,0
282236,200,4,1,0,11,1,0
282258,750,4,1,0,11,1,0
282280,200,4,1,0,11,1,0
282302,750,4,1,0,11,1,0
282324,200,4,1,0,11,1,0
282346,750,4,1,0,11,1,0
282368,200,4,1,0,11,1,0
282390,750,4,1,0,11,1,0
282412,200,4,1,0,11,1,0
282434,750,4,1,0,11,1,0
282456,200,4,1,0,11,1,0
282478,750,4,1,0,11,1,0
282500,200,4,1,0,11,1,0
282522,352.941176470588,4,1,0,11,1,0
295228,368.098159509202,4,1,0,11,1,0
295978,419.58041958042,4,1,0,11,1,0
296397,461.538461538462,4,1,0,11,1,0
296858,521.739130434783,4,1,0,11,1,0
297379,588.235294117647,4,1,0,11,1,0
297967,659.340659340659,4,1,0,11,1,0
298626,779.220779220779,4,1,0,11,1,0
299405,882.352941176471,4,1,0,11,1,0
300330,1052.63157894736,4,1,0,11,1,0
301462,1385.68129330254,4,1,0,11,1,0
302962,1935.48387096774,4,1,0,11,1,0

[HitObjects]
256,192,170,5,0,0:0:0:0:
402,192,346,1,0,0:0:0:0:
256,192,522,1,0,0:0:0:0:
402,192,699,1,0,0:0:0:0:
109,192,875,1,0,0:0:0:0:
256,192,1052,1,0,0:0:0:0:
109,192,1228,1,0,0:0:0:0:
256,192,1405,1,0,0:0:0:0:
182,192,1581,1,0,0:0:0:0:
329,192,1758,1,0,0:0:0:0:
182,192,1934,1,0,0:0:0:0:
329,192,2111,1,0,0:0:0:0:
36,192,2287,1,0,0:0:0:0:
182,192,2464,1,0,0:0:0:0:
36,192,2640,1,0,0:0:0:0:
182,192,2817,1,0,0:0:0:0:
109,192,2993,1,0,0:0:0:0:
256,192,3169,1,0,0:0:0:0:
109,192,3346,1,0,0:0:0:0:
256,192,3522,1,0,0:0:0:0:
182,192,3699,1,0,0:0:0:0:
329,192,3875,1,0,0:0:0:0:
182,192,4052,1,0,0:0:0:0:
329,192,4228,1,0,0:0:0:0:
256,192,4405,1,0,0:0:0:0:
402,192,4581,1,0,0:0:0:0:
256,192,4758,1,0,0:0:0:0:
402,192,4934,1,0,0:0:0:0:
329,192,5111,1,0,0:0:0:0:
475,192,5287,1,0,0:0:0:0:
329,192,5464,1,0,0:0:0:0:
475,192,5640,1,0,0:0:0:0:
256,192,5817,1,0,0:0:0:0:
109,192,5993,1,0,0:0:0:0:
256,192,6169,1,0,0:0:0:0:
109,192,6346,1,0,0:0:0:0:
402,192,6522,1,0,0:0:0:0:
256,192,6699,1,0,0:0:0:0:
402,192,6875,1,0,0:0:0:0:
256,192,7052,1,0,0:0:0:0:
475,192,7228,1,0,0:0:0:0:
329,192,7405,1,0,0:0:0:0:
475,192,7581,1,0,0:0:0:0:
329,192,7758,1,0,0:0:0:0:
182,192,7934,1,0,0:0:0:0:
36,192,8111,1,0,0:0:0:0:
182,192,8287,1,0,0:0:0:0:
36,192,8464,1,0,0:0:0:0:
256,192,8640,1,0,0:0:0:0:
109,192,8817,1,0,0:0:0:0:
256,192,8993,1,0,0:0:0:0:
109,192,9169,1,0,0:0:0:0:
329,192,9346,1,0,0:0:0:0:
182,192,9522,1,0,0:0:0:0:
329,192,9699,1,0,0:0:0:0:
182,192,9875,1,0,0:0:0:0:
402,192,10052,1,0,0:0:0:0:
36,192,10052,128,0,11464:0:0:0:0:
256,192,10228,1,0,0:0:0:0:
402,192,10405,1,0,0:0:0:0:
256,192,10581,1,0,0:0:0:0:
475,192,10758,1,0,0:0:0:0:
329,192,10934,1,0,0:0:0:0:
475,192,11111,1,0,0:0:0:0:
329,192,11287,1,0,0:0:0:0:
182,192,11464,1,0,0:0:0:0:
402,192,11464,1,4,0:0:0:0:
329,192,11640,128,0,11817:0:0:0:0:
109,192,11817,1,0,0:0:0:0:
329,192,11993,128,0,12169:0:0:0:0:
109,192,12169,1,0,0:0:0:0:
329,192,12346,128,0,12522:0:0:0:0:
109,192,12522,1,0,0:0:0:0:
329,192,12699,128,0,12875:0:0:0:0:
475,192,12875,1,0,0:0:0:0:
36,192,13052,128,0,13228:0:0:0:0:
475,192,13228,1,0,0:0:0:0:
36,192,13405,128,0,13581:0:0:0:0:
475,192,13581,1,0,0:0:0:0:
36,192,13758,128,0,13934:0:0:0:0:
475,192,13934,1,0,0:0:0:0:
36,192,14111,128,0,14287:0:0:0:0:
475,192,14287,1,0,0:0:0:0:
256,192,14464,128,0,14640:0:0:0:0:
402,192,14640,1,0,0:0:0:0:
256,192,14817,128,0,14993:0:0:0:0:
109,192,14993,1,0,0:0:0:0:
256,192,15169,128,0,15346:0:0:0:0:
402,192,15346,1,0,0:0:0:0:
256,192,15522,128,0,15699:0:0:0:0:
109,192,15699,1,0,0:0:0:0:
36,192,15875,128,0,16052:0:0:0:0:
182,192,16052,1,0,0:0:0:0:
109,192,16228,128,0,16405:0:0:0:0:
256,192,16405,1,0,0:0:0:0:
182,192,16581,128,0,16758:0:0:0:0:
329,192,16758,1,0,0:0:0:0:
256,192,16934,128,0,17111:0:0:0:0:
402,192,17111,1,0,0:0:0:0:
329,192,17287,128,0,17464:0:0:0:0:
475,192,17464,1,0,0:0:0:0:
402,192,17640,128,0,17817:0:0:0:0:
36,192,17817,1,0,0:0:0:0:
475,192,17993,128,0,18169:0:0:0:0:
109,192,18169,1,0,0:0:0:0:
36,192,18346,128,0,18522:0:0:0:0:
182,192,18522,1,0,0:0:0:0:
109,192,18699,128,0,18875:0:0:0:0:
256,192,18875,1,0,0:0:0:0:
475,192,19052,128,0,19228:0:0:0:0:
182,192,19228,1,0,0:0:0:0:
402,192,19405,128,0,19581:0:0:0:0:
109,192,19581,1,0,0:0:0:0:
329,192,19758,128,0,19934:0:0:0:0:
36,192,19934,1,0,0:0:0:0:
256,192,20111,128,0,20287:0:0:0:0:
402,192,20287,1,0,0:0:0:0:
36,192,20464,128,0,20640:0:0:0:0:
475,192,20640,1,0,0:0:0:0:
109,192,20817,128,0,20993:0:0:0:0:
329,192,20993,1,0,0:0:0:0:
182,192,21169,128,0,21346:0:0:0:0:
402,192,21346,1,0,0:0:0:0:
256,192,21522,128,0,21699:0:0:0:0:
475,192,21699,1,0,0:0:0:0:
329,192,21875,128,0,22052:0:0:0:0:
109,192,22052,1,0,0:0:0:0:
36,192,22140,1,0,0:0:0:0:
256,192,22228,1,0,0:0:0:0:
475,192,22228,1,0,0:0:0:0:
182,192,22317,1,0,0:0:0:0:
402,192,22405,1,0,0:0:0:0:
329,192,22493,1,0,0:0:0:0:
475,192,22581,1,0,0:0:0:0:
36,192,22581,1,0,0:0:0:0:
182,192,22669,1,0,0:0:0:0:
256,192,22758,1,0,0:0:0:0:
182,192,22934,1,0,0:0:0:0:
329,192,22934,1,0,0:0:0:0:
109,192,22934,1,0,0:0:0:0:
475,192,23022,1,0,0:0:0:0:
256,192,23111,1,0,0:0:0:0:
36,192,23111,1,8,0:0:0:0:
329,192,23287,1,0,0:0:0:0:
182,192,23287,1,0,0:0:0:0:
109,192,23287,1,0,0:0:0:0:
475,192,23375,1,0,0:0:0:0:
256,192,23464,1,0,0:0:0:0:
329,192,23640,1,0,0:0:0:0:
109,192,23640,1,0,0:0:0:0:
182,192,23640,1,0,0:0:0:0:
475,192,23728,1,0,0:0:0:0:
256,192,23817,1,0,0:0:0:0:
36,192,23817,1,8,0:0:0:0:
109,192,23993,1,0,0:0:0:0:
182,192,23993,1,0,0:0:0:0:
329,192,23993,1,0,0:0:0:0:
475,192,24081,1,0,0:0:0:0:
256,192,24169,1,0,0:0:0:0:
182,192,24346,1,0,0:0:0:0:
109,192,24346,1,0,0:0:0:0:
329,192,24346,1,0,0:0:0:0:
475,192,24434,1,0,0:0:0:0:
36,192,24522,1,8,0:0:0:0:
256,192,24522,1,0,0:0:0:0:
329,192,24699,1,0,0:0:0:0:
182,192,24699,1,0,0:0:0:0:
109,192,24699,1,0,0:0:0:0:
475,192,24787,1,0,0:0:0:0:
256,192,24875,1,0,0:0:0:0:
329,192,25052,1,0,0:0:0:0:
109,192,25052,1,0,0:0:0:0:
182,192,25052,1,0,0:0:0:0:
475,192,25140,1,0,0:0:0:0:
256,192,25228,1,0,0:0:0:0:
36,192,25228,1,8,0:0:0:0:
109,192,25405,1,0,0:0:0:0:
182,192,25405,1,0,0:0:0:0:
329,192,25405,1,0,0:0:0:0:
475,192,25493,1,0,0:0:0:0:
256,192,25581,1,0,0:0:0:0:
182,192,25758,1,0,0:0:0:0:
109,192,25758,1,0,0:0:0:0:
329,192,25758,1,0,0:0:0:0:
475,192,25846,1,0,0:0:0:0:
36,192,25934,1,8,0:0:0:0:
256,192,25934,1,0,0:0:0:0:
329,192,26111,1,0,0:0:0:0:
182,192,26111,1,0,0:0:0:0:
109,192,26111,1,0,0:0:0:0:
475,192,26199,1,0,0:0:0:0:
256,192,26287,1,0,0:0:0:0:
329,192,26464,1,0,0:0:0:0:
109,192,26464,1,0,0:0:0:0:
182,192,26464,1,0,0:0:0:0:
475,192,26552,1,0,0:0:0:0:
256,192,26640,1,0,0:0:0:0:
36,192,26640,1,8,0:0:0:0:
109,192,26817,1,0,0:0:0:0:
182,192,26817,1,0,0:0:0:0:
329,192,26817,1,0,0:0:0:0:
475,192,26905,1,0,0:0:0:0:
256,192,26993,1,0,0:0:0:0:
182,192,27169,1,0,0:0:0:0:
109,192,27169,1,0,0:0:0:0:
329,192,27169,1,0,0:0:0:0:
475,192,27258,1,0,0:0:0:0:
36,192,27346,1,8,0:0:0:0:
256,192,27346,1,0,0:0:0:0:
329,192,27522,1,0,0:0:0:0:
182,192,27522,1,0,0:0:0:0:
109,192,27522,1,0,0:0:0:0:
475,192,27611,1,0,0:0:0:0:
256,192,27699,1,0,0:0:0:0:
329,192,27875,1,0,0:0:0:0:
109,192,27875,1,0,0:0:0:0:
182,192,27875,1,0,0:0:0:0:
475,192,27964,1,0,0:0:0:0:
256,192,28052,1,0,0:0:0:0:
36,192,28052,1,8,0:0:0:0:
109,192,28228,1,0,0:0:0:0:
182,192,28228,1,0,0:0:0:0:
329,192,28228,1,0,0:0:0:0:
475,192,28317,1,0,0:0:0:0:
256,192,28405,1,0,0:0:0:0:
329,192,28581,1,0,0:0:0:0:
402,192,28581,1,0,0:0:0:0:
36,192,28581,1,0,0:0:0:0:
182,192,28669,1,0,0:0:0:0:
256,192,28758,1,0,0:0:0:0:
475,192,28758,1,8,0:0:0:0:
329,192,28934,1,0,0:0:0:0:
402,192,28934,1,0,0:0:0:0:
36,192,28934,1,0,0:0:0:0:
182,192,29022,1,0,0:0:0:0:
256,192,29111,1,0,0:0:0:0:
329,192,29287,1,0,0:0:0:0:
36,192,29287,1,0,0:0:0:0:
402,192,29287,1,0,0:0:0:0:
182,192,29375,1,0,0:0:0:0:
256,192,29464,1,0,0:0:0:0:
475,192,29464,1,8,0:0:0:0:
402,192,29640,1,0,0:0:0:0:
329,192,29640,1,0,0:0:0:0:
36,192,29640,1,0,0:0:0:0:
182,192,29728,1,0,0:0:0:0:
256,192,29817,1,0,0:0:0:0:
402,192,29993,1,0,0:0:0:0:
36,192,29993,1,0,0:0:0:0:
329,192,29993,1,0,0:0:0:0:
182,192,30081,1,0,0:0:0:0:
475,192,30169,1,8,0:0:0:0:
256,192,30169,1,0,0:0:0:0:
36,192,30346,1,0,0:0:0:0:
329,192,30346,1,0,0:0:0:0:
402,192,30346,1,0,0:0:0:0:
182,192,30434,1,0,0:0:0:0:
256,192,30522,1,0,0:0:0:0:
329,192,30699,1,0,0:0:0:0:
36,192,30699,1,0,0:0:0:0:
402,192,30699,1,0,0:0:0:0:
182,192,30787,1,0,0:0:0:0:
256,192,30875,1,0,0:0:0:0:
475,192,30875,1,8,0:0:0:0:
402,192,31052,1,0,0:0:0:0:
329,192,31052,1,0,0:0:0:0:
36,192,31052,1,0,0:0:0:0:
182,192,31140,1,0,0:0:0:0:
256,192,31228,1,0,0:0:0:0:
402,192,31405,1,0,0:0:0:0:
36,192,31405,1,0,0:0:0:0:
329,192,31405,1,0,0:0:0:0:
182,192,31493,1,0,0:0:0:0:
475,192,31581,1,8,0:0:0:0:
256,192,31581,1,0,0:0:0:0:
36,192,31758,1,0,0:0:0:0:
329,192,31758,1,0,0:0:0:0:
402,192,31758,1,0,0:0:0:0:
182,192,31846,1,0,0:0:0:0:
256,192,31934,1,0,0:0:0:0:
329,192,32111,1,0,0:0:0:0:
36,192,32111,1,0,0:0:0:0:
402,192,32111,1,0,0:0:0:0:
182,192,32199,1,0,0:0:0:0:
256,192,32287,1,0,0:0:0:0:
475,192,32287,1,8,0:0:0:0:
402,192,32464,1,0,0:0:0:0:
329,192,32464,1,0,0:0:0:0:
36,192,32464,1,0,0:0:0:0:
182,192,32552,1,0,0:0:0:0:
256,192,32640,1,0,0:0:0:0:
402,192,32817,1,0,0:0:0:0:
36,192,32817,1,0,0:0:0:0:
329,192,32817,1,0,0:0:0:0:
182,192,32905,1,0,0:0:0:0:
475,192,32993,1,8,0:0:0:0:
256,192,32993,1,0,0:0:0:0:
36,192,33169,1,0,0:0:0:0:
329,192,33169,1,0,0:0:0:0:
402,192,33169,1,0,0:0:0:0:
182,192,33258,1,0,0:0:0:0:
475,192,33346,128,2,33699:0:0:0:0:
402,192,33346,1,0,0:0:0:0:
256,192,33522,1,0,0:0:0:0:
109,192,33699,128,2,33817:0:0:0:0:
36,192,33875,128,2,34052:0:0:0:0:
256,192,33875,1,0,0:0:0:0:
182,192,34052,1,0,0:0:0:0:
329,192,34052,1,4,0:0:0:0:
109,192,34228,1,0,0:0:0:0:
256,192,34228,1,0,0:0:0:0:
36,192,34228,1,0,0:0:0:0:
402,192,34317,1,0,0:0:0:0:
182,192,34405,1,0,0:0:0:0:
475,192,34405,1,8,0:0:0:0:
109,192,34581,1,0,0:0:0:0:
36,192,34581,1,0,0:0:0:0:
256,192,34581,1,0,0:0:0:0:
402,192,34669,1,0,0:0:0:0:
182,192,34758,1,0,0:0:0:0:
109,192,34934,1,0,0:0:0:0:
36,192,34934,1,0,0:0:0:0:
256,192,34934,1,0,0:0:0:0:
402,192,35022,1,0,0:0:0:0:
182,192,35111,1,0,0:0:0:0:
475,192,35111,1,8,0:0:0:0:
109,192,35287,1,0,0:0:0:0:
36,192,35287,1,0,0:0:0:0:
256,192,35287,1,0,0:0:0:0:
402,192,35375,1,0,0:0:0:0:
182,192,35464,1,0,0:0:0:0:
109,192,35640,1,0,0:0:0:0:
256,192,35640,1,0,0:0:0:0:
36,192,35640,1,0,0:0:0:0:
402,192,35728,1,0,0:0:0:0:
182,192,35817,1,0,0:0:0:0:
475,192,35817,1,8,0:0:0:0:
36,192,35993,1,0,0:0:0:0:
109,192,35993,1,0,0:0:0:0:
256,192,35993,1,0,0:0:0:0:
402,192,36081,1,0,0:0:0:0:
182,192,36169,1,0,0:0:0:0:
36,192,36346,1,0,0:0:0:0:
256,192,36346,1,0,0:0:0:0:
109,192,36346,1,0,0:0:0:0:
402,192,36434,1,0,0:0:0:0:
475,192,36522,1,8,0:0:0:0:
182,192,36522,1,0,0:0:0:0:
256,192,36699,1,0,0:0:0:0:
109,192,36699,1,0,0:0:0:0:
36,192,36699,1,0,0:0:0:0:
402,192,36787,1,0,0:0:0:0:
182,192,36875,1,0,0:0:0:0:
109,192,37052,1,0,0:0:0:0:
256,192,37052,1,0,0:0:0:0:
36,192,37052,1,0,0:0:0:0:
402,192,37140,1,0,0:0:0:0:
182,192,37228,1,0,0:0:0:0:
475,192,37228,1,8,0:0:0:0:
36,192,37405,1,0,0:0:0:0:
109,192,37405,1,0,0:0:0:0:
256,192,37405,1,0,0:0:0:0:
402,192,37493,1,0,0:0:0:0:
182,192,37581,1,0,0:0:0:0:
109,192,37758,1,0,0:0:0:0:
36,192,37758,1,0,0:0:0:0:
256,192,37758,1,0,0:0:0:0:
402,192,37846,1,0,0:0:0:0:
182,192,37934,1,0,0:0:0:0:
475,192,37934,1,8,0:0:0:0:
109,192,38111,1,0,0:0:0:0:
36,192,38111,1,0,0:0:0:0:
256,192,38111,1,0,0:0:0:0:
402,192,38199,1,0,0:0:0:0:
182,192,38287,1,0,0:0:0:0:
256,192,38464,1,0,0:0:0:0:
36,192,38464,1,0,0:0:0:0:
109,192,38464,1,0,0:0:0:0:
402,192,38552,1,0,0:0:0:0:
475,192,38640,1,8,0:0:0:0:
182,192,38640,1,0,0:0:0:0:
256,192,38817,1,0,0:0:0:0:
36,192,38817,1,0,0:0:0:0:
109,192,38817,1,0,0:0:0:0:
402,192,38905,1,0,0:0:0:0:
182,192,38993,1,0,0:0:0:0:
109,192,39169,1,0,0:0:0:0:
36,192,39169,1,0,0:0:0:0:
256,192,39169,1,0,0:0:0:0:
402,192,39258,1,0,0:0:0:0:
182,192,39346,1,0,0:0:0:0:
475,192,39346,1,8,0:0:0:0:
109,192,39522,1,0,0:0:0:0:
36,192,39522,1,0,0:0:0:0:
256,192,39522,1,0,0:0:0:0:
329,192,39611,1,0,0:0:0:0:
402,192,39699,1,0,0:0:0:0:
109,192,39875,1,0,0:0:0:0:
475,192,39875,1,0,0:0:0:0:
402,192,39875,1,0,0:0:0:0:
256,192,39964,1,0,0:0:0:0:
36,192,40052,1,8,0:0:0:0:
329,192,40052,1,0,0:0:0:0:
109,192,40228,1,0,0:0:0:0:
475,192,40228,1,0,0:0:0:0:
402,192,40228,1,0,0:0:0:0:
256,192,40317,1,0,0:0:0:0:
329,192,40405,1,0,0:0:0:0:
402,192,40581,1,0,0:0:0:0:
475,192,40581,1,0,0:0:0:0:
109,192,40581,1,0,0:0:0:0:
256,192,40669,1,0,0:0:0:0:
329,192,40758,1,0,0:0:0:0:
36,192,40758,1,8,0:0:0:0:
402,192,40934,1,0,0:0:0:0:
475,192,40934,1,0,0:0:0:0:
109,192,40934,1,0,0:0:0:0:
256,192,41022,1,0,0:0:0:0:
329,192,41111,1,0,0:0:0:0:
402,192,41287,1,0,0:0:0:0:
109,192,41287,1,0,0:0:0:0:
475,192,41287,1,0,0:0:0:0:
256,192,41375,1,0,0:0:0:0:
329,192,41464,1,0,0:0:0:0:
36,192,41464,1,8,0:0:0:0:
475,192,41640,1,0,0:0:0:0:
402,192,41640,1,0,0:0:0:0:
109,192,41640,1,0,0:0:0:0:
256,192,41728,1,0,0:0:0:0:
329,192,41817,1,0,0:0:0:0:
475,192,41993,1,0,0:0:0:0:
109,192,41993,1,0,0:0:0:0:
402,192,41993,1,0,0:0:0:0:
256,192,42081,1,0,0:0:0:0:
36,192,42169,1,8,0:0:0:0:
329,192,42169,1,0,0:0:0:0:
109,192,42346,1,0,0:0:0:0:
402,192,42346,1,0,0:0:0:0:
475,192,42346,1,0,0:0:0:0:
256,192,42434,1,0,0:0:0:0:
329,192,42522,1,0,0:0:0:0:
402,192,42699,1,0,0:0:0:0:
109,192,42699,1,0,0:0:0:0:
475,192,42699,1,0,0:0:0:0:
256,192,42787,1,0,0:0:0:0:
329,192,42875,1,0,0:0:0:0:
36,192,42875,1,8,0:0:0:0:
475,192,43052,1,0,0:0:0:0:
402,192,43052,1,0,0:0:0:0:
109,192,43052,1,0,0:0:0:0:
256,192,43140,1,0,0:0:0:0:
329,192,43228,1,0,0:0:0:0:
475,192,43405,1,0,0:0:0:0:
109,192,43405,1,0,0:0:0:0:
402,192,43405,1,0,0:0:0:0:
256,192,43493,1,0,0:0:0:0:
36,192,43581,1,8,0:0:0:0:
329,192,43581,1,0,0:0:0:0:
109,192,43758,1,0,0:0:0:0:
402,192,43758,1,0,0:0:0:0:
475,192,43758,1,0,0:0:0:0:
256,192,43846,1,0,0:0:0:0:
329,192,43934,1,0,0:0:0:0:
402,192,44111,1,0,0:0:0:0:
109,192,44111,1,0,0:0:0:0:
475,192,44111,1,0,0:0:0:0:
256,192,44199,1,0,0:0:0:0:
329,192,44287,1,0,0:0:0:0:
36,192,44287,1,8,0:0:0:0:
475,192,44464,1,0,0:0:0:0:
402,192,44464,1,0,0:0:0:0:
109,192,44464,1,0,0:0:0:0:
256,192,44552,1,0,0:0:0:0:
329,192,44640,1,0,0:0:0:0:
475,192,44817,1,0,0:0:0:0:
109,192,44817,1,0,0:0:0:0:
402,192,44817,1,0,0:0:0:0:
256,192,44905,1,0,0:0:0:0:
36,192,44993,1,8,0:0:0:0:
329,192,44993,1,0,0:0:0:0:
109,192,45169,1,0,0:0:0:0:
402,192,45169,1,0,0:0:0:0:
475,192,45169,1,0,0:0:0:0:
256,192,45258,1,0,0:0:0:0:
329,192,45346,1,0,0:0:0:0:
182,192,45346,1,8,0:0:0:0:
36,192,45346,1,4,0:0:0:0:
182,192,45522,1,0,0:0:0:10:
182,192,45699,1,0,0:0:0:10:
182,192,45875,1,0,0:0:0:10:
182,192,46052,1,0,0:0:0:10:
182,192,46228,1,0,0:0:0:10:
182,192,46405,1,0,0:0:0:10:
182,192,46581,1,0,0:0:0:10:
402,192,46758,1,0,0:0:0:10:
402,192,46934,1,0,0:0:0:10:
402,192,47111,1,0,0:0:0:10:
402,192,47287,1,0,0:0:0:10:
402,192,47464,1,0,0:0:0:10:
402,192,47640,1,0,0:0:0:10:
402,192,47817,1,0,0:0:0:10:
402,192,47993,1,0,0:0:0:10:
109,192,48169,1,0,0:0:0:0:
109,192,48346,1,0,0:0:0:0:
109,192,48522,1,0,0:0:0:0:
109,192,48699,1,0,0:0:0:0:
109,192,48875,1,0,0:0:0:0:
109,192,49052,1,0,0:0:0:0:
109,192,49228,1,0,0:0:0:0:
109,192,49405,1,0,0:0:0:0:
402,192,49581,1,0,0:0:0:0:
402,192,49758,1,0,0:0:0:0:
402,192,49934,1,0,0:0:0:0:
402,192,50111,1,0,0:0:0:0:
329,192,50287,1,0,0:0:0:0:
329,192,50464,1,0,0:0:0:0:
329,192,50640,1,0,0:0:0:0:
329,192,50817,1,0,0:0:0:0:
256,192,50993,1,0,0:0:0:0:
36,192,50993,1,0,0:0:0:0:
256,192,51169,1,0,0:0:0:0:
256,192,51346,1,0,0:0:0:0:
256,192,51522,1,0,0:0:0:0:
256,192,51699,1,0,0:0:0:0:
256,192,51875,1,0,0:0:0:0:
256,192,52052,1,0,0:0:0:0:
256,192,52228,1,0,0:0:0:0:
475,192,52405,1,0,0:0:0:0:
109,192,52405,1,0,0:0:0:0:
475,192,52581,1,0,0:0:0:0:
475,192,52758,1,0,0:0:0:0:
475,192,52934,1,0,0:0:0:0:
475,192,53111,1,0,0:0:0:0:
475,192,53287,1,0,0:0:0:0:
475,192,53464,1,0,0:0:0:0:
475,192,53640,1,0,0:0:0:0:
182,192,53817,1,0,0:0:0:0:
182,192,53993,1,0,0:0:0:0:
182,192,54169,1,0,0:0:0:0:
182,192,54346,1,0,0:0:0:0:
36,192,54522,1,0,0:0:0:0:
36,192,54699,1,0,0:0:0:0:
36,192,54875,1,0,0:0:0:0:
36,192,55052,1,0,0:0:0:0:
475,192,55228,1,0,0:0:0:0:
475,192,55405,1,0,0:0:0:0:
475,192,55581,1,0,0:0:0:0:
475,192,55758,1,0,0:0:0:0:
402,192,55934,1,0,0:0:0:0:
402,192,56111,1,0,0:0:0:0:
402,192,56287,1,0,0:0:0:0:
402,192,56464,1,0,0:0:0:0:
109,192,56640,1,0,0:0:0:0:
329,192,56640,1,0,0:0:0:0:
109,192,56817,1,0,0:0:0:0:
109,192,56993,1,0,0:0:0:0:
109,192,57169,1,0,0:0:0:0:
109,192,57346,1,0,0:0:0:0:
109,192,57522,1,0,0:0:0:0:
109,192,57699,1,0,0:0:0:0:
109,192,57875,1,0,0:0:0:0:
402,192,58052,1,0,0:0:0:0:
256,192,58052,1,0,0:0:0:0:
402,192,58228,1,0,0:0:0:0:
402,192,58405,1,0,0:0:0:0:
402,192,58581,1,0,0:0:0:0:
402,192,58758,1,0,0:0:0:0:
402,192,58934,1,0,0:0:0:0:
402,192,59111,1,0,0:0:0:0:
402,192,59287,1,0,0:0:0:0:
256,192,59464,1,0,0:0:0:0:
109,192,59464,1,0,0:0:0:0:
256,192,59640,1,0,0:0:0:0:
256,192,59817,1,0,0:0:0:0:
256,192,59993,1,0,0:0:0:0:
256,192,60169,1,0,0:0:0:0:
256,192,60346,1,0,0:0:0:0:
256,192,60522,1,0,0:0:0:0:
256,192,60699,1,0,0:0:0:0:
475,192,60875,1,0,0:0:0:0:
475,192,61052,1,0,0:0:0:0:
475,192,61228,1,0,0:0:0:0:
475,192,61405,1,0,0:0:0:0:
109,192,61581,1,0,0:0:0:0:
109,192,61758,1,0,0:0:0:0:
109,192,61934,1,0,0:0:0:0:
109,192,62111,1,0,0:0:0:0:
182,192,62287,1,0,0:0:0:0:
329,192,62287,1,0,0:0:0:0:
182,192,62464,1,0,0:0:0:0:
182,192,62640,1,0,0:0:0:0:
182,192,62817,1,0,0:0:0:0:
182,192,62993,1,0,0:0:0:0:
182,192,63169,1,0,0:0:0:0:
182,192,63346,1,0,0:0:0:0:
182,192,63522,1,0,0:0:0:0:
329,192,63699,1,0,0:0:0:0:
109,192,63699,1,0,0:0:0:0:
329,192,63875,1,0,0:0:0:0:
329,192,64052,1,0,0:0:0:0:
329,192,64228,1,0,0:0:0:0:
329,192,64405,1,0,0:0:0:0:
329,192,64581,1,0,0:0:0:0:
329,192,64758,1,0,0:0:0:0:
329,192,64934,1,0,0:0:0:0:
36,192,65111,1,0,0:0:0:0:
402,192,65111,1,0,0:0:0:0:
36,192,65287,1,0,0:0:0:0:
36,192,65464,1,0,0:0:0:0:
36,192,65640,1,0,0:0:0:0:
36,192,65817,1,0,0:0:0:0:
36,192,65993,1,0,0:0:0:0:
36,192,66169,1,0,0:0:0:0:
36,192,66346,1,0,0:0:0:0:
402,192,66522,1,0,0:0:0:0:
402,192,66699,1,0,0:0:0:0:
402,192,66875,1,0,0:0:0:0:
402,192,67052,1,0,0:0:0:0:
475,192,67228,1,0,0:0:0:0:
475,192,67405,1,0,0:0:0:0:
475,192,67581,1,0,0:0:0:0:
475,192,67758,1,0,0:0:0:0:
402,192,67934,1,0,0:0:0:0:
256,192,67934,1,4,0:0:0:0:
109,192,67934,1,0,0:0:0:0:
182,192,68111,1,0,0:0:0:0:
109,192,68287,1,0,0:0:0:0:
329,192,68287,1,0,0:0:0:0:
182,192,68464,1,0,0:0:0:0:
109,192,68640,1,0,0:0:0:0:
475,192,68640,1,0,0:0:0:0:
182,192,68817,1,0,0:0:0:0:
402,192,68817,1,0,0:0:0:0:
109,192,68993,1,0,0:0:0:0:
182,192,69169,1,0,0:0:0:0:
329,192,69169,1,0,0:0:0:0:
475,192,69346,1,0,0:0:0:0:
36,192,69346,1,0,0:0:0:0:
402,192,69522,1,0,0:0:0:0:
256,192,69522,1,0,0:0:0:0:
475,192,69699,1,0,0:0:0:0:
402,192,69875,1,0,0:0:0:0:
182,192,69875,1,0,0:0:0:0:
36,192,70052,1,0,0:0:0:0:
329,192,70052,1,0,0:0:0:0:
109,192,70228,1,0,0:0:0:0:
256,192,70228,1,0,0:0:0:0:
36,192,70405,1,0,0:0:0:0:
402,192,70405,1,0,0:0:0:0:
109,192,70581,1,0,0:0:0:0:
475,192,70581,1,0,0:0:0:0:
329,192,70758,1,0,0:0:0:0:
36,192,70758,1,0,0:0:0:0:
182,192,70758,1,0,0:0:0:0:
256,192,70934,1,0,0:0:0:0:
329,192,71111,1,0,0:0:0:0:
475,192,71111,1,0,0:0:0:0:
182,192,71287,1,0,0:0:0:0:
402,192,71464,1,0,0:0:0:0:
256,192,71464,1,0,0:0:0:0:
109,192,71640,1,0,0:0:0:0:
329,192,71640,1,0,0:0:0:0:
402,192,71817,1,0,0:0:0:0:
475,192,71993,1,0,0:0:0:0:
256,192,71993,1,0,0:0:0:0:
36,192,72169,1,0,0:0:0:0:
329,192,72346,1,0,0:0:0:0:
182,192,72346,1,0,0:0:0:0:
36,192,72522,1,0,0:0:0:0:
402,192,72699,1,0,0:0:0:0:
182,192,72699,1,0,0:0:0:0:
329,192,72875,1,0,0:0:0:0:
109,192,72875,1,0,0:0:0:0:
475,192,73052,1,0,0:0:0:0:
36,192,73052,1,0,0:0:0:0:
402,192,73228,1,0,0:0:0:0:
109,192,73228,1,0,0:0:0:0:
475,192,73405,1,0,0:0:0:0:
36,192,73405,1,0,0:0:0:0:
256,192,73581,128,0,74993:0:0:0:0:
109,192,73581,1,0,0:0:0:0:
402,192,73581,1,0,0:0:0:0:
402,192,73758,1,0,0:0:0:0:
329,192,73934,1,0,0:0:0:0:
182,192,73934,1,0,0:0:0:0:
182,192,74111,1,0,0:0:0:0:
475,192,74287,1,0,0:0:0:0:
36,192,74287,1,0,0:0:0:0:
402,192,74464,1,0,0:0:0:0:
36,192,74464,1,0,0:0:0:0:
182,192,74640,1,0,0:0:0:0:
109,192,74817,1,0,0:0:0:0:
182,192,74817,1,0,0:0:0:0:
475,192,74993,128,0,76405:0:0:0:0:
329,192,74993,1,0,0:0:0:0:
182,192,75169,1,0,0:0:0:0:
109,192,75169,1,0,0:0:0:0:
329,192,75346,1,0,0:0:0:0:
256,192,75522,1,0,0:0:0:0:
182,192,75522,1,0,0:0:0:0:
402,192,75699,1,0,0:0:0:0:
109,192,75699,1,0,0:0:0:0:
329,192,75875,1,0,0:0:0:0:
36,192,75875,1,0,0:0:0:0:
182,192,76052,1,0,0:0:0:0:
109,192,76052,1,0,0:0:0:0:
256,192,76228,1,0,0:0:0:0:
36,192,76228,1,0,0:0:0:0:
109,192,76405,128,0,79228:0:0:0:0:
329,192,76405,1,0,0:0:0:0:
182,192,76405,1,0,0:0:0:0:
329,192,76581,1,0,0:0:0:0:
402,192,76758,1,0,0:0:0:0:
256,192,76758,1,0,0:0:0:0:
402,192,76934,1,0,0:0:0:0:
329,192,77111,1,0,0:0:0:0:
475,192,77111,1,0,0:0:0:0:
329,192,77287,1,0,0:0:0:0:
182,192,77287,1,0,0:0:0:0:
402,192,77464,1,0,0:0:0:0:
402,192,77640,1,0,0:0:0:0:
36,192,77640,1,0,0:0:0:0:
475,192,77817,1,0,0:0:0:0:
182,192,77993,1,0,0:0:0:0:
402,192,77993,1,0,0:0:0:0:
475,192,78169,1,0,0:0:0:0:
402,192,78346,1,0,0:0:0:0:
329,192,78346,1,0,0:0:0:0:
256,192,78522,1,0,0:0:0:0:
475,192,78522,1,0,0:0:0:0:
329,192,78699,1,0,0:0:0:0:
402,192,78699,1,0,0:0:0:0:
256,192,78875,1,0,0:0:0:0:
36,192,78875,1,0,0:0:0:0:
329,192,79052,1,0,0:0:0:0:
475,192,79052,1,0,0:0:0:0:
402,192,79228,128,0,80640:0:0:0:0:
256,192,79228,1,0,0:0:0:0:
36,192,79228,1,0,0:0:0:0:
36,192,79405,1,0,0:0:0:0:
182,192,79581,1,0,0:0:0:0:
329,192,79581,1,0,0:0:0:0:
329,192,79758,1,0,0:0:0:0:
475,192,79934,1,0,0:0:0:0:
109,192,79934,1,0,0:0:0:0:
329,192,80111,1,0,0:0:0:0:
182,192,80111,1,0,0:0:0:0:
109,192,80287,1,0,0:0:0:0:
36,192,80464,1,0,0:0:0:0:
256,192,80464,1,0,0:0:0:0:
182,192,80640,128,0,82052:0:0:0:0:
475,192,80640,1,0,0:0:0:0:
329,192,80817,1,0,0:0:0:0:
36,192,80817,1,0,0:0:0:0:
475,192,80993,1,0,0:0:0:0:
402,192,81169,1,0,0:0:0:0:
36,192,81169,1,0,0:0:0:0:
475,192,81346,1,0,0:0:0:0:
109,192,81346,1,0,0:0:0:0:
402,192,81522,1,0,0:0:0:0:
36,192,81522,1,0,0:0:0:0:
329,192,81699,1,0,0:0:0:0:
109,192,81699,1,0,0:0:0:0:
402,192,81875,1,0,0:0:0:0:
256,192,81875,1,0,0:0:0:0:
36,192,82052,128,0,84875:0:0:0:0:
329,192,82052,1,0,0:0:0:0:
475,192,82052,1,0,0:0:0:0:
182,192,82228,1,0,0:0:0:0:
256,192,82405,1,0,0:0:0:0:
402,192,82405,1,0,0:0:0:0:
182,192,82581,1,0,0:0:0:0:
329,192,82758,1,0,0:0:0:0:
475,192,82758,1,0,0:0:0:0:
182,192,82934,1,0,0:0:0:0:
402,192,82934,1,0,0:0:0:0:
475,192,83111,1,0,0:0:0:0:
109,192,83287,1,0,0:0:0:0:
402,192,83287,1,0,0:0:0:0:
329,192,83464,1,0,0:0:0:0:
182,192,83640,1,0,0:0:0:0:
402,192,83640,1,0,0:0:0:0:
329,192,83817,1,0,0:0:0:0:
256,192,83993,1,0,0:0:0:0:
402,192,83993,1,0,0:0:0:0:
329,192,84169,1,0,0:0:0:0:
109,192,84169,1,0,0:0:0:0:
402,192,84346,1,0,0:0:0:0:
182,192,84346,1,0,0:0:0:0:
475,192,84522,1,0,0:0:0:0:
109,192,84522,1,0,0:0:0:0:
402,192,84699,1,0,0:0:0:0:
182,192,84699,1,0,0:0:0:0:
256,192,84875,1,0,0:0:0:0:
329,192,84875,1,0,0:0:0:0:
109,192,85228,1,0,0:0:0:0:
402,192,85228,1,0,0:0:0:0:
36,192,85581,1,0,0:0:0:0:
475,192,85581,1,0,0:0:0:0:
109,192,85758,1,0,0:0:0:0:
402,192,85758,1,0,0:0:0:0:
256,192,86111,1,0,0:0:0:0:
329,192,86111,1,0,0:0:0:0:
256,192,86464,1,0,0:0:0:0:
182,192,86464,1,0,0:0:0:0:
256,192,86817,1,0,0:0:0:0:
109,192,86817,1,0,0:0:0:0:
329,192,86993,1,0,0:0:0:0:
402,192,86993,1,0,0:0:0:0:
182,192,87169,1,0,0:0:0:0:
109,192,87169,1,0,0:0:0:0:
402,192,87346,1,0,0:0:0:0:
475,192,87346,1,0,0:0:0:0:
109,192,87522,1,0,0:0:0:0:
36,192,87522,1,0,0:0:0:0:
402,192,87699,1,0,0:0:0:0:
256,192,87699,1,0,0:0:0:0:
256,192,88052,1,0,0:0:0:0:
109,192,88052,1,0,0:0:0:0:
182,192,88405,1,0,0:0:0:0:
475,192,88405,1,0,0:0:0:0:
329,192,88581,1,0,0:0:0:0:
36,192,88581,1,0,0:0:0:0:
109,192,88934,1,0,0:0:0:0:
329,192,88934,1,0,0:0:0:0:
182,192,89287,1,0,0:0:0:0:
402,192,89287,1,0,0:0:0:0:
256,192,89640,1,0,0:0:0:0:
475,192,89640,1,0,0:0:0:0:
36,192,89817,1,0,0:0:0:0:
256,192,89817,1,0,0:0:0:0:
402,192,89993,1,0,0:0:0:0:
109,192,89993,1,0,0:0:0:0:
329,192,90169,1,0,0:0:0:0:
182,192,90169,1,0,0:0:0:0:
475,192,90346,1,0,0:0:0:0:
36,192,90346,1,0,0:0:0:0:
402,192,90522,1,0,0:0:0:0:
329,192,90522,1,4,0:0:0:0:
109,192,90522,1,0,0:0:0:0:
182,192,90522,1,8,0:0:0:0:
402,192,90875,1,0,0:0:0:0:
182,192,90875,1,0,0:0:0:0:
36,192,90875,1,8,0:0:0:0:
329,192,90875,1,0,0:0:0:0:
475,192,91228,1,0,0:0:0:0:
329,192,91228,1,0,0:0:0:0:
36,192,91228,1,8,0:0:0:0:
109,192,91228,1,0,0:0:0:0:
402,192,91405,1,0,0:0:0:0:
182,192,91405,1,0,0:0:0:0:
36,192,91581,1,8,0:0:0:0:
475,192,91581,1,0,0:0:0:0:
256,192,91758,1,0,0:0:0:0:
109,192,91758,1,0,0:0:0:0:
329,192,91934,1,0,0:0:0:0:
475,192,91934,1,8,0:0:0:0:
109,192,92111,1,0,0:0:0:0:
402,192,92111,1,0,0:0:0:0:
36,192,92287,1,8,0:0:0:0:
256,192,92287,1,0,0:0:0:0:
182,192,92464,1,0,0:0:0:0:
475,192,92464,1,0,0:0:0:0:
36,192,92640,1,8,0:0:0:0:
329,192,92640,1,0,0:0:0:0:
256,192,92640,1,0,0:0:0:0:
475,192,92640,1,0,0:0:0:0:
109,192,92817,1,0,0:0:0:0:
402,192,92817,1,0,0:0:0:0:
182,192,92993,1,0,0:0:0:0:
329,192,92993,1,0,0:0:0:0:
36,192,92993,1,8,0:0:0:0:
256,192,92993,1,0,0:0:0:0:
109,192,93169,1,0,0:0:0:0:
475,192,93169,1,0,0:0:0:0:
329,192,93346,1,0,0:0:0:0:
36,192,93346,1,8,0:0:0:0:
182,192,93346,1,0,0:0:0:0:
402,192,93346,1,0,0:0:0:0:
475,192,93699,1,8,0:0:0:0:
402,192,93699,1,0,0:0:0:0:
109,192,93699,1,0,0:0:0:0:
256,192,93699,1,0,0:0:0:0:
36,192,94052,1,0,0:0:0:0:
475,192,94052,1,8,0:0:0:0:
402,192,94052,1,0,0:0:0:0:
256,192,94052,1,0,0:0:0:0:
109,192,94228,1,0,0:0:0:0:
329,192,94228,1,0,0:0:0:0:
36,192,94405,1,8,0:0:0:0:
182,192,94405,1,0,0:0:0:0:
402,192,94581,1,0,0:0:0:0:
256,192,94581,1,0,0:0:0:0:
182,192,94758,1,0,0:0:0:0:
36,192,94758,1,8,0:0:0:0:
329,192,94934,1,0,0:0:0:0:
475,192,94934,1,0,0:0:0:0:
36,192,95111,1,8,0:0:0:0:
182,192,95111,1,0,0:0:0:0:
109,192,95287,1,0,0:0:0:0:
475,192,95287,1,0,0:0:0:0:
36,192,95464,1,8,0:0:0:0:
182,192,95464,1,0,0:0:0:0:
256,192,95464,1,0,0:0:0:0:
402,192,95464,1,0,0:0:0:0:
475,192,95640,1,0,0:0:0:0:
109,192,95640,1,0,0:0:0:0:
182,192,95817,1,0,0:0:0:0:
402,192,95817,1,0,0:0:0:0:
475,192,95817,1,0,0:0:0:0:
36,192,95817,1,8,0:0:0:0:
329,192,95993,1,0,0:0:0:0:
109,192,95993,1,0,0:0:0:0:
475,192,96169,1,8,0:0:0:0:
182,192,96169,1,0,0:0:0:0:
256,192,96169,1,0,0:0:0:0:
402,192,96169,1,0,0:0:0:0:
182,192,96522,1,0,0:0:0:0:
475,192,96522,1,8,0:0:0:0:
36,192,96522,1,0,0:0:0:0:
329,192,96522,1,0,0:0:0:0:
182,192,96875,1,0,0:0:0:0:
475,192,96875,1,8,0:0:0:0:
402,192,96875,1,0,0:0:0:0:
329,192,96875,1,0,0:0:0:0:
256,192,97052,1,0,0:0:0:0:
36,192,97052,1,0,0:0:0:0:
182,192,97228,1,0,0:0:0:0:
475,192,97228,1,8,0:0:0:0:
256,192,97405,1,0,0:0:0:0:
402,192,97405,1,0,0:0:0:0:
329,192,97581,1,8,0:0:0:0:
109,192,97581,1,0,0:0:0:0:
182,192,97758,1,0,0:0:0:0:
402,192,97758,1,0,0:0:0:0:
109,192,97934,1,0,0:0:0:0:
329,192,97934,1,8,0:0:0:0:
36,192,98111,1,0,0:0:0:0:
475,192,98111,1,0,0:0:0:0:
109,192,98287,1,0,0:0:0:0:
329,192,98287,1,8,0:0:0:0:
182,192,98287,1,0,0:0:0:0:
402,192,98287,1,0,0:0:0:0:
256,192,98464,1,0,0:0:0:0:
36,192,98464,1,0,0:0:0:0:
109,192,98640,1,0,0:0:0:0:
329,192,98640,1,8,0:0:0:0:
475,192,98640,1,0,0:0:0:0:
182,192,98640,1,0,0:0:0:0:
256,192,98817,1,0,0:0:0:0:
402,192,98817,1,0,0:0:0:0:
475,192,98993,1,8,0:0:0:0:
182,192,98993,1,0,0:0:0:0:
329,192,98993,1,0,0:0:0:0:
109,192,98993,1,0,0:0:0:0:
36,192,99346,1,0,0:0:0:0:
256,192,99346,1,8,0:0:0:0:
182,192,99346,1,0,0:0:0:0:
402,192,99346,1,0,0:0:0:0:
36,192,99699,1,0,0:0:0:0:
256,192,99699,1,8,0:0:0:0:
475,192,99699,1,0,0:0:0:0:
329,192,99699,1,0,0:0:0:0:
402,192,99875,1,0,0:0:0:0:
182,192,99875,1,0,0:0:0:0:
36,192,100052,1,0,0:0:0:0:
256,192,100052,1,8,0:0:0:0:
109,192,100228,1,0,0:0:0:0:
402,192,100228,1,0,0:0:0:0:
475,192,100405,1,0,0:0:0:0:
329,192,100405,1,8,0:0:0:0:
36,192,100581,1,0,0:0:0:0:
182,192,100581,1,0,0:0:0:0:
329,192,100758,1,8,0:0:0:0:
475,192,100758,1,0,0:0:0:0:
109,192,100934,1,0,0:0:0:0:
256,192,100934,1,0,0:0:0:0:
329,192,101111,1,8,0:0:0:0:
475,192,101111,1,0,0:0:0:0:
182,192,101111,1,0,0:0:0:0:
402,192,101111,1,0,0:0:0:0:
36,192,101287,1,0,0:0:0:0:
256,192,101287,1,0,0:0:0:0:
329,192,101464,1,8,0:0:0:0:
475,192,101464,1,0,0:0:0:0:
109,192,101464,1,0,0:0:0:0:
402,192,101464,1,0,0:0:0:0:
36,192,101640,1,0,0:0:0:0:
475,192,101640,1,0,0:0:0:0:
329,192,101817,1,8,0:0:0:0:
182,192,101817,1,4,0:0:0:0:
109,192,101817,1,0,0:0:0:0:
402,192,101817,1,0,0:0:0:0:
256,192,101817,1,0,0:0:0:0:
475,192,101993,1,0,0:0:0:0:
36,192,102169,1,0,0:0:0:0:
402,192,102169,1,0,0:0:0:0:
182,192,102169,1,0,0:0:0:0:
329,192,102169,1,8,0:0:0:0:
475,192,102346,1,0,0:0:0:0:
109,192,102522,1,8,0:0:0:0:
402,192,102522,1,0,0:0:0:0:
182,192,102522,1,0,0:0:0:0:
36,192,102522,1,0,0:0:0:0:
329,192,102699,1,0,0:0:0:0:
256,192,102699,1,0,0:0:0:0:
109,192,102875,1,0,0:0:0:0:
402,192,102875,1,0,0:0:0:0:
182,192,102875,1,8,0:0:0:0:
36,192,103052,1,0,0:0:0:0:
475,192,103052,1,0,0:0:0:0:
182,192,103228,1,8,0:0:0:0:
402,192,103228,1,0,0:0:0:0:
36,192,103228,1,0,0:0:0:0:
109,192,103405,1,0,0:0:0:0:
329,192,103405,1,0,0:0:0:0:
182,192,103581,1,8,0:0:0:0:
402,192,103581,1,0,0:0:0:0:
475,192,103581,1,0,0:0:0:0:
36,192,103758,1,0,0:0:0:0:
329,192,103758,1,0,0:0:0:0:
475,192,103934,1,0,0:0:0:0:
182,192,103934,1,8,0:0:0:0:
109,192,103934,1,0,0:0:0:0:
402,192,103934,1,0,0:0:0:0:
36,192,104111,1,0,0:0:0:0:
329,192,104111,1,0,0:0:0:0:
475,192,104287,1,0,0:0:0:0:
182,192,104287,1,8,0:0:0:0:
109,192,104287,1,0,0:0:0:0:
36,192,104287,1,0,0:0:0:0:
109,192,104464,1,0,0:0:0:0:
402,192,104464,1,0,0:0:0:0:
182,192,104640,1,0,0:0:0:0:
475,192,104640,1,0,0:0:0:0:
256,192,104640,1,0,0:0:0:0:
329,192,104640,1,8,0:0:0:0:
109,192,104817,1,0,0:0:0:0:
182,192,104993,1,0,0:0:0:0:
475,192,104993,1,0,0:0:0:0:
329,192,104993,1,8,0:0:0:0:
36,192,104993,1,0,0:0:0:0:
402,192,105169,1,0,0:0:0:0:
329,192,105346,1,8,0:0:0:0:
182,192,105346,1,0,0:0:0:0:
475,192,105346,1,0,0:0:0:0:
256,192,105346,1,0,0:0:0:0:
109,192,105522,1,0,0:0:0:0:
402,192,105522,1,0,0:0:0:0:
402,192,105699,1,0,0:0:0:0:
36,192,105699,1,0,0:0:0:0:
182,192,105699,1,8,0:0:0:0:
329,192,105875,1,0,0:0:0:0:
109,192,105875,1,0,0:0:0:0:
475,192,106052,1,0,0:0:0:0:
36,192,106052,1,0,0:0:0:0:
256,192,106052,1,8,0:0:0:0:
109,192,106228,1,0,0:0:0:0:
402,192,106228,1,0,0:0:0:0:
36,192,106405,1,0,0:0:0:0:
475,192,106405,1,0,0:0:0:0:
182,192,106405,1,8,0:0:0:0:
402,192,106581,1,0,0:0:0:0:
109,192,106581,1,0,0:0:0:0:
329,192,106758,1,0,0:0:0:0:
182,192,106758,1,8,0:0:0:0:
36,192,106758,1,0,0:0:0:0:
402,192,106758,1,0,0:0:0:0:
475,192,106934,1,0,0:0:0:0:
256,192,106934,1,0,0:0:0:0:
36,192,107111,1,0,0:0:0:0:
329,192,107111,1,8,0:0:0:0:
475,192,107111,1,0,0:0:0:0:
182,192,107111,1,0,0:0:0:0:
109,192,107287,1,0,0:0:0:0:
256,192,107287,1,0,0:0:0:0:
329,192,107464,1,0,0:0:0:0:
402,192,107464,1,8,0:0:0:0:
475,192,107464,128,0,107640:0:0:0:0:
256,192,107552,1,0,0:0:0:0:
109,192,107640,1,0,0:0:0:0:
256,192,107728,1,0,0:0:0:0:
475,192,107817,1,0,0:0:0:0:
182,192,107817,1,8,0:0:0:0:
36,192,107817,128,0,107993:0:0:0:0:
329,192,107905,1,0,0:0:0:0:
182,192,107993,1,0,0:0:0:0:
329,192,108081,1,0,0:0:0:0:
36,192,108169,1,8,0:0:0:0:
109,192,108169,1,0,0:0:0:0:
475,192,108169,128,0,108522:0:0:0:0:
256,192,108258,1,0,0:0:0:0:
109,192,108346,1,0,0:0:0:0:
329,192,108346,128,0,108522:0:0:0:0:
256,192,108434,1,0,0:0:0:0:
182,192,108522,1,0,0:0:0:0:
36,192,108522,1,8,0:0:0:0:
402,192,108611,1,0,0:0:0:0:
109,192,108699,1,0,0:0:0:0:
36,192,108699,128,0,108875:0:0:0:0:
256,192,108787,1,0,0:0:0:0:
402,192,108875,1,8,0:0:0:0:
475,192,108875,1,0,0:0:0:0:
182,192,108964,1,0,0:0:0:0:
36,192,109052,1,0,0:0:0:0:
475,192,109052,128,0,109228:0:0:0:0:
329,192,109140,1,0,0:0:0:0:
182,192,109228,1,8,0:0:0:0:
402,192,109228,1,0,0:0:0:0:
36,192,109317,1,0,0:0:0:0:
475,192,109405,1,0,0:0:0:0:
256,192,109405,128,0,109581:0:0:0:0:
329,192,109493,1,0,0:0:0:0:
182,192,109581,1,0,0:0:0:0:
36,192,109581,128,0,109758:0:0:0:0:
402,192,109669,1,0,0:0:0:0:
475,192,109758,1,0,0:0:0:0:
256,192,109758,128,0,109934:0:0:0:0:
109,192,109846,1,0,0:0:0:0:
329,192,109934,1,0,0:0:0:0:
36,192,109934,1,0,0:0:0:0:
475,192,109934,128,0,110111:0:0:0:0:
182,192,110022,1,0,0:0:0:0:
329,192,110111,1,0,0:0:0:0:
36,192,110111,128,0,110287:0:0:0:0:
256,192,110199,1,0,0:0:0:0:
329,192,110287,1,0,0:0:0:0:
109,192,110287,128,0,110464:0:0:0:0:
475,192,110375,1,0,0:0:0:0:
329,192,110464,1,0,0:0:0:0:
182,192,110552,1,0,0:0:0:0:
36,192,110640,1,0,0:0:0:0:
402,192,110640,128,0,110817:0:0:0:0:
109,192,110728,1,0,0:0:0:0:
256,192,110817,1,0,0:0:0:0:
329,192,110905,1,0,0:0:0:0:
182,192,110993,1,0,0:0:0:0:
475,192,110993,128,0,111346:0:0:0:0:
36,192,111081,1,0,0:0:0:0:
109,192,111169,1,0,0:0:0:0:
402,192,111169,128,0,111346:0:0:0:0:
182,192,111258,1,0,0:0:0:0:
256,192,111346,1,0,0:0:0:0:
329,192,111434,1,0,0:0:0:0:
402,192,111522,1,0,0:0:0:0:
109,192,111522,128,0,111699:0:0:0:0:
475,192,111611,1,0,0:0:0:0:
402,192,112405,1,0,0:0:0:0:
475,192,112493,1,0,0:0:0:0:
36,192,112581,1,0,0:0:0:0:
109,192,112669,1,0,0:0:0:0:
402,192,112758,1,0,0:0:0:0:
329,192,112846,1,0,0:0:0:0:
182,192,112934,1,0,0:0:0:0:
402,192,113022,1,0,0:0:0:0:
475,192,113111,1,0,0:0:0:0:
36,192,113111,1,0,0:0:0:0:
256,192,113111,1,0,0:0:0:0:
329,192,113287,1,0,0:0:0:0:
109,192,113287,1,0,0:0:0:0:
402,192,113464,1,0,0:0:0:0:
36,192,113464,1,0,0:0:0:0:
182,192,113464,1,0,0:0:0:0:
475,192,113464,1,8,0:0:0:0:
109,192,113640,1,0,0:0:0:0:
329,192,113640,1,0,0:0:0:0:
475,192,113817,1,0,0:0:0:0:
256,192,113817,1,0,0:0:0:0:
36,192,113817,1,0,0:0:0:0:
329,192,113993,1,0,0:0:0:0:
182,192,113993,1,0,0:0:0:0:
402,192,114169,1,8,0:0:0:0:
36,192,114169,1,0,0:0:0:0:
36,192,114346,1,0,0:0:0:0:
182,192,114346,1,0,0:0:0:0:
256,192,114346,1,0,0:0:0:0:
329,192,114346,1,0,0:0:0:0:
475,192,114522,1,0,0:0:0:0:
402,192,114699,1,0,0:0:0:0:
109,192,114699,1,0,0:0:0:0:
256,192,114699,1,0,0:0:0:0:
182,192,114699,1,0,0:0:0:0:
36,192,114875,1,0,0:0:0:0:
475,192,114875,1,8,0:0:0:0:
402,192,115052,1,0,0:0:0:0:
329,192,115052,1,0,0:0:0:0:
182,192,115052,1,0,0:0:0:0:
109,192,115052,1,0,0:0:0:0:
256,192,115228,1,0,0:0:0:0:
475,192,115228,1,0,0:0:0:0:
36,192,115228,1,0,0:0:0:0:
329,192,115405,1,0,0:0:0:0:
182,192,115405,1,0,0:0:0:0:
109,192,115405,1,0,0:0:0:0:
402,192,115405,1,0,0:0:0:0:
256,192,115581,1,0,0:0:0:0:
36,192,115581,1,0,0:0:0:0:
329,192,115581,1,0,0:0:0:0:
475,192,115581,1,8,0:0:0:0:
109,192,115758,1,0,0:0:0:0:
182,192,115758,1,0,0:0:0:0:
402,192,115758,1,0,0:0:0:0:
256,192,115758,1,0,0:0:0:0:
36,192,115934,1,0,0:0:0:0:
182,192,115934,1,0,0:0:0:0:
329,192,115934,1,0,0:0:0:0:
256,192,116111,1,0,0:0:0:0:
402,192,116111,1,0,0:0:0:0:
182,192,116287,1,0,0:0:0:0:
475,192,116287,1,8,0:0:0:0:
36,192,116287,1,0,0:0:0:0:
329,192,116287,1,0,0:0:0:0:
256,192,116464,1,0,0:0:0:0:
109,192,116464,1,0,0:0:0:0:
329,192,116640,1,0,0:0:0:0:
402,192,116640,1,0,0:0:0:0:
475,192,116640,1,0,0:0:0:0:
182,192,116817,1,0,0:0:0:0:
109,192,116817,1,0,0:0:0:0:
256,192,116817,1,0,0:0:0:0:
36,192,116817,1,0,0:0:0:0:
475,192,116993,1,8,0:0:0:0:
329,192,116993,1,0,0:0:0:0:
36,192,117169,1,0,0:0:0:0:
109,192,117169,1,0,0:0:0:0:
256,192,117169,1,0,0:0:0:0:
402,192,117169,1,0,0:0:0:0:
182,192,117346,1,0,0:0:0:0:
329,192,117522,1,0,0:0:0:0:
402,192,117522,1,0,0:0:0:0:
109,192,117522,1,0,0:0:0:0:
256,192,117522,1,0,0:0:0:0:
475,192,117699,1,8,0:0:0:0:
36,192,117699,1,0,0:0:0:0:
182,192,117875,1,0,0:0:0:0:
329,192,117875,1,0,0:0:0:0:
256,192,117875,1,0,0:0:0:0:
109,192,117875,1,0,0:0:0:0:
36,192,118052,1,0,0:0:0:0:
329,192,118052,1,0,0:0:0:0:
402,192,118052,1,0,0:0:0:0:
182,192,118228,1,0,0:0:0:0:
475,192,118228,1,0,0:0:0:0:
256,192,118228,1,0,0:0:0:0:
109,192,118228,1,0,0:0:0:0:
402,192,118405,1,0,0:0:0:0:
36,192,118405,1,0,0:0:0:0:
329,192,118405,1,0,0:0:0:0:
475,192,118405,1,8,0:0:0:0:
329,192,118581,1,0,0:0:0:0:
182,192,118581,1,0,0:0:0:0:
256,192,118581,1,0,0:0:0:0:
36,192,118581,1,0,0:0:0:0:
475,192,118758,1,0,0:0:0:0:
109,192,118758,1,0,0:0:0:0:
402,192,118758,1,0,0:0:0:0:
402,192,118934,1,0,0:0:0:0:
256,192,118934,1,0,0:0:0:0:
36,192,119111,1,0,0:0:0:0:
182,192,119111,1,0,0:0:0:0:
329,192,119111,1,0,0:0:0:0:
475,192,119111,1,8,0:0:0:0:
256,192,119287,1,0,0:0:0:0:
109,192,119287,1,0,0:0:0:0:
402,192,119464,1,0,0:0:0:0:
36,192,119464,1,0,0:0:0:0:
475,192,119464,1,0,0:0:0:0:
109,192,119640,1,0,0:0:0:0:
256,192,119640,1,0,0:0:0:0:
329,192,119640,1,0,0:0:0:0:
182,192,119640,1,0,0:0:0:0:
475,192,119817,1,8,0:0:0:0:
402,192,119817,1,0,0:0:0:0:
36,192,119993,1,0,0:0:0:0:
182,192,119993,1,0,0:0:0:0:
329,192,119993,1,0,0:0:0:0:
109,192,119993,1,0,0:0:0:0:
402,192,120169,1,0,0:0:0:0:
256,192,120346,1,0,0:0:0:0:
475,192,120346,1,0,0:0:0:0:
109,192,120346,1,0,0:0:0:0:
329,192,120346,1,0,0:0:0:0:
36,192,120522,1,0,0:0:0:0:
182,192,120522,1,8,0:0:0:0:
329,192,120699,1,0,0:0:0:0:
109,192,120699,1,0,0:0:0:0:
402,192,120699,1,0,0:0:0:0:
256,192,120699,1,0,0:0:0:0:
475,192,120875,1,0,0:0:0:0:
256,192,120875,1,0,0:0:0:0:
36,192,120875,1,0,0:0:0:0:
402,192,121052,1,0,0:0:0:0:
182,192,121052,1,0,0:0:0:0:
109,192,121052,1,0,0:0:0:0:
329,192,121052,1,0,0:0:0:0:
36,192,121228,1,0,0:0:0:0:
256,192,121228,1,0,0:0:0:0:
402,192,121228,1,8,0:0:0:0:
182,192,121228,1,0,0:0:0:0:
109,192,121405,1,0,0:0:0:0:
329,192,121405,1,0,0:0:0:0:
475,192,121405,1,0,0:0:0:0:
256,192,121405,1,0,0:0:0:0:
36,192,121581,1,0,0:0:0:0:
182,192,121581,1,0,0:0:0:0:
329,192,121581,1,0,0:0:0:0:
475,192,121758,1,0,0:0:0:0:
109,192,121758,1,0,0:0:0:0:
36,192,121934,1,0,0:0:0:0:
329,192,121934,1,0,0:0:0:0:
256,192,121934,1,0,0:0:0:0:
402,192,121934,1,8,0:0:0:0:
109,192,122111,1,0,0:0:0:0:
475,192,122111,1,0,0:0:0:0:
402,192,122287,1,0,0:0:0:0:
182,192,122287,1,0,0:0:0:0:
256,192,122287,1,0,0:0:0:0:
329,192,122464,1,0,0:0:0:0:
36,192,122464,1,0,0:0:0:0:
109,192,122464,1,0,0:0:0:0:
475,192,122464,1,0,0:0:0:0:
402,192,122640,1,8,0:0:0:0:
182,192,122640,1,0,0:0:0:0:
36,192,122817,1,0,0:0:0:0:
256,192,122817,1,0,0:0:0:0:
475,192,122817,1,0,0:0:0:0:
329,192,122817,1,0,0:0:0:0:
182,192,122993,1,0,0:0:0:0:
402,192,123169,1,0,0:0:0:0:
256,192,123169,1,0,0:0:0:0:
109,192,123169,1,0,0:0:0:0:
36,192,123169,1,0,0:0:0:0:
475,192,123346,1,8,0:0:0:0:
182,192,123346,1,0,0:0:0:0:
109,192,123522,1,0,0:0:0:0:
329,192,123522,1,0,0:0:0:0:
256,192,123522,1,0,0:0:0:0:
402,192,123522,1,0,0:0:0:0:
36,192,123699,1,0,0:0:0:0:
182,192,123699,1,0,0:0:0:0:
329,192,123699,1,0,0:0:0:0:
256,192,123875,1,0,0:0:0:0:
402,192,123875,1,0,0:0:0:0:
109,192,123875,1,0,0:0:0:0:
475,192,123875,1,0,0:0:0:0:
36,192,124052,1,0,0:0:0:0:
182,192,124052,1,0,0:0:0:0:
329,192,124052,1,8,0:0:0:0:
109,192,124052,1,0,0:0:0:0:
329,192,124228,1,0,0:0:0:0:
475,192,124228,1,0,0:0:0:0:
256,192,124228,1,0,0:0:0:0:
182,192,124228,1,0,0:0:0:0:
36,192,124405,1,0,0:0:0:0:
109,192,124405,1,0,0:0:0:0:
402,192,124405,1,0,0:0:0:0:
182,192,124581,1,0,0:0:0:0:
329,192,124581,1,0,0:0:0:0:
256,192,124758,1,0,0:0:0:0:
475,192,124758,1,8,0:0:0:0:
109,192,124758,1,0,0:0:0:0:
402,192,124758,1,0,0:0:0:0:
182,192,124934,1,0,0:0:0:0:
329,192,124934,1,0,0:0:0:0:
475,192,125111,1,0,0:0:0:0:
36,192,125111,1,0,0:0:0:0:
109,192,125111,1,0,0:0:0:0:
402,192,125287,1,0,0:0:0:0:
256,192,125287,1,0,0:0:0:0:
329,192,125287,1,0,0:0:0:0:
109,192,125287,1,0,0:0:0:0:
182,192,125464,1,0,0:0:0:0:
475,192,125464,1,8,0:0:0:0:
36,192,125640,1,0,0:0:0:0:
256,192,125640,1,0,0:0:0:0:
402,192,125640,1,0,0:0:0:0:
109,192,125640,1,0,0:0:0:0:
475,192,125817,1,0,0:0:0:0:
182,192,125993,1,0,0:0:0:0:
329,192,125993,1,0,0:0:0:0:
402,192,125993,1,0,0:0:0:0:
109,192,125993,1,0,0:0:0:0:
36,192,126169,1,8,0:0:0:0:
256,192,126169,1,0,0:0:0:0:
402,192,126346,1,0,0:0:0:0:
182,192,126346,1,0,0:0:0:0:
36,192,126346,1,0,0:0:0:0:
109,192,126346,1,0,0:0:0:0:
475,192,126522,1,0,0:0:0:0:
329,192,126522,1,0,0:0:0:0:
182,192,126522,1,0,0:0:0:0:
402,192,126699,1,0,0:0:0:0:
256,192,126699,1,0,0:0:0:0:
109,192,126699,1,0,0:0:0:0:
329,192,126699,1,0,0:0:0:0:
36,192,126875,1,0,0:0:0:0:
182,192,126875,1,0,0:0:0:0:
475,192,126875,1,8,0:0:0:0:
402,192,126875,1,0,0:0:0:0:
109,192,127052,1,0,0:0:0:0:
256,192,127052,1,0,0:0:0:0:
329,192,127052,1,0,0:0:0:0:
475,192,127052,1,0,0:0:0:0:
36,192,127228,1,0,0:0:0:0:
182,192,127228,1,0,0:0:0:0:
402,192,127228,1,0,0:0:0:0:
109,192,127405,1,0,0:0:0:0:
329,192,127405,1,0,0:0:0:0:
256,192,127581,1,8,0:0:0:0:
402,192,127581,1,0,0:0:0:0:
36,192,127581,1,0,0:0:0:0:
182,192,127581,1,0,0:0:0:0:
109,192,127758,1,0,0:0:0:0:
329,192,127758,1,0,0:0:0:0:
475,192,127934,1,0,0:0:0:0:
402,192,127934,1,0,0:0:0:0:
36,192,127934,1,0,0:0:0:0:
329,192,128111,1,0,0:0:0:0:
256,192,128111,1,0,0:0:0:0:
182,192,128111,1,0,0:0:0:0:
109,192,128111,1,0,0:0:0:0:
475,192,128287,1,8,0:0:0:0:
36,192,128287,1,0,0:0:0:0:
256,192,128464,1,0,0:0:0:0:
402,192,128464,1,0,0:0:0:0:
182,192,128464,1,0,0:0:0:0:
36,192,128464,1,0,0:0:0:0:
329,192,128640,1,0,0:0:0:0:
109,192,128817,1,0,0:0:0:0:
402,192,128817,1,0,0:0:0:0:
256,192,128817,1,0,0:0:0:0:
475,192,128817,1,0,0:0:0:0:
36,192,128993,1,0,0:0:0:0:
182,192,128993,1,8,0:0:0:0:
475,192,129169,1,0,0:0:0:0:
329,192,129169,1,0,0:0:0:0:
256,192,129169,1,0,0:0:0:0:
109,192,129169,1,0,0:0:0:0:
36,192,129346,1,0,0:0:0:0:
402,192,129346,1,0,0:0:0:0:
182,192,129346,1,0,0:0:0:0:
109,192,129522,1,0,0:0:0:0:
475,192,129522,1,0,0:0:0:0:
256,192,129522,1,0,0:0:0:0:
329,192,129522,1,0,0:0:0:0:
36,192,129699,1,0,0:0:0:0:
402,192,129699,1,0,0:0:0:0:
475,192,129699,1,8,0:0:0:0:
109,192,129699,1,0,0:0:0:0:
182,192,129875,1,0,0:0:0:0:
329,192,129875,1,0,0:0:0:0:
402,192,129875,1,0,0:0:0:0:
256,192,129875,1,0,0:0:0:0:
256,192,130052,1,0,0:0:0:0:
109,192,130052,1,0,0:0:0:0:
36,192,130052,1,0,0:0:0:0:
329,192,130228,1,0,0:0:0:0:
475,192,130228,1,0,0:0:0:0:
36,192,130405,1,0,0:0:0:0:
182,192,130405,1,0,0:0:0:0:
402,192,130405,1,8,0:0:0:0:
256,192,130405,1,0,0:0:0:0:
329,192,130581,1,0,0:0:0:0:
475,192,130581,1,0,0:0:0:0:
109,192,130758,1,0,0:0:0:0:
402,192,130758,1,0,0:0:0:0:
256,192,130758,1,0,0:0:0:0:
329,192,130934,1,0,0:0:0:0:
182,192,130934,1,0,0:0:0:0:
475,192,130934,1,0,0:0:0:0:
36,192,130934,1,0,0:0:0:0:
402,192,131111,1,8,0:0:0:0:
109,192,131111,1,0,0:0:0:0:
36,192,131287,1,0,0:0:0:0:
182,192,131287,1,0,0:0:0:0:
256,192,131287,1,0,0:0:0:0:
329,192,131287,1,0,0:0:0:0:
475,192,131464,1,0,0:0:0:0:
402,192,131640,1,0,0:0:0:0:
182,192,131640,1,0,0:0:0:0:
36,192,131640,1,0,0:0:0:0:
329,192,131640,1,0,0:0:0:0:
475,192,131817,1,8,0:0:0:0:
109,192,131817,1,0,0:0:0:0:
402,192,131993,1,0,0:0:0:0:
256,192,131993,1,0,0:0:0:0:
182,192,131993,1,0,0:0:0:0:
36,192,131993,1,0,0:0:0:0:
475,192,132169,1,0,0:0:0:0:
329,192,132169,1,0,0:0:0:0:
109,192,132169,1,0,0:0:0:0:
182,192,132346,1,0,0:0:0:0:
402,192,132346,1,0,0:0:0:0:
256,192,132346,1,0,0:0:0:0:
36,192,132346,1,0,0:0:0:0:
36,192,132522,1,8,0:0:0:0:
329,192,132522,1,0,0:0:0:0:
475,192,132522,1,0,0:0:0:0:
109,192,132522,1,0,0:0:0:0:
256,192,132699,1,0,0:0:0:0:
402,192,132699,1,0,0:0:0:0:
475,192,132699,1,0,0:0:0:0:
182,192,132699,1,0,0:0:0:0:
109,192,132875,128,0,133052:0:0:0:0:
329,192,132875,128,0,133052:0:0:0:0:
256,192,133052,128,0,133228:0:0:0:0:
36,192,133228,128,0,133405:0:0:0:0:
402,192,133228,128,0,133405:0:0:0:0:
182,192,133405,128,0,133581:0:0:0:0:
475,192,133581,128,0,133758:0:0:0:0:
329,192,133581,128,0,133758:0:0:0:0:
36,192,133758,128,0,133934:0:0:0:0:
182,192,133758,128,0,133934:0:0:0:0:
256,192,133758,128,0,133934:0:0:0:0:
109,192,134111,128,0,134287:0:0:0:0:
402,192,134111,128,0,134287:0:0:0:0:
256,192,134111,128,0,134287:0:0:0:0:
182,192,134464,128,0,134640:0:0:0:0:
329,192,134464,128,0,134640:0:0:0:0:
475,192,134464,128,0,134640:0:0:0:0:
36,192,134817,128,0,134993:0:0:0:0:
402,192,134993,1,0,0:0:0:0:
256,192,134993,128,0,135434:0:0:0:0:
475,192,135081,1,0,0:0:0:0:
329,192,135169,1,0,0:0:0:0:
36,192,135169,128,0,135346:0:0:0:0:
402,192,135258,1,0,0:0:0:0:
182,192,135346,1,0,0:0:0:0:
475,192,135346,128,0,135699:0:0:0:0:
109,192,135434,1,0,0:0:0:0:
402,192,135522,1,0,0:0:0:0:
256,192,135522,128,0,135699:0:0:0:0:
36,192,135611,1,0,0:0:0:0:
182,192,135699,1,0,0:0:0:0:
329,192,135699,128,0,135875:0:0:0:0:
109,192,135875,1,0,0:0:0:0:
36,192,136052,1,0,0:0:0:0:
182,192,136052,1,8,0:0:0:0:
402,192,136052,128,0,136228:0:0:0:0:
109,192,136228,1,0,0:0:0:0:
256,192,136405,128,2,136758:0:0:0:0:
329,192,136405,128,0,136581:0:0:0:0:
475,192,136405,1,0,0:0:0:0:
182,192,136581,128,0,136758:0:0:0:0:
36,192,136581,1,0,0:0:0:0:
475,192,136758,1,0,0:0:0:0:
329,192,136758,1,0,0:0:0:0:
402,192,136934,1,0,0:0:0:0:
109,192,136934,128,0,137111:0:0:0:0:
256,192,137111,1,0,0:0:0:0:
36,192,137287,128,0,137464:0:0:0:0:
402,192,137287,1,0,0:0:0:0:
475,192,137464,1,8,0:0:0:0:
256,192,137464,1,0,0:0:0:0:
402,192,137640,128,0,138081:0:0:0:0:
36,192,137817,1,0,0:0:0:0:
182,192,137817,128,2,138081:0:0:0:0:
475,192,137817,128,0,138522:0:0:0:0:
329,192,137993,128,0,138258:0:0:0:0:
109,192,137993,1,0,0:0:0:0:
256,192,138169,1,8,0:0:0:0:
36,192,138169,1,0,0:0:0:0:
182,192,138169,128,2,138522:0:0:0:0:
402,192,138169,128,0,138522:0:0:0:0:
329,192,138346,128,0,138522:0:0:0:0:
109,192,138346,1,0,0:0:0:0:
36,192,138522,1,0,0:0:0:0:
256,192,138522,128,0,138699:0:0:0:0:
475,192,138699,1,0,0:0:0:0:
402,192,138875,1,8,0:0:0:0:
109,192,138875,1,0,0:0:0:0:
182,192,138875,128,0,139052:0:0:0:0:
475,192,139052,1,0,0:0:0:0:
402,192,139228,128,0,139581:0:0:0:0:
36,192,139228,1,0,0:0:0:0:
109,192,139405,128,0,139581:0:0:0:0:
256,192,139405,1,0,0:0:0:0:
182,192,139581,1,0,0:0:0:0:
329,192,139581,1,8,0:0:0:0:
36,192,139758,128,0,139934:0:0:0:0:
256,192,139758,1,0,0:0:0:0:
475,192,139934,1,0,0:0:0:0:
182,192,140111,128,0,140287:0:0:0:0:
329,192,140111,1,0,0:0:0:0:
475,192,140287,1,8,0:0:0:0:
36,192,140287,1,0,0:0:0:0:
329,192,140464,128,0,140640:0:0:0:0:
109,192,140464,1,0,0:0:0:0:
475,192,140640,1,0,0:0:0:0:
182,192,140640,128,0,140993:0:0:0:0:
36,192,140817,128,2,140993:0:0:0:0:
256,192,140817,128,0,141169:0:0:0:0:
402,192,140817,1,0,0:0:0:0:
402,192,140993,128,0,141346:0:0:0:0:
329,192,140993,1,0,0:0:0:0:
109,192,140993,1,8,0:0:0:0:
475,192,141169,128,2,141346:0:0:0:0:
109,192,141169,128,0,141346:0:0:0:0:
182,192,141169,1,0,0:0:0:0:
256,192,141346,1,0,0:0:0:0:
36,192,141346,128,0,141522:0:0:0:0:
329,192,141522,128,0,141699:0:0:0:0:
109,192,141699,1,8,0:0:0:0:
475,192,141699,1,0,0:0:0:0:
182,192,141699,128,0,141875:0:0:0:0:
329,192,141875,128,0,142052:0:0:0:0:
475,192,142052,128,0,142228:0:0:0:0:
109,192,142052,128,2,142405:0:0:0:0:
256,192,142052,1,0,0:0:0:0:
182,192,142228,128,0,142405:0:0:0:0:
329,192,142228,128,0,142405:0:0:0:0:
36,192,142405,1,0,0:0:0:0:
475,192,142405,1,8,0:0:0:0:
402,192,142581,128,0,142758:0:0:0:0:
256,192,142581,1,0,0:0:0:0:
36,192,142758,1,0,0:0:0:0:
182,192,142934,128,0,143111:0:0:0:0:
256,192,142934,128,0,143111:0:0:0:0:
475,192,143111,1,0,0:0:0:0:
329,192,143111,1,0,0:0:0:0:
329,192,143287,128,0,143464:0:0:0:0:
36,192,143464,128,0,143817:0:0:0:0:
182,192,143464,128,2,143817:0:0:0:0:
475,192,143464,1,0,0:0:0:0:
475,192,143640,128,0,143817:0:0:0:0:
256,192,143640,1,0,0:0:0:0:
329,192,143817,128,0,143993:0:0:0:0:
256,192,143817,128,2,144169:0:0:0:0:
402,192,143817,1,0,0:0:0:0:
109,192,143817,1,8,0:0:0:0:
109,192,143993,128,0,144346:0:0:0:0:
475,192,143993,1,0,0:0:0:0:
36,192,144169,1,0,0:0:0:0:
402,192,144169,128,0,144346:0:0:0:0:
256,192,144346,128,0,144522:0:0:0:0:
475,192,144522,128,0,144699:0:0:0:0:
36,192,144522,1,0,0:0:0:0:
182,192,144522,1,8,0:0:0:0:
256,192,144699,128,0,144875:0:0:0:0:
36,192,144875,128,0,145052:0:0:0:0:
329,192,144875,1,0,0:0:0:0:
256,192,145052,128,0,145228:0:0:0:0:
402,192,145052,128,0,145228:0:0:0:0:
475,192,145228,1,0,0:0:0:0:
182,192,145228,1,8,0:0:0:0:
256,192,145405,128,0,145581:0:0:0:0:
109,192,145405,128,0,145581:0:0:0:0:
475,192,145581,1,0,0:0:0:0:
182,192,145758,128,0,145934:0:0:0:0:
329,192,145758,128,0,145934:0:0:0:0:
36,192,145934,1,8,0:0:0:0:
475,192,145934,1,0,0:0:0:0:
256,192,146111,128,0,146287:0:0:0:0:
402,192,146111,128,0,146287:0:0:0:0:
109,192,146287,1,0,0:0:0:0:
36,192,146287,128,0,146464:0:0:0:0:
402,192,146464,128,0,146640:0:0:0:0:
329,192,146464,1,0,0:0:0:0:
182,192,146640,128,0,146817:0:0:0:0:
36,192,146640,1,0,0:0:0:0:
475,192,146640,1,8,0:0:0:0:
475,192,146817,128,0,146993:0:0:0:0:
329,192,146817,1,0,0:0:0:0:
109,192,146993,1,0,0:0:0:0:
256,192,146993,1,0,0:0:0:0:
402,192,147169,1,0,0:0:0:0:
182,192,147169,1,0,0:0:0:0:
36,192,147346,1,0,0:0:0:0:
329,192,147346,1,0,0:0:0:0:
475,192,147346,1,8,0:0:0:0:
182,192,147522,1,0,0:0:0:0:
402,192,147522,1,0,0:0:0:0:
475,192,147699,1,0,0:0:0:0:
256,192,147699,1,0,0:0:0:0:
109,192,147699,128,2,148052:0:0:0:0:
329,192,147875,1,0,0:0:0:0:
36,192,147875,1,0,0:0:0:0:
475,192,148052,1,8,0:0:0:0:
182,192,148052,1,0,0:0:0:0:
36,192,148228,1,0,0:0:0:0:
256,192,148228,1,0,0:0:0:0:
402,192,148228,1,0,0:0:0:0:
182,192,148405,1,0,0:0:0:0:
475,192,148581,1,0,0:0:0:0:
256,192,148581,1,0,0:0:0:0:
109,192,148581,1,0,0:0:0:0:
36,192,148758,1,0,0:0:0:0:
182,192,148758,1,8,0:0:0:0:
475,192,148934,1,0,0:0:0:0:
329,192,148934,1,0,0:0:0:0:
109,192,148934,1,0,0:0:0:0:
402,192,149111,128,2,149375:0:0:0:0:
36,192,149111,1,0,0:0:0:0:
256,192,149111,1,0,0:0:0:0:
329,192,149287,1,0,0:0:0:0:
182,192,149287,1,0,0:0:0:0:
402,192,149464,128,2,149817:0:0:0:0:
109,192,149464,1,0,0:0:0:0:
256,192,149464,1,0,0:0:0:0:
475,192,149464,1,8,0:0:0:0:
36,192,149640,1,0,0:0:0:0:
329,192,149640,1,0,0:0:0:0:
182,192,149817,1,0,0:0:0:0:
475,192,149817,1,0,0:0:0:0:
109,192,149993,1,0,0:0:0:0:
402,192,149993,1,0,0:0:0:0:
36,192,150169,1,0,0:0:0:0:
475,192,150169,1,8,0:0:0:0:
256,192,150169,1,0,0:0:0:0:
182,192,150346,1,0,0:0:0:0:
329,192,150346,1,0,0:0:0:0:
402,192,150522,1,0,0:0:0:0:
36,192,150522,1,0,0:0:0:0:
475,192,150699,1,0,0:0:0:0:
329,192,150699,1,0,0:0:0:0:
109,192,150699,1,0,0:0:0:0:
36,192,150875,1,0,0:0:0:0:
256,192,150875,1,8,0:0:0:0:
329,192,151052,1,0,0:0:0:0:
475,192,151052,1,0,0:0:0:0:
182,192,151052,1,0,0:0:0:0:
402,192,151228,1,0,0:0:0:0:
109,192,151405,1,0,0:0:0:0:
256,192,151405,1,0,0:0:0:0:
475,192,151405,1,0,0:0:0:0:
329,192,151581,1,8,0:0:0:0:
36,192,151581,1,0,0:0:0:0:
402,192,151758,1,0,0:0:0:0:
256,192,151758,1,0,0:0:0:0:
109,192,151758,1,0,0:0:0:0:
36,192,151934,1,0,0:0:0:0:
182,192,151934,1,0,0:0:0:0:
475,192,152111,128,2,152287:0:0:0:0:
329,192,152111,1,0,0:0:0:0:
109,192,152111,1,0,0:0:0:0:
402,192,152287,1,8,0:0:0:0:
36,192,152287,1,0,0:0:0:0:
256,192,152287,1,0,0:0:0:0:
475,192,152464,128,2,152640:0:0:0:0:
109,192,152464,1,0,0:0:0:0:
329,192,152464,1,0,0:0:0:0:
36,192,152640,1,0,0:0:0:0:
182,192,152640,1,0,0:0:0:0:
182,192,152817,1,0,0:0:0:0:
109,192,152993,1,0,0:0:0:0:
256,192,152993,1,8,0:0:0:0:
402,192,152993,1,0,0:0:0:0:
402,192,153169,1,0,0:0:0:0:
475,192,153346,1,0,0:0:0:0:
329,192,153346,1,0,0:0:0:0:
182,192,153346,128,2,153699:0:0:0:0:
329,192,153522,1,0,0:0:0:0:
402,192,153522,1,0,0:0:0:0:
475,192,153699,1,8,0:0:0:0:
36,192,153699,1,0,0:0:0:0:
36,192,153875,1,0,0:0:0:0:
256,192,153875,1,0,0:0:0:0:
402,192,154052,1,0,0:0:0:0:
402,192,154228,1,0,0:0:0:0:
182,192,154228,1,0,0:0:0:0:
182,192,154405,1,0,0:0:0:0:
475,192,154405,1,8,0:0:0:0:
109,192,154581,1,0,0:0:0:0:
475,192,154581,1,0,0:0:0:0:
36,192,154758,1,0,0:0:0:0:
256,192,154758,128,2,155022:0:0:0:0:
402,192,154758,1,0,0:0:0:0:
182,192,154934,1,0,0:0:0:0:
36,192,154934,1,0,0:0:0:0:
402,192,155111,1,0,0:0:0:0:
109,192,155111,1,8,0:0:0:0:
256,192,155111,128,2,155464:0:0:0:0:
475,192,155111,1,0,0:0:0:0:
329,192,155287,1,0,0:0:0:0:
109,192,155287,1,0,0:0:0:0:
402,192,155464,128,0,155640:0:0:0:0:
36,192,155464,1,0,0:0:0:0:
36,192,155640,1,0,0:0:0:0:
182,192,155817,128,0,155993:0:0:0:0:
329,192,155817,1,0,0:0:0:0:
475,192,155817,1,8,0:0:0:0:
329,192,155993,1,0,0:0:0:0:
475,192,156169,128,0,156346:0:0:0:0:
256,192,156169,1,0,0:0:0:0:
109,192,156346,128,0,156522:0:0:0:0:
256,192,156346,1,0,0:0:0:0:
402,192,156522,1,0,0:0:0:0:
182,192,156522,1,8,0:0:0:0:
36,192,156699,128,0,156875:0:0:0:0:
402,192,156699,1,0,0:0:0:0:
475,192,156875,1,0,0:0:0:0:
256,192,157052,128,0,157228:0:0:0:0:
475,192,157052,1,0,0:0:0:0:
402,192,157228,1,0,0:0:0:0:
109,192,157228,1,8,0:0:0:0:
182,192,157405,128,0,157581:0:0:0:0:
402,192,157405,1,0,0:0:0:0:
329,192,157581,128,0,157758:0:0:0:0:
36,192,157581,1,0,0:0:0:0:
402,192,157758,128,0,157934:0:0:0:0:
36,192,157758,1,0,0:0:0:0:
109,192,157934,128,0,158111:0:0:0:0:
182,192,157934,1,0,0:0:0:0:
329,192,157934,1,8,0:0:0:0:
475,192,158111,128,0,158287:0:0:0:0:
256,192,158111,1,0,0:0:0:0:
36,192,158287,1,0,0:0:0:0:
329,192,158287,1,4,0:0:0:0:
182,192,158287,128,0,161111:0:0:0:10:
402,192,159699,128,0,162522:0:0:0:10:
36,192,161111,128,0,163934:0:0:0:10:
256,192,162522,128,0,163934:0:0:0:10:
402,192,163228,128,0,163934:0:0:0:10:
475,192,163934,128,0,165346:0:0:0:10:
329,192,165346,128,0,166758:0:0:0:10:
109,192,166758,128,0,169581:0:0:0:10:
256,192,168169,128,2,169581:0:0:0:10:
475,192,168169,128,0,168875:0:0:0:10:
402,192,168875,128,0,169581:0:0:0:10:
182,192,169581,128,0,169758:0:0:0:12:
329,192,169934,128,0,170111:0:0:0:12:
256,192,170287,1,0,0:0:0:12:
182,192,170464,1,0,0:0:0:12:
256,192,170640,1,0,0:0:0:12:
36,192,170817,1,0,0:0:0:12:
109,192,170993,128,0,171169:0:0:0:12:
329,192,171346,128,0,171522:0:0:0:12:
256,192,171699,1,0,0:0:0:12:
329,192,171875,1,0,0:0:0:12:
402,192,172052,1,0,0:0:0:12:
475,192,172228,1,0,0:0:0:12:
402,192,172405,128,0,172581:0:0:0:12:
182,192,172758,128,0,172934:0:0:0:12:
256,192,173111,1,0,0:0:0:12:
329,192,173287,1,0,0:0:0:12:
256,192,173464,1,0,0:0:0:12:
475,192,173640,1,0,0:0:0:12:
402,192,173817,128,0,173993:0:0:0:12:
182,192,174169,128,0,174346:0:0:0:12:
256,192,174522,1,0,0:0:0:12:
182,192,174699,1,0,0:0:0:12:
109,192,174875,1,0,0:0:0:12:
182,192,175052,1,0,0:0:0:12:
329,192,175228,128,0,175405:0:0:0:12:
256,192,175581,128,0,175758:0:0:0:12:
182,192,175934,1,0,0:0:0:12:
329,192,176111,1,0,0:0:0:12:
109,192,176287,1,0,0:0:0:12:
402,192,176464,1,0,0:0:0:12:
182,192,176640,128,0,176817:0:0:0:12:
329,192,176993,128,0,177169:0:0:0:12:
182,192,177346,1,0,0:0:0:12:
256,192,177522,1,0,0:0:0:12:
402,192,177699,1,0,0:0:0:12:
475,192,177875,1,0,0:0:0:12:
36,192,178052,128,0,178228:0:0:0:12:
475,192,178405,128,0,178581:0:0:0:12:
402,192,178758,1,0,0:0:0:12:
109,192,178934,1,0,0:0:0:12:
329,192,179111,1,0,0:0:0:12:
36,192,179287,1,0,0:0:0:12:
256,192,179464,128,0,179640:0:0:0:12:
402,192,179817,128,0,179993:0:0:0:12:
109,192,180169,1,0,0:0:0:12:
256,192,180346,1,0,0:0:0:12:
475,192,180522,1,0,0:0:0:12:
329,192,180699,1,0,0:0:0:12:
36,192,180875,1,0,0:0:0:0:
475,192,180875,1,4,0:0:0:0:
256,192,180875,128,0,181052:0:0:0:0:
182,192,181228,1,0,0:0:0:0:
402,192,181228,128,0,181405:0:0:0:0:
329,192,181581,1,0,0:0:0:0:
475,192,181581,1,0,0:0:0:0:
109,192,181758,1,0,0:0:0:0:
402,192,181758,1,0,0:0:0:0:
329,192,181934,1,0,0:0:0:0:
36,192,182111,1,0,0:0:0:0:
182,192,182111,1,0,0:0:0:0:
402,192,182287,128,0,182464:0:0:0:0:
256,192,182464,1,0,0:0:0:0:
109,192,182640,128,0,182817:0:0:0:0:
329,192,182817,1,0,0:0:0:0:
475,192,182993,1,0,0:0:0:0:
36,192,182993,1,0,0:0:0:0:
329,192,183169,1,0,0:0:0:0:
109,192,183169,1,0,0:0:0:0:
182,192,183346,1,0,0:0:0:0:
475,192,183346,1,0,0:0:0:0:
36,192,183522,1,0,0:0:0:0:
402,192,183522,1,0,0:0:0:0:
256,192,183699,128,0,183875:0:0:0:0:
475,192,183699,1,0,0:0:0:0:
329,192,184052,128,0,184228:0:0:0:0:
109,192,184052,1,0,0:0:0:0:
182,192,184405,1,0,0:0:0:0:
475,192,184405,1,0,0:0:0:0:
36,192,184581,1,0,0:0:0:0:
329,192,184581,1,0,0:0:0:0:
182,192,184758,1,0,0:0:0:0:
475,192,184934,1,0,0:0:0:0:
329,192,184934,1,0,0:0:0:0:
109,192,185111,128,0,185287:0:0:0:0:
256,192,185287,1,0,0:0:0:0:
402,192,185464,128,0,185640:0:0:0:0:
109,192,185640,1,0,0:0:0:0:
256,192,185817,1,0,0:0:0:0:
36,192,185817,1,0,0:0:0:0:
402,192,185993,1,0,0:0:0:0:
109,192,185993,1,0,0:0:0:0:
182,192,186169,1,0,0:0:0:0:
475,192,186169,1,0,0:0:0:0:
36,192,186346,1,0,0:0:0:0:
329,192,186346,1,0,0:0:0:0:
402,192,186522,128,0,186699:0:0:0:0:
182,192,186522,1,0,0:0:0:0:
109,192,186875,128,0,187052:0:0:0:0:
329,192,186875,1,0,0:0:0:0:
402,192,187228,1,0,0:0:0:0:
36,192,187228,1,0,0:0:0:0:
329,192,187405,1,0,0:0:0:0:
109,192,187405,1,0,0:0:0:0:
402,192,187581,1,0,0:0:0:0:
109,192,187758,1,0,0:0:0:0:
475,192,187758,1,0,0:0:0:0:
182,192,187934,128,0,188111:0:0:0:0:
402,192,188111,1,0,0:0:0:0:
329,192,188287,128,0,188464:0:0:0:0:
109,192,188464,1,0,0:0:0:0:
36,192,188640,1,0,0:0:0:0:
475,192,188640,1,0,0:0:0:0:
182,192,188817,1,0,0:0:0:0:
402,192,188817,1,0,0:0:0:0:
329,192,188993,1,0,0:0:0:0:
36,192,188993,1,0,0:0:0:0:
475,192,189169,1,0,0:0:0:0:
109,192,189169,1,0,0:0:0:0:
402,192,189346,1,0,0:0:0:0:
36,192,189346,128,0,189522:0:0:0:0:
182,192,189346,128,0,189522:0:0:0:0:
329,192,189522,1,0,0:0:0:0:
402,192,189699,1,0,0:0:0:0:
109,192,189699,128,0,189875:0:0:0:0:
256,192,189699,128,0,189875:0:0:0:0:
329,192,189875,1,0,0:0:0:0:
402,192,190052,1,0,0:0:0:0:
36,192,190052,128,0,190228:0:0:0:0:
182,192,190052,128,0,190228:0:0:0:0:
329,192,190228,1,0,0:0:0:0:
109,192,190228,128,0,190405:0:0:0:0:
256,192,190228,128,0,190405:0:0:0:0:
402,192,190405,1,0,0:0:0:0:
329,192,190581,1,0,0:0:0:0:
36,192,190581,128,0,190758:0:0:0:0:
475,192,190581,128,0,190758:0:0:0:0:
182,192,190758,1,0,0:0:0:0:
109,192,190934,1,0,0:0:0:0:
329,192,190934,128,0,191111:0:0:0:0:
475,192,190934,128,0,191111:0:0:0:0:
182,192,191111,1,0,0:0:0:0:
109,192,191287,1,0,0:0:0:0:
256,192,191287,128,0,191464:0:0:0:0:
402,192,191464,1,0,0:0:0:0:
36,192,191464,128,0,192169:0:0:0:0:
109,192,191640,1,0,0:0:0:0:
329,192,191640,128,0,192169:0:0:0:0:
402,192,191817,1,0,0:0:0:0:
182,192,191817,128,0,192169:0:0:0:0:
109,192,191993,1,0,0:0:0:0:
475,192,191993,128,0,192169:0:0:0:0:
109,192,192169,128,0,192346:0:0:0:0:
402,192,192169,128,0,192346:0:0:0:0:
256,192,192169,128,0,192346:0:0:0:0:
182,192,192522,128,0,192699:0:0:0:0:
329,192,192522,128,0,192699:0:0:0:0:
475,192,192522,128,0,192699:0:0:0:0:
36,192,192875,128,0,193052:0:0:0:0:
182,192,192875,128,0,193052:0:0:0:0:
329,192,192875,128,0,193052:0:0:0:0:
402,192,193052,128,0,193228:0:0:0:0:
256,192,193052,128,0,193228:0:0:0:0:
109,192,193052,128,0,193228:0:0:0:0:
182,192,193405,128,0,193581:0:0:0:0:
329,192,193405,128,0,193581:0:0:0:0:
475,192,193405,128,0,193581:0:0:0:0:
109,192,193758,128,0,193934:0:0:0:0:
256,192,193758,128,0,193934:0:0:0:0:
402,192,193758,128,0,193934:0:0:0:0:
36,192,194111,128,0,194287:0:0:0:0:
182,192,194111,128,0,194287:0:0:0:0:
329,192,194111,128,0,194287:0:0:0:0:
475,192,194287,128,0,194464:0:0:0:0:
256,192,194287,128,0,194464:0:0:0:0:
402,192,194464,128,0,194640:0:0:0:0:
182,192,194464,128,0,194640:0:0:0:0:
256,192,194640,128,0,194993:0:0:0:0:
36,192,194640,128,0,194993:0:0:0:0:
329,192,194817,128,0,194993:0:0:0:0:
109,192,194817,128,0,194993:0:0:0:0:
182,192,194993,128,0,195169:0:0:0:0:
402,192,194993,128,0,195169:0:0:0:0:
475,192,194993,128,0,195169:0:0:0:0:
36,192,195346,128,0,195522:0:0:0:0:
109,192,195346,128,0,195522:0:0:0:0:
329,192,195346,128,0,195522:0:0:0:0:
475,192,195699,128,0,195875:0:0:0:0:
329,192,195699,128,0,195875:0:0:0:0:
182,192,195699,128,0,195875:0:0:0:0:
256,192,195875,128,0,196052:0:0:0:0:
109,192,195875,128,0,196052:0:0:0:0:
402,192,195875,128,0,196052:0:0:0:0:
36,192,196228,128,0,196405:0:0:0:0:
109,192,196228,128,0,196405:0:0:0:0:
182,192,196228,128,0,196405:0:0:0:0:
329,192,196581,128,0,196758:0:0:0:0:
402,192,196581,128,0,196758:0:0:0:0:
475,192,196581,128,0,196758:0:0:0:0:
109,192,196934,128,0,197111:0:0:0:0:
182,192,196934,128,0,197111:0:0:0:0:
256,192,196934,128,0,197111:0:0:0:0:
36,192,197111,128,0,197287:0:0:0:0:
329,192,197111,128,0,197287:0:0:0:0:
109,192,197287,128,0,197464:0:0:0:0:
402,192,197287,128,0,197464:0:0:0:0:
182,192,197464,128,0,197640:0:0:0:0:
475,192,197464,128,0,197640:0:0:0:0:
329,192,197640,128,0,197817:0:0:0:0:
36,192,197640,128,0,197817:0:0:0:0:
475,192,197817,1,0,0:0:0:0:
109,192,197817,1,0,0:0:0:0:
402,192,197993,1,0,0:0:0:0:
36,192,198169,1,0,0:0:0:0:
329,192,198169,1,0,0:0:0:0:
402,192,198346,1,0,0:0:0:0:
475,192,198522,1,0,0:0:0:0:
182,192,198522,1,0,0:0:0:0:
402,192,198699,1,0,0:0:0:0:
109,192,198699,1,0,0:0:0:0:
36,192,198875,1,0,0:0:0:0:
329,192,199052,1,0,0:0:0:0:
475,192,199052,1,0,0:0:0:0:
36,192,199228,1,0,0:0:0:0:
256,192,199405,1,0,0:0:0:0:
475,192,199405,1,0,0:0:0:0:
182,192,199581,1,0,0:0:0:0:
109,192,199758,1,0,0:0:0:0:
402,192,199758,1,0,0:0:0:0:
182,192,199934,1,0,0:0:0:0:
475,192,199934,1,0,0:0:0:0:
109,192,200111,1,0,0:0:0:0:
402,192,200111,1,0,0:0:0:0:
329,192,200287,1,0,0:0:0:0:
36,192,200287,1,0,0:0:0:0:
256,192,200464,1,0,0:0:0:0:
109,192,200464,1,0,0:0:0:0:
36,192,200640,1,0,0:0:0:0:
402,192,200640,1,0,0:0:0:0:
182,192,200817,1,0,0:0:0:0:
329,192,200993,1,0,0:0:0:0:
475,192,200993,1,0,0:0:0:0:
182,192,201169,1,0,0:0:0:0:
402,192,201346,1,0,0:0:0:0:
256,192,201346,1,0,0:0:0:0:
109,192,201522,1,0,0:0:0:0:
329,192,201522,1,0,0:0:0:0:
256,192,201699,1,0,0:0:0:0:
36,192,201875,1,0,0:0:0:0:
182,192,201875,1,0,0:0:0:0:
475,192,202052,1,0,0:0:0:0:
109,192,202228,1,0,0:0:0:0:
256,192,202228,1,0,0:0:0:0:
475,192,202405,1,0,0:0:0:0:
182,192,202581,1,0,0:0:0:0:
329,192,202581,1,0,0:0:0:0:
36,192,202758,1,0,0:0:0:0:
256,192,202758,1,0,0:0:0:0:
402,192,202758,1,0,0:0:0:0:
36,192,202934,1,0,0:0:0:0:
329,192,202934,1,0,0:0:0:0:
475,192,202934,1,0,0:0:0:0:
36,192,203111,1,0,0:0:0:0:
256,192,203111,1,0,0:0:0:0:
402,192,203111,1,0,0:0:0:0:
36,192,203287,1,0,0:0:0:0:
475,192,203287,1,0,0:0:0:0:
182,192,203287,1,0,0:0:0:0:
256,192,203464,1,4,0:0:0:0:
109,192,203464,128,0,203640:0:0:0:0:
329,192,203464,128,0,203640:0:0:0:0:
36,192,203464,1,8,0:0:0:0:
475,192,203464,1,0,0:0:0:0:
182,192,203817,128,0,203993:0:0:0:0:
402,192,203817,128,0,203993:0:0:0:0:
36,192,203817,1,8,0:0:0:0:
109,192,203817,1,0,0:0:0:0:
36,192,204169,1,8,0:0:0:0:
109,192,204169,1,0,0:0:0:0:
256,192,204169,1,0,0:0:0:0:
475,192,204169,1,0,0:0:0:0:
402,192,204346,1,0,0:0:0:0:
329,192,204346,1,0,0:0:0:0:
36,192,204522,1,8,0:0:0:0:
109,192,204522,1,0,0:0:0:0:
182,192,204699,128,0,204875:0:0:0:0:
329,192,204699,128,0,204875:0:0:0:0:
36,192,204875,1,8,0:0:0:0:
109,192,204875,1,0,0:0:0:0:
256,192,205052,128,0,205228:0:0:0:0:
402,192,205052,128,0,205228:0:0:0:0:
36,192,205228,1,8,0:0:0:0:
109,192,205228,1,0,0:0:0:0:
329,192,205405,128,0,205581:0:0:0:0:
475,192,205405,128,0,205581:0:0:0:0:
36,192,205581,1,8,0:0:0:0:
109,192,205581,1,0,0:0:0:0:
402,192,205581,128,0,205758:0:0:0:0:
256,192,205758,128,0,205934:0:0:0:0:
36,192,205934,1,8,0:0:0:0:
109,192,205934,1,0,0:0:0:0:
475,192,205934,128,0,206111:0:0:0:0:
329,192,206111,128,0,206287:0:0:0:0:
402,192,206287,1,0,0:0:0:0:
475,192,206287,1,8,0:0:0:0:
36,192,206287,128,0,206464:0:0:0:0:
182,192,206287,128,0,206464:0:0:0:0:
402,192,206640,1,0,0:0:0:0:
475,192,206640,1,8,0:0:0:0:
109,192,206640,128,0,206817:0:0:0:0:
256,192,206640,128,0,206817:0:0:0:0:
402,192,206993,1,0,0:0:0:0:
475,192,206993,1,8,0:0:0:0:
182,192,206993,128,0,207169:0:0:0:0:
329,192,206993,128,0,207169:0:0:0:0:
256,192,207169,128,0,207346:0:0:0:0:
109,192,207169,128,0,207346:0:0:0:0:
402,192,207346,1,0,0:0:0:0:
475,192,207346,1,8,0:0:0:0:
36,192,207522,128,0,207699:0:0:0:0:
182,192,207522,128,0,207699:0:0:0:0:
402,192,207699,1,0,0:0:0:0:
475,192,207699,1,8,0:0:0:0:
109,192,207875,128,0,208052:0:0:0:0:
256,192,207875,128,0,208052:0:0:0:0:
402,192,208052,1,0,0:0:0:0:
475,192,208052,1,8,0:0:0:0:
182,192,208228,128,0,208405:0:0:0:0:
329,192,208228,128,0,208405:0:0:0:0:
402,192,208405,1,0,0:0:0:0:
475,192,208405,1,8,0:0:0:0:
36,192,208405,128,0,208758:0:0:0:0:
182,192,208581,128,0,208758:0:0:0:0:
402,192,208758,1,0,0:0:0:0:
475,192,208758,1,8,0:0:0:0:
329,192,208758,128,0,209111:0:0:0:0:
182,192,208934,128,0,209111:0:0:0:0:
36,192,209111,1,8,0:0:0:0:
475,192,209111,1,0,0:0:0:0:
256,192,209111,1,0,0:0:0:0:
402,192,209287,1,0,0:0:0:0:
475,192,209464,1,0,0:0:0:0:
36,192,209464,1,8,0:0:0:0:
256,192,209464,1,0,0:0:0:0:
402,192,209640,1,0,0:0:0:0:
475,192,209817,1,0,0:0:0:0:
36,192,209817,1,8,0:0:0:0:
256,192,209817,1,0,0:0:0:0:
402,192,209993,1,0,0:0:0:0:
256,192,209993,1,0,0:0:0:0:
475,192,210169,1,0,0:0:0:0:
36,192,210169,1,8,0:0:0:0:
402,192,210346,1,0,0:0:0:0:
256,192,210346,1,0,0:0:0:0:
36,192,210522,1,8,0:0:0:0:
475,192,210522,1,0,0:0:0:0:
109,192,210699,1,0,0:0:0:0:
256,192,210699,1,0,0:0:0:0:
36,192,210875,1,8,0:0:0:0:
475,192,210875,1,0,0:0:0:0:
109,192,211052,1,0,0:0:0:0:
256,192,211052,1,0,0:0:0:0:
36,192,211228,1,8,0:0:0:0:
475,192,211228,1,0,0:0:0:0:
402,192,211228,1,0,0:0:0:0:
109,192,211405,1,0,0:0:0:0:
329,192,211405,1,0,0:0:0:0:
36,192,211581,1,8,0:0:0:0:
475,192,211581,1,0,0:0:0:0:
182,192,211581,1,0,0:0:0:0:
109,192,211758,1,0,0:0:0:0:
256,192,211758,1,0,0:0:0:0:
475,192,211934,1,8,0:0:0:0:
36,192,211934,1,0,0:0:0:0:
329,192,211934,1,0,0:0:0:0:
182,192,212111,1,0,0:0:0:0:
36,192,212287,1,8,0:0:0:0:
329,192,212287,1,0,0:0:0:0:
475,192,212287,1,0,0:0:0:0:
182,192,212464,1,0,0:0:0:0:
36,192,212640,1,8,0:0:0:0:
329,192,212640,1,0,0:0:0:0:
475,192,212640,1,0,0:0:0:0:
182,192,212817,1,0,0:0:0:0:
329,192,212817,1,0,0:0:0:0:
36,192,212993,1,8,0:0:0:0:
475,192,212993,1,0,0:0:0:0:
182,192,213169,1,0,0:0:0:0:
329,192,213169,1,0,0:0:0:0:
475,192,213346,1,8,0:0:0:0:
36,192,213346,1,0,0:0:0:0:
329,192,213522,1,0,0:0:0:0:
182,192,213522,1,0,0:0:0:0:
475,192,213699,1,8,0:0:0:0:
36,192,213699,1,0,0:0:0:0:
329,192,213875,1,0,0:0:0:0:
182,192,213875,1,0,0:0:0:0:
329,192,214052,1,0,0:0:0:0:
256,192,214052,1,0,0:0:0:0:
36,192,214052,1,0,0:0:0:0:
475,192,214052,1,8,0:0:0:0:
329,192,214228,1,0,0:0:0:0:
402,192,214228,1,0,0:0:0:0:
109,192,214228,1,0,0:0:0:0:
475,192,214405,1,0,0:0:0:0:
182,192,214405,1,0,0:0:0:0:
36,192,214405,1,0,0:0:0:0:
402,192,214405,1,8,0:0:0:0:
329,192,214581,1,0,0:0:0:0:
475,192,214581,1,0,0:0:0:0:
109,192,214581,1,0,0:0:0:0:
256,192,214758,1,4,0:0:0:0:
36,192,214758,1,0,0:0:0:0:
475,192,214758,1,8,0:0:0:0:
109,192,214934,1,0,0:0:0:0:
329,192,214934,1,0,0:0:0:0:
402,192,215111,1,0,0:0:0:0:
475,192,215111,1,8,0:0:0:0:
182,192,215111,1,0,0:0:0:0:
109,192,215287,1,0,0:0:0:0:
329,192,215287,1,0,0:0:0:0:
402,192,215464,1,0,0:0:0:0:
475,192,215464,1,8,0:0:0:0:
182,192,215464,1,0,0:0:0:0:
109,192,215640,1,0,0:0:0:0:
329,192,215640,1,0,0:0:0:0:
402,192,215817,1,0,0:0:0:0:
475,192,215817,1,8,0:0:0:0:
182,192,215817,1,0,0:0:0:0:
109,192,215993,1,0,0:0:0:0:
329,192,215993,1,0,0:0:0:0:
402,192,216169,1,0,0:0:0:0:
475,192,216169,1,8,0:0:0:0:
182,192,216169,1,0,0:0:0:0:
109,192,216346,1,0,0:0:0:0:
329,192,216346,1,0,0:0:0:0:
402,192,216522,1,0,0:0:0:0:
475,192,216522,1,8,0:0:0:0:
182,192,216522,1,0,0:0:0:0:
109,192,216699,1,0,0:0:0:0:
329,192,216699,1,0,0:0:0:0:
402,192,216875,1,0,0:0:0:0:
475,192,216875,1,8,0:0:0:0:
182,192,216875,1,0,0:0:0:0:
109,192,217052,1,0,0:0:0:0:
329,192,217052,1,0,0:0:0:0:
402,192,217228,1,0,0:0:0:0:
475,192,217228,1,8,0:0:0:0:
182,192,217228,1,0,0:0:0:0:
109,192,217405,1,0,0:0:0:0:
256,192,217405,1,0,0:0:0:0:
182,192,217581,1,0,0:0:0:0:
402,192,217581,1,8,0:0:0:0:
36,192,217581,1,0,0:0:0:0:
329,192,217758,1,0,0:0:0:0:
109,192,217758,1,0,0:0:0:0:
256,192,217934,1,0,0:0:0:0:
402,192,217934,1,8,0:0:0:0:
36,192,217934,1,0,0:0:0:0:
329,192,218111,1,0,0:0:0:0:
109,192,218111,1,0,0:0:0:0:
256,192,218287,1,0,0:0:0:0:
402,192,218287,1,8,0:0:0:0:
36,192,218287,1,0,0:0:0:0:
329,192,218464,1,0,0:0:0:0:
109,192,218464,1,0,0:0:0:0:
256,192,218640,1,0,0:0:0:0:
402,192,218640,1,8,0:0:0:0:
36,192,218640,1,0,0:0:0:0:
109,192,218817,1,0,0:0:0:0:
329,192,218817,1,0,0:0:0:0:
256,192,218993,1,0,0:0:0:0:
402,192,218993,1,8,0:0:0:0:
36,192,218993,1,0,0:0:0:0:
329,192,219169,1,0,0:0:0:0:
109,192,219169,1,0,0:0:0:0:
256,192,219346,1,0,0:0:0:0:
402,192,219346,1,8,0:0:0:0:
36,192,219346,1,0,0:0:0:0:
329,192,219522,1,0,0:0:0:0:
109,192,219522,1,0,0:0:0:0:
256,192,219699,1,0,0:0:0:0:
402,192,219699,1,8,0:0:0:0:
36,192,219699,1,0,0:0:0:0:
329,192,219875,1,0,0:0:0:0:
109,192,219875,1,0,0:0:0:0:
256,192,220052,1,0,0:0:0:0:
402,192,220052,1,8,0:0:0:0:
36,192,220052,1,0,0:0:0:0:
329,192,220228,1,0,0:0:0:0:
182,192,220228,1,0,0:0:0:0:
475,192,220405,1,0,0:0:0:0:
36,192,220405,1,8,0:0:0:0:
109,192,220405,1,0,0:0:0:0:
182,192,220493,1,0,0:0:0:0:
329,192,220581,1,0,0:0:0:0:
109,192,220669,1,0,0:0:0:0:
256,192,220758,1,0,0:0:0:0:
402,192,220758,1,0,0:0:0:0:
475,192,220758,1,8,0:0:0:0:
36,192,220846,1,0,0:0:0:0:
182,192,220934,1,0,0:0:0:0:
475,192,221022,1,0,0:0:0:0:
256,192,221111,1,0,0:0:0:0:
36,192,221111,1,0,0:0:0:0:
109,192,221111,1,8,0:0:0:0:
402,192,221199,1,0,0:0:0:0:
182,192,221287,1,0,0:0:0:0:
329,192,221375,1,0,0:0:0:0:
36,192,221464,1,0,0:0:0:0:
475,192,221464,1,0,0:0:0:0:
402,192,221464,1,8,0:0:0:0:
256,192,221552,1,0,0:0:0:0:
109,192,221640,1,0,0:0:0:0:
329,192,221728,1,0,0:0:0:0:
182,192,221817,1,0,0:0:0:0:
402,192,221817,1,0,0:0:0:0:
475,192,221817,1,8,0:0:0:0:
36,192,221905,1,0,0:0:0:0:
256,192,221993,1,0,0:0:0:0:
109,192,222081,1,0,0:0:0:0:
329,192,222169,1,0,0:0:0:0:
402,192,222169,1,0,0:0:0:0:
475,192,222169,1,8,0:0:0:0:
182,192,222258,1,0,0:0:0:0:
402,192,222346,1,0,0:0:0:0:
256,192,222434,1,0,0:0:0:0:
475,192,222522,1,0,0:0:0:0:
109,192,222522,1,0,0:0:0:0:
36,192,222522,1,8,0:0:0:0:
329,192,222611,1,0,0:0:0:0:
109,192,222699,1,0,0:0:0:0:
256,192,222787,1,0,0:0:0:0:
36,192,222875,1,0,0:0:0:0:
402,192,222875,1,0,0:0:0:0:
475,192,222875,1,8,0:0:0:0:
182,192,222964,1,0,0:0:0:0:
329,192,223052,1,0,0:0:0:0:
109,192,223140,1,0,0:0:0:0:
256,192,223228,1,0,0:0:0:0:
402,192,223228,1,0,0:0:0:0:
475,192,223228,1,8,0:0:0:0:
36,192,223317,1,0,0:0:0:0:
182,192,223405,1,0,0:0:0:0:
475,192,223493,1,0,0:0:0:0:
256,192,223581,1,0,0:0:0:0:
36,192,223581,1,8,0:0:0:0:
109,192,223581,1,0,0:0:0:0:
402,192,223669,1,0,0:0:0:0:
182,192,223758,1,0,0:0:0:0:
329,192,223846,1,0,0:0:0:0:
109,192,223934,1,0,0:0:0:0:
402,192,223934,1,0,0:0:0:0:
475,192,223934,1,8,0:0:0:0:
256,192,224022,1,0,0:0:0:0:
36,192,224111,1,0,0:0:0:0:
182,192,224199,1,0,0:0:0:0:
329,192,224287,1,0,0:0:0:0:
402,192,224287,1,0,0:0:0:0:
475,192,224287,1,8,0:0:0:0:
109,192,224375,1,0,0:0:0:0:
256,192,224464,1,0,0:0:0:0:
36,192,224552,1,0,0:0:0:0:
475,192,224640,1,2,0:0:0:0:
475,192,224817,1,2,0:0:0:0:
475,192,224993,1,2,0:0:0:0:
475,192,225169,1,2,0:0:0:0:
36,192,225346,1,0,0:0:0:0:
36,192,225434,1,0,0:0:0:0:
329,192,225522,1,0,0:0:0:0:
329,192,225611,1,0,0:0:0:0:
475,192,225699,1,0,0:0:0:0:
475,192,225787,1,0,0:0:0:0:
182,192,225875,1,0,0:0:0:0:
182,192,225964,1,0,0:0:0:0:
36,192,226052,1,0,0:0:0:0:
329,192,226052,1,0,0:0:0:0:
109,192,226228,1,0,0:0:0:0:
36,192,226405,1,0,0:0:0:0:
402,192,226405,1,0,0:0:0:0:
256,192,226405,1,8,0:0:0:0:
109,192,226581,1,0,0:0:0:0:
36,192,226758,1,0,0:0:0:0:
475,192,226758,1,0,0:0:0:0:
402,192,226934,1,0,0:0:0:0:
109,192,226934,1,0,0:0:0:0:
36,192,227111,1,0,0:0:0:0:
256,192,227111,1,8,0:0:0:0:
109,192,227287,1,0,0:0:0:0:
329,192,227287,1,0,0:0:0:0:
36,192,227464,1,0,0:0:0:0:
109,192,227640,1,0,0:0:0:0:
402,192,227640,1,0,0:0:0:0:
36,192,227817,1,0,0:0:0:0:
256,192,227817,1,8,0:0:0:0:
475,192,227993,1,0,0:0:0:0:
109,192,227993,1,0,0:0:0:0:
256,192,228169,1,0,0:0:0:0:
402,192,228169,1,0,0:0:0:0:
36,192,228169,1,0,0:0:0:0:
182,192,228346,1,0,0:0:0:0:
329,192,228346,1,0,0:0:0:0:
109,192,228522,1,0,0:0:0:0:
256,192,228522,1,0,0:0:0:0:
475,192,228522,1,8,0:0:0:0:
36,192,228522,1,0,0:0:0:0:
329,192,228699,1,0,0:0:0:0:
182,192,228699,1,0,0:0:0:0:
475,192,228875,1,0,0:0:0:0:
36,192,228875,1,0,0:0:0:0:
402,192,229052,1,0,0:0:0:0:
475,192,229228,1,0,0:0:0:0:
256,192,229228,1,8,0:0:0:0:
109,192,229228,1,0,0:0:0:0:
402,192,229405,1,0,0:0:0:0:
182,192,229581,1,0,0:0:0:0:
475,192,229581,1,0,0:0:0:0:
109,192,229758,1,0,0:0:0:0:
402,192,229758,1,0,0:0:0:0:
256,192,229934,1,8,0:0:0:0:
475,192,229934,1,0,0:0:0:0:
36,192,230111,1,0,0:0:0:0:
402,192,230111,1,0,0:0:0:0:
475,192,230287,1,0,0:0:0:0:
109,192,230464,1,0,0:0:0:0:
402,192,230464,1,0,0:0:0:0:
475,192,230640,1,0,0:0:0:0:
256,192,230640,1,8,0:0:0:0:
182,192,230817,1,0,0:0:0:0:
402,192,230817,1,0,0:0:0:0:
475,192,230993,1,0,0:0:0:0:
256,192,230993,1,0,0:0:0:0:
36,192,230993,1,0,0:0:0:0:
182,192,231169,1,0,0:0:0:0:
402,192,231169,1,0,0:0:0:0:
36,192,231346,1,0,0:0:0:0:
256,192,231346,1,0,0:0:0:0:
475,192,231346,1,8,0:0:0:0:
109,192,231522,1,0,0:0:0:0:
329,192,231522,1,0,0:0:0:0:
256,192,231699,1,0,0:0:0:0:
36,192,231699,1,0,0:0:0:0:
475,192,231699,1,0,0:0:0:0:
402,192,231875,1,0,0:0:0:0:
109,192,232052,1,0,0:0:0:0:
329,192,232052,1,0,0:0:0:0:
475,192,232052,1,0,0:0:0:0:
256,192,232052,1,8,0:0:0:0:
36,192,232228,1,0,0:0:0:0:
182,192,232405,1,0,0:0:0:0:
402,192,232405,1,0,0:0:0:0:
475,192,232405,1,0,0:0:0:0:
109,192,232581,1,0,0:0:0:0:
329,192,232581,1,0,0:0:0:0:
36,192,232581,1,0,0:0:0:0:
475,192,232758,1,0,0:0:0:0:
256,192,232758,1,8,0:0:0:0:
36,192,232934,1,0,0:0:0:0:
182,192,232934,1,0,0:0:0:0:
256,192,233111,1,0,0:0:0:0:
329,192,233287,1,0,0:0:0:0:
475,192,233287,1,0,0:0:0:0:
109,192,233287,1,0,0:0:0:0:
256,192,233464,1,0,0:0:0:0:
36,192,233464,1,8,0:0:0:0:
109,192,233640,1,0,0:0:0:0:
402,192,233640,1,0,0:0:0:0:
475,192,233640,1,0,0:0:0:0:
36,192,233817,1,0,0:0:0:0:
256,192,233817,1,0,0:0:0:0:
329,192,233817,1,0,0:0:0:0:
182,192,233993,1,0,0:0:0:0:
402,192,233993,1,0,0:0:0:0:
109,192,234169,1,0,0:0:0:0:
475,192,234169,1,0,0:0:0:0:
256,192,234169,1,0,0:0:0:0:
36,192,234169,1,8,0:0:0:0:
182,192,234346,1,0,0:0:0:0:
329,192,234346,1,0,0:0:0:0:
475,192,234522,1,0,0:0:0:0:
256,192,234522,1,0,0:0:0:0:
36,192,234522,1,0,0:0:0:0:
109,192,234699,1,0,0:0:0:0:
182,192,234875,1,0,0:0:0:0:
402,192,234875,1,0,0:0:0:0:
36,192,234875,1,0,0:0:0:0:
256,192,234875,1,8,0:0:0:0:
329,192,235052,1,0,0:0:0:0:
36,192,235228,1,0,0:0:0:0:
256,192,235228,1,0,0:0:0:0:
475,192,235228,1,0,0:0:0:0:
109,192,235405,1,0,0:0:0:0:
329,192,235405,1,0,0:0:0:0:
475,192,235581,1,0,0:0:0:0:
256,192,235581,1,8,0:0:0:0:
402,192,235758,1,0,0:0:0:0:
36,192,235758,1,0,0:0:0:0:
182,192,235758,1,0,0:0:0:0:
475,192,235934,1,0,0:0:0:0:
109,192,236111,1,0,0:0:0:0:
256,192,236111,1,0,0:0:0:0:
402,192,236111,1,0,0:0:0:0:
475,192,236287,1,0,0:0:0:0:
36,192,236287,1,8,0:0:0:0:
182,192,236464,1,0,0:0:0:0:
329,192,236464,1,0,0:0:0:0:
256,192,236464,1,0,0:0:0:0:
109,192,236640,1,0,0:0:0:0:
402,192,236640,1,0,0:0:0:0:
256,192,236640,1,0,0:0:0:0:
475,192,236817,1,0,0:0:0:0:
36,192,236817,1,0,0:0:0:0:
329,192,236993,1,8,0:0:0:0:
182,192,236993,1,0,0:0:0:0:
109,192,236993,1,0,0:0:0:0:
402,192,236993,1,0,0:0:0:0:
36,192,237169,1,0,0:0:0:0:
475,192,237169,1,0,0:0:0:0:
256,192,237169,1,0,0:0:0:0:
182,192,237346,1,0,0:0:0:0:
36,192,237346,1,0,0:0:0:0:
475,192,237346,1,0,0:0:0:0:
109,192,237522,1,0,0:0:0:0:
402,192,237522,128,0,237699:0:0:0:0:
256,192,237699,1,0,0:0:0:0:
475,192,237699,1,0,0:0:0:0:
36,192,237699,1,0,0:0:0:0:
182,192,237699,1,8,0:0:0:0:
402,192,237875,128,0,238052:0:0:0:0:
109,192,237875,1,0,0:0:0:0:
109,192,238052,1,0,0:0:0:0:
475,192,238052,1,0,0:0:0:0:
256,192,238052,1,0,0:0:0:0:
36,192,238228,1,0,0:0:0:0:
182,192,238228,1,0,0:0:0:0:
402,192,238228,128,0,238405:0:0:0:0:
329,192,238228,1,0,0:0:0:0:
475,192,238405,1,8,0:0:0:0:
109,192,238405,1,0,0:0:0:0:
402,192,238581,128,0,238758:0:0:0:0:
36,192,238581,1,0,0:0:0:0:
109,192,238581,1,0,0:0:0:0:
256,192,238581,1,0,0:0:0:0:
475,192,238758,1,0,0:0:0:0:
109,192,238934,128,0,239111:0:0:0:0:
256,192,238934,1,0,0:0:0:0:
329,192,238934,1,0,0:0:0:0:
182,192,238934,1,0,0:0:0:0:
475,192,239111,1,0,0:0:0:0:
36,192,239111,1,8,0:0:0:0:
109,192,239287,128,0,239464:0:0:0:0:
329,192,239287,1,0,0:0:0:0:
402,192,239287,1,0,0:0:0:0:
182,192,239287,1,0,0:0:0:0:
475,192,239464,1,0,0:0:0:0:
256,192,239464,1,0,0:0:0:0:
36,192,239464,1,0,0:0:0:0:
109,192,239640,128,0,239817:0:0:0:0:
402,192,239640,1,0,0:0:0:0:
182,192,239640,1,0,0:0:0:0:
329,192,239640,1,0,0:0:0:0:
36,192,239817,1,0,0:0:0:0:
329,192,239817,1,0,0:0:0:0:
475,192,239817,1,0,0:0:0:0:
256,192,239817,1,8,0:0:0:0:
109,192,239993,128,0,240169:0:0:0:0:
402,192,239993,1,0,0:0:0:0:
182,192,239993,1,0,0:0:0:0:
36,192,239993,1,0,0:0:0:0:
475,192,240169,1,0,0:0:0:0:
256,192,240169,1,0,0:0:0:0:
402,192,240169,1,0,0:0:0:0:
256,192,240346,128,0,240522:0:0:0:0:
329,192,240346,1,0,0:0:0:0:
402,192,240522,1,0,0:0:0:0:
109,192,240522,1,8,0:0:0:0:
36,192,240522,1,0,0:0:0:0:
182,192,240522,1,0,0:0:0:0:
256,192,240699,128,0,240875:0:0:0:0:
109,192,240699,1,0,0:0:0:0:
475,192,240875,1,0,0:0:0:0:
329,192,240875,1,0,0:0:0:0:
36,192,240875,1,0,0:0:0:0:
256,192,241052,128,0,241228:0:0:0:0:
402,192,241052,1,0,0:0:0:0:
182,192,241052,1,0,0:0:0:0:
109,192,241052,1,0,0:0:0:0:
475,192,241228,1,8,0:0:0:0:
329,192,241228,1,0,0:0:0:0:
256,192,241405,128,0,241581:0:0:0:0:
36,192,241405,1,0,0:0:0:0:
109,192,241405,1,0,0:0:0:0:
402,192,241405,1,0,0:0:0:0:
329,192,241581,1,0,0:0:0:0:
36,192,241758,128,0,241934:0:0:0:0:
182,192,241758,1,0,0:0:0:0:
475,192,241758,1,0,0:0:0:0:
402,192,241758,1,0,0:0:0:0:
109,192,241934,1,0,0:0:0:0:
256,192,241934,1,8,0:0:0:0:
475,192,242111,128,0,242287:0:0:0:0:
329,192,242111,1,0,0:0:0:0:
402,192,242111,1,0,0:0:0:0:
182,192,242111,1,0,0:0:0:0:
109,192,242287,1,0,0:0:0:0:
256,192,242287,1,0,0:0:0:0:
36,192,242287,1,0,0:0:0:0:
36,192,242464,128,0,242640:0:0:0:0:
182,192,242464,1,0,0:0:0:0:
329,192,242464,1,0,0:0:0:0:
402,192,242464,1,0,0:0:0:0:
475,192,242640,1,0,0:0:0:0:
256,192,242640,1,0,0:0:0:0:
109,192,242640,1,8,0:0:0:0:
182,192,242640,1,0,0:0:0:0:
475,192,242817,128,0,242993:0:0:0:0:
402,192,242817,1,0,0:0:0:0:
329,192,242817,1,0,0:0:0:0:
109,192,242817,1,0,0:0:0:0:
36,192,242993,128,0,243169:0:0:0:0:
182,192,242993,128,0,243169:0:0:0:0:
329,192,242993,1,0,0:0:0:0:
402,192,243169,128,0,243346:0:0:0:0:
109,192,243346,128,0,243522:0:0:0:0:
256,192,243346,128,0,243522:0:0:0:0:
475,192,243346,1,0,0:0:0:0:
36,192,243346,1,8,0:0:0:0:
402,192,243522,128,0,243699:0:0:0:0:
329,192,243699,128,0,243875:0:0:0:0:
475,192,243699,128,0,243875:0:0:0:0:
36,192,243699,1,0,0:0:0:0:
402,192,243875,128,0,244052:0:0:0:0:
256,192,243875,128,0,244052:0:0:0:0:
109,192,243875,128,0,244052:0:0:0:0:
36,192,244052,1,0,0:0:0:0:
182,192,244052,1,8,0:0:0:0:
329,192,244228,128,0,244405:0:0:0:0:
475,192,244228,128,0,244405:0:0:0:0:
402,192,244228,128,0,244405:0:0:0:0:
36,192,244405,1,0,0:0:0:0:
109,192,244581,128,0,244758:0:0:0:0:
256,192,244581,128,0,244758:0:0:0:0:
182,192,244581,128,0,244758:0:0:0:0:
475,192,244758,1,0,0:0:0:0:
329,192,244758,1,8,0:0:0:0:
402,192,244934,128,0,245111:0:0:0:0:
329,192,244934,128,0,245640:0:0:0:0:
109,192,244934,128,0,245111:0:0:0:0:
256,192,245111,128,0,245287:0:0:0:0:
475,192,245111,128,0,245640:0:0:0:0:
36,192,245111,1,0,0:0:0:0:
109,192,245287,128,0,245464:0:0:0:0:
402,192,245287,128,0,245464:0:0:0:0:
182,192,245287,128,0,245464:0:0:0:0:
256,192,245464,128,0,245640:0:0:0:0:
36,192,245464,128,0,245817:0:0:0:0:
109,192,245640,128,0,245817:0:0:0:0:
182,192,245640,128,0,245817:0:0:0:0:
402,192,245640,128,0,245817:0:0:0:0:
475,192,245817,128,0,245993:0:0:0:0:
256,192,245817,128,0,245993:0:0:0:0:
329,192,245817,1,0,0:0:0:0:
182,192,245993,1,0,0:0:0:0:
109,192,246169,128,0,246346:0:0:0:0:
329,192,246169,128,0,246346:0:0:0:0:
36,192,246169,1,0,0:0:0:0:
475,192,246169,1,8,0:0:0:0:
402,192,246346,1,0,0:0:0:0:
36,192,246522,128,0,246699:0:0:0:0:
256,192,246522,128,0,246699:0:0:0:0:
475,192,246522,1,0,0:0:0:0:
182,192,246699,128,0,246875:0:0:0:0:
402,192,246699,128,0,246875:0:0:0:0:
475,192,246875,1,0,0:0:0:0:
36,192,246875,1,8,0:0:0:0:
329,192,247052,128,0,247228:0:0:0:0:
256,192,247052,128,0,247228:0:0:0:0:
109,192,247052,1,0,0:0:0:0:
36,192,247228,1,0,0:0:0:0:
109,192,247405,1,0,0:0:0:0:
402,192,247405,1,0,0:0:0:0:
475,192,247405,1,0,0:0:0:0:
256,192,247758,1,0,0:0:0:0:
182,192,247934,1,0,0:0:0:0:
329,192,247934,1,0,0:0:0:0:
109,192,248022,1,0,0:0:0:0:
402,192,248111,1,0,0:0:0:0:
182,192,248111,1,0,0:0:0:0:
36,192,248199,1,0,0:0:0:0:
329,192,248287,1,0,0:0:0:0:
109,192,248287,1,0,0:0:0:0:
36,192,248375,1,0,0:0:0:0:
475,192,248464,1,0,0:0:0:0:
256,192,248464,1,0,0:0:0:0:
182,192,248552,1,0,0:0:0:0:
402,192,248640,1,0,0:0:0:0:
329,192,248640,1,0,0:0:0:0:
109,192,248817,1,0,0:0:0:0:
182,192,248817,1,0,0:0:0:0:
329,192,248993,1,0,0:0:0:0:
475,192,248993,1,8,0:0:0:0:
109,192,249169,1,0,0:0:0:0:
182,192,249169,1,0,0:0:0:0:
256,192,249346,128,2,249699:0:0:0:0:
475,192,249346,128,0,249522:0:0:0:0:
402,192,249346,1,0,0:0:0:0:
36,192,249522,128,0,249699:0:0:0:0:
109,192,249522,1,0,0:0:0:0:
475,192,249699,1,0,0:0:0:0:
402,192,249699,1,8,0:0:0:0:
109,192,249875,128,0,250052:0:0:0:0:
329,192,249875,128,0,250052:0:0:0:0:
475,192,250052,1,0,0:0:0:0:
402,192,250228,128,0,250405:0:0:0:0:
182,192,250228,1,0,0:0:0:0:
36,192,250405,1,0,0:0:0:0:
256,192,250405,1,8,0:0:0:0:
329,192,250581,128,0,250934:0:0:0:0:
182,192,250581,1,0,0:0:0:0:
475,192,250758,128,0,251111:0:0:0:0:
182,192,250758,128,2,251022:0:0:0:0:
36,192,250758,1,0,0:0:0:0:
256,192,250934,128,0,251287:0:0:0:0:
109,192,251111,128,0,251287:0:0:0:0:
182,192,251111,128,2,251464:0:0:0:0:
36,192,251111,1,0,0:0:0:0:
329,192,251111,1,8,0:0:0:0:
402,192,251287,128,0,251464:0:0:0:0:
36,192,251464,1,0,0:0:0:0:
329,192,251464,128,0,251640:0:0:0:0:
109,192,251640,1,0,0:0:0:0:
182,192,251817,1,0,0:0:0:0:
402,192,251817,1,8,0:0:0:0:
475,192,251817,128,0,251993:0:0:0:0:
109,192,251993,1,0,0:0:0:0:
36,192,252169,1,0,0:0:0:0:
182,192,252169,128,0,252522:0:0:0:0:
329,192,252346,128,0,252522:0:0:0:0:
109,192,252346,1,0,0:0:0:0:
475,192,252522,1,8,0:0:0:0:
402,192,252522,1,0,0:0:0:0:
109,192,252699,128,0,252875:0:0:0:0:
256,192,252699,128,0,252875:0:0:0:0:
475,192,252875,1,0,0:0:0:0:
182,192,253052,128,0,253228:0:0:0:0:
329,192,253052,128,0,253228:0:0:0:0:
475,192,253228,1,0,0:0:0:0:
36,192,253228,1,8,0:0:0:0:
109,192,253405,128,0,253581:0:0:0:0:
402,192,253405,128,0,253581:0:0:0:0:
182,192,253581,128,0,253758:0:0:0:0:
36,192,253581,1,0,0:0:0:0:
256,192,253758,128,2,253934:0:0:0:0:
402,192,253758,128,0,254022:0:0:0:0:
109,192,253758,1,0,0:0:0:0:
475,192,253934,128,0,254287:0:0:0:0:
36,192,253934,1,0,0:0:0:0:
182,192,253934,1,8,0:0:0:0:
256,192,254111,128,2,254287:0:0:0:0:
402,192,254111,128,0,254287:0:0:0:0:
109,192,254111,1,0,0:0:0:0:
36,192,254287,128,0,254464:0:0:0:0:
329,192,254287,1,0,0:0:0:0:
182,192,254464,128,0,254640:0:0:0:0:
402,192,254464,1,0,0:0:0:0:
329,192,254640,1,8,0:0:0:0:
475,192,254640,1,0,0:0:0:0:
109,192,254640,128,0,254817:0:0:0:0:
182,192,254817,128,0,254993:0:0:0:0:
402,192,254817,1,0,0:0:0:0:
329,192,254993,128,2,255346:0:0:0:0:
475,192,254993,128,0,255169:0:0:0:0:
36,192,254993,1,0,0:0:0:0:
182,192,255169,128,0,255346:0:0:0:0:
402,192,255169,128,0,255346:0:0:0:0:
36,192,255346,1,0,0:0:0:0:
109,192,255346,1,8,0:0:0:0:
182,192,255522,128,0,255699:0:0:0:0:
36,192,255522,128,0,255699:0:0:0:0:
402,192,255522,1,0,0:0:0:0:
475,192,255699,1,0,0:0:0:0:
182,192,255875,128,0,256052:0:0:0:0:
329,192,255875,128,0,256052:0:0:0:0:
402,192,255875,1,0,0:0:0:0:
36,192,256052,1,0,0:0:0:0:
109,192,256052,1,8,0:0:0:0:
329,192,256228,128,0,256405:0:0:0:0:
475,192,256228,128,0,256405:0:0:0:0:
256,192,256228,1,0,0:0:0:0:
36,192,256405,1,0,0:0:0:0:
109,192,256405,128,0,256581:0:0:0:0:
402,192,256405,128,2,256669:0:0:0:0:
256,192,256581,128,0,256758:0:0:0:0:
182,192,256581,1,0,0:0:0:0:
475,192,256758,128,0,256934:0:0:0:0:
109,192,256758,128,2,257111:0:0:0:0:
329,192,256758,1,8,0:0:0:0:
36,192,256758,1,0,0:0:0:0:
329,192,256934,128,0,257111:0:0:0:0:
182,192,256934,1,0,0:0:0:0:
475,192,257111,1,0,0:0:0:0:
36,192,257111,128,0,257287:0:0:0:0:
256,192,257287,1,0,0:0:0:0:
109,192,257464,1,8,0:0:0:0:
402,192,257464,1,0,0:0:0:0:
329,192,257464,128,0,257640:0:0:0:0:
256,192,257640,1,0,0:0:0:0:
36,192,257817,1,0,0:0:0:0:
475,192,257817,128,0,257993:0:0:0:0:
256,192,257993,128,0,258169:0:0:0:0:
109,192,257993,1,0,0:0:0:0:
402,192,258169,1,8,0:0:0:0:
36,192,258169,1,0,0:0:0:0:
475,192,258346,1,0,0:0:0:0:
109,192,258346,128,0,258522:0:0:0:0:
329,192,258522,1,0,0:0:0:0:
182,192,258699,128,0,258875:0:0:0:0:
402,192,258699,1,0,0:0:0:0:
475,192,258875,1,8,0:0:0:0:
36,192,258875,1,0,0:0:0:0:
256,192,259052,128,0,259228:0:0:0:0:
109,192,259052,1,0,0:0:0:0:
329,192,259228,128,0,259934:0:0:0:0:
36,192,259228,1,0,0:0:0:0:
475,192,259405,128,0,259934:0:0:0:0:
182,192,259405,1,0,0:0:0:0:
36,192,259581,128,0,259934:0:0:0:0:
402,192,259581,1,8,0:0:0:0:
109,192,259581,1,0,0:0:0:0:
182,192,259758,128,0,259934:0:0:0:0:
256,192,259758,1,0,0:0:0:0:
402,192,259934,128,0,260111:0:0:0:0:
109,192,259934,1,0,0:0:0:0:
182,192,260111,1,0,0:0:0:0:
256,192,260111,128,0,260287:0:0:0:0:
109,192,260287,128,0,260464:0:0:0:0:
475,192,260287,1,8,0:0:0:0:
329,192,260287,1,0,0:0:0:0:
402,192,260464,1,0,0:0:0:0:
256,192,260464,128,0,260640:0:0:0:0:
36,192,260640,128,0,260817:0:0:0:0:
329,192,260640,128,2,260993:0:0:0:0:
475,192,260640,1,0,0:0:0:0:
475,192,260817,128,0,260993:0:0:0:0:
182,192,260817,128,0,260993:0:0:0:0:
256,192,260817,1,0,0:0:0:0:
109,192,260993,1,0,0:0:0:0:
402,192,260993,1,8,0:0:0:0:
256,192,261169,1,0,0:0:0:0:
109,192,261169,128,0,261346:0:0:0:0:
402,192,261169,128,0,261346:0:0:0:0:
36,192,261346,1,0,0:0:0:0:
182,192,261522,128,0,261699:0:0:0:0:
329,192,261522,128,0,261699:0:0:0:0:
256,192,261522,1,0,0:0:0:0:
475,192,261699,1,8,0:0:0:0:
36,192,261699,1,0,0:0:0:0:
256,192,261875,128,0,262052:0:0:0:0:
475,192,262052,128,0,262758:0:0:0:0:
182,192,262052,128,2,262317:0:0:0:0:
329,192,262052,1,0,0:0:0:0:
36,192,262228,128,0,262758:0:0:0:0:
109,192,262228,1,0,0:0:0:0:
402,192,262405,128,0,262758:0:0:0:0:
182,192,262405,128,2,262758:0:0:0:0:
329,192,262405,1,8,0:0:0:0:
256,192,262405,1,0,0:0:0:0:
109,192,262581,128,0,262758:0:0:0:0:
329,192,262758,1,0,0:0:0:0:
329,192,262934,1,0,0:0:0:0:
256,192,263111,1,0,0:0:0:0:
402,192,263111,1,8,0:0:0:0:
109,192,263111,1,0,0:0:0:0:
402,192,263287,1,0,0:0:0:0:
256,192,263287,1,0,0:0:0:0:
36,192,263464,1,0,0:0:0:0:
329,192,263464,1,0,0:0:0:0:
36,192,263640,1,0,0:0:0:0:
256,192,263640,1,0,0:0:0:0:
182,192,263640,1,0,0:0:0:0:
475,192,263817,1,8,0:0:0:0:
402,192,263817,1,0,0:0:0:0:
402,192,263993,1,0,0:0:0:0:
109,192,263993,1,0,0:0:0:0:
182,192,263993,1,0,0:0:0:0:
36,192,264169,1,0,0:0:0:0:
109,192,264346,1,0,0:0:0:0:
256,192,264346,1,0,0:0:0:0:
329,192,264346,1,0,0:0:0:0:
329,192,264522,1,0,0:0:0:0:
475,192,264522,1,8,0:0:0:0:
402,192,264699,1,0,0:0:0:0:
256,192,264699,1,0,0:0:0:0:
182,192,264699,1,0,0:0:0:0:
36,192,264875,1,0,0:0:0:0:
329,192,264875,1,0,0:0:0:0:
182,192,265052,128,2,265228:0:0:0:0:
329,192,265052,1,0,0:0:0:0:
402,192,265052,1,0,0:0:0:0:
475,192,265228,1,0,0:0:0:0:
402,192,265228,1,0,0:0:0:0:
36,192,265228,1,8,0:0:0:0:
182,192,265405,128,2,265581:0:0:0:0:
329,192,265405,1,0,0:0:0:0:
256,192,265405,1,0,0:0:0:0:
36,192,265581,1,0,0:0:0:0:
402,192,265581,1,0,0:0:0:0:
256,192,265758,1,0,0:0:0:0:
109,192,265934,1,0,0:0:0:0:
475,192,265934,1,8,0:0:0:0:
329,192,265934,1,0,0:0:0:0:
256,192,266111,1,0,0:0:0:0:
36,192,266287,1,0,0:0:0:0:
475,192,266287,1,0,0:0:0:0:
402,192,266287,128,0,266640:0:0:0:0:
329,192,266464,1,0,0:0:0:0:
182,192,266464,1,0,0:0:0:0:
109,192,266464,1,0,0:0:0:0:
36,192,266640,1,0,0:0:0:0:
256,192,266640,1,8,0:0:0:0:
475,192,266817,1,0,0:0:0:0:
329,192,266817,1,0,0:0:0:0:
182,192,266817,1,0,0:0:0:0:
36,192,266993,1,0,0:0:0:0:
256,192,267169,1,0,0:0:0:0:
402,192,267169,1,0,0:0:0:0:
109,192,267169,1,0,0:0:0:0:
475,192,267346,1,8,0:0:0:0:
36,192,267346,1,0,0:0:0:0:
182,192,267522,1,0,0:0:0:0:
329,192,267522,1,0,0:0:0:0:
402,192,267522,1,0,0:0:0:0:
256,192,267699,1,0,0:0:0:0:
36,192,267699,1,0,0:0:0:0:
402,192,267699,128,2,268052:0:0:0:0:
109,192,267875,1,0,0:0:0:0:
182,192,267875,1,0,0:0:0:0:
475,192,268052,1,8,0:0:0:0:
256,192,268052,1,0,0:0:0:0:
109,192,268052,128,2,268405:0:0:0:0:
36,192,268052,1,0,0:0:0:0:
329,192,268228,1,0,0:0:0:0:
402,192,268228,1,0,0:0:0:0:
475,192,268405,1,0,0:0:0:0:
182,192,268405,1,0,0:0:0:0:
256,192,268581,1,0,0:0:0:0:
402,192,268581,1,0,0:0:0:0:
36,192,268758,1,0,0:0:0:0:
329,192,268758,1,8,0:0:0:0:
182,192,268758,1,0,0:0:0:0:
109,192,268934,1,0,0:0:0:0:
256,192,268934,1,0,0:0:0:0:
475,192,269111,1,0,0:0:0:0:
329,192,269111,1,0,0:0:0:0:
182,192,269287,1,0,0:0:0:0:
36,192,269287,1,0,0:0:0:0:
402,192,269287,1,0,0:0:0:0:
475,192,269464,1,8,0:0:0:0:
256,192,269464,1,0,0:0:0:0:
109,192,269640,1,0,0:0:0:0:
329,192,269640,1,0,0:0:0:0:
36,192,269640,1,0,0:0:0:0:
256,192,269817,1,0,0:0:0:0:
402,192,269993,1,0,0:0:0:0:
182,192,269993,1,0,0:0:0:0:
329,192,269993,1,0,0:0:0:0:
36,192,270169,1,0,0:0:0:0:
109,192,270169,1,8,0:0:0:0:
475,192,270346,1,0,0:0:0:0:
402,192,270346,1,0,0:0:0:0:
256,192,270346,1,0,0:0:0:0:
36,192,270522,1,0,0:0:0:0:
329,192,270522,1,0,0:0:0:0:
402,192,270699,1,0,0:0:0:0:
109,192,270699,1,0,0:0:0:0:
182,192,270699,1,0,0:0:0:0:
256,192,270875,1,8,0:0:0:0:
36,192,270875,1,0,0:0:0:0:
329,192,270875,1,0,0:0:0:0:
475,192,271052,1,0,0:0:0:0:
109,192,271052,1,0,0:0:0:0:
402,192,271052,1,0,0:0:0:0:
36,192,271228,1,0,0:0:0:0:
182,192,271228,1,0,0:0:0:0:
329,192,271228,1,4,0:0:0:0:
109,192,271405,1,0,0:0:0:0:
256,192,271405,1,0,0:0:0:0:
36,192,271581,1,0,0:0:0:0:
329,192,271581,1,8,0:0:0:0:
475,192,271581,1,0,0:0:0:0:
109,192,271758,1,0,0:0:0:0:
256,192,271758,1,0,0:0:0:0:
36,192,271934,1,0,0:0:0:0:
402,192,271934,1,0,0:0:0:0:
329,192,272111,1,0,0:0:0:0:
109,192,272111,1,0,0:0:0:0:
256,192,272111,1,0,0:0:0:0:
402,192,272287,1,0,0:0:0:0:
36,192,272287,1,0,0:0:0:0:
475,192,272287,1,8,0:0:0:0:
182,192,272464,1,0,0:0:0:0:
329,192,272464,1,0,0:0:0:0:
109,192,272464,1,0,0:0:0:0:
36,192,272640,1,0,0:0:0:0:
256,192,272640,1,0,0:0:0:0:
402,192,272817,1,0,0:0:0:0:
182,192,272817,1,0,0:0:0:0:
36,192,272993,1,0,0:0:0:0:
475,192,272993,1,8,0:0:0:0:
329,192,272993,1,0,0:0:0:0:
182,192,273169,1,0,0:0:0:0:
402,192,273169,1,0,0:0:0:0:
256,192,273346,1,0,0:0:0:0:
36,192,273346,1,0,0:0:0:0:
329,192,273522,1,0,0:0:0:0:
109,192,273522,1,0,0:0:0:0:
182,192,273522,1,0,0:0:0:0:
402,192,273699,1,0,0:0:0:0:
36,192,273699,1,0,0:0:0:0:
256,192,273699,1,8,0:0:0:0:
475,192,273875,1,0,0:0:0:0:
109,192,273875,1,0,0:0:0:0:
182,192,273875,1,0,0:0:0:0:
402,192,274052,1,0,0:0:0:0:
256,192,274052,1,0,0:0:0:0:
329,192,274228,1,0,0:0:0:0:
182,192,274228,1,0,0:0:0:0:
475,192,274405,1,0,0:0:0:0:
256,192,274405,1,8,0:0:0:0:
109,192,274405,1,0,0:0:0:0:
329,192,274581,1,0,0:0:0:0:
182,192,274581,1,0,0:0:0:0:
475,192,274758,1,0,0:0:0:0:
109,192,274758,1,0,0:0:0:0:
182,192,274934,1,0,0:0:0:0:
402,192,274934,1,0,0:0:0:0:
329,192,274934,1,0,0:0:0:0:
109,192,275111,1,0,0:0:0:0:
475,192,275111,1,0,0:0:0:0:
36,192,275111,1,8,0:0:0:0:
256,192,275287,1,0,0:0:0:0:
402,192,275287,1,0,0:0:0:0:
329,192,275287,1,0,0:0:0:0:
182,192,275464,1,0,0:0:0:0:
475,192,275464,1,0,0:0:0:0:
329,192,275640,1,0,0:0:0:0:
36,192,275640,1,0,0:0:0:0:
109,192,275817,1,0,0:0:0:0:
475,192,275817,1,0,0:0:0:0:
256,192,275817,1,8,0:0:0:0:
329,192,275993,1,0,0:0:0:0:
36,192,275993,1,0,0:0:0:0:
182,192,276169,1,0,0:0:0:0:
475,192,276169,1,0,0:0:0:0:
109,192,276346,1,0,0:0:0:0:
402,192,276346,1,0,0:0:0:0:
256,192,276346,1,0,0:0:0:0:
36,192,276522,1,0,0:0:0:0:
475,192,276522,1,0,0:0:0:0:
182,192,276522,1,8,0:0:0:0:
109,192,276699,1,0,0:0:0:0:
256,192,276699,1,0,0:0:0:0:
402,192,276699,1,0,0:0:0:0:
182,192,276875,128,0,277052:0:0:0:0:
329,192,276875,1,0,0:0:0:0:
402,192,277052,1,0,0:0:0:0:
36,192,277228,1,8,0:0:0:0:
329,192,277228,1,0,0:0:0:0:
475,192,277228,128,0,277405:0:0:0:0:
109,192,277405,1,0,0:0:0:0:
329,192,277581,1,0,0:0:0:0:
182,192,277581,128,0,277758:0:0:0:0:
402,192,277758,1,0,0:0:0:0:
109,192,277758,128,0,277934:0:0:0:0:
329,192,277934,1,0,0:0:0:0:
36,192,277934,1,8,0:0:0:0:
475,192,277934,128,0,278111:0:0:0:0:
109,192,278111,1,0,0:0:0:0:
256,192,278111,128,0,278287:0:0:0:0:
402,192,278287,128,0,278464:0:0:0:0:
36,192,278287,1,0,0:0:0:0:
182,192,278464,1,0,0:0:0:0:
256,192,278640,1,0,0:0:0:0:
475,192,278640,1,8,0:0:0:0:
109,192,278640,128,0,278817:0:0:0:0:
402,192,278817,1,0,0:0:0:0:
109,192,278993,1,0,0:0:0:0:
256,192,278993,128,0,279169:0:0:0:0:
182,192,279169,1,0,0:0:0:0:
329,192,279169,128,0,279346:0:0:0:0:
256,192,279346,1,0,0:0:0:0:
475,192,279346,1,8,0:0:0:0:
109,192,279346,128,0,279522:0:0:0:0:
329,192,279522,1,0,0:0:0:0:
182,192,279522,128,0,279699:0:0:0:0:
402,192,279699,1,0,0:0:0:0:
36,192,279699,128,0,279875:0:0:0:0:
329,192,279875,1,0,0:0:0:0:
109,192,280052,1,0,0:0:0:0:
402,192,280052,1,8,0:0:0:0:
475,192,280052,128,0,280228:0:0:0:0:
182,192,280228,1,0,0:0:0:0:
36,192,280405,1,0,0:0:0:0:
329,192,280405,128,0,280581:0:0:0:0:
182,192,280581,1,0,0:0:0:0:
256,192,280581,128,0,280758:0:0:0:0:
109,192,280758,1,8,0:0:0:0:
402,192,280758,1,0,0:0:0:0:
36,192,280758,128,0,280934:0:0:0:0:
329,192,280934,1,0,0:0:0:0:
475,192,280934,128,0,281111:0:0:0:0:
182,192,281111,128,0,281287:0:0:0:0:
36,192,281111,1,0,0:0:0:0:
329,192,281287,1,0,0:0:0:0:
402,192,281464,128,0,281640:0:0:0:0:
36,192,281464,1,0,0:0:0:0:
256,192,281464,1,8,0:0:0:0:
109,192,281640,1,0,0:0:0:0:
475,192,281817,1,0,0:0:0:0:
36,192,281817,128,0,281993:0:0:0:0:
329,192,281993,1,4,0:0:0:0:
182,192,281993,128,2,282169:0:0:0:0:
182,192,282522,1,0,0:0:0:0:
36,192,282522,1,0,0:0:0:0:
329,192,282698,128,0,282874:0:0:0:0:
109,192,282698,1,0,0:0:0:0:
475,192,282874,1,0,0:0:0:0:
36,192,282874,1,0,0:0:0:0:
256,192,282874,1,8,0:0:0:0:
329,192,283051,128,0,283227:0:0:0:0:
182,192,283051,1,0,0:0:0:0:
475,192,283227,1,0,0:0:0:0:
109,192,283227,1,0,0:0:0:0:
329,192,283404,128,0,283580:0:0:0:0:
36,192,283404,1,0,0:0:0:0:
182,192,283404,1,0,0:0:0:0:
109,192,283580,1,0,0:0:0:0:
475,192,283580,1,0,0:0:0:0:
256,192,283580,1,8,0:0:0:0:
329,192,283757,128,0,283933:0:0:0:0:
402,192,283757,1,0,0:0:0:0:
182,192,283757,1,0,0:0:0:0:
475,192,283933,1,0,0:0:0:0:
36,192,283933,1,0,0:0:0:0:
109,192,284110,128,0,284286:0:0:0:0:
256,192,284110,1,0,0:0:0:0:
182,192,284286,1,8,0:0:0:0:
475,192,284286,1,0,0:0:0:0:
402,192,284286,1,0,0:0:0:0:
109,192,284463,128,0,284639:0:0:0:0:
256,192,284463,1,0,0:0:0:0:
475,192,284639,1,0,0:0:0:0:
36,192,284639,1,0,0:0:0:0:
109,192,284816,128,0,284992:0:0:0:0:
256,192,284816,1,0,0:0:0:0:
402,192,284816,1,0,0:0:0:0:
329,192,284992,1,8,0:0:0:0:
475,192,284992,1,0,0:0:0:0:
182,192,284992,1,0,0:0:0:0:
109,192,285169,128,0,285345:0:0:0:0:
402,192,285169,1,0,0:0:0:0:
36,192,285169,1,0,0:0:0:0:
256,192,285345,1,0,0:0:0:0:
475,192,285345,1,0,0:0:0:0:
402,192,285522,128,0,285698:0:0:0:0:
182,192,285522,1,0,0:0:0:0:
109,192,285698,1,8,0:0:0:0:
36,192,285698,1,0,0:0:0:0:
329,192,285698,1,0,0:0:0:0:
402,192,285874,128,0,286051:0:0:0:0:
182,192,285874,1,0,0:0:0:0:
256,192,286051,1,0,0:0:0:0:
109,192,286051,1,0,0:0:0:0:
402,192,286227,128,0,286404:0:0:0:0:
36,192,286227,1,0,0:0:0:0:
109,192,286404,1,0,0:0:0:0:
182,192,286404,1,0,0:0:0:0:
329,192,286404,1,8,0:0:0:0:
402,192,286580,128,0,286757:0:0:0:0:
475,192,286580,1,0,0:0:0:0:
256,192,286580,1,0,0:0:0:0:
36,192,286757,1,0,0:0:0:0:
182,192,286757,1,0,0:0:0:0:
256,192,286933,128,0,287110:0:0:0:0:
402,192,286933,1,0,0:0:0:0:
109,192,287110,1,8,0:0:0:0:
475,192,287110,1,0,0:0:0:0:
329,192,287110,1,0,0:0:0:0:
256,192,287286,128,0,287463:0:0:0:0:
402,192,287286,1,0,0:0:0:0:
109,192,287463,1,0,0:0:0:0:
475,192,287463,1,0,0:0:0:0:
256,192,287639,128,0,287816:0:0:0:0:
36,192,287639,1,0,0:0:0:0:
402,192,287639,1,0,0:0:0:0:
475,192,287816,1,8,0:0:0:0:
109,192,287816,1,0,0:0:0:0:
329,192,287816,1,0,0:0:0:0:
256,192,287992,128,0,288169:0:0:0:0:
402,192,287992,1,0,0:0:0:0:
36,192,287992,1,0,0:0:0:0:
109,192,288169,128,0,288345:0:0:0:0:
475,192,288169,1,0,0:0:0:0:
256,192,288345,128,0,288522:0:0:0:0:
329,192,288345,1,0,0:0:0:0:
402,192,288522,128,0,288698:0:0:0:0:
36,192,288522,1,0,0:0:0:0:
182,192,288522,1,8,0:0:0:0:
256,192,288698,128,0,288874:0:0:0:0:
109,192,288698,1,0,0:0:0:0:
329,192,288874,128,0,289051:0:0:0:0:
475,192,288874,1,0,0:0:0:0:
182,192,289051,128,0,289227:0:0:0:0:
256,192,289051,128,0,289227:0:0:0:0:
402,192,289051,1,0,0:0:0:0:
329,192,289227,128,0,289404:0:0:0:0:
36,192,289227,1,8,0:0:0:0:
475,192,289227,1,0,0:0:0:0:
109,192,289404,128,0,289580:0:0:0:0:
256,192,289404,128,0,289580:0:0:0:0:
182,192,289404,1,0,0:0:0:0:
402,192,289580,128,0,289757:0:0:0:0:
36,192,289580,1,0,0:0:0:0:
329,192,289757,128,0,289933:0:0:0:0:
182,192,289757,1,0,0:0:0:0:
109,192,289933,128,0,290110:0:0:0:0:
256,192,289933,1,8,0:0:0:0:
475,192,289933,1,0,0:0:0:0:
329,192,290110,128,0,290286:0:0:0:0:
182,192,290110,1,0,0:0:0:0:
256,192,290286,128,0,290463:0:0:0:0:
475,192,290286,1,0,0:0:0:0:
182,192,290463,128,0,290639:0:0:0:0:
329,192,290463,128,0,290639:0:0:0:0:
109,192,290463,1,0,0:0:0:0:
402,192,290639,128,0,290816:0:0:0:0:
36,192,290639,1,0,0:0:0:0:
256,192,290639,1,8,0:0:0:0:
475,192,290816,128,0,290992:0:0:0:0:
329,192,290816,128,0,290992:0:0:0:0:
109,192,290816,1,0,0:0:0:0:
36,192,290992,128,0,291169:0:0:0:0:
182,192,290992,1,0,0:0:0:0:
475,192,291169,128,0,291345:0:0:0:0:
256,192,291169,1,0,0:0:0:0:
329,192,291345,128,0,291522:0:0:0:0:
182,192,291345,1,0,0:0:0:0:
36,192,291345,1,8,0:0:0:0:
475,192,291522,128,0,291698:0:0:0:0:
256,192,291522,1,0,0:0:0:0:
182,192,291698,128,0,291874:0:0:0:0:
329,192,291698,1,0,0:0:0:0:
36,192,291874,128,0,292051:0:0:0:0:
475,192,291874,128,0,292051:0:0:0:0:
402,192,291874,1,0,0:0:0:0:
182,192,292051,128,0,292227:0:0:0:0:
256,192,292051,1,8,0:0:0:0:
329,192,292051,1,0,0:0:0:0:
402,192,292227,128,0,292404:0:0:0:0:
475,192,292227,128,0,292404:0:0:0:0:
109,192,292227,1,0,0:0:0:0:
256,192,292404,128,0,292580:0:0:0:0:
36,192,292404,1,0,0:0:0:0:
182,192,292580,128,0,292757:0:0:0:0:
402,192,292580,1,0,0:0:0:0:
109,192,292757,128,0,292933:0:0:0:0:
475,192,292757,1,0,0:0:0:0:
256,192,292757,1,8,0:0:0:0:
182,192,292933,128,0,293110:0:0:0:0:
329,192,292933,1,0,0:0:0:0:
402,192,293110,128,0,293286:0:0:0:0:
36,192,293110,1,0,0:0:0:0:
256,192,293286,128,0,293463:0:0:0:0:
182,192,293286,128,0,293463:0:0:0:0:
109,192,293286,1,0,0:0:0:0:
36,192,293463,128,0,293639:0:0:0:0:
475,192,293463,1,8,0:0:0:0:
329,192,293463,1,0,0:0:0:0:
109,192,293639,128,0,293816:0:0:0:0:
182,192,293639,128,0,293816:0:0:0:0:
402,192,293639,1,0,0:0:0:0:
329,192,293816,5,0,0:0:0:0:
256,192,293992,1,0,0:0:0:0:
329,192,294169,1,0,0:0:0:0:
256,192,294345,1,0,0:0:0:0:
329,192,294522,1,0,0:0:0:0:
256,192,294698,1,0,0:0:0:0:
329,192,294874,1,0,0:0:0:0:
256,192,295051,1,0,0:0:0:0:
402,192,295228,1,0,0:0:0:13:
402,192,295412,1,0,0:0:0:13:
182,192,295596,1,0,0:0:0:11:
182,192,295780,1,0,0:0:0:11:
36,192,295978,1,0,0:0:0:11:
36,192,296187,1,0,0:0:0:11:
475,192,296397,1,0,0:0:0:8:
475,192,296627,1,0,0:0:0:8:
402,192,296858,1,0,0:0:0:8:
402,192,297118,1,0,0:0:0:8:
329,192,297379,1,0,0:0:0:8:
329,192,297673,1,0,0:0:0:8:
256,192,297967,1,0,0:0:0:8:
256,192,298296,1,0,0:0:0:8:
182,192,298626,1,0,0:0:0:8:
182,192,299015,1,0,0:0:0:8:
109,192,299405,1,0,0:0:0:8:
109,192,299846,1,0,0:0:0:8:
36,192,300330,1,0,0:0:0:8:
36,192,300856,1,0,0:0:0:8:
36,192,301462,1,0,0:0:0:8:
36,192,302154,1,0,0:0:0:8:
36,192,302962,1,0,0:0:0:8:
36,192,303929,128,2,305139:0:0:0:8:
