osu file format v14

[General]
AudioFilename: audio.mp3
AudioLeadIn: 0
PreviewTime: 54649
Countdown: 0
SampleSet: Normal
StackLeniency: 0.7
Mode: 1
LetterboxInBreaks: 0
WidescreenStoryboard: 0

[Editor]
Bookmarks: 45124,59524,78724,102724,121924,131524,141124,150724,160324,187824,194074,212535,241625,262958,272958,282958,292947,314547,319647
DistanceSpacing: 0.6
BeatDivisor: 4
GridSize: 32
TimelineZoom: 3.099999

[Metadata]
Title:Tetrastructural Minds
TitleUnicode:Tetrastructural Minds
Artist:Vektor
ArtistUnicode:Vektor
Creator:radar
Version:Dissonant Existence
Source:
Tags:heavy artillery outer isolation blackened progressive technical thrash heavy metal
BeatmapID:2189121
BeatmapSetID:1047259

[Difficulty]
HPDrainRate:4
CircleSize:5
OverallDifficulty:7.2
ApproachRate:5
SliderMultiplier:1.4
SliderTickRate:1

[Events]
//Background and Video events
0,0,"VEKTOR.jpg",0,60
//Break Periods
//Storyboard Layer 0 (Background)
//Storyboard Layer 1 (Fail)
//Storyboard Layer 2 (Pass)
//Storyboard Layer 3 (Foreground)
//Storyboard Layer 4 (Overlay)
//Storyboard Sound Samples

[TimingPoints]
724,300,4,1,0,75,1,0
3124,300,5,1,0,75,1,0
16324,300,5,1,0,75,1,0
17824,300,4,1,0,75,1,0
21424,300,5,1,0,75,1,0
22924,300,4,1,0,75,1,0
26524,300,5,1,0,75,1,0
28024,300,4,1,0,75,1,0
31624,300,5,1,0,75,1,0
33124,300,4,1,0,75,1,0
35524,300,3,1,0,75,1,0
38224,300,5,1,0,75,1,0
39724,300,3,1,0,75,1,0
42424,300,5,1,0,75,1,0
43924,300,4,1,0,75,1,0
44524,-103.448275862069,4,1,0,75,0,0
44599,-101.694915254237,4,1,0,75,0,0
44674,-100,4,1,0,75,0,0
44749,-98.3606557377049,4,1,0,75,0,0
44824,-96.7741935483871,4,1,0,75,0,0
44899,-95.2380952380952,4,1,0,75,0,0
44974,-93.75,4,1,0,75,0,0
45049,-92.3076923076923,4,1,0,75,0,0
45124,300,4,1,0,75,1,1
45124,-90.9090909090909,5,1,0,75,0,1
49324,-90.0900900900901,4,1,0,75,0,1
49399,-89.2857142857143,4,1,0,75,0,1
49474,-88.4955752212389,4,1,0,75,0,1
49549,-87.719298245614,4,1,0,75,0,1
49624,-86.9565217391304,4,1,0,75,0,1
49699,-86.2068965517241,4,1,0,75,0,1
49774,-85.4700854700855,4,1,0,75,0,1
49849,-84.7457627118644,4,1,0,75,0,1
49924,-84.0336134453781,4,1,0,75,0,1
49999,-83.3333333333333,4,1,0,75,0,1
53674,-86.9565217391304,4,1,0,75,0,1
53749,-86.2068965517241,4,1,0,75,0,1
53824,-85.4700854700855,4,1,0,75,0,1
53899,-84.7457627118644,4,1,0,75,0,1
53974,-84.0336134453781,4,1,0,75,0,1
54049,-83.3333333333333,4,1,0,75,0,1
54124,-82.6446280991736,4,1,0,75,0,1
54199,-81.9672131147541,4,1,0,75,0,1
54274,-81.3008130081301,4,1,0,75,0,1
54349,-80.6451612903226,4,1,0,75,0,1
54424,-80,4,1,0,75,0,1
54499,-79.3650793650794,4,1,0,75,0,1
54574,-78.7401574803149,4,1,0,75,0,1
54649,-78.125,4,1,0,75,0,1
54724,-77.5193798449612,4,1,0,75,0,0
55024,-100,4,1,0,75,0,1
55099,-99.009900990099,4,1,0,75,0,1
55174,-98.0392156862745,4,1,0,75,0,1
55249,-97.0873786407767,4,1,0,75,0,1
55324,-96.1538461538461,4,1,0,75,0,1
55399,-95.2380952380952,4,1,0,75,0,1
55474,-94.3396226415094,4,1,0,75,0,1
55549,-93.4579439252336,4,1,0,75,0,1
55624,-92.5925925925926,4,1,0,75,0,1
55699,-91.743119266055,4,1,0,75,0,1
55774,-90.9090909090909,4,1,0,75,0,1
55924,-93.0232558139535,4,1,0,75,0,0
56074,-95.2380952380952,4,1,0,75,0,0
56224,-100,4,1,0,75,0,1
56299,-99.009900990099,4,1,0,75,0,1
56374,-98.0392156862745,4,1,0,75,0,1
56449,-97.0873786407767,4,1,0,75,0,1
56524,-96.1538461538461,4,1,0,75,0,1
56599,-95.2380952380952,4,1,0,75,0,1
56674,-94.3396226415094,4,1,0,75,0,1
56749,-93.4579439252336,4,1,0,75,0,1
56824,-92.5925925925926,4,1,0,75,0,1
56899,-91.743119266055,4,1,0,75,0,1
56974,-90.9090909090909,4,1,0,75,0,1
57124,-93.0232558139535,4,1,0,75,0,0
57274,-95.2380952380952,4,1,0,75,0,0
57424,-100,4,1,0,75,0,1
57499,-99.009900990099,4,1,0,75,0,1
57574,-98.0392156862745,4,1,0,75,0,1
57649,-97.0873786407767,4,1,0,75,0,1
57724,-96.1538461538461,4,1,0,75,0,1
57799,-95.2380952380952,4,1,0,75,0,1
57874,-94.3396226415094,4,1,0,75,0,1
57949,-93.4579439252336,4,1,0,75,0,1
58024,-92.5925925925926,4,1,0,75,0,1
58099,-91.743119266055,4,1,0,75,0,1
58174,-90.9090909090909,4,1,0,75,0,1
58324,-86.9565217391304,4,1,0,75,0,0
58524,-90.9090909090909,4,1,0,75,0,0
58724,-95.2380952380952,4,1,0,75,0,0
58924,-100,4,1,0,75,0,0
59124,-105.263157894737,4,1,0,75,0,0
59324,-111.111111111111,4,1,0,75,0,0
59524,-90.9090909090909,4,1,0,85,0,1
78724,-100,4,1,0,75,0,0
78874,-105.263157894737,4,1,0,75,0,0
79024,-111.111111111111,4,1,0,75,0,0
83074,-108.695652173913,4,1,0,75,0,0
83149,-106.382978723404,4,1,0,75,0,0
83224,-104.166666666667,4,1,0,75,0,0
83374,-102.040816326531,4,1,0,75,0,0
83449,-100,4,1,0,75,0,0
83524,-98.0392156862745,4,1,0,75,0,0
83599,-100,4,1,0,75,0,0
102274,-99.009900990099,4,1,0,75,0,0
102349,-98.0392156862745,4,1,0,75,0,0
102424,-97.0873786407767,4,1,0,75,0,0
102499,-96.1538461538461,4,1,0,75,0,0
102574,-95.2380952380952,4,1,0,75,0,0
102649,-94.3396226415094,4,1,0,75,0,0
102724,-93.4579439252336,4,1,0,85,0,1
102874,-92.5925925925926,4,1,0,85,0,1
102949,-91.743119266055,4,1,0,85,0,1
103024,-90.9090909090909,4,1,0,85,0,1
103099,-90.0900900900901,4,1,0,85,0,1
103174,-89.2857142857143,4,1,0,85,0,1
103249,-90.9090909090909,4,1,0,85,0,1
121474,-92.5925925925926,4,1,0,80,0,1
121549,-93.4579439252336,4,1,0,80,0,1
121624,-94.3396226415094,4,1,0,80,0,1
121774,-96.1538461538461,4,1,0,75,0,1
121849,-97.0873786407767,4,1,0,75,0,1
121924,-98.0392156862745,4,1,0,75,0,0
122074,-99.009900990099,4,1,0,75,0,0
122224,-100,4,1,0,75,0,0
122374,-101.010101010101,4,1,0,75,0,0
122524,-102.040816326531,4,1,0,75,0,0
122674,-103.092783505155,4,1,0,75,0,0
122824,-104.166666666667,4,1,0,75,0,0
122974,-105.263157894737,4,1,0,75,0,0
130924,-104.166666666667,4,1,0,75,0,0
130999,-103.092783505155,4,1,0,75,0,0
131074,-102.040816326531,4,1,0,75,0,0
131149,-101.010101010101,4,1,0,75,0,0
131224,-100,4,1,0,75,0,0
131299,-99.009900990099,4,1,0,75,0,0
131374,-98.0392156862745,4,1,0,75,0,0
131524,-96.1538461538461,4,1,0,75,0,0
131674,-98.0392156862745,4,1,0,75,0,0
132124,-100,4,1,0,75,0,0
140074,-98.0392156862745,4,1,0,75,0,0
140224,-96.1538461538461,4,1,0,75,0,0
140299,-95.2380952380952,4,1,0,75,0,0
140374,-94.3396226415094,4,1,0,75,0,0
140449,-93.4579439252336,4,1,0,75,0,0
140524,-92.5925925925926,4,1,0,75,0,0
140674,-91.743119266055,4,1,0,75,0,0
140824,-90.9090909090909,4,1,0,75,0,0
150274,-90.0900900900901,4,1,0,75,0,0
150349,-89.2857142857143,4,1,0,75,0,0
150424,-88.4955752212389,4,1,0,75,0,0
150499,-87.719298245614,4,1,0,75,0,0
150574,-86.9565217391304,4,1,0,75,0,0
150649,-86.2068965517241,4,1,0,75,0,0
150724,-85.4700854700855,4,1,0,75,0,1
150799,-84.7457627118644,4,1,0,75,0,1
150874,-84.0336134453781,4,1,0,75,0,1
150949,-83.3333333333333,4,1,0,75,0,1
154924,-86.9565217391304,4,1,0,75,0,1
155224,-90.9090909090909,4,1,0,75,0,1
155524,-83.3333333333333,4,1,0,75,0,1
159724,-86.9565217391304,4,1,0,75,0,1
160024,-90.9090909090909,4,1,0,75,0,1
160324,312.5,4,1,0,75,1,0
160324,-80,4,1,0,75,0,0
160636,-100,4,1,0,75,0,0
170167,-98.0392156862745,4,1,0,75,0,0
170245,-96.1538461538461,4,1,0,75,0,0
170324,-94.3396226415094,4,1,0,75,0,0
173136,-100,4,1,0,75,0,0
177824,-86.9565217391304,4,1,0,75,0,0
180167,-85.4700854700855,4,1,0,75,0,0
180245,-84.0336134453781,4,1,0,75,0,0
180324,-82.6446280991736,4,1,0,75,0,0
180792,-90.0900900900901,4,1,0,75,0,0
181417,-99.009900990099,4,1,0,75,0,0
181730,-100,4,1,0,75,0,0
182824,-83.3333333333333,4,1,0,75,0,0
185167,-81.9672131147541,4,1,0,75,0,0
185245,-80.6451612903226,4,1,0,75,0,0
185324,-79.3650793650794,4,1,0,75,0,0
185792,-86.2068965517241,4,1,0,75,0,0
186417,-94.3396226415094,4,1,0,75,0,0
186730,-95.2380952380952,4,1,0,75,0,0
186886,-96.1538461538461,4,1,0,75,0,0
187042,-97.0873786407767,4,1,0,75,0,0
187199,-98.0392156862745,4,1,0,75,0,0
187667,-100,4,1,0,75,0,0
187824,312.5,5,1,0,75,1,0
194074,288.461538461538,4,1,0,75,1,0
194074,-92.5925925925926,4,1,0,85,0,1
212535,454.545454545455,4,1,0,75,1,0
212535,-59.5238095238095,4,1,0,75,0,0
212762,-71.4285714285714,4,1,0,50,0,0
213671,-83.3333333333333,4,1,0,50,0,0
240944,-82.6446280991736,4,1,0,55,0,0
241057,-81.9672131147541,4,1,0,55,0,0
241171,-81.3008130081301,4,1,0,55,0,0
241285,-80.6451612903226,4,1,0,55,0,0
241398,-80,4,1,0,55,0,0
241512,-79.3650793650794,4,1,0,55,0,0
241625,333.333333333333,4,1,0,60,1,0
262958,312.5,4,1,0,75,1,0
267489,-99.009900990099,4,1,0,75,0,0
267567,-98.0392156862745,4,1,0,75,0,0
267645,-97.0873786407767,4,1,0,75,0,0
267723,-96.1538461538461,4,1,0,75,0,0
267801,-95.2380952380952,4,1,0,75,0,0
267879,-94.3396226415094,4,1,0,75,0,0
267958,-93.4579439252336,4,1,0,75,0,0
268114,-95.2380952380952,4,1,0,75,0,0
282958,307.692307692308,4,1,0,85,1,1
282958,-98.0392156862745,4,1,0,85,0,1
284188,300,4,1,0,85,1,1
285388,288.461538461538,4,1,0,85,1,1
286541,279.06976744186,4,1,0,85,1,1
287657,266.666666666667,4,1,0,85,1,1
288723,260.869565217391,4,1,0,85,1,1
289766,255.31914893617,4,1,0,85,1,1
290787,240,4,1,0,85,1,1
290787,-106.382978723404,4,1,0,85,0,1
291907,-106.382978723404,4,1,0,85,0,0
292707,240,4,1,0,85,1,8
292947,300,4,1,0,85,1,1
292947,-90.9090909090909,4,1,0,85,0,1
307347,-90.9090909090909,4,1,0,85,0,0
307497,-90.9090909090909,4,1,0,75,0,0
309747,-90.9090909090909,4,1,0,75,0,0
314097,-89.2857142857143,4,1,0,85,0,0
314172,-87.719298245614,4,1,0,85,0,0
314247,-86.2068965517241,4,1,0,85,0,0
314322,-84.7457627118644,4,1,0,85,0,0
314397,-83.3333333333333,4,1,0,85,0,0
314472,-81.9672131147541,4,1,0,85,0,0
314547,300,4,1,0,85,1,1
314547,-80.6451612903226,4,1,0,85,0,1
314622,-80,4,1,0,85,0,1
318297,-74.0740740740741,4,1,0,85,0,1
319347,-71.4285714285714,4,1,0,85,0,1
319497,-71.4285714285714,4,1,0,80,0,0

[HitObjects]
96,212,724,5,8,0:0:0:0:
108,243,799,1,0,0:0:0:0:
111,217,874,1,8,0:0:0:0:
106,217,949,1,8,0:0:0:0:
119,224,1024,1,8,0:0:0:0:
112,249,1099,1,0,0:0:0:0:
112,232,1174,1,8,0:0:0:0:
109,232,1249,1,8,0:0:0:0:
104,233,1324,1,8,0:0:0:0:
105,251,1399,1,0,0:0:0:0:
100,227,1474,1,8,0:0:0:0:
95,227,1549,1,8,0:0:0:0:
94,232,1624,1,8,0:0:0:0:
97,248,1699,1,0,0:0:0:0:
97,228,1774,1,8,0:0:0:0:
91,229,1849,1,8,0:0:0:0:
91,229,1924,1,8,0:0:0:0:
103,247,1999,1,0,0:0:0:0:
104,227,2074,1,8,0:0:0:0:
104,227,2149,1,8,0:0:0:0:
104,227,2224,1,8,0:0:0:0:
109,238,2299,1,0,0:0:0:0:
109,227,2374,1,8,0:0:0:0:
102,225,2449,1,8,0:0:0:0:
102,226,2524,1,8,0:0:0:0:
112,223,2674,1,8,0:0:0:0:
112,223,2824,1,8,0:0:0:0:
112,224,2974,1,8,0:0:0:0:
199,0,3124,1,4,0:0:0:0:
199,0,3274,1,4,0:0:0:0:
162,35,6124,1,4,0:0:0:0:
162,35,6274,1,4,0:0:0:0:
162,236,8974,1,0,0:0:0:0:
186,226,9049,1,0,0:0:0:0:
229,48,9124,1,12,0:0:0:0:
229,48,9274,1,12,0:0:0:0:
139,234,10474,1,0,0:0:0:0:
163,233,10549,1,0,0:0:0:0:
119,49,10624,1,12,0:0:0:0:
119,49,10774,1,12,0:0:0:0:
119,248,11974,1,0,0:0:0:0:
119,248,12049,1,0,0:0:0:0:
201,38,12124,1,12,0:0:0:0:
201,38,12274,1,12,0:0:0:0:
104,268,13474,1,0,0:0:0:0:
88,265,13549,1,0,0:0:0:0:
172,37,13624,1,12,0:0:0:0:
172,37,13774,1,12,0:0:0:0:
179,0,15124,1,4,0:0:0:0:
111,229,15274,1,8,0:0:0:0:
186,233,15424,1,8,0:0:0:0:
193,251,15499,1,0,0:0:0:0:
199,254,15574,1,0,0:0:0:0:
211,232,15724,1,8,0:0:0:0:
185,279,15874,1,0,0:0:0:0:
181,268,15949,1,0,0:0:0:0:
169,265,16024,1,8,0:0:0:0:
145,285,16174,1,0,0:0:0:0:
139,251,16324,1,8,0:0:0:0:
130,281,16474,1,0,0:0:0:0:
116,279,16549,1,0,0:0:0:0:
149,281,16624,1,8,0:0:0:0:
172,265,16774,1,8,0:0:0:0:
211,291,16924,1,0,0:0:0:0:
211,291,16999,1,0,0:0:0:0:
210,278,17074,1,8,0:0:0:0:
202,277,17149,1,8,0:0:0:0:
176,29,17224,1,4,0:0:0:0:
252,26,17524,1,12,0:0:0:0:
202,59,17824,1,4,0:0:0:0:
198,282,17974,1,0,0:0:0:0:
192,263,18124,1,8,0:0:0:0:
196,282,18274,1,0,0:0:0:0:
196,282,18349,1,0,0:0:0:0:
212,253,18424,1,8,0:0:0:0:
153,277,18574,1,0,0:0:0:0:
159,283,18649,1,8,0:0:0:0:
169,260,18724,1,8,0:0:0:0:
144,291,18874,1,8,0:0:0:0:
207,269,19024,1,0,0:0:0:0:
126,273,19174,1,0,0:0:0:0:
126,273,19249,1,0,0:0:0:0:
141,253,19324,1,8,0:0:0:0:
113,281,19474,1,0,0:0:0:0:
122,219,19624,1,8,0:0:0:0:
122,219,19699,1,8,0:0:0:0:
134,233,19774,1,0,0:0:0:0:
135,233,19849,1,0,0:0:0:0:
206,46,19924,1,12,0:0:0:0:
263,91,20074,1,4,0:0:0:0:
193,92,20224,1,12,0:0:0:0:
247,283,20374,1,0,0:0:0:0:
258,247,20524,1,8,0:0:0:0:
177,312,20674,1,0,0:0:0:0:
151,294,20749,1,0,0:0:0:0:
173,287,20824,1,8,0:0:0:0:
123,294,20974,1,0,0:0:0:0:
120,276,21049,1,8,0:0:0:0:
98,272,21124,1,8,0:0:0:0:
117,299,21274,1,0,0:0:0:0:
128,253,21424,1,8,0:0:0:0:
73,263,21574,1,0,0:0:0:0:
71,270,21649,1,0,0:0:0:0:
69,247,21724,1,8,0:0:0:0:
67,246,21799,1,8,0:0:0:0:
71,255,21874,1,0,0:0:0:0:
130,216,22024,1,8,0:0:0:0:
130,216,22174,1,0,0:0:0:0:
149,225,22249,1,8,0:0:0:0:
161,30,22324,1,4,0:0:0:0:
246,59,22624,1,12,0:0:0:0:
176,74,22924,1,4,0:0:0:0:
190,256,23074,1,0,0:0:0:0:
190,256,23224,1,8,0:0:0:0:
108,287,23374,1,0,0:0:0:0:
108,287,23449,1,0,0:0:0:0:
105,267,23524,1,8,0:0:0:0:
48,293,23674,1,8,0:0:0:0:
139,303,23824,1,0,0:0:0:0:
135,281,23899,1,8,0:0:0:0:
125,280,23974,1,8,0:0:0:0:
102,306,24124,1,0,0:0:0:0:
102,304,24274,1,0,0:0:0:0:
102,304,24349,1,0,0:0:0:0:
151,264,24424,1,8,0:0:0:0:
128,281,24574,1,0,0:0:0:0:
128,281,24649,1,0,0:0:0:0:
131,255,24724,1,8,0:0:0:0:
125,280,24874,1,0,0:0:0:0:
124,274,24949,1,0,0:0:0:0:
158,273,25024,1,8,0:0:0:0:
91,258,25174,1,8,0:0:0:0:
209,33,25324,1,12,0:0:0:0:
170,291,25474,1,0,0:0:0:0:
175,236,25624,1,8,0:0:0:0:
235,300,25774,1,0,0:0:0:0:
235,300,25849,1,0,0:0:0:0:
218,288,25924,1,8,0:0:0:0:
167,318,26074,1,8,0:0:0:0:
182,323,26149,1,0,0:0:0:0:
185,324,26224,1,8,0:0:0:0:
201,324,26299,1,0,0:0:0:0:
201,324,26374,1,0,0:0:0:0:
218,260,26524,1,8,0:0:0:0:
141,268,26674,1,0,0:0:0:0:
154,265,26749,1,0,0:0:0:0:
141,248,26824,1,8,0:0:0:0:
86,292,26974,1,8,0:0:0:0:
115,301,27124,1,0,0:0:0:0:
115,301,27199,1,0,0:0:0:0:
127,306,27274,1,8,0:0:0:0:
127,308,27349,1,8,0:0:0:0:
224,49,27424,1,4,0:0:0:0:
181,71,27724,1,12,0:0:0:0:
220,96,28024,1,4,0:0:0:0:
203,308,28174,1,0,0:0:0:0:
155,291,28324,1,8,0:0:0:0:
150,325,28474,1,0,0:0:0:0:
150,325,28549,1,0,0:0:0:0:
139,310,28624,1,8,0:0:0:0:
91,317,28774,1,0,0:0:0:0:
93,303,28849,1,8,0:0:0:0:
91,301,28924,1,8,0:0:0:0:
67,301,29074,1,8,0:0:0:0:
91,293,29224,1,8,0:0:0:0:
111,314,29374,1,0,0:0:0:0:
127,293,29524,1,8,0:0:0:0:
126,308,29674,1,0,0:0:0:0:
131,307,29749,1,0,0:0:0:0:
175,52,29824,1,12,0:0:0:0:
184,310,30049,1,0,0:0:0:0:
202,57,30124,1,12,0:0:0:0:
127,293,30274,1,8,0:0:0:0:
253,77,30424,1,4,0:0:0:0:
211,319,30574,1,0,0:0:0:0:
211,292,30724,1,8,0:0:0:0:
247,305,30874,1,0,0:0:0:0:
247,305,30949,1,0,0:0:0:0:
247,261,31024,1,8,0:0:0:0:
185,259,31174,1,0,0:0:0:0:
177,273,31249,1,8,0:0:0:0:
187,239,31324,1,8,0:0:0:0:
138,259,31474,1,0,0:0:0:0:
235,266,31624,1,8,0:0:0:0:
226,306,31774,1,0,0:0:0:0:
226,306,31849,1,0,0:0:0:0:
201,300,31924,1,8,0:0:0:0:
135,317,32074,1,8,0:0:0:0:
167,346,32224,1,8,0:0:0:0:
246,324,32374,1,0,0:0:0:0:
247,317,32449,1,8,0:0:0:0:
194,52,32524,1,4,0:0:0:0:
294,78,32824,1,12,0:0:0:0:
240,95,33124,1,4,0:0:0:0:
211,318,33274,1,0,0:0:0:0:
165,300,33424,1,8,0:0:0:0:
122,330,33574,1,0,0:0:0:0:
122,330,33649,1,0,0:0:0:0:
101,293,33724,1,8,0:0:0:0:
45,312,33874,1,8,0:0:0:0:
157,261,34024,1,8,0:0:0:0:
162,273,34099,1,0,0:0:0:0:
172,254,34174,1,8,0:0:0:0:
172,254,34249,1,8,0:0:0:0:
176,281,34324,1,0,0:0:0:0:
176,282,34474,1,0,0:0:0:0:
176,282,34549,1,0,0:0:0:0:
181,267,34624,1,8,0:0:0:0:
152,288,34774,1,0,0:0:0:0:
152,288,34849,1,0,0:0:0:0:
124,12,34924,1,12,0:0:0:0:
221,258,35074,1,8,0:0:0:0:
221,258,35149,1,0,0:0:0:0:
221,258,35224,1,8,0:0:0:0:
221,258,35299,1,8,0:0:0:0:
221,258,35374,1,0,0:0:0:0:
221,258,35449,1,8,0:0:0:0:
199,60,35524,1,4,0:0:0:0:
225,29,35674,1,4,0:0:0:0:
265,228,35824,1,8,0:0:0:0:
251,303,35974,1,0,0:0:0:0:
166,292,36124,1,0,0:0:0:0:
76,284,36274,1,8,0:0:0:0:
173,49,36424,1,4,0:0:0:0:
173,49,36574,1,4,0:0:0:0:
167,247,36724,1,8,0:0:0:0:
166,301,36874,1,8,0:0:0:0:
230,302,37024,1,0,0:0:0:0:
246,264,37174,1,8,0:0:0:0:
153,57,37324,1,4,0:0:0:0:
153,57,37474,1,4,0:0:0:0:
146,250,37624,1,8,0:0:0:0:
153,311,37774,1,0,0:0:0:0:
211,262,37924,1,8,0:0:0:0:
272,245,38074,1,8,0:0:0:0:
157,44,38224,1,4,0:0:0:0:
157,44,38374,1,4,0:0:0:0:
130,275,38524,1,8,0:0:0:0:
156,315,38674,1,0,0:0:0:0:
194,291,38824,1,8,0:0:0:0:
190,263,38974,1,8,0:0:0:0:
158,301,39124,1,0,0:0:0:0:
158,301,39199,1,0,0:0:0:0:
146,273,39274,1,8,0:0:0:0:
146,273,39349,1,8,0:0:0:0:
146,273,39424,1,8,0:0:0:0:
146,273,39574,1,8,0:0:0:0:
188,79,39724,1,4,0:0:0:0:
188,79,39874,1,4,0:0:0:0:
216,269,40024,1,8,0:0:0:0:
236,325,40174,1,0,0:0:0:0:
190,330,40324,1,0,0:0:0:0:
146,282,40474,1,8,0:0:0:0:
157,63,40624,1,4,0:0:0:0:
157,63,40774,1,4,0:0:0:0:
209,262,40924,1,8,0:0:0:0:
201,296,41074,1,0,0:0:0:0:
131,273,41224,1,8,0:0:0:0:
76,266,41374,1,8,0:0:0:0:
206,65,41524,1,4,0:0:0:0:
206,65,41674,1,4,0:0:0:0:
177,269,41824,1,8,0:0:0:0:
168,303,41974,1,0,0:0:0:0:
150,260,42124,1,8,0:0:0:0:
93,241,42274,1,8,0:0:0:0:
153,85,42424,1,4,0:0:0:0:
153,85,42574,1,4,0:0:0:0:
186,258,42724,1,8,0:0:0:0:
173,298,42874,1,0,0:0:0:0:
189,293,42949,1,0,0:0:0:0:
195,258,43024,1,8,0:0:0:0:
195,258,43099,1,8,0:0:0:0:
195,258,43174,1,0,0:0:0:0:
195,258,43249,1,8,0:0:0:0:
195,258,43324,1,8,0:0:0:0:
196,278,43399,1,0,0:0:0:0:
202,253,43474,1,8,0:0:0:0:
202,253,43549,1,8,0:0:0:0:
193,104,43624,1,4,0:0:0:0:
138,92,43774,1,12,0:0:0:0:
246,233,44524,1,8,0:0:0:0:
246,233,44599,1,8,0:0:0:0:
247,219,44674,1,8,0:0:0:0:
247,219,44749,1,8,0:0:0:0:
247,219,44824,1,8,0:0:0:0:
247,219,44899,1,8,0:0:0:0:
247,219,44974,1,8,0:0:0:0:
247,219,45049,1,8,0:0:0:0:
183,288,45124,1,0,0:0:0:0:
183,288,45199,1,0,0:0:0:0:
161,265,45274,1,8,0:0:0:0:
178,295,45349,1,0,0:0:0:0:
168,258,45424,1,8,0:0:0:0:
169,258,45499,1,8,0:0:0:0:
174,276,45574,1,0,0:0:0:0:
171,277,45649,1,8,0:0:0:0:
173,250,45724,1,8,0:0:0:0:
166,278,45799,1,0,0:0:0:0:
166,278,45874,1,0,0:0:0:0:
166,264,45949,1,8,0:0:0:0:
156,280,46024,1,0,0:0:0:0:
156,280,46099,1,0,0:0:0:0:
146,262,46174,1,8,0:0:0:0:
151,286,46249,1,0,0:0:0:0:
145,252,46324,1,8,0:0:0:0:
144,252,46399,1,8,0:0:0:0:
147,276,46474,1,0,0:0:0:0:
147,276,46549,1,0,0:0:0:0:
146,249,46624,1,8,0:0:0:0:
147,268,46699,1,0,0:0:0:0:
146,243,46774,1,8,0:0:0:0:
145,243,46849,1,8,0:0:0:0:
148,268,46924,1,0,0:0:0:0:
148,268,46999,1,0,0:0:0:0:
150,252,47074,1,8,0:0:0:0:
151,268,47149,1,0,0:0:0:0:
151,268,47224,1,0,0:0:0:0:
151,268,47299,1,0,0:0:0:0:
151,268,47374,1,8,0:0:0:0:
151,268,47449,1,0,0:0:0:0:
162,252,47524,1,8,0:0:0:0:
162,252,47599,1,8,0:0:0:0:
160,278,47674,1,0,0:0:0:0:
160,278,47749,1,0,0:0:0:0:
156,256,47824,1,8,0:0:0:0:
156,272,47899,1,0,0:0:0:0:
156,248,47974,1,8,0:0:0:0:
156,248,48049,1,8,0:0:0:0:
156,268,48124,1,0,0:0:0:0:
156,268,48199,1,0,0:0:0:0:
156,268,48274,1,8,0:0:0:0:
174,273,48349,1,0,0:0:0:0:
173,273,48424,1,0,0:0:0:0:
173,273,48499,1,0,0:0:0:0:
169,251,48574,1,8,0:0:0:0:
171,274,48649,1,0,0:0:0:0:
186,249,48724,1,8,0:0:0:0:
183,249,48799,1,8,0:0:0:0:
181,278,48874,1,0,0:0:0:0:
181,278,48949,1,0,0:0:0:0:
180,251,49024,1,8,0:0:0:0:
178,273,49099,1,0,0:0:0:0:
179,254,49174,1,8,0:0:0:0:
179,253,49249,1,8,0:0:0:0:
177,276,49324,1,0,0:0:0:0:
175,238,49399,1,8,0:0:0:0:
174,238,49474,1,8,0:0:0:0:
174,238,49549,1,8,0:0:0:0:
174,238,49624,1,8,0:0:0:0:
174,238,49699,1,8,0:0:0:0:
174,238,49774,1,8,0:0:0:0:
174,238,49849,1,8,0:0:0:0:
181,279,49924,1,0,0:0:0:0:
181,277,49999,1,0,0:0:0:0:
143,242,50074,1,8,0:0:0:0:
155,277,50149,1,0,0:0:0:0:
150,228,50224,1,8,0:0:0:0:
150,228,50299,1,0,0:0:0:0:
145,232,50374,1,8,0:0:0:0:
164,202,50449,1,8,0:0:0:0:
164,202,50524,1,8,0:0:0:0:
168,233,50599,1,0,0:0:0:0:
176,203,50674,1,8,0:0:0:0:
176,203,50749,1,8,0:0:0:0:
177,227,50824,1,0,0:0:0:0:
177,227,50899,1,0,0:0:0:0:
177,227,50974,1,8,0:0:0:0:
192,226,51049,1,0,0:0:0:0:
179,196,51124,1,8,0:0:0:0:
179,196,51199,1,8,0:0:0:0:
177,229,51274,1,0,0:0:0:0:
177,229,51349,1,0,0:0:0:0:
171,202,51424,1,8,0:0:0:0:
170,226,51499,1,0,0:0:0:0:
172,198,51574,1,8,0:0:0:0:
172,198,51649,1,8,0:0:0:0:
176,237,51724,1,0,0:0:0:0:
176,237,51799,1,0,0:0:0:0:
176,237,51874,1,8,0:0:0:0:
177,226,51949,1,0,0:0:0:0:
177,217,52024,1,0,0:0:0:0:
177,217,52099,1,0,0:0:0:0:
176,202,52174,1,8,0:0:0:0:
178,222,52249,1,0,0:0:0:0:
150,180,52324,1,8,0:0:0:0:
150,187,52399,1,8,0:0:0:0:
151,241,52474,1,0,0:0:0:0:
151,241,52549,1,0,0:0:0:0:
156,179,52624,1,8,0:0:0:0:
144,220,52699,1,0,0:0:0:0:
167,197,52774,1,8,0:0:0:0:
167,197,52849,1,8,0:0:0:0:
158,233,52924,1,8,0:0:0:0:
158,233,52999,1,0,0:0:0:0:
161,206,53074,1,8,0:0:0:0:
152,229,53149,1,0,0:0:0:0:
154,228,53224,1,0,0:0:0:0:
154,228,53299,1,0,0:0:0:0:
156,206,53374,1,8,0:0:0:0:
151,228,53449,1,0,0:0:0:0:
131,71,53524,1,12,0:0:0:0:
233,243,53674,1,0,0:0:0:0:
233,243,53749,1,0,0:0:0:0:
214,207,53824,1,8,0:0:0:0:
214,207,53899,1,0,0:0:0:0:
214,207,53974,1,8,0:0:0:0:
214,207,54049,1,8,0:0:0:0:
214,207,54124,1,8,0:0:0:0:
214,207,54199,1,0,0:0:0:0:
214,207,54274,1,8,0:0:0:0:
214,207,54349,1,8,0:0:0:0:
214,207,54424,1,8,0:0:0:0:
214,207,54499,1,8,0:0:0:0:
214,207,54574,1,0,0:0:0:0:
214,207,54649,1,0,0:0:0:0:
163,47,54724,1,12,0:0:0:0:
166,246,55024,1,8,0:0:0:0:
168,263,55099,1,0,0:0:0:0:
168,263,55174,1,0,0:0:0:0:
168,263,55249,1,0,0:0:0:0:
166,246,55324,1,8,0:0:0:0:
172,272,55399,1,0,0:0:0:0:
172,272,55474,1,0,0:0:0:0:
172,272,55549,1,0,0:0:0:0:
171,252,55624,1,8,0:0:0:0:
175,272,55699,1,0,0:0:0:0:
176,272,55774,1,0,0:0:0:0:
196,41,55924,1,12,0:0:0:0:
243,231,56074,1,8,0:0:0:0:
101,262,56224,1,8,0:0:0:0:
115,278,56299,1,0,0:0:0:0:
115,278,56374,1,0,0:0:0:0:
115,278,56449,1,0,0:0:0:0:
123,257,56524,1,8,0:0:0:0:
125,276,56599,1,0,0:0:0:0:
125,276,56674,1,0,0:0:0:0:
125,276,56749,1,0,0:0:0:0:
132,256,56824,1,8,0:0:0:0:
132,277,56899,1,0,0:0:0:0:
132,277,56974,1,0,0:0:0:0:
176,55,57124,1,12,0:0:0:0:
254,234,57274,1,8,0:0:0:0:
134,295,57424,1,8,0:0:0:0:
132,276,57499,1,0,0:0:0:0:
132,276,57574,1,0,0:0:0:0:
132,276,57649,1,0,0:0:0:0:
136,294,57724,1,8,0:0:0:0:
136,276,57799,1,0,0:0:0:0:
132,277,57874,1,0,0:0:0:0:
136,276,57949,1,0,0:0:0:0:
141,298,58024,1,8,0:0:0:0:
142,277,58099,1,0,0:0:0:0:
142,277,58174,1,0,0:0:0:0:
206,27,58324,1,12,0:0:0:0:
270,42,58524,1,12,0:0:0:0:
227,87,58724,1,12,0:0:0:0:
133,72,58924,1,4,0:0:0:0:
206,78,59124,1,12,0:0:0:0:
197,117,59324,1,12,0:0:0:0:
197,44,59524,1,4,0:0:0:0:
203,305,59674,1,0,0:0:0:0:
203,305,59749,1,0,0:0:0:0:
191,289,59824,1,8,0:0:0:0:
196,313,59899,1,0,0:0:0:0:
208,289,59974,1,8,0:0:0:0:
149,287,60124,1,8,0:0:0:0:
154,316,60199,1,0,0:0:0:0:
160,286,60274,1,8,0:0:0:0:
170,288,60349,1,8,0:0:0:0:
171,309,60424,1,0,0:0:0:0:
156,287,60574,1,8,0:0:0:0:
111,317,60724,1,0,0:0:0:0:
101,298,60874,1,8,0:0:0:0:
101,298,60949,1,8,0:0:0:0:
111,317,61024,1,0,0:0:0:0:
201,305,61099,1,0,0:0:0:0:
126,283,61174,1,8,0:0:0:0:
186,281,61324,1,8,0:0:0:0:
171,310,61474,1,8,0:0:0:0:
187,312,61624,1,0,0:0:0:0:
187,312,61699,1,0,0:0:0:0:
213,278,61774,1,8,0:0:0:0:
219,280,61849,1,0,0:0:0:0:
119,250,61924,1,8,0:0:0:0:
129,302,62074,1,8,0:0:0:0:
136,316,62224,1,0,0:0:0:0:
157,283,62299,1,0,0:0:0:0:
163,264,62374,1,8,0:0:0:0:
81,278,62524,1,0,0:0:0:0:
112,292,62674,1,8,0:0:0:0:
113,317,62824,1,0,0:0:0:0:
115,317,62899,1,0,0:0:0:0:
131,280,62974,1,8,0:0:0:0:
128,281,63049,1,8,0:0:0:0:
136,316,63124,1,0,0:0:0:0:
183,273,63274,1,8,0:0:0:0:
191,316,63424,1,0,0:0:0:0:
214,283,63574,1,8,0:0:0:0:
214,283,63649,1,8,0:0:0:0:
211,306,63724,1,0,0:0:0:0:
123,287,63874,1,8,0:0:0:0:
138,289,64024,1,0,0:0:0:0:
135,278,64099,1,8,0:0:0:0:
168,278,64174,1,0,0:0:0:0:
171,252,64249,1,8,0:0:0:0:
168,278,64324,1,0,0:0:0:0:
206,259,64474,1,8,0:0:0:0:
209,288,64624,1,0,0:0:0:0:
222,283,64699,1,0,0:0:0:0:
226,263,64774,1,8,0:0:0:0:
167,303,64924,1,0,0:0:0:0:
146,267,65074,1,8,0:0:0:0:
102,304,65224,1,0,0:0:0:0:
102,304,65299,1,0,0:0:0:0:
98,289,65374,1,8,0:0:0:0:
95,289,65449,1,8,0:0:0:0:
112,311,65524,1,0,0:0:0:0:
171,313,65674,1,0,0:0:0:0:
164,270,65824,1,8,0:0:0:0:
176,297,65899,1,0,0:0:0:0:
177,271,65974,1,8,0:0:0:0:
131,284,66124,1,0,0:0:0:0:
115,243,66274,1,8,0:0:0:0:
77,307,66424,1,8,0:0:0:0:
77,307,66499,1,8,0:0:0:0:
125,304,66574,1,0,0:0:0:0:
125,304,66649,1,0,0:0:0:0:
205,57,66724,1,12,0:0:0:0:
196,127,67024,1,4,0:0:0:0:
268,62,67224,1,12,0:0:0:0:
141,66,67924,1,12,0:0:0:0:
169,146,68224,1,4,0:0:0:0:
234,68,68424,1,12,0:0:0:0:
189,289,68674,1,0,0:0:0:0:
197,280,68749,1,0,0:0:0:0:
174,273,68824,1,8,0:0:0:0:
181,323,68974,1,0,0:0:0:0:
187,322,69049,1,0,0:0:0:0:
214,27,69124,1,12,0:0:0:0:
199,323,69274,1,0,0:0:0:0:
206,325,69349,1,0,0:0:0:0:
197,296,69424,1,8,0:0:0:0:
205,326,69499,1,0,0:0:0:0:
214,293,69574,1,8,0:0:0:0:
148,328,69724,1,0,0:0:0:0:
151,293,69874,1,8,0:0:0:0:
112,309,70024,1,0,0:0:0:0:
112,309,70099,1,0,0:0:0:0:
110,288,70174,1,8,0:0:0:0:
112,309,70249,1,0,0:0:0:0:
116,283,70324,1,8,0:0:0:0:
185,305,70474,1,0,0:0:0:0:
166,300,70624,1,0,0:0:0:0:
165,300,70699,1,0,0:0:0:0:
98,282,70774,1,8,0:0:0:0:
120,286,70924,1,0,0:0:0:0:
74,220,71074,1,8,0:0:0:0:
94,260,71224,1,0,0:0:0:0:
94,260,71299,1,0,0:0:0:0:
91,236,71374,1,8,0:0:0:0:
62,247,71524,1,8,0:0:0:0:
89,283,71674,1,8,0:0:0:0:
89,283,71749,1,8,0:0:0:0:
98,293,71824,1,0,0:0:0:0:
104,295,71899,1,0,0:0:0:0:
106,265,71974,1,8,0:0:0:0:
124,305,72124,1,0,0:0:0:0:
135,263,72274,1,8,0:0:0:0:
168,315,72424,1,0,0:0:0:0:
168,315,72499,1,0,0:0:0:0:
170,286,72574,1,8,0:0:0:0:
168,315,72649,1,0,0:0:0:0:
166,291,72724,1,8,0:0:0:0:
160,292,72874,1,8,0:0:0:0:
168,315,73024,1,0,0:0:0:0:
173,318,73099,1,0,0:0:0:0:
173,300,73174,1,8,0:0:0:0:
139,318,73324,1,0,0:0:0:0:
139,318,73399,1,8,0:0:0:0:
199,306,73474,1,8,0:0:0:0:
199,306,73549,1,8,0:0:0:0:
201,324,73624,1,0,0:0:0:0:
198,285,73774,1,8,0:0:0:0:
127,17,73924,1,4,0:0:0:0:
158,307,74224,1,0,0:0:0:0:
159,282,74374,1,8,0:0:0:0:
128,278,74524,1,8,0:0:0:0:
212,309,74974,1,8,0:0:0:0:
256,307,75049,1,8,0:0:0:0:
193,27,75124,1,4,0:0:0:0:
184,308,75424,1,0,0:0:0:0:
180,259,75574,1,8,0:0:0:0:
130,262,75724,1,8,0:0:0:0:
148,296,75874,1,0,0:0:0:0:
148,296,76174,1,8,0:0:0:0:
148,296,76249,1,0,0:0:0:0:
183,3,76324,1,12,0:0:0:0:
233,29,76624,1,12,0:0:0:0:
232,110,76824,1,4,0:0:0:0:
203,277,77074,1,0,0:0:0:0:
203,277,77149,1,0,0:0:0:0:
191,267,77224,1,8,0:0:0:0:
171,317,77374,1,0,0:0:0:0:
171,317,77449,1,0,0:0:0:0:
152,60,77524,1,12,0:0:0:0:
237,67,77824,1,12,0:0:0:0:
251,138,78024,1,4,0:0:0:0:
197,303,78274,1,0,0:0:0:0:
156,250,78424,1,8,0:0:0:0:
197,32,78724,1,12,0:0:0:0:
273,318,78874,1,0,0:0:0:0:
294,314,79174,1,0,0:0:0:0:
271,281,79324,1,8,0:0:0:0:
271,281,79474,1,8,0:0:0:0:
211,309,79774,1,0,0:0:0:0:
211,309,79849,1,0,0:0:0:0:
177,286,79924,1,8,0:0:0:0:
173,319,80074,1,0,0:0:0:0:
233,269,80224,1,8,0:0:0:0:
282,273,80374,1,0,0:0:0:0:
155,240,80524,1,8,0:0:0:0:
105,293,80674,1,0,0:0:0:0:
111,294,80749,1,0,0:0:0:0:
113,289,80824,1,0,0:0:0:0:
165,293,80974,1,0,0:0:0:0:
189,28,81124,1,12,0:0:0:0:
234,30,81274,1,4,0:0:0:0:
208,279,81574,1,0,0:0:0:0:
207,271,81724,1,8,0:0:0:0:
236,266,81874,1,8,0:0:0:0:
171,334,82174,1,0,0:0:0:0:
171,334,82249,1,0,0:0:0:0:
127,303,82324,1,8,0:0:0:0:
127,303,82399,1,0,0:0:0:0:
133,290,82474,1,8,0:0:0:0:
127,327,82624,1,0,0:0:0:0:
127,327,82699,1,0,0:0:0:0:
138,297,82774,1,8,0:0:0:0:
137,330,82849,1,0,0:0:0:0:
213,295,83074,1,0,0:0:0:0:
213,295,83149,1,0,0:0:0:0:
214,286,83224,1,8,0:0:0:0:
167,311,83374,1,0,0:0:0:0:
167,311,83449,1,0,0:0:0:0:
163,284,83524,1,8,0:0:0:0:
233,331,83674,1,0,0:0:0:0:
239,329,83749,1,0,0:0:0:0:
216,320,83824,1,8,0:0:0:0:
216,320,83899,1,8,0:0:0:0:
233,331,83974,1,0,0:0:0:0:
214,273,84124,1,8,0:0:0:0:
187,305,84274,1,0,0:0:0:0:
139,324,84424,1,0,0:0:0:0:
131,270,84574,1,8,0:0:0:0:
131,270,84649,1,8,0:0:0:0:
151,295,84724,1,0,0:0:0:0:
154,264,84874,1,8,0:0:0:0:
155,279,84949,1,0,0:0:0:0:
163,263,85024,1,8,0:0:0:0:
169,276,85174,1,0,0:0:0:0:
172,276,85249,1,0,0:0:0:0:
161,237,85324,1,8,0:0:0:0:
158,240,85399,1,0,0:0:0:0:
179,229,85474,1,8,0:0:0:0:
179,229,85549,1,0,0:0:0:0:
187,216,85624,1,8,0:0:0:0:
187,297,85699,1,0,0:0:0:0:
218,248,85774,1,8,0:0:0:0:
211,237,85849,1,8,0:0:0:0:
215,258,85924,1,0,0:0:0:0:
206,261,86074,1,0,0:0:0:0:
197,265,86149,1,0,0:0:0:0:
193,242,86224,1,8,0:0:0:0:
192,241,86299,1,8,0:0:0:0:
197,273,86374,1,0,0:0:0:0:
185,243,86524,1,8,0:0:0:0:
176,244,86674,1,8,0:0:0:0:
184,286,86824,1,0,0:0:0:0:
150,29,86974,1,12,0:0:0:0:
205,285,87274,1,0,0:0:0:0:
211,256,87424,1,8,0:0:0:0:
211,256,87499,1,8,0:0:0:0:
223,278,87574,1,0,0:0:0:0:
223,278,87649,1,0,0:0:0:0:
225,232,87724,1,8,0:0:0:0:
225,232,87799,1,8,0:0:0:0:
223,267,87874,1,0,0:0:0:0:
127,236,88024,1,8,0:0:0:0:
127,236,88099,1,8,0:0:0:0:
136,254,88174,1,0,0:0:0:0:
200,36,88324,1,12,0:0:0:0:
188,318,88474,1,0,0:0:0:0:
188,318,88549,1,0,0:0:0:0:
173,297,88624,1,8,0:0:0:0:
146,287,88699,1,8,0:0:0:0:
147,313,88774,1,0,0:0:0:0:
112,240,88924,1,8,0:0:0:0:
153,252,89074,1,8,0:0:0:0:
110,297,89224,1,0,0:0:0:0:
209,257,89374,1,8,0:0:0:0:
209,257,89524,1,8,0:0:0:0:
152,298,89674,1,0,0:0:0:0:
145,275,89824,1,8,0:0:0:0:
115,304,89974,1,0,0:0:0:0:
115,304,90049,1,0,0:0:0:0:
93,266,90124,1,8,0:0:0:0:
93,266,90199,1,8,0:0:0:0:
99,296,90274,1,0,0:0:0:0:
102,293,90349,1,0,0:0:0:0:
109,261,90424,1,8,0:0:0:0:
122,250,90574,1,8,0:0:0:0:
122,251,90649,1,8,0:0:0:0:
129,288,90724,1,0,0:0:0:0:
155,291,90799,1,0,0:0:0:0:
155,291,90874,1,8,0:0:0:0:
155,291,90949,1,0,0:0:0:0:
167,266,91024,1,8,0:0:0:0:
121,257,91099,1,8,0:0:0:0:
126,275,91174,1,0,0:0:0:0:
135,242,91324,1,8,0:0:0:0:
135,270,91474,1,0,0:0:0:0:
146,278,91624,1,0,0:0:0:0:
186,32,91774,1,12,0:0:0:0:
188,295,92074,1,0,0:0:0:0:
172,247,92224,1,8,0:0:0:0:
172,247,92299,1,8,0:0:0:0:
176,273,92374,1,0,0:0:0:0:
176,273,92449,1,0,0:0:0:0:
175,253,92524,1,8,0:0:0:0:
166,274,92674,1,0,0:0:0:0:
155,238,92824,1,8,0:0:0:0:
151,274,92899,1,0,0:0:0:0:
154,238,92974,1,8,0:0:0:0:
151,274,93049,1,0,0:0:0:0:
151,237,93124,1,8,0:0:0:0:
151,237,93199,1,8,0:0:0:0:
154,255,93274,1,0,0:0:0:0:
148,254,93349,1,0,0:0:0:0:
151,234,93424,1,8,0:0:0:0:
214,272,93574,1,0,0:0:0:0:
214,272,93649,1,0,0:0:0:0:
205,259,93724,1,8,0:0:0:0:
191,288,93874,1,0,0:0:0:0:
194,261,94024,1,8,0:0:0:0:
194,261,94099,1,0,0:0:0:0:
186,248,94174,1,8,0:0:0:0:
143,269,94324,1,8,0:0:0:0:
147,256,94474,1,8,0:0:0:0:
149,277,94549,1,0,0:0:0:0:
170,262,94624,1,8,0:0:0:0:
183,259,94699,1,8,0:0:0:0:
187,278,94774,1,0,0:0:0:0:
183,275,94849,1,0,0:0:0:0:
186,251,94924,1,8,0:0:0:0:
173,285,95074,1,0,0:0:0:0:
173,285,95149,1,0,0:0:0:0:
159,246,95224,1,8,0:0:0:0:
164,271,95374,1,0,0:0:0:0:
164,271,95524,1,8,0:0:0:0:
226,278,95674,1,0,0:0:0:0:
224,268,95749,1,0,0:0:0:0:
204,255,95824,1,8,0:0:0:0:
202,255,95899,1,8,0:0:0:0:
205,283,95974,1,0,0:0:0:0:
210,279,96049,1,0,0:0:0:0:
211,256,96124,1,8,0:0:0:0:
190,223,96274,1,8,0:0:0:0:
190,223,96349,1,8,0:0:0:0:
195,246,96424,1,0,0:0:0:0:
158,221,96574,1,8,0:0:0:0:
158,227,96649,1,8,0:0:0:0:
153,262,96724,1,0,0:0:0:0:
153,262,96799,1,0,0:0:0:0:
151,225,96874,1,8,0:0:0:0:
147,227,96949,1,8,0:0:0:0:
139,227,97024,1,8,0:0:0:0:
145,262,97099,1,0,0:0:0:0:
146,211,97174,1,8,0:0:0:0:
141,213,97324,1,8,0:0:0:0:
204,267,97474,1,8,0:0:0:0:
204,267,97549,1,8,0:0:0:0:
208,288,97624,1,0,0:0:0:0:
208,288,97699,1,0,0:0:0:0:
210,260,97774,1,8,0:0:0:0:
190,31,97924,1,12,0:0:0:0:
133,300,98074,1,0,0:0:0:0:
133,300,98149,1,0,0:0:0:0:
123,281,98224,1,8,0:0:0:0:
125,276,98299,1,8,0:0:0:0:
133,300,98374,1,0,0:0:0:0:
133,300,98449,1,0,0:0:0:0:
133,262,98524,1,8,0:0:0:0:
148,298,98674,1,0,0:0:0:0:
148,298,98749,1,0,0:0:0:0:
146,272,98824,1,8,0:0:0:0:
151,299,98899,1,0,0:0:0:0:
158,268,98974,1,8,0:0:0:0:
152,296,99124,1,0,0:0:0:0:
152,296,99199,1,0,0:0:0:0:
145,268,99274,1,8,0:0:0:0:
110,274,99424,1,8,0:0:0:0:
117,293,99499,1,0,0:0:0:0:
114,310,99574,1,0,0:0:0:0:
109,258,99724,1,8,0:0:0:0:
86,280,99874,1,0,0:0:0:0:
86,280,99949,1,0,0:0:0:0:
81,255,100024,1,8,0:0:0:0:
59,298,100174,1,0,0:0:0:0:
126,261,100324,1,8,0:0:0:0:
136,264,100399,1,8,0:0:0:0:
131,285,100474,1,0,0:0:0:0:
131,285,100549,1,0,0:0:0:0:
143,253,100624,1,8,0:0:0:0:
143,278,100699,1,0,0:0:0:0:
148,281,100774,1,0,0:0:0:0:
148,281,100849,1,0,0:0:0:0:
146,242,100924,1,8,0:0:0:0:
143,239,101074,1,8,0:0:0:0:
143,239,101149,1,8,0:0:0:0:
150,276,101224,1,0,0:0:0:0:
150,236,101374,1,8,0:0:0:0:
150,236,101449,1,8,0:0:0:0:
147,234,101524,1,8,0:0:0:0:
145,263,101674,1,0,0:0:0:0:
145,263,101749,1,0,0:0:0:0:
138,233,101824,1,8,0:0:0:0:
137,233,101899,1,8,0:0:0:0:
138,252,101974,1,0,0:0:0:0:
143,223,102049,1,8,0:0:0:0:
143,223,102124,1,0,0:0:0:0:
174,206,102274,1,8,0:0:0:0:
174,206,102349,1,8,0:0:0:0:
174,206,102424,1,8,0:0:0:0:
174,206,102499,1,8,0:0:0:0:
174,206,102574,1,8,0:0:0:0:
174,206,102649,1,8,0:0:0:0:
233,35,102724,1,4,0:0:0:0:
207,279,102874,1,0,0:0:0:0:
207,279,102949,1,0,0:0:0:0:
191,264,103024,1,8,0:0:0:0:
190,264,103099,1,0,0:0:0:0:
218,254,103174,1,8,0:0:0:0:
162,303,103324,1,0,0:0:0:0:
141,250,103474,1,8,0:0:0:0:
151,307,103624,1,0,0:0:0:0:
152,307,103699,1,0,0:0:0:0:
144,280,103774,1,8,0:0:0:0:
136,304,103849,1,0,0:0:0:0:
147,256,103924,1,8,0:0:0:0:
104,257,104074,1,8,0:0:0:0:
126,279,104149,1,0,0:0:0:0:
141,250,104224,1,8,0:0:0:0:
152,256,104374,1,8,0:0:0:0:
185,289,104524,1,0,0:0:0:0:
160,276,104674,1,8,0:0:0:0:
162,305,104824,1,0,0:0:0:0:
162,305,104899,1,0,0:0:0:0:
152,282,104974,1,8,0:0:0:0:
162,305,105049,1,0,0:0:0:0:
161,278,105124,1,8,0:0:0:0:
111,299,105274,1,8,0:0:0:0:
111,299,105349,1,0,0:0:0:0:
125,296,105424,1,0,0:0:0:0:
124,294,105499,1,0,0:0:0:0:
128,268,105574,1,8,0:0:0:0:
93,296,105724,1,0,0:0:0:0:
76,260,105874,1,8,0:0:0:0:
91,295,106024,1,0,0:0:0:0:
91,295,106099,1,0,0:0:0:0:
94,271,106174,1,8,0:0:0:0:
94,271,106249,1,8,0:0:0:0:
116,303,106324,1,0,0:0:0:0:
128,268,106474,1,8,0:0:0:0:
68,258,106624,1,8,0:0:0:0:
98,313,106774,1,0,0:0:0:0:
159,279,106924,1,8,0:0:0:0:
99,272,107074,1,8,0:0:0:0:
138,316,107224,1,8,0:0:0:0:
135,292,107299,1,8,0:0:0:0:
138,306,107374,1,0,0:0:0:0:
138,306,107449,1,0,0:0:0:0:
142,270,107524,1,8,0:0:0:0:
227,341,107674,1,8,0:0:0:0:
209,331,107824,1,0,0:0:0:0:
209,331,107899,1,0,0:0:0:0:
203,309,107974,1,8,0:0:0:0:
116,321,108124,1,0,0:0:0:0:
99,292,108274,1,8,0:0:0:0:
141,302,108424,1,0,0:0:0:0:
141,302,108499,1,0,0:0:0:0:
145,273,108574,1,8,0:0:0:0:
152,309,108649,1,0,0:0:0:0:
162,268,108724,1,8,0:0:0:0:
104,303,108874,1,0,0:0:0:0:
104,303,108949,1,0,0:0:0:0:
106,274,109024,1,8,0:0:0:0:
106,274,109099,1,8,0:0:0:0:
107,275,109174,1,8,0:0:0:0:
151,303,109324,1,0,0:0:0:0:
140,263,109474,1,8,0:0:0:0:
90,293,109624,1,0,0:0:0:0:
90,293,109699,1,0,0:0:0:0:
87,272,109774,1,8,0:0:0:0:
92,286,109849,1,0,0:0:0:0:
145,51,109924,1,12,0:0:0:0:
199,87,110224,1,4,0:0:0:0:
252,73,110424,1,12,0:0:0:0:
217,220,110674,1,0,0:0:0:0:
217,220,110749,1,0,0:0:0:0:
233,216,110824,1,8,0:0:0:0:
159,284,110974,1,0,0:0:0:0:
159,284,111049,1,0,0:0:0:0:
119,46,111124,1,12,0:0:0:0:
212,78,111424,1,4,0:0:0:0:
274,32,111624,1,12,0:0:0:0:
193,271,111874,1,0,0:0:0:0:
196,299,111949,1,0,0:0:0:0:
209,266,112024,1,8,0:0:0:0:
209,266,112099,1,8,0:0:0:0:
209,266,112174,1,0,0:0:0:0:
208,268,112249,1,0,0:0:0:0:
236,28,112324,1,12,0:0:0:0:
240,246,112474,1,8,0:0:0:0:
247,288,112624,1,0,0:0:0:0:
247,288,112699,1,0,0:0:0:0:
247,288,112774,1,8,0:0:0:0:
170,308,112924,1,0,0:0:0:0:
123,287,113074,1,8,0:0:0:0:
139,301,113149,1,0,0:0:0:0:
150,279,113224,1,8,0:0:0:0:
150,279,113299,1,8,0:0:0:0:
141,299,113374,1,0,0:0:0:0:
141,299,113449,1,0,0:0:0:0:
145,270,113524,1,8,0:0:0:0:
193,296,113674,1,0,0:0:0:0:
193,296,113749,1,0,0:0:0:0:
181,283,113824,1,8,0:0:0:0:
181,283,113899,1,8,0:0:0:0:
181,283,113974,1,8,0:0:0:0:
173,306,114124,1,0,0:0:0:0:
115,281,114274,1,8,0:0:0:0:
122,325,114424,1,0,0:0:0:0:
122,325,114499,1,0,0:0:0:0:
134,302,114574,1,8,0:0:0:0:
136,325,114649,1,0,0:0:0:0:
138,295,114724,1,8,0:0:0:0:
87,298,114874,1,8,0:0:0:0:
89,319,115024,1,0,0:0:0:0:
89,319,115099,1,0,0:0:0:0:
92,297,115174,1,8,0:0:0:0:
55,308,115324,1,0,0:0:0:0:
74,329,115474,1,8,0:0:0:0:
123,319,115624,1,0,0:0:0:0:
123,319,115699,1,0,0:0:0:0:
150,299,115774,1,8,0:0:0:0:
152,319,115849,1,0,0:0:0:0:
157,292,115924,1,8,0:0:0:0:
145,276,116074,1,8,0:0:0:0:
155,312,116224,1,0,0:0:0:0:
177,281,116374,1,8,0:0:0:0:
191,306,116524,1,0,0:0:0:0:
191,306,116599,1,8,0:0:0:0:
195,284,116674,1,8,0:0:0:0:
195,284,116749,1,8,0:0:0:0:
196,302,116824,1,0,0:0:0:0:
196,284,116974,1,8,0:0:0:0:
170,40,117124,1,12,0:0:0:0:
224,241,117274,1,8,0:0:0:0:
210,274,117349,1,0,0:0:0:0:
209,248,117424,1,8,0:0:0:0:
209,249,117499,1,8,0:0:0:0:
209,249,117574,1,0,0:0:0:0:
156,273,117724,1,8,0:0:0:0:
136,267,117874,1,8,0:0:0:0:
167,314,118024,1,0,0:0:0:0:
167,314,118099,1,0,0:0:0:0:
169,294,118174,1,8,0:0:0:0:
167,314,118249,1,0,0:0:0:0:
171,295,118324,1,8,0:0:0:0:
156,304,118474,1,0,0:0:0:0:
156,305,118549,1,0,0:0:0:0:
128,287,118624,1,0,0:0:0:0:
133,306,118699,1,0,0:0:0:0:
134,289,118774,1,8,0:0:0:0:
146,301,118924,1,0,0:0:0:0:
146,260,119074,1,8,0:0:0:0:
99,303,119224,1,0,0:0:0:0:
99,303,119299,1,0,0:0:0:0:
102,273,119374,1,8,0:0:0:0:
162,31,119524,1,12,0:0:0:0:
211,62,119824,1,12,0:0:0:0:
237,119,120024,1,4,0:0:0:0:
180,292,120274,1,0,0:0:0:0:
180,292,120349,1,0,0:0:0:0:
174,276,120424,1,8,0:0:0:0:
111,288,120574,1,8,0:0:0:0:
119,308,120649,1,0,0:0:0:0:
169,36,120724,1,12,0:0:0:0:
270,65,121024,1,12,0:0:0:0:
225,128,121224,1,4,0:0:0:0:
143,304,121474,1,0,0:0:0:0:
143,304,121549,1,0,0:0:0:0:
130,288,121624,1,8,0:0:0:0:
181,301,121774,1,0,0:0:0:0:
181,301,121849,1,0,0:0:0:0:
181,301,121924,1,0,0:0:0:0:
206,283,122074,1,8,0:0:0:0:
137,264,122224,1,8,0:0:0:0:
143,304,122374,1,0,0:0:0:0:
212,273,122524,1,8,0:0:0:0:
291,277,122674,1,8,0:0:0:0:
216,313,122824,1,0,0:0:0:0:
157,322,122974,1,0,0:0:0:0:
105,271,123274,1,8,0:0:0:0:
109,309,123424,1,0,0:0:0:0:
136,318,123574,1,0,0:0:0:0:
165,283,123724,1,8,0:0:0:0:
146,260,123874,1,8,0:0:0:0:
168,303,124024,1,0,0:0:0:0:
198,269,124174,1,8,0:0:0:0:
211,324,124324,1,0,0:0:0:0:
196,334,124474,1,0,0:0:0:0:
154,297,124624,1,8,0:0:0:0:
143,338,124774,1,0,0:0:0:0:
198,302,124924,1,8,0:0:0:0:
248,287,125074,1,8,0:0:0:0:
196,321,125224,1,0,0:0:0:0:
207,290,125374,1,8,0:0:0:0:
159,293,125674,1,8,0:0:0:0:
159,317,125824,1,0,0:0:0:0:
174,319,125974,1,0,0:0:0:0:
187,284,126124,1,8,0:0:0:0:
197,314,126274,1,0,0:0:0:0:
223,278,126424,1,8,0:0:0:0:
255,274,126574,1,8,0:0:0:0:
244,310,126724,1,0,0:0:0:0:
232,323,126874,1,0,0:0:0:0:
181,277,127024,1,8,0:0:0:0:
178,308,127174,1,0,0:0:0:0:
213,263,127324,1,8,0:0:0:0:
221,260,127474,1,8,0:0:0:0:
196,292,127624,1,0,0:0:0:0:
157,269,127774,1,8,0:0:0:0:
112,275,128074,1,0,0:0:0:0:
136,249,128224,1,8,0:0:0:0:
140,278,128374,1,0,0:0:0:0:
130,257,128524,1,8,0:0:0:0:
102,240,128674,1,8,0:0:0:0:
103,280,128824,1,0,0:0:0:0:
135,240,128974,1,8,0:0:0:0:
158,269,129124,1,0,0:0:0:0:
158,271,129274,1,0,0:0:0:0:
164,245,129424,1,8,0:0:0:0:
151,276,129574,1,0,0:0:0:0:
124,249,129724,1,8,0:0:0:0:
81,238,129874,1,0,0:0:0:0:
96,271,130024,1,8,0:0:0:0:
200,47,130174,1,12,0:0:0:0:
194,275,130474,1,0,0:0:0:0:
194,275,130549,1,0,0:0:0:0:
188,262,130624,1,8,0:0:0:0:
185,286,130774,1,0,0:0:0:0:
185,286,130924,1,0,0:0:0:0:
151,287,130999,1,0,0:0:0:0:
151,287,131074,1,8,0:0:0:0:
151,287,131149,1,8,0:0:0:0:
151,287,131224,1,0,0:0:0:0:
151,287,131299,1,0,0:0:0:0:
151,287,131374,1,8,0:0:0:0:
186,51,131524,1,12,0:0:0:0:
192,330,131674,1,0,0:0:0:0:
198,324,131749,1,0,0:0:0:0:
184,316,131824,1,8,0:0:0:0:
198,339,131899,1,8,0:0:0:0:
212,327,131974,1,0,0:0:0:0:
166,287,132124,1,8,0:0:0:0:
172,318,132274,1,0,0:0:0:0:
172,318,132349,1,0,0:0:0:0:
161,293,132424,1,8,0:0:0:0:
112,305,132574,1,8,0:0:0:0:
136,326,132724,1,0,0:0:0:0:
158,301,132874,1,8,0:0:0:0:
209,289,133024,1,8,0:0:0:0:
212,305,133099,1,0,0:0:0:0:
215,288,133174,1,8,0:0:0:0:
207,283,133324,1,8,0:0:0:0:
207,283,133399,1,0,0:0:0:0:
210,298,133474,1,8,0:0:0:0:
210,298,133549,1,0,0:0:0:0:
208,283,133624,1,8,0:0:0:0:
243,296,133699,1,0,0:0:0:0:
184,272,133774,1,8,0:0:0:0:
184,272,133849,1,8,0:0:0:0:
182,296,133924,1,0,0:0:0:0:
231,301,133999,1,0,0:0:0:0:
223,299,134074,1,8,0:0:0:0:
223,300,134149,1,0,0:0:0:0:
223,283,134224,1,8,0:0:0:0:
207,283,134299,1,8,0:0:0:0:
210,298,134374,1,0,0:0:0:0:
210,298,134449,1,0,0:0:0:0:
194,266,134524,1,8,0:0:0:0:
136,273,134674,1,8,0:0:0:0:
156,305,134824,1,0,0:0:0:0:
223,30,134974,1,12,0:0:0:0:
203,307,135274,1,0,0:0:0:0:
194,266,135424,1,8,0:0:0:0:
194,266,135499,1,8,0:0:0:0:
195,285,135574,1,0,0:0:0:0:
195,285,135649,1,0,0:0:0:0:
201,257,135724,1,8,0:0:0:0:
201,257,135799,1,8,0:0:0:0:
199,257,135874,1,8,0:0:0:0:
199,257,136024,1,8,0:0:0:0:
199,257,136099,1,8,0:0:0:0:
199,257,136174,1,8,0:0:0:0:
199,257,136249,1,8,0:0:0:0:
206,286,136324,1,0,0:0:0:0:
243,294,136474,1,0,0:0:0:0:
243,294,136549,1,0,0:0:0:0:
244,277,136624,1,8,0:0:0:0:
238,278,136699,1,8,0:0:0:0:
244,301,136774,1,0,0:0:0:0:
206,258,136924,1,8,0:0:0:0:
176,252,137074,1,8,0:0:0:0:
183,294,137224,1,0,0:0:0:0:
216,252,137374,1,8,0:0:0:0:
243,257,137524,1,8,0:0:0:0:
209,296,137674,1,0,0:0:0:0:
159,241,137824,1,8,0:0:0:0:
121,273,137974,1,0,0:0:0:0:
95,247,138124,1,8,0:0:0:0:
95,247,138199,1,8,0:0:0:0:
121,273,138274,1,0,0:0:0:0:
121,273,138349,1,0,0:0:0:0:
131,245,138424,1,8,0:0:0:0:
100,236,138574,1,8,0:0:0:0:
100,236,138649,1,8,0:0:0:0:
116,253,138724,1,0,0:0:0:0:
146,286,138874,1,0,0:0:0:0:
146,286,138949,1,0,0:0:0:0:
132,266,139024,1,8,0:0:0:0:
126,266,139099,1,8,0:0:0:0:
136,285,139174,1,0,0:0:0:0:
126,261,139324,1,8,0:0:0:0:
67,261,139474,1,8,0:0:0:0:
103,307,139624,1,0,0:0:0:0:
218,14,139774,1,12,0:0:0:0:
189,288,140074,1,0,0:0:0:0:
141,269,140224,1,8,0:0:0:0:
141,269,140299,1,8,0:0:0:0:
148,282,140374,1,0,0:0:0:0:
149,285,140449,1,0,0:0:0:0:
149,260,140524,1,8,0:0:0:0:
141,288,140674,1,0,0:0:0:0:
135,247,140824,1,8,0:0:0:0:
106,288,140974,1,0,0:0:0:0:
106,288,141049,1,0,0:0:0:0:
106,242,141124,1,8,0:0:0:0:
106,242,141199,1,8,0:0:0:0:
136,302,141274,1,0,0:0:0:0:
136,302,141349,1,0,0:0:0:0:
142,278,141424,1,8,0:0:0:0:
147,308,141499,1,0,0:0:0:0:
166,303,141574,1,0,0:0:0:0:
166,303,141649,1,0,0:0:0:0:
167,276,141724,1,8,0:0:0:0:
167,306,141874,1,0,0:0:0:0:
167,306,141949,1,0,0:0:0:0:
168,287,142024,1,8,0:0:0:0:
173,309,142099,1,0,0:0:0:0:
179,282,142174,1,8,0:0:0:0:
177,307,142324,1,0,0:0:0:0:
177,307,142399,1,0,0:0:0:0:
183,279,142474,1,8,0:0:0:0:
183,302,142624,1,0,0:0:0:0:
183,302,142699,1,0,0:0:0:0:
183,303,142774,1,0,0:0:0:0:
183,303,142849,1,0,0:0:0:0:
185,280,142924,1,8,0:0:0:0:
191,302,143074,1,0,0:0:0:0:
191,302,143149,1,0,0:0:0:0:
189,280,143224,1,8,0:0:0:0:
198,284,143374,1,8,0:0:0:0:
195,278,143524,1,8,0:0:0:0:
196,303,143599,1,0,0:0:0:0:
196,303,143674,1,0,0:0:0:0:
196,303,143749,1,0,0:0:0:0:
195,291,143824,1,8,0:0:0:0:
195,311,143899,1,0,0:0:0:0:
195,311,143974,1,0,0:0:0:0:
195,311,144049,1,0,0:0:0:0:
186,293,144124,1,8,0:0:0:0:
194,306,144199,1,0,0:0:0:0:
198,284,144274,1,8,0:0:0:0:
196,303,144424,1,0,0:0:0:0:
196,303,144499,1,0,0:0:0:0:
194,288,144574,1,8,0:0:0:0:
195,291,144724,1,0,0:0:0:0:
210,294,144799,1,0,0:0:0:0:
210,294,144874,1,0,0:0:0:0:
210,294,144949,1,0,0:0:0:0:
205,273,145024,1,8,0:0:0:0:
206,299,145099,1,0,0:0:0:0:
206,276,145174,1,8,0:0:0:0:
196,303,145324,1,0,0:0:0:0:
196,303,145399,1,0,0:0:0:0:
196,283,145474,1,8,0:0:0:0:
191,283,145624,1,8,0:0:0:0:
201,304,145699,1,0,0:0:0:0:
199,276,145774,1,8,0:0:0:0:
201,297,145849,1,0,0:0:0:0:
205,273,145924,1,8,0:0:0:0:
201,275,145999,1,8,0:0:0:0:
203,285,146074,1,0,0:0:0:0:
203,285,146149,1,0,0:0:0:0:
199,273,146224,1,8,0:0:0:0:
204,288,146299,1,0,0:0:0:0:
204,288,146374,1,0,0:0:0:0:
204,288,146449,1,0,0:0:0:0:
202,268,146524,1,8,0:0:0:0:
204,289,146674,1,0,0:0:0:0:
204,289,146749,1,0,0:0:0:0:
205,273,146824,1,8,0:0:0:0:
209,291,146899,1,0,0:0:0:0:
209,273,146974,1,8,0:0:0:0:
212,286,147124,1,0,0:0:0:0:
212,286,147199,1,0,0:0:0:0:
212,268,147274,1,8,0:0:0:0:
215,283,147424,1,0,0:0:0:0:
213,277,147499,1,0,0:0:0:0:
213,277,147574,1,0,0:0:0:0:
211,284,147649,1,0,0:0:0:0:
213,277,147724,1,8,0:0:0:0:
204,285,147874,1,0,0:0:0:0:
204,285,147949,1,0,0:0:0:0:
201,262,148024,1,8,0:0:0:0:
205,290,148174,1,0,0:0:0:0:
204,273,148324,1,8,0:0:0:0:
206,294,148399,1,0,0:0:0:0:
206,294,148474,1,0,0:0:0:0:
206,294,148549,1,0,0:0:0:0:
206,294,148624,1,8,0:0:0:0:
206,281,148699,1,0,0:0:0:0:
207,281,148774,1,0,0:0:0:0:
207,281,148849,1,0,0:0:0:0:
201,262,148924,1,8,0:0:0:0:
205,290,148999,1,0,0:0:0:0:
201,263,149074,1,8,0:0:0:0:
208,285,149224,1,0,0:0:0:0:
208,285,149299,1,0,0:0:0:0:
202,266,149374,1,8,0:0:0:0:
196,274,149524,1,8,0:0:0:0:
192,309,149674,1,0,0:0:0:0:
192,309,149749,1,0,0:0:0:0:
238,276,149824,1,8,0:0:0:0:
238,276,149899,1,8,0:0:0:0:
233,285,149974,1,8,0:0:0:0:
233,285,150049,1,8,0:0:0:0:
233,285,150124,1,0,0:0:0:0:
221,291,150199,1,0,0:0:0:0:
194,262,150274,1,8,0:0:0:0:
193,262,150349,1,8,0:0:0:0:
193,296,150424,1,8,0:0:0:0:
193,296,150499,1,8,0:0:0:0:
182,261,150574,1,8,0:0:0:0:
171,258,150649,1,8,0:0:0:0:
262,234,150724,1,0,0:0:0:0:
230,217,150799,1,0,0:0:0:0:
235,217,150874,1,0,0:0:0:0:
236,215,150949,1,0,0:0:0:0:
239,214,151024,1,0,0:0:0:0:
239,213,151099,1,0,0:0:0:0:
240,213,151174,1,0,0:0:0:0:
239,213,151249,1,0,0:0:0:0:
239,213,151324,1,8,0:0:0:0:
240,213,151399,1,0,0:0:0:0:
241,212,151474,1,0,0:0:0:0:
243,211,151549,1,0,0:0:0:0:
243,211,151624,1,0,0:0:0:0:
243,210,151699,1,0,0:0:0:0:
245,209,151774,1,8,0:0:0:0:
246,209,151849,1,0,0:0:0:0:
246,209,151924,1,0,0:0:0:0:
248,207,151999,1,0,0:0:0:0:
250,207,152074,1,8,0:0:0:0:
250,206,152149,1,0,0:0:0:0:
251,206,152224,1,0,0:0:0:0:
235,243,152299,1,0,0:0:0:0:
235,243,152374,1,0,0:0:0:0:
235,243,152449,1,0,0:0:0:0:
223,223,152524,1,8,0:0:0:0:
221,261,152599,1,0,0:0:0:0:
221,261,152674,1,0,0:0:0:0:
221,261,152749,1,0,0:0:0:0:
221,261,152824,1,8,0:0:0:0:
221,276,152899,1,0,0:0:0:0:
218,258,152974,1,8,0:0:0:0:
219,272,153049,1,0,0:0:0:0:
215,254,153124,1,8,0:0:0:0:
219,274,153199,1,0,0:0:0:0:
219,274,153274,1,0,0:0:0:0:
219,274,153349,1,0,0:0:0:0:
219,274,153424,1,0,0:0:0:0:
219,274,153499,1,0,0:0:0:0:
219,274,153574,1,0,0:0:0:0:
219,274,153649,1,0,0:0:0:0:
219,274,153724,1,8,0:0:0:0:
219,274,153799,1,0,0:0:0:0:
218,258,153874,1,8,0:0:0:0:
215,293,153949,1,8,0:0:0:0:
212,283,154024,1,0,0:0:0:0:
212,283,154099,1,0,0:0:0:0:
212,283,154174,1,8,0:0:0:0:
212,283,154249,1,8,0:0:0:0:
212,283,154324,1,0,0:0:0:0:
218,283,154399,1,0,0:0:0:0:
218,283,154474,1,0,0:0:0:0:
218,283,154549,1,0,0:0:0:0:
218,283,154624,1,0,0:0:0:0:
218,283,154699,1,0,0:0:0:0:
218,283,154774,1,8,0:0:0:0:
218,283,154924,1,8,0:0:0:0:
160,294,154999,1,0,0:0:0:0:
160,294,155074,1,0,0:0:0:0:
155,272,155224,1,8,0:0:0:0:
160,294,155299,1,0,0:0:0:0:
160,294,155374,1,0,0:0:0:0:
209,274,155524,1,0,0:0:0:0:
209,274,155599,1,0,0:0:0:0:
209,274,155674,1,0,0:0:0:0:
209,274,155749,1,0,0:0:0:0:
209,274,155824,1,0,0:0:0:0:
209,274,155899,1,0,0:0:0:0:
209,274,155974,1,0,0:0:0:0:
209,274,156049,1,0,0:0:0:0:
209,274,156124,1,8,0:0:0:0:
214,296,156199,1,0,0:0:0:0:
214,296,156274,1,0,0:0:0:0:
214,296,156349,1,0,0:0:0:0:
214,296,156424,1,0,0:0:0:0:
214,296,156499,1,0,0:0:0:0:
214,296,156574,1,8,0:0:0:0:
214,296,156649,1,0,0:0:0:0:
211,313,156724,1,0,0:0:0:0:
211,313,156799,1,0,0:0:0:0:
206,298,156874,1,8,0:0:0:0:
205,311,156949,1,0,0:0:0:0:
205,311,157024,1,0,0:0:0:0:
207,313,157099,1,0,0:0:0:0:
207,313,157174,1,0,0:0:0:0:
207,313,157249,1,0,0:0:0:0:
205,294,157324,1,8,0:0:0:0:
206,308,157399,1,0,0:0:0:0:
203,309,157474,1,0,0:0:0:0:
203,308,157549,1,0,0:0:0:0:
206,290,157624,1,8,0:0:0:0:
211,313,157699,1,0,0:0:0:0:
202,306,157774,1,8,0:0:0:0:
202,306,157849,1,0,0:0:0:0:
215,284,157924,1,8,0:0:0:0:
200,311,157999,1,0,0:0:0:0:
207,313,158074,1,0,0:0:0:0:
200,311,158149,1,0,0:0:0:0:
201,312,158224,1,0,0:0:0:0:
202,313,158299,1,0,0:0:0:0:
203,309,158374,1,0,0:0:0:0:
203,309,158449,1,0,0:0:0:0:
202,313,158524,1,8,0:0:0:0:
202,313,158599,1,0,0:0:0:0:
203,313,158674,1,8,0:0:0:0:
202,313,158749,1,8,0:0:0:0:
202,313,158824,1,0,0:0:0:0:
200,311,158899,1,0,0:0:0:0:
198,290,158974,1,8,0:0:0:0:
200,316,159049,1,8,0:0:0:0:
201,312,159124,1,0,0:0:0:0:
202,313,159199,1,0,0:0:0:0:
200,316,159274,1,0,0:0:0:0:
200,316,159349,1,0,0:0:0:0:
202,313,159424,1,0,0:0:0:0:
202,321,159499,1,0,0:0:0:0:
208,298,159574,1,8,0:0:0:0:
231,256,159724,1,8,0:0:0:0:
247,284,159799,1,0,0:0:0:0:
247,284,159874,1,0,0:0:0:0:
231,256,160024,1,8,0:0:0:0:
247,284,160099,1,0,0:0:0:0:
247,284,160174,1,0,0:0:0:0:
173,36,160324,1,4,0:0:0:0:
145,245,160636,1,0,0:0:0:0:
145,245,161261,1,0,0:0:0:0:
190,42,161574,1,12,0:0:0:0:
147,231,161886,1,0,0:0:0:0:
147,231,162511,1,0,0:0:0:0:
147,40,162824,1,4,0:0:0:0:
147,231,163136,1,0,0:0:0:0:
147,231,163761,1,0,0:0:0:0:
236,68,164074,1,12,0:0:0:0:
141,229,164386,1,0,0:0:0:0:
160,38,164699,1,4,0:0:0:0:
138,247,165324,1,8,0:0:0:0:
156,287,165480,1,0,0:0:0:0:
156,287,165558,1,0,0:0:0:0:
152,261,165636,1,8,0:0:0:0:
128,261,165792,1,8,0:0:0:0:
128,261,165870,1,0,0:0:0:0:
145,263,165949,1,8,0:0:0:0:
174,280,166105,1,0,0:0:0:0:
175,277,166183,1,0,0:0:0:0:
173,254,166261,1,8,0:0:0:0:
180,258,166417,1,8,0:0:0:0:
188,283,166495,1,0,0:0:0:0:
195,252,166574,1,8,0:0:0:0:
196,284,166730,1,0,0:0:0:0:
196,284,166808,1,0,0:0:0:0:
195,250,166886,1,8,0:0:0:0:
131,273,167042,1,8,0:0:0:0:
143,293,167120,1,0,0:0:0:0:
153,260,167199,1,8,0:0:0:0:
188,283,167355,1,0,0:0:0:0:
188,283,167433,1,0,0:0:0:0:
188,266,167511,1,8,0:0:0:0:
190,260,167589,1,8,0:0:0:0:
196,284,167667,1,0,0:0:0:0:
181,298,167745,1,8,0:0:0:0:
146,35,167824,1,4,0:0:0:0:
208,264,168136,1,0,0:0:0:0:
174,269,168449,1,0,0:0:0:0:
174,269,168761,1,0,0:0:0:0:
141,22,169074,1,12,0:0:0:0:
150,271,169386,1,0,0:0:0:0:
181,34,169699,1,4,0:0:0:0:
132,286,170011,1,0,0:0:0:0:
251,309,170167,1,0,0:0:0:0:
251,309,170245,1,0,0:0:0:0:
243,295,170324,1,8,0:0:0:0:
173,317,170480,1,0,0:0:0:0:
173,317,170558,1,0,0:0:0:0:
163,292,170636,1,8,0:0:0:0:
150,267,170792,1,8,0:0:0:0:
160,284,170870,1,0,0:0:0:0:
161,261,170949,1,8,0:0:0:0:
101,304,171105,1,0,0:0:0:0:
101,304,171183,1,0,0:0:0:0:
90,278,171261,1,8,0:0:0:0:
141,218,171417,1,8,0:0:0:0:
144,244,171495,1,0,0:0:0:0:
160,211,171574,1,8,0:0:0:0:
181,250,171730,1,0,0:0:0:0:
181,250,171808,1,0,0:0:0:0:
179,231,171886,1,0,0:0:0:0:
179,231,171964,1,0,0:0:0:0:
181,250,172042,1,8,0:0:0:0:
181,250,172120,1,0,0:0:0:0:
196,230,172199,1,8,0:0:0:0:
247,293,172355,1,0,0:0:0:0:
247,293,172433,1,0,0:0:0:0:
235,276,172511,1,8,0:0:0:0:
235,276,172589,1,8,0:0:0:0:
235,276,172667,1,8,0:0:0:0:
235,276,172745,1,8,0:0:0:0:
84,3,172824,1,4,0:0:0:0:
124,242,173136,1,0,0:0:0:0:
124,242,173449,1,0,0:0:0:0:
124,242,173761,1,0,0:0:0:0:
177,33,174074,1,12,0:0:0:0:
132,265,174386,1,0,0:0:0:0:
141,256,175011,1,0,0:0:0:0:
106,32,175324,1,4,0:0:0:0:
145,269,175636,1,0,0:0:0:0:
141,268,175949,1,0,0:0:0:0:
145,269,176261,1,0,0:0:0:0:
247,28,176574,1,12,0:0:0:0:
234,264,177042,1,8,0:0:0:0:
234,264,177120,1,8,0:0:0:0:
234,264,177199,1,8,0:0:0:0:
135,253,177824,1,8,0:0:0:0:
135,253,177902,1,0,0:0:0:0:
139,248,177980,1,8,0:0:0:0:
138,268,178058,1,0,0:0:0:0:
144,243,178136,1,8,0:0:0:0:
144,247,178214,1,8,0:0:0:0:
149,267,178292,1,0,0:0:0:0:
149,267,178370,1,0,0:0:0:0:
146,244,178449,1,8,0:0:0:0:
145,264,178527,1,0,0:0:0:0:
144,235,178605,1,8,0:0:0:0:
144,235,178683,1,0,0:0:0:0:
143,225,178761,1,8,0:0:0:0:
141,224,178839,1,8,0:0:0:0:
141,224,178917,1,0,0:0:0:0:
141,224,178995,1,0,0:0:0:0:
149,195,179074,1,8,0:0:0:0:
149,195,179152,1,8,0:0:0:0:
149,195,179230,1,8,0:0:0:0:
149,195,179308,1,8,0:0:0:0:
152,207,179386,1,0,0:0:0:0:
152,207,179464,1,0,0:0:0:0:
152,207,179542,1,0,0:0:0:0:
152,207,179620,1,0,0:0:0:0:
188,187,179699,1,8,0:0:0:0:
188,187,179777,1,8,0:0:0:0:
186,204,179855,1,0,0:0:0:0:
191,180,179933,1,8,0:0:0:0:
191,179,180011,1,8,0:0:0:0:
190,218,180167,1,0,0:0:0:0:
190,218,180245,1,0,0:0:0:0:
223,202,180324,1,8,0:0:0:0:
227,264,180792,1,0,0:0:0:0:
227,264,180870,1,0,0:0:0:0:
211,257,180949,1,8,0:0:0:0:
163,310,181417,1,0,0:0:0:0:
163,310,181495,1,0,0:0:0:0:
161,278,181574,1,8,0:0:0:0:
163,310,181652,1,0,0:0:0:0:
214,299,181886,1,0,0:0:0:0:
172,268,182042,1,8,0:0:0:0:
221,236,182199,1,8,0:0:0:0:
218,266,182355,1,0,0:0:0:0:
218,266,182433,1,0,0:0:0:0:
221,257,182511,1,8,0:0:0:0:
145,275,182667,1,0,0:0:0:0:
218,244,182824,1,8,0:0:0:0:
221,276,182902,1,0,0:0:0:0:
202,249,182980,1,8,0:0:0:0:
211,279,183058,1,0,0:0:0:0:
168,243,183136,1,8,0:0:0:0:
168,243,183214,1,8,0:0:0:0:
166,293,183292,1,0,0:0:0:0:
166,293,183370,1,0,0:0:0:0:
136,257,183449,1,8,0:0:0:0:
136,257,183527,1,8,0:0:0:0:
136,257,183605,1,8,0:0:0:0:
136,257,183683,1,8,0:0:0:0:
140,295,183761,1,0,0:0:0:0:
140,295,183839,1,0,0:0:0:0:
140,295,183917,1,0,0:0:0:0:
140,295,183995,1,0,0:0:0:0:
122,264,184074,1,8,0:0:0:0:
134,296,184152,1,0,0:0:0:0:
116,265,184230,1,8,0:0:0:0:
126,291,184308,1,0,0:0:0:0:
116,257,184386,1,8,0:0:0:0:
116,257,184464,1,8,0:0:0:0:
212,193,184542,1,8,0:0:0:0:
212,193,184620,1,0,0:0:0:0:
212,193,184659,1,0,0:0:0:0:
212,193,184699,1,8,0:0:0:0:
228,264,184777,1,8,0:0:0:0:
233,249,184855,1,0,0:0:0:0:
251,250,184933,1,0,0:0:0:0:
251,256,185011,1,8,0:0:0:0:
171,290,185167,1,0,0:0:0:0:
171,290,185245,1,0,0:0:0:0:
153,276,185324,1,8,0:0:0:0:
209,301,185792,1,0,0:0:0:0:
209,273,185949,1,8,0:0:0:0:
146,317,186417,1,0,0:0:0:0:
146,317,186495,1,0,0:0:0:0:
139,301,186574,1,8,0:0:0:0:
123,331,186730,1,0,0:0:0:0:
97,330,186886,1,0,0:0:0:0:
89,285,187042,1,8,0:0:0:0:
139,301,187199,1,8,0:0:0:0:
241,318,187277,1,0,0:0:0:0:
157,327,187355,1,0,0:0:0:0:
167,327,187433,1,0,0:0:0:0:
167,315,187511,1,8,0:0:0:0:
240,324,187667,1,0,0:0:0:0:
240,324,187745,1,0,0:0:0:0:
185,65,187824,1,12,0:0:0:0:
229,61,187980,1,12,0:0:0:0:
232,285,189230,1,0,0:0:0:0:
232,285,189308,1,0,0:0:0:0:
174,36,189386,1,12,0:0:0:0:
233,53,189542,1,12,0:0:0:0:
188,283,190792,1,0,0:0:0:0:
188,283,190870,1,0,0:0:0:0:
155,33,190949,1,12,0:0:0:0:
155,33,191105,1,12,0:0:0:0:
181,282,192355,1,0,0:0:0:0:
181,282,192433,1,0,0:0:0:0:
144,33,192511,1,12,0:0:0:0:
144,33,192667,1,12,0:0:0:0:
126,287,194074,1,0,0:0:0:0:
176,242,194218,1,8,0:0:0:0:
189,311,194362,1,0,0:0:0:0:
189,311,194434,1,0,0:0:0:0:
189,292,194506,1,8,0:0:0:0:
187,318,194578,1,0,0:0:0:0:
187,297,194650,1,8,0:0:0:0:
116,290,194795,1,8,0:0:0:0:
125,320,194939,1,0,0:0:0:0:
142,265,195083,1,8,0:0:0:0:
160,302,195227,1,0,0:0:0:0:
184,278,195372,1,8,0:0:0:0:
103,282,195516,1,0,0:0:0:0:
103,282,195588,1,0,0:0:0:0:
86,263,195660,1,8,0:0:0:0:
61,259,195804,1,8,0:0:0:0:
61,259,195876,1,8,0:0:0:0:
64,296,195949,1,0,0:0:0:0:
64,296,196021,1,0,0:0:0:0:
64,256,196093,1,8,0:0:0:0:
64,256,196165,1,8,0:0:0:0:
67,266,196237,1,0,0:0:0:0:
69,249,196309,1,8,0:0:0:0:
68,240,196381,1,8,0:0:0:0:
146,274,196525,1,0,0:0:0:0:
211,272,196670,1,0,0:0:0:0:
209,256,196742,1,0,0:0:0:0:
211,272,196814,1,8,0:0:0:0:
179,261,196958,1,8,0:0:0:0:
188,269,197102,1,8,0:0:0:0:
171,310,197247,1,0,0:0:0:0:
124,276,197391,1,8,0:0:0:0:
124,276,197463,1,0,0:0:0:0:
124,287,197535,1,8,0:0:0:0:
74,224,197679,1,0,0:0:0:0:
81,222,197824,1,8,0:0:0:0:
87,230,197896,1,0,0:0:0:0:
96,221,197968,1,8,0:0:0:0:
87,230,198040,1,0,0:0:0:0:
85,213,198112,1,8,0:0:0:0:
85,212,198184,1,8,0:0:0:0:
85,212,198256,1,0,0:0:0:0:
85,212,198328,1,8,0:0:0:0:
86,228,198400,1,8,0:0:0:0:
86,228,198473,1,0,0:0:0:0:
86,228,198545,1,8,0:0:0:0:
86,228,198617,1,0,0:0:0:0:
137,177,198689,1,8,0:0:0:0:
246,198,198833,1,8,0:0:0:0:
199,242,198977,1,8,0:0:0:0:
245,261,199122,1,0,0:0:0:0:
203,234,199266,1,8,0:0:0:0:
216,197,199410,1,8,0:0:0:0:
255,219,199554,1,8,0:0:0:0:
232,267,199699,1,0,0:0:0:0:
137,278,199987,1,0,0:0:0:0:
134,238,200131,1,8,0:0:0:0:
134,238,200203,1,8,0:0:0:0:
127,237,200275,1,8,0:0:0:0:
126,237,200420,1,8,0:0:0:0:
133,252,200492,1,0,0:0:0:0:
143,226,200564,1,0,0:0:0:0:
143,226,200636,1,8,0:0:0:0:
131,251,200708,1,8,0:0:0:0:
131,251,200780,1,0,0:0:0:0:
138,234,200852,1,0,0:0:0:0:
138,234,200924,1,8,0:0:0:0:
111,248,200997,1,0,0:0:0:0:
111,249,201069,1,0,0:0:0:0:
122,230,201141,1,8,0:0:0:0:
122,230,201213,1,8,0:0:0:0:
116,254,201285,1,0,0:0:0:0:
116,254,201357,1,0,0:0:0:0:
119,230,201429,1,8,0:0:0:0:
120,261,201501,1,0,0:0:0:0:
133,233,201574,1,8,0:0:0:0:
170,262,201670,1,0,0:0:0:0:
176,262,201766,1,0,0:0:0:0:
184,225,201862,1,8,0:0:0:0:
229,234,201934,1,8,0:0:0:0:
219,266,202006,1,0,0:0:0:0:
219,266,202078,1,0,0:0:0:0:
184,242,202150,1,8,0:0:0:0:
175,243,202223,1,8,0:0:0:0:
176,263,202295,1,0,0:0:0:0:
176,241,202367,1,8,0:0:0:0:
148,241,202439,1,8,0:0:0:0:
148,241,202511,1,8,0:0:0:0:
145,276,202583,1,0,0:0:0:0:
86,235,202727,1,0,0:0:0:0:
86,235,202799,1,8,0:0:0:0:
86,235,202872,1,8,0:0:0:0:
86,235,202944,1,8,0:0:0:0:
86,235,203016,1,0,0:0:0:0:
152,214,203088,1,8,0:0:0:0:
152,214,203160,1,8,0:0:0:0:
152,214,203232,1,8,0:0:0:0:
255,35,203304,1,4,0:0:0:0:
223,241,203593,1,0,0:0:0:0:
209,42,203737,1,12,0:0:0:0:
209,268,204025,1,8,0:0:0:0:
273,46,204170,1,4,0:0:0:0:
322,314,204458,1,0,0:0:0:0:
221,290,204602,1,0,0:0:0:0:
221,290,204674,1,0,0:0:0:0:
208,275,204747,1,8,0:0:0:0:
130,305,204891,1,0,0:0:0:0:
129,247,205035,1,8,0:0:0:0:
129,247,205107,1,8,0:0:0:0:
133,271,205179,1,0,0:0:0:0:
101,317,205323,1,0,0:0:0:0:
191,315,205468,1,0,0:0:0:0:
191,315,205540,1,0,0:0:0:0:
195,289,205612,1,8,0:0:0:0:
192,286,205684,1,8,0:0:0:0:
206,316,205756,1,0,0:0:0:0:
206,316,205828,1,0,0:0:0:0:
214,283,205900,1,8,0:0:0:0:
222,309,205973,1,0,0:0:0:0:
218,283,206045,1,8,0:0:0:0:
218,283,206117,1,8,0:0:0:0:
226,300,206189,1,0,0:0:0:0:
226,300,206261,1,0,0:0:0:0:
226,278,206333,1,8,0:0:0:0:
230,298,206405,1,0,0:0:0:0:
234,276,206477,1,8,0:0:0:0:
234,276,206549,1,8,0:0:0:0:
241,303,206622,1,0,0:0:0:0:
241,303,206694,1,0,0:0:0:0:
259,291,206766,1,0,0:0:0:0:
259,291,206838,1,0,0:0:0:0:
246,268,206910,1,8,0:0:0:0:
241,294,206982,1,0,0:0:0:0:
194,268,207054,1,8,0:0:0:0:
161,266,207126,1,8,0:0:0:0:
169,297,207198,1,0,0:0:0:0:
168,305,207271,1,0,0:0:0:0:
143,274,207343,1,8,0:0:0:0:
95,280,207487,1,8,0:0:0:0:
95,280,207559,1,8,0:0:0:0:
95,280,207631,1,8,0:0:0:0:
95,280,207703,1,8,0:0:0:0:
95,280,207775,1,8,0:0:0:0:
95,280,207848,1,8,0:0:0:0:
103,297,207920,1,0,0:0:0:0:
225,248,208064,1,8,0:0:0:0:
194,248,208208,1,8,0:0:0:0:
200,258,208280,1,0,0:0:0:0:
204,242,208352,1,8,0:0:0:0:
211,238,208424,1,8,0:0:0:0:
211,238,208497,1,8,0:0:0:0:
217,255,208569,1,0,0:0:0:0:
217,255,208641,1,8,0:0:0:0:
224,240,208713,1,8,0:0:0:0:
227,238,208785,1,8,0:0:0:0:
205,248,208857,1,0,0:0:0:0:
193,223,208929,1,8,0:0:0:0:
149,257,209073,1,0,0:0:0:0:
171,277,209218,1,8,0:0:0:0:
213,282,209362,1,8,0:0:0:0:
246,311,209506,1,0,0:0:0:0:
255,313,209578,1,0,0:0:0:0:
129,242,209650,1,8,0:0:0:0:
129,242,209723,1,8,0:0:0:0:
142,271,209795,1,0,0:0:0:0:
129,242,209867,1,0,0:0:0:0:
129,242,209939,1,8,0:0:0:0:
142,271,209987,1,8,0:0:0:0:
133,241,210035,1,8,0:0:0:0:
129,242,210083,1,0,0:0:0:0:
142,271,210155,1,0,0:0:0:0:
129,242,210227,1,8,0:0:0:0:
129,242,210275,1,0,0:0:0:0:
158,218,210323,1,0,0:0:0:0:
142,271,210372,1,8,0:0:0:0:
129,242,210444,1,8,0:0:0:0:
130,232,210516,1,8,0:0:0:0:
142,271,210588,1,0,0:0:0:0:
130,232,210660,1,8,0:0:0:0:
142,271,210708,1,8,0:0:0:0:
142,231,210756,1,8,0:0:0:0:
123,227,210804,1,0,0:0:0:0:
142,271,210876,1,0,0:0:0:0:
130,230,210948,1,8,0:0:0:0:
142,271,211021,1,0,0:0:0:0:
126,233,211093,1,8,0:0:0:0:
142,271,211141,1,0,0:0:0:0:
180,238,211189,1,0,0:0:0:0:
145,223,211237,1,8,0:0:0:0:
145,223,211309,1,8,0:0:0:0:
142,271,211381,1,0,0:0:0:0:
143,226,211453,1,0,0:0:0:0:
143,226,211525,1,8,0:0:0:0:
142,271,211573,1,0,0:0:0:0:
147,269,211622,1,0,0:0:0:0:
143,226,211670,1,0,0:0:0:0:
142,271,211742,1,8,0:0:0:0:
143,226,211814,1,8,0:0:0:0:
143,226,211886,1,0,0:0:0:0:
143,226,211958,1,8,0:0:0:0:
186,202,212102,1,8,0:0:0:0:
186,202,212174,1,8,0:0:0:0:
186,202,212247,1,8,0:0:0:0:
186,202,212319,1,8,0:0:0:0:
186,202,212391,1,8,0:0:0:0:
186,202,212463,1,8,0:0:0:0:
186,202,212535,1,0,0:0:0:0:
166,277,213216,1,0,0:0:0:0:
167,238,213444,1,8,0:0:0:0:
213,251,214239,1,8,0:0:0:0:
218,275,214353,1,0,0:0:0:0:
136,292,214580,1,0,0:0:0:0:
137,283,215035,1,0,0:0:0:0:
137,234,215262,1,0,0:0:0:0:
120,318,215489,1,0,0:0:0:0:
151,260,215716,1,8,0:0:0:0:
161,306,215944,1,0,0:0:0:0:
205,56,216171,1,4,0:0:0:0:
169,250,217080,1,8,0:0:0:0:
169,250,217875,1,8,0:0:0:0:
178,283,217989,1,0,0:0:0:0:
147,301,218216,1,0,0:0:0:0:
227,313,218671,1,0,0:0:0:0:
227,303,219125,1,0,0:0:0:0:
230,273,219353,1,8,0:0:0:0:
158,37,219807,1,4,0:0:0:0:
125,305,220489,1,0,0:0:0:0:
184,278,220716,1,8,0:0:0:0:
159,283,221512,1,8,0:0:0:0:
167,303,221625,1,0,0:0:0:0:
205,306,221853,1,0,0:0:0:0:
231,310,222307,1,0,0:0:0:0:
243,311,222762,1,0,0:0:0:0:
229,279,222989,1,8,0:0:0:0:
161,239,223444,1,0,0:0:0:0:
164,309,224125,1,0,0:0:0:0:
166,283,224353,1,8,0:0:0:0:
166,283,225148,1,0,0:0:0:0:
166,283,225205,1,0,0:0:0:0:
160,281,225262,1,8,0:0:0:0:
251,249,225413,1,8,0:0:0:0:
251,249,225489,1,8,0:0:0:0:
251,249,225565,1,8,0:0:0:0:
191,229,225716,1,8,0:0:0:0:
405,217,225868,1,0,0:0:0:0:
384,240,225944,1,0,0:0:0:0:
384,240,226019,1,0,0:0:0:0:
256,166,226171,1,8,0:0:0:0:
214,280,226322,1,0,0:0:0:0:
258,277,226474,1,0,0:0:0:0:
198,251,226625,1,0,0:0:0:0:
186,274,226777,1,0,0:0:0:0:
186,274,226928,1,0,0:0:0:0:
196,35,227080,1,4,0:0:0:0:
188,284,227762,1,0,0:0:0:0:
198,248,227989,1,8,0:0:0:0:
204,239,228785,1,8,0:0:0:0:
218,268,228898,1,0,0:0:0:0:
273,277,229125,1,0,0:0:0:0:
196,282,229580,1,0,0:0:0:0:
251,260,230035,1,0,0:0:0:0:
251,260,230148,1,0,0:0:0:0:
249,247,230262,1,8,0:0:0:0:
200,37,230716,1,4,0:0:0:0:
168,278,231398,1,0,0:0:0:0:
182,240,231625,1,8,0:0:0:0:
149,254,232421,1,8,0:0:0:0:
166,282,232535,1,0,0:0:0:0:
166,282,232762,1,0,0:0:0:0:
195,285,233216,1,0,0:0:0:0:
217,281,233671,1,0,0:0:0:0:
217,281,233785,1,0,0:0:0:0:
219,260,233898,1,8,0:0:0:0:
160,256,234125,1,8,0:0:0:0:
160,256,234239,1,8,0:0:0:0:
219,62,234353,1,4,0:0:0:0:
225,282,235035,1,0,0:0:0:0:
230,258,235262,1,8,0:0:0:0:
221,228,236057,1,8,0:0:0:0:
243,253,236171,1,0,0:0:0:0:
185,273,236398,1,0,0:0:0:0:
260,290,236853,1,0,0:0:0:0:
280,290,236966,1,0,0:0:0:0:
279,288,237307,1,0,0:0:0:0:
297,289,237421,1,0,0:0:0:0:
292,286,237535,1,8,0:0:0:0:
214,291,237762,1,0,0:0:0:0:
159,43,237989,1,4,0:0:0:0:
152,283,238671,1,0,0:0:0:0:
152,283,238785,1,0,0:0:0:0:
150,262,238898,1,8,0:0:0:0:
218,229,239182,1,0,0:0:0:0:
218,229,239239,1,0,0:0:0:0:
201,264,239296,1,0,0:0:0:0:
227,221,239353,1,8,0:0:0:0:
139,229,239504,1,8,0:0:0:0:
139,229,239656,1,8,0:0:0:0:
185,281,239807,1,0,0:0:0:0:
286,280,240262,1,0,0:0:0:0:
193,264,240565,1,0,0:0:0:0:
193,264,240641,1,0,0:0:0:0:
200,260,240716,1,8,0:0:0:0:
162,321,240944,1,0,0:0:0:0:
265,255,241057,1,8,0:0:0:0:
265,255,241171,1,8,0:0:0:0:
265,255,241285,1,8,0:0:0:0:
220,237,241398,1,8,0:0:0:0:
219,243,241512,1,8,0:0:0:0:
229,37,241625,1,4,0:0:0:0:
170,305,241791,1,8,0:0:0:0:
138,283,241958,1,8,0:0:0:0:
129,336,242125,1,0,0:0:0:0:
217,319,242291,1,8,0:0:0:0:
260,292,242458,1,8,0:0:0:0:
266,336,242625,1,0,0:0:0:0:
222,295,242791,1,8,0:0:0:0:
162,323,242958,1,0,0:0:0:0:
166,257,243125,1,8,0:0:0:0:
199,239,243291,1,8,0:0:0:0:
227,281,243458,1,0,0:0:0:0:
269,253,243625,1,8,0:0:0:0:
187,284,243791,1,0,0:0:0:0:
231,280,243958,1,0,0:0:0:0:
228,253,244125,1,8,0:0:0:0:
139,288,244291,1,0,0:0:0:0:
136,260,244458,1,8,0:0:0:0:
101,268,244625,1,8,0:0:0:0:
100,298,244791,1,0,0:0:0:0:
140,274,244958,1,8,0:0:0:0:
204,261,245125,1,8,0:0:0:0:
191,295,245291,1,0,0:0:0:0:
176,274,245458,1,8,0:0:0:0:
148,291,245625,1,0,0:0:0:0:
116,304,245791,1,0,0:0:0:0:
95,324,245958,1,8,0:0:0:0:
58,338,246125,1,0,0:0:0:0:
120,342,246458,1,0,0:0:0:0:
181,315,246625,1,8,0:0:0:0:
172,275,246791,1,8,0:0:0:0:
132,295,246958,1,0,0:0:0:0:
208,307,247125,1,8,0:0:0:0:
231,287,247291,1,8,0:0:0:0:
242,325,247458,1,0,0:0:0:0:
231,287,247625,1,8,0:0:0:0:
198,274,247791,1,8,0:0:0:0:
176,304,247958,1,0,0:0:0:0:
210,305,248125,1,8,0:0:0:0:
237,336,248291,1,0,0:0:0:0:
272,298,248458,1,8,0:0:0:0:
258,275,248625,1,8,0:0:0:0:
272,328,248791,1,0,0:0:0:0:
305,298,248958,1,8,0:0:0:0:
344,281,249125,1,0,0:0:0:0:
331,326,249291,1,8,0:0:0:0:
303,331,249458,1,8,0:0:0:0:
210,315,249625,1,0,0:0:0:0:
134,259,249791,1,8,0:0:0:0:
121,252,249958,1,8,0:0:0:0:
122,319,250125,1,0,0:0:0:0:
188,262,250291,1,8,0:0:0:0:
227,246,250458,1,8,0:0:0:0:
231,291,250625,1,0,0:0:0:0:
200,269,250791,1,8,0:0:0:0:
184,303,250958,1,0,0:0:0:0:
233,322,251125,1,0,0:0:0:0:
285,328,251291,1,8,0:0:0:0:
324,337,251458,1,0,0:0:0:0:
337,341,251791,1,0,0:0:0:0:
286,283,251958,1,8,0:0:0:0:
209,292,252125,1,8,0:0:0:0:
224,333,252291,1,0,0:0:0:0:
221,317,252458,1,8,0:0:0:0:
160,263,252625,1,8,0:0:0:0:
168,319,252791,1,0,0:0:0:0:
121,307,252958,1,8,0:0:0:0:
125,333,253125,1,0,0:0:0:0:
166,339,253291,1,0,0:0:0:0:
196,323,253458,1,8,0:0:0:0:
232,332,253625,1,0,0:0:0:0:
273,333,253791,1,8,0:0:0:0:
283,301,253958,1,8,0:0:0:0:
301,344,254125,1,0,0:0:0:0:
326,318,254291,1,8,0:0:0:0:
374,342,254458,1,0,0:0:0:0:
337,329,254625,1,8,0:0:0:0:
249,286,254791,1,8,0:0:0:0:
222,332,254958,1,0,0:0:0:0:
173,296,255125,1,8,0:0:0:0:
148,321,255291,1,0,0:0:0:0:
165,333,255458,1,0,0:0:0:0:
222,281,255625,1,8,0:0:0:0:
222,332,255791,1,8,0:0:0:0:
244,332,255958,1,0,0:0:0:0:
242,304,256124,1,8,0:0:0:0:
187,305,256291,1,0,0:0:0:0:
171,328,256458,1,0,0:0:0:0:
196,342,256624,1,8,0:0:0:0:
234,336,256791,1,0,0:0:0:0:
261,349,257124,1,0,0:0:0:0:
318,342,257291,1,8,0:0:0:0:
252,282,257458,1,8,0:0:0:0:
176,339,257624,1,0,0:0:0:0:
166,285,257791,1,8,0:0:0:0:
129,293,257958,1,8,0:0:0:0:
129,339,258124,1,0,0:0:0:0:
173,289,258291,1,8,0:0:0:0:
184,320,258458,1,0,0:0:0:0:
205,283,258624,1,8,0:0:0:0:
246,268,258791,1,8,0:0:0:0:
239,323,258958,1,0,0:0:0:0:
176,268,259124,1,8,0:0:0:0:
136,266,259291,1,8,0:0:0:0:
137,296,259458,1,0,0:0:0:0:
170,282,259624,1,8,0:0:0:0:
215,287,259791,1,0,0:0:0:0:
241,286,259958,1,8,0:0:0:0:
288,266,260124,1,8,0:0:0:0:
285,322,260291,1,0,0:0:0:0:
253,285,260458,1,8,0:0:0:0:
221,299,260624,1,8,0:0:0:0:
228,330,260791,1,0,0:0:0:0:
280,303,260958,1,8,0:0:0:0:
182,294,261124,1,8,0:0:0:0:
187,329,261291,1,0,0:0:0:0:
223,293,261458,1,8,0:0:0:0:
259,337,261624,1,0,0:0:0:0:
296,344,261791,1,0,0:0:0:0:
322,344,261958,1,8,0:0:0:0:
348,347,262124,1,0,0:0:0:0:
348,347,262458,1,0,0:0:0:0:
287,311,262625,1,8,0:0:0:0:
201,306,262791,1,8,0:0:0:0:
207,44,262958,1,4,0:0:0:0:
156,279,263270,1,0,0:0:0:0:
156,279,263583,1,0,0:0:0:0:
156,279,263895,1,0,0:0:0:0:
156,279,264208,1,0,0:0:0:0:
156,279,264520,1,0,0:0:0:0:
206,319,264833,1,0,0:0:0:0:
224,305,264937,1,8,0:0:0:0:
221,292,265041,1,8,0:0:0:0:
228,322,265145,1,0,0:0:0:0:
240,296,265249,1,8,0:0:0:0:
238,293,265353,1,8,0:0:0:0:
239,328,265458,1,0,0:0:0:0:
240,324,265770,1,0,0:0:0:0:
239,328,266083,1,0,0:0:0:0:
201,298,266395,1,8,0:0:0:0:
189,333,266708,1,0,0:0:0:0:
235,280,266864,1,8,0:0:0:0:
184,272,267020,1,8,0:0:0:0:
218,312,267176,1,0,0:0:0:0:
237,272,267333,1,8,0:0:0:0:
237,272,267489,1,0,0:0:0:0:
237,272,267567,1,0,0:0:0:0:
237,272,267645,1,8,0:0:0:0:
237,272,267723,1,8,0:0:0:0:
237,272,267801,1,8,0:0:0:0:
237,272,267879,1,8,0:0:0:0:
284,304,267958,1,0,0:0:0:0:
245,327,268114,1,0,0:0:0:0:
171,287,268270,1,8,0:0:0:0:
168,331,268426,1,0,0:0:0:0:
196,289,268583,1,8,0:0:0:0:
230,263,268739,1,8,0:0:0:0:
246,263,268895,1,8,0:0:0:0:
253,323,269051,1,0,0:0:0:0:
281,330,269208,1,0,0:0:0:0:
283,310,269364,1,0,0:0:0:0:
251,278,269520,1,8,0:0:0:0:
252,313,269676,1,0,0:0:0:0:
266,292,269833,1,0,0:0:0:0:
294,287,269989,1,0,0:0:0:0:
304,262,270145,1,8,0:0:0:0:
241,254,270301,1,0,0:0:0:0:
241,308,270458,1,8,0:0:0:0:
183,293,270536,1,0,0:0:0:0:
183,293,270614,1,0,0:0:0:0:
183,293,270692,1,0,0:0:0:0:
171,274,270770,1,8,0:0:0:0:
160,273,270848,1,8,0:0:0:0:
162,294,270926,1,0,0:0:0:0:
162,294,271004,1,0,0:0:0:0:
149,266,271083,1,8,0:0:0:0:
146,292,271239,1,0,0:0:0:0:
146,292,271317,1,0,0:0:0:0:
131,259,271395,1,8,0:0:0:0:
186,25,271551,1,12,0:0:0:0:
177,279,271864,1,0,0:0:0:0:
177,279,271942,1,0,0:0:0:0:
177,260,272020,1,8,0:0:0:0:
139,261,272254,1,8,0:0:0:0:
139,261,272333,1,8,0:0:0:0:
139,261,272489,1,8,0:0:0:0:
159,285,272645,1,8,0:0:0:0:
165,300,272801,1,8,0:0:0:0:
225,35,272958,1,4,0:0:0:0:
189,226,273270,1,8,0:0:0:0:
208,274,273426,1,0,0:0:0:0:
237,246,273583,1,8,0:0:0:0:
273,243,273739,1,8,0:0:0:0:
257,288,273895,1,0,0:0:0:0:
189,11,274051,1,12,0:0:0:0:
159,312,274364,1,0,0:0:0:0:
179,275,274520,1,8,0:0:0:0:
176,285,274676,1,0,0:0:0:0:
181,269,274833,1,8,0:0:0:0:
159,269,274989,1,8,0:0:0:0:
172,299,275145,1,0,0:0:0:0:
196,281,275301,1,8,0:0:0:0:
229,315,275458,1,0,0:0:0:0:
185,335,275614,1,0,0:0:0:0:
136,313,275770,1,8,0:0:0:0:
151,332,275926,1,0,0:0:0:0:
165,282,276083,1,8,0:0:0:0:
171,303,276239,1,0,0:0:0:0:
196,310,276395,1,0,0:0:0:0:
235,17,276551,1,12,0:0:0:0:
244,299,276864,1,0,0:0:0:0:
248,268,277020,1,8,0:0:0:0:
244,299,277176,1,0,0:0:0:0:
244,299,277254,1,0,0:0:0:0:
241,270,277333,1,8,0:0:0:0:
218,304,277489,1,0,0:0:0:0:
218,304,277567,1,0,0:0:0:0:
218,304,277645,1,0,0:0:0:0:
218,304,277801,1,0,0:0:0:0:
164,232,277958,1,8,0:0:0:0:
254,236,278270,1,8,0:0:0:0:
251,295,278426,1,0,0:0:0:0:
286,260,278583,1,8,0:0:0:0:
327,241,278739,1,8,0:0:0:0:
303,286,278895,1,0,0:0:0:0:
213,27,279051,1,12,0:0:0:0:
217,323,279364,1,0,0:0:0:0:
196,243,279520,1,8,0:0:0:0:
194,309,279676,1,0,0:0:0:0:
236,261,279833,1,8,0:0:0:0:
241,315,279989,1,0,0:0:0:0:
241,315,280067,1,0,0:0:0:0:
243,293,280145,1,8,0:0:0:0:
156,279,280301,1,8,0:0:0:0:
165,333,280458,1,0,0:0:0:0:
195,341,280614,1,0,0:0:0:0:
199,295,280770,1,8,0:0:0:0:
206,338,280926,1,0,0:0:0:0:
254,284,281083,1,8,0:0:0:0:
272,278,281239,1,0,0:0:0:0:
246,319,281395,1,0,0:0:0:0:
174,19,281551,1,12,0:0:0:0:
187,315,281864,1,0,0:0:0:0:
186,268,282020,1,8,0:0:0:0:
226,307,282176,1,0,0:0:0:0:
226,307,282254,1,0,0:0:0:0:
228,285,282333,1,8,0:0:0:0:
240,306,282489,1,0,0:0:0:0:
244,299,282645,1,0,0:0:0:0:
246,293,282801,1,0,0:0:0:0:
246,293,282879,1,0,0:0:0:0:
209,66,282958,1,12,0:0:0:0:
145,269,283111,1,0,0:0:0:0:
145,269,283188,1,0,0:0:0:0:
166,53,283265,1,12,0:0:0:0:
107,269,283419,1,0,0:0:0:0:
107,269,283496,1,0,0:0:0:0:
195,71,283573,1,12,0:0:0:0:
123,299,283727,1,0,0:0:0:0:
123,299,283804,1,0,0:0:0:0:
138,52,283881,1,12,0:0:0:0:
116,295,284034,1,0,0:0:0:0:
117,293,284111,1,0,0:0:0:0:
138,78,284188,1,12,0:0:0:0:
186,205,284338,1,0,0:0:0:0:
186,219,284413,1,0,0:0:0:0:
252,50,284488,1,12,0:0:0:0:
198,244,284638,1,0,0:0:0:0:
198,244,284713,1,0,0:0:0:0:
93,71,284788,1,12,0:0:0:0:
149,278,284938,1,0,0:0:0:0:
149,278,285013,1,0,0:0:0:0:
185,15,285088,1,12,0:0:0:0:
170,289,285238,1,0,0:0:0:0:
170,289,285313,1,0,0:0:0:0:
273,85,285388,1,12,0:0:0:0:
161,304,285532,1,0,0:0:0:0:
161,304,285604,1,0,0:0:0:0:
153,57,285676,1,12,0:0:0:0:
155,300,285820,1,0,0:0:0:0:
156,305,285892,1,0,0:0:0:0:
231,31,285964,1,12,0:0:0:0:
179,309,286109,1,0,0:0:0:0:
179,309,286181,1,0,0:0:0:0:
130,22,286253,1,12,0:0:0:0:
152,314,286397,1,0,0:0:0:0:
152,315,286469,1,0,0:0:0:0:
299,72,286541,1,12,0:0:0:0:
206,336,286680,1,0,0:0:0:0:
206,336,286750,1,0,0:0:0:0:
152,103,286820,1,12,0:0:0:0:
162,328,286959,1,0,0:0:0:0:
162,328,287029,1,0,0:0:0:0:
256,130,287099,1,12,0:0:0:0:
182,331,287238,1,0,0:0:0:0:
186,344,287308,1,0,0:0:0:0:
104,134,287378,1,12,0:0:0:0:
138,356,287517,1,0,0:0:0:0:
138,356,287587,1,0,0:0:0:0:
187,75,287657,1,12,0:0:0:0:
241,339,287790,1,0,0:0:0:0:
241,339,287857,1,0,0:0:0:0:
214,105,287923,1,12,0:0:0:0:
219,343,288057,1,0,0:0:0:0:
219,343,288123,1,0,0:0:0:0:
279,22,288190,1,12,0:0:0:0:
228,339,288323,1,0,0:0:0:0:
228,339,288390,1,0,0:0:0:0:
52,127,288457,1,12,0:0:0:0:
202,341,288590,1,0,0:0:0:0:
202,341,288657,1,0,0:0:0:0:
373,0,288723,1,12,0:0:0:0:
219,337,288853,1,0,0:0:0:0:
219,337,288918,1,0,0:0:0:0:
211,34,288983,1,12,0:0:0:0:
210,320,289114,1,0,0:0:0:0:
210,320,289179,1,0,0:0:0:0:
216,88,289244,1,12,0:0:0:0:
205,331,289375,1,0,0:0:0:0:
205,331,289440,1,0,0:0:0:0:
313,54,289505,1,12,0:0:0:0:
200,333,289636,1,0,0:0:0:0:
200,333,289701,1,0,0:0:0:0:
114,31,289766,1,12,0:0:0:0:
169,337,289893,1,0,0:0:0:0:
167,330,289957,1,0,0:0:0:0:
157,303,290021,1,8,0:0:0:0:
157,303,290085,1,8,0:0:0:0:
164,321,290148,1,0,0:0:0:0:
164,321,290212,1,0,0:0:0:0:
157,287,290276,1,8,0:0:0:0:
166,313,290340,1,8,0:0:0:0:
160,313,290404,1,0,0:0:0:0:
160,313,290468,1,0,0:0:0:0:
157,274,290531,1,8,0:0:0:0:
157,274,290595,1,8,0:0:0:0:
186,262,290659,1,8,0:0:0:0:
186,262,290723,1,0,0:0:0:0:
186,262,290787,1,8,0:0:0:0:
192,308,290907,1,0,0:0:0:0:
192,308,290967,1,0,0:0:0:0:
186,282,291027,1,8,0:0:0:0:
186,282,291087,1,8,0:0:0:0:
191,310,291147,1,0,0:0:0:0:
191,310,291207,1,0,0:0:0:0:
190,289,291267,1,8,0:0:0:0:
190,289,291327,1,8,0:0:0:0:
193,341,291387,1,0,0:0:0:0:
193,341,291447,1,0,0:0:0:0:
187,294,291507,1,8,0:0:0:0:
185,319,291567,1,8,0:0:0:0:
192,308,291627,1,0,0:0:0:0:
192,308,291687,1,0,0:0:0:0:
178,277,291747,1,8,0:0:0:0:
161,274,291907,1,8,0:0:0:0:
186,31,292947,1,12,0:0:0:0:
264,325,293097,1,0,0:0:0:0:
264,325,293172,1,0,0:0:0:0:
261,307,293247,1,8,0:0:0:0:
261,307,293322,1,0,0:0:0:0:
250,298,293397,1,8,0:0:0:0:
212,317,293547,1,0,0:0:0:0:
156,269,293697,1,8,0:0:0:0:
142,311,293847,1,0,0:0:0:0:
142,311,293922,1,0,0:0:0:0:
187,282,293997,1,8,0:0:0:0:
185,301,294072,1,0,0:0:0:0:
181,266,294147,1,8,0:0:0:0:
149,272,294297,1,8,0:0:0:0:
159,289,294372,1,0,0:0:0:0:
159,289,294447,1,0,0:0:0:0:
168,283,294522,1,0,0:0:0:0:
167,268,294597,1,8,0:0:0:0:
201,305,294747,1,0,0:0:0:0:
211,254,294897,1,8,0:0:0:0:
206,286,295047,1,0,0:0:0:0:
206,286,295122,1,0,0:0:0:0:
225,264,295197,1,8,0:0:0:0:
223,264,295272,1,8,0:0:0:0:
223,286,295347,1,0,0:0:0:0:
182,303,295497,1,0,0:0:0:0:
182,303,295572,1,0,0:0:0:0:
154,283,295647,1,8,0:0:0:0:
154,283,295722,1,0,0:0:0:0:
154,260,295797,1,8,0:0:0:0:
152,305,295947,1,0,0:0:0:0:
178,270,296097,1,8,0:0:0:0:
179,323,296247,1,0,0:0:0:0:
220,318,296397,1,0,0:0:0:0:
220,318,296472,1,0,0:0:0:0:
228,288,296547,1,8,0:0:0:0:
219,286,296622,1,0,0:0:0:0:
176,248,296697,1,8,0:0:0:0:
215,273,296772,1,0,0:0:0:0:
182,278,296847,1,8,0:0:0:0:
215,273,296922,1,8,0:0:0:0:
229,252,296997,1,0,0:0:0:0:
235,278,297147,1,0,0:0:0:0:
251,259,297297,1,8,0:0:0:0:
234,288,297447,1,0,0:0:0:0:
234,288,297522,1,0,0:0:0:0:
237,267,297597,1,8,0:0:0:0:
237,266,297672,1,8,0:0:0:0:
233,258,297747,1,8,0:0:0:0:
164,258,297897,1,8,0:0:0:0:
173,276,297972,1,0,0:0:0:0:
190,253,298047,1,0,0:0:0:0:
190,253,298122,1,0,0:0:0:0:
186,241,298197,1,8,0:0:0:0:
208,294,298347,1,0,0:0:0:0:
215,256,298497,1,8,0:0:0:0:
173,294,298647,1,0,0:0:0:0:
173,295,298722,1,0,0:0:0:0:
164,276,298797,1,8,0:0:0:0:
164,276,298872,1,8,0:0:0:0:
164,297,298947,1,0,0:0:0:0:
144,250,299097,1,8,0:0:0:0:
131,271,299247,1,0,0:0:0:0:
131,271,299322,1,0,0:0:0:0:
128,256,299397,1,8,0:0:0:0:
94,285,299547,1,0,0:0:0:0:
148,282,299697,1,8,0:0:0:0:
172,284,299847,1,0,0:0:0:0:
172,284,299922,1,0,0:0:0:0:
180,268,299997,1,8,0:0:0:0:
172,284,300072,1,0,0:0:0:0:
185,17,300147,1,12,0:0:0:0:
235,41,300447,1,12,0:0:0:0:
275,82,300647,1,12,0:0:0:0:
200,253,300822,1,8,0:0:0:0:
200,253,300897,1,8,0:0:0:0:
200,253,301047,1,8,0:0:0:0:
188,57,301347,1,12,0:0:0:0:
235,80,301647,1,12,0:0:0:0:
264,125,301847,1,12,0:0:0:0:
235,319,302097,1,0,0:0:0:0:
235,319,302172,1,0,0:0:0:0:
219,296,302247,1,8,0:0:0:0:
163,317,302397,1,0,0:0:0:0:
169,321,302472,1,0,0:0:0:0:
187,92,302547,1,12,0:0:0:0:
269,261,302697,1,8,0:0:0:0:
286,285,302772,1,0,0:0:0:0:
284,275,302847,1,0,0:0:0:0:
284,275,302922,1,0,0:0:0:0:
279,259,302997,1,8,0:0:0:0:
243,303,303147,1,0,0:0:0:0:
174,286,303297,1,8,0:0:0:0:
158,315,303447,1,0,0:0:0:0:
158,315,303522,1,0,0:0:0:0:
151,295,303597,1,8,0:0:0:0:
151,295,303672,1,8,0:0:0:0:
158,315,303747,1,0,0:0:0:0:
172,272,303897,1,8,0:0:0:0:
188,312,304047,1,0,0:0:0:0:
188,312,304122,1,0,0:0:0:0:
193,284,304197,1,8,0:0:0:0:
212,325,304347,1,0,0:0:0:0:
192,288,304497,1,8,0:0:0:0:
150,321,304647,1,0,0:0:0:0:
150,321,304722,1,0,0:0:0:0:
148,288,304797,1,8,0:0:0:0:
150,321,304872,1,0,0:0:0:0:
151,292,304947,1,8,0:0:0:0:
168,329,305097,1,0,0:0:0:0:
175,303,305247,1,8,0:0:0:0:
184,311,305322,1,0,0:0:0:0:
193,280,305397,1,8,0:0:0:0:
203,309,305547,1,0,0:0:0:0:
203,308,305697,1,0,0:0:0:0:
203,308,305772,1,0,0:0:0:0:
195,286,305847,1,8,0:0:0:0:
188,304,305922,1,0,0:0:0:0:
180,273,305997,1,8,0:0:0:0:
180,273,306072,1,8,0:0:0:0:
188,294,306147,1,0,0:0:0:0:
229,270,306247,1,8,0:0:0:0:
229,270,306347,1,8,0:0:0:0:
229,270,306447,1,8,0:0:0:0:
229,270,306547,1,8,0:0:0:0:
229,270,306647,1,8,0:0:0:0:
229,270,306747,1,8,0:0:0:0:
229,270,306847,1,0,0:0:0:0:
229,270,306947,1,8,0:0:0:0:
221,276,307047,1,0,0:0:0:0:
221,276,307147,1,0,0:0:0:0:
221,276,307247,1,0,0:0:0:0:
190,30,307347,1,12,0:0:0:0:
251,299,307647,1,0,0:0:0:0:
276,262,307797,1,8,0:0:0:0:
232,240,307947,1,8,0:0:0:0:
200,286,308247,1,0,0:0:0:0:
171,305,308397,1,0,0:0:0:0:
171,305,308472,1,0,0:0:0:0:
211,34,308547,1,12,0:0:0:0:
231,311,308847,1,0,0:0:0:0:
253,276,308997,1,8,0:0:0:0:
221,266,309147,1,8,0:0:0:0:
214,307,309297,1,0,0:0:0:0:
288,315,309597,1,0,0:0:0:0:
189,55,309747,1,12,0:0:0:0:
207,53,310047,1,12,0:0:0:0:
241,48,310247,1,12,0:0:0:0:
188,292,310497,1,0,0:0:0:0:
188,292,310572,1,0,0:0:0:0:
166,259,310647,1,8,0:0:0:0:
189,316,310797,1,0,0:0:0:0:
192,316,310872,1,0,0:0:0:0:
189,55,310947,1,12,0:0:0:0:
207,53,311247,1,12,0:0:0:0:
241,48,311447,1,12,0:0:0:0:
242,321,311697,1,0,0:0:0:0:
242,321,311772,1,0,0:0:0:0:
226,305,311847,1,8,0:0:0:0:
211,326,312072,1,0,0:0:0:0:
189,55,312147,1,12,0:0:0:0:
207,53,312447,1,12,0:0:0:0:
241,48,312647,1,12,0:0:0:0:
223,314,312897,1,0,0:0:0:0:
225,313,312972,1,0,0:0:0:0:
216,278,313047,1,8,0:0:0:0:
246,300,313147,1,0,0:0:0:0:
255,276,313247,1,0,0:0:0:0:
189,55,313347,1,12,0:0:0:0:
207,53,313647,1,12,0:0:0:0:
241,48,313847,1,12,0:0:0:0:
230,311,314097,5,0,0:0:0:0:
230,311,314172,1,0,0:0:0:0:
206,293,314247,1,8,0:0:0:0:
209,305,314322,1,0,0:0:0:0:
206,293,314397,1,8,0:0:0:0:
212,308,314472,1,0,0:0:0:0:
271,270,314547,1,8,0:0:0:0:
271,270,314622,1,8,0:0:0:0:
275,296,314697,1,0,0:0:0:0:
275,296,314772,1,0,0:0:0:0:
273,276,314847,1,8,0:0:0:0:
273,276,314922,1,0,0:0:0:0:
271,270,314997,1,8,0:0:0:0:
271,270,315072,1,8,0:0:0:0:
271,289,315147,1,0,0:0:0:0:
271,289,315222,1,0,0:0:0:0:
266,241,315297,1,8,0:0:0:0:
266,241,315372,1,8,0:0:0:0:
266,241,315447,1,8,0:0:0:0:
266,241,315522,1,8,0:0:0:0:
269,280,315597,1,0,0:0:0:0:
269,280,315672,1,0,0:0:0:0:
255,268,315747,1,8,0:0:0:0:
255,268,315822,1,8,0:0:0:0:
256,286,315897,1,0,0:0:0:0:
256,286,315972,1,0,0:0:0:0:
247,251,316047,1,8,0:0:0:0:
253,272,316122,1,0,0:0:0:0:
252,254,316197,1,8,0:0:0:0:
252,254,316272,1,8,0:0:0:0:
254,274,316347,1,0,0:0:0:0:
254,274,316422,1,0,0:0:0:0:
251,246,316497,1,8,0:0:0:0:
251,246,316572,1,8,0:0:0:0:
251,246,316647,1,8,0:0:0:0:
251,246,316722,1,8,0:0:0:0:
249,268,316797,1,0,0:0:0:0:
249,268,316872,1,0,0:0:0:0:
245,245,316947,1,8,0:0:0:0:
246,247,317022,1,8,0:0:0:0:
248,263,317097,1,0,0:0:0:0:
254,288,317172,1,0,0:0:0:0:
243,253,317247,1,8,0:0:0:0:
241,275,317322,1,0,0:0:0:0:
242,253,317397,1,8,0:0:0:0:
242,253,317472,1,8,0:0:0:0:
241,269,317547,1,0,0:0:0:0:
241,269,317622,1,0,0:0:0:0:
234,248,317697,1,8,0:0:0:0:
235,250,317772,1,0,0:0:0:0:
235,250,317847,1,8,0:0:0:0:
235,250,317922,1,8,0:0:0:0:
235,250,317997,1,8,0:0:0:0:
230,236,318072,1,8,0:0:0:0:
230,237,318147,1,8,0:0:0:0:
291,270,318297,1,0,0:0:0:0:
291,270,318372,1,0,0:0:0:0:
287,245,318447,1,8,0:0:0:0:
279,248,318522,1,8,0:0:0:0:
273,239,318597,1,8,0:0:0:0:
272,242,318672,1,8,0:0:0:0:
263,244,318747,1,8,0:0:0:0:
228,254,318822,1,0,0:0:0:0:
211,248,318897,1,8,0:0:0:0:
228,254,318972,1,0,0:0:0:0:
211,247,319047,1,8,0:0:0:0:
228,254,319122,1,0,0:0:0:0:
199,237,319197,1,8,0:0:0:0:
193,27,319347,1,4,0:0:0:0:
193,27,319497,1,4,0:0:0:0:
