osu file format v14

[General]
AudioFilename: 10-vektor-recharging_the_void-263bfea6.mp3
AudioLeadIn: 0
PreviewTime: 677529
Countdown: 0
SampleSet: Normal
StackLeniency: 0.2
Mode: 0
LetterboxInBreaks: 1
WidescreenStoryboard: 0

[Editor]
Bookmarks: 64,9271,18775,28280,37785,42538,56665,75647,85327,104322,123213,142192,147068,156608,170862,196972,201786,206511,216020,239855,259286,278647,288351,298007,312603,327123,341690,381240,484943,514273,542528,580711,590380,609784,629178,659493,714019,726143,755231,774619,785265,803446
DistanceSpacing: 1.5
BeatDivisor: 4
GridSize: 4
TimelineZoom: 2.1

[Metadata]
Title:Recharging the Void
TitleUnicode:Recharging the Void
Artist:Vektor
ArtistUnicode:Vektor
Creator:Mazzerin
Version:Cygnus Terminal
Source:
Tags:terminal redux sci-fi space blackened progressive technical thrash metal marathon deathstream rsi
BeatmapID:1042794
BeatmapSetID:489236

[Difficulty]
HPDrainRate:4.2
CircleSize:4.5
OverallDifficulty:9.3
ApproachRate:9.8
SliderMultiplier:1.9
SliderTickRate:1

[Events]
//Background and Video events
0,0,"TerminalRedux.jpg",0,0
//Break Periods
//Storyboard Layer 0 (Background)
//Storyboard Layer 1 (Fail)
//Storyboard Layer 2 (Pass)
//Storyboard Layer 3 (Foreground)
//Storyboard Sound Samples

[TimingPoints]
64,594.059405940594,4,1,8,40,1,0
955,-133.333333333333,4,2,8,40,0,0
4222,-133.333333333333,4,1,8,40,0,0
4519,-133.333333333333,4,2,8,40,0,0
9271,594.059405940594,4,1,5,40,1,0
9271,-133.333333333333,4,1,5,40,0,0
9568,-133.333333333333,4,2,8,40,0,0
10163,-133.333333333333,4,1,5,40,0,0
10608,-133.333333333333,4,2,5,40,0,0
10757,-133.333333333333,4,1,5,40,0,0
11054,-133.333333333333,4,2,8,40,0,0
11202,-133.333333333333,4,1,8,40,0,0
11648,-133.333333333333,4,1,5,40,0,0
11796,-133.333333333333,4,2,8,40,0,0
11945,-133.333333333333,4,1,8,40,0,0
12539,-133.333333333333,4,1,5,40,0,0
13281,-133.333333333333,4,2,5,40,0,0
13430,-133.333333333333,4,1,5,40,0,0
13727,-133.333333333333,4,1,8,40,0,0
14024,-133.333333333333,4,2,8,40,0,0
14915,-133.333333333333,4,1,5,40,0,0
15361,-133.333333333333,4,2,5,40,0,0
15509,-133.333333333333,4,1,5,40,0,0
15806,-133.333333333333,4,2,8,40,0,0
15955,-133.333333333333,4,1,8,40,0,0
16252,-133.333333333333,4,2,5,40,0,0
16400,-133.333333333333,4,1,5,40,0,0
16697,-133.333333333333,4,1,8,40,0,0
17291,-133.333333333333,4,1,5,40,0,0
18775,-133.333333333333,4,1,9,40,0,0
19221,-133.333333333333,4,1,8,40,0,0
19370,-133.333333333333,4,1,5,40,0,0
19667,-133.333333333333,4,1,9,40,0,0
19964,-133.333333333333,4,1,8,40,0,0
20261,-133.333333333333,4,1,9,40,0,0
20558,-133.333333333333,4,1,5,40,0,0
20706,-133.333333333333,4,1,8,40,0,0
20855,-133.333333333333,4,1,9,40,0,0
21300,-133.333333333333,4,1,8,40,0,0
21449,-133.333333333333,4,1,9,40,0,0
21597,-133.333333333333,4,2,9,40,0,0
21746,-133.333333333333,4,1,5,40,0,0
22043,-133.333333333333,4,1,9,40,0,0
22191,-133.333333333333,4,2,9,40,0,0
22340,-133.333333333333,4,1,8,40,0,0
22637,-133.333333333333,4,1,9,40,0,0
22785,-133.333333333333,4,1,5,40,0,0
23082,-133.333333333333,4,1,8,40,0,0
23231,-133.333333333333,4,1,9,40,0,0
23379,-133.333333333333,4,2,9,40,0,0
23528,-133.333333333333,4,1,8,40,0,0
23825,-133.333333333333,4,1,9,40,0,0
23973,-133.333333333333,4,2,9,40,0,0
24122,-133.333333333333,4,1,5,40,0,0
24419,-133.333333333333,4,1,9,40,0,0
24716,-133.333333333333,4,1,8,40,0,0
24865,-133.333333333333,4,2,8,40,0,0
25013,-133.333333333333,4,1,9,40,0,0
25310,-133.333333333333,4,1,5,40,0,0
25459,-133.333333333333,4,1,8,40,0,0
25607,-133.333333333333,4,1,9,40,0,0
25756,-133.333333333333,4,2,9,40,0,0
25904,-133.333333333333,4,1,8,40,0,0
26201,-133.333333333333,4,1,9,40,0,0
26350,-133.333333333333,4,2,9,40,0,0
26498,-133.333333333333,4,1,5,40,0,0
26795,-133.333333333333,4,1,9,40,0,0
26944,-133.333333333333,4,2,9,40,0,0
27092,-133.333333333333,4,1,8,40,0,0
27538,-133.333333333333,4,1,5,40,0,0
29320,-133.333333333333,4,2,5,5,0,0
29469,-133.333333333333,4,1,5,40,0,0
30657,-133.333333333333,4,1,9,40,0,0
30921,594.059405940594,4,1,5,40,1,0
30921,-133.333333333333,4,1,5,40,0,0
31557,594.059405940594,4,1,5,40,1,0
33006,594.059405940594,4,1,5,40,1,0
33303,666.666666666667,4,1,5,40,1,0
33303,-133.333333333333,4,1,5,40,0,0
34136,-133.333333333333,4,2,5,5,0,0
34242,594.059405940594,4,1,5,40,1,0
34242,-133.333333333333,4,1,5,40,0,0
34984,545.454545454546,4,1,5,40,1,0
35422,594.059405940594,4,1,5,40,1,0
35422,-133.333333333333,4,1,5,40,0,0
35644,-133.333333333333,4,2,5,5,0,0
35719,-133.333333333333,4,1,5,40,0,0
36832,-133.333333333333,4,2,5,5,0,0
36907,-133.333333333333,4,1,5,40,0,0
37501,480,4,1,5,40,1,0
37787,594.059405940594,4,1,5,40,1,0
37968,521.739130434783,4,1,8,40,1,0
38228,-100,4,1,5,40,0,0
38685,581.113801452785,4,1,5,40,1,0
39338,-100,4,1,8,40,0,0
39411,-100,4,1,5,40,0,0
39860,594.059405940594,4,1,5,40,1,0
40379,-100,4,1,8,40,0,0
40602,-100,4,1,5,40,0,0
40722,571.428571428571,4,1,5,40,1,0
41007,-100,4,1,8,40,0,0
41318,594.059405940594,4,1,5,40,1,0
41392,-100,4,2,5,40,0,0
41615,618.556701030928,4,1,5,40,1,0
41932,594.059405940594,4,1,5,40,1,0
42006,-100,4,2,5,40,0,0
42093,560.747663551402,4,1,5,40,1,0
42538,297.029702970297,4,1,11,40,1,0
42612,-100,4,1,10,40,0,0
43429,-100,4,1,11,40,0,0
43503,-100,4,1,10,40,0,0
44617,-100,4,1,11,40,0,0
44691,-100,4,1,10,40,0,0
45805,-100,4,1,11,40,0,0
45879,-100,4,1,10,40,0,0
46399,-100,4,1,11,40,0,0
46473,-100,4,1,10,40,0,0
46993,-100,4,1,11,40,0,0
47067,-100,4,1,10,40,0,0
48181,-100,4,1,11,40,0,0
48255,-100,4,1,10,40,0,0
49369,-100,4,1,11,40,0,0
49443,-100,4,1,10,40,0,0
50557,-100,4,1,11,40,0,0
50632,-100,4,1,10,40,0,0
51151,-100,4,1,11,40,0,0
51226,-100,4,1,10,40,0,0
51745,-100,4,1,11,40,0,0
51820,-100,4,1,10,40,0,0
52934,-100,4,1,11,40,0,0
53008,-100,4,1,10,40,0,0
54122,-100,4,1,11,40,0,0
54196,-100,4,1,10,40,0,0
55310,-100,4,1,11,40,0,0
55384,-100,4,1,10,40,0,0
55607,-100,4,1,5,40,0,0
55830,-100,4,2,5,40,0,0
55904,-100,4,1,5,40,0,0
55978,-100,4,2,5,40,0,0
56052,-100,4,1,5,40,0,0
56665,294.117647058824,4,1,5,40,1,0
56665,-66.6666666666667,4,1,5,40,0,0
56885,-100,4,2,5,5,0,0
56959,-100,4,1,6,40,0,0
57841,260.869565217391,4,1,5,40,1,0
57841,-66.6666666666667,4,1,6,40,0,0
58036,-100,4,2,5,5,0,0
58101,294.117647058824,4,1,5,40,1,0
58983,375,4,1,5,40,1,0
58983,-66.6666666666667,4,1,5,40,0,0
59170,214.285714285714,4,1,5,40,1,0
59277,315.789473684211,4,1,6,40,1,0
59434,288.461538461538,4,1,6,40,1,0
59866,400,4,1,6,40,1,0
60066,500,4,1,6,40,1,0
60191,324.324324324324,4,1,5,40,1,0
60191,-66.6666666666667,4,1,6,40,0,0
60490,294.117647058824,4,1,5,40,1,0
61372,-66.6666666666667,4,1,5,40,0,0
61592,-66.6666666666667,4,2,5,5,0,0
61678,297.029702970297,4,1,5,40,1,0
61900,-100,4,2,5,40,0,0
61975,-100,4,1,5,40,0,0
63757,-66.6666666666667,4,1,5,40,0,0
63979,-66.6666666666667,4,2,5,5,0,0
64070,297.029702970297,4,1,5,40,1,0
64961,-66.6666666666667,4,1,5,40,0,0
65183,-66.6666666666667,4,2,5,5,0,0
65258,285.714285714286,4,1,5,40,1,0
66115,-66.6666666666667,4,1,5,40,0,0
66329,-66.6666666666667,4,2,5,5,0,0
66400,400,4,1,6,40,1,0
66600,272.727272727273,4,1,6,40,1,0
66736,297.029702970297,4,1,6,40,1,0
67330,-66.6666666666667,4,1,5,40,0,0
67552,-66.6666666666667,4,2,5,5,0,0
67627,-100,4,1,5,40,0,0
68518,-66.6666666666667,4,1,5,40,0,0
68740,-66.6666666666667,4,2,5,5,0,0
68815,300,4,1,6,40,1,0
69940,-100,4,2,6,5,0,0
70015,-100,4,1,6,40,0,0
70390,-100,4,2,6,5,0,0
70465,-100,4,1,6,40,0,0
70915,-66.6666666666667,4,1,5,40,0,0
71140,-66.6666666666667,4,2,5,5,0,0
71215,-100,4,1,6,40,0,0
71440,-100,4,2,6,40,0,0
71515,-100,4,1,6,40,0,0
72401,297.029702970297,4,1,5,40,1,0
72523,297.029702970297,4,1,5,40,1,0
73265,-66.6666666666667,4,1,5,40,0,0
73488,-66.6666666666667,4,2,5,5,0,0
73594,297.029702970297,4,1,5,40,1,0
74473,375,4,1,5,40,1,0
74662,260.869565217391,4,1,5,40,1,0
75053,297.029702970297,4,1,5,40,1,0
75647,-66.6666666666667,4,1,5,40,0,0
75869,-66.6666666666667,4,2,5,5,0,0
75944,-100,4,1,5,40,0,0
79434,-100,4,2,5,5,0,0
79508,-100,4,1,5,40,0,0
79656,-100,4,2,5,40,0,0
79805,-80,4,1,5,40,0,0
80028,-80,4,2,5,5,0,0
80124,297.029702970297,4,1,5,40,1,0
80335,297.029702970297,4,1,5,40,1,0
80434,-66.6666666666667,4,1,5,40,0,0
80632,-66.6666666666667,4,2,5,5,0,0
80718,297.029702970297,4,1,5,40,1,0
81578,297.029702970297,4,1,5,40,1,0
83731,-100,4,2,5,40,0,0
83805,-100,4,1,5,40,0,0
83954,-200,4,1,5,40,0,0
84177,-200,4,2,5,5,0,0
84251,-100,4,1,5,40,0,0
84622,-100,4,1,8,40,0,0
85216,222.222222222222,4,1,5,40,1,0
85216,-200,4,1,5,40,0,0
85327,297.029702970297,4,1,5,40,1,0
85327,-57.1428571428571,4,1,5,40,0,0
85740,288.461538461538,4,1,5,40,1,0
86479,297.029702970297,4,1,5,40,1,0
86924,333.333333333333,4,1,5,40,1,0
86924,-66.6666666666667,4,1,5,40,0,0
87091,297.029702970297,4,1,6,40,1,0
87759,-100,4,1,5,20,0,0
87982,-100,4,1,5,40,0,0
88873,-100,4,1,6,40,0,0
90061,-57.1428571428571,4,1,5,40,0,0
90284,-57.1428571428571,4,2,5,40,0,0
90358,-100,4,1,5,40,0,0
91397,333.333333333333,4,1,5,40,1,0
91563,297.029702970297,4,1,5,40,1,0
91711,-66.6666666666667,4,1,5,40,0,0
91860,-100,4,1,6,40,0,0
92528,-100,4,1,5,20,0,0
92751,-100,4,1,6,40,0,0
94830,-66.6666666666667,4,1,5,40,0,0
95053,-100,4,2,6,5,0,0
95127,-100,4,1,6,40,0,0
96463,-57.1428571428571,4,1,5,40,0,0
96761,-100,4,1,6,40,0,0
97280,-100,4,1,6,20,0,0
97503,-100,4,1,6,40,0,0
99285,281.69014084507,4,1,5,40,1,0
99566,-57.1428571428571,4,1,5,40,0,0
99777,-57.1428571428571,4,2,5,5,0,0
99848,310.880829015544,4,1,5,40,1,0
100780,297.029702970297,4,1,5,40,1,0
100911,297.029702970297,4,1,5,40,1,0
101208,-66.6666666666667,4,1,5,40,0,0
101356,-100,4,1,5,40,0,0
101505,-100,4,1,6,40,0,0
102024,-100,4,1,6,20,0,0
102243,297.029702970297,4,1,5,40,1,0
104322,297.029702970297,4,1,11,40,1,0
104396,-100,4,1,10,40,0,0
105213,-100,4,1,11,40,0,0
105287,-100,4,1,10,40,0,0
106401,-100,4,1,11,40,0,0
106475,-100,4,1,10,40,0,0
107589,-100,4,1,11,40,0,0
107663,-100,4,1,10,40,0,0
108183,-100,4,1,11,40,0,0
108257,-100,4,1,10,40,0,0
108777,-100,4,1,11,40,0,0
108851,-100,4,1,10,40,0,0
109965,-100,4,1,11,40,0,0
110040,-100,4,1,10,40,0,0
111153,-100,4,1,11,40,0,0
111228,-100,4,1,10,40,0,0
112342,-100,4,1,11,40,0,0
112416,-100,4,1,10,40,0,0
112935,-100,4,1,11,40,0,0
113010,-100,4,1,10,40,0,0
113529,-100,4,1,11,40,0,0
113604,-100,4,1,10,40,0,0
114718,-100,4,1,11,40,0,0
114792,-100,4,1,10,40,0,0
115906,-100,4,1,11,40,0,0
115980,-100,4,1,10,40,0,0
117094,-100,4,1,11,40,0,0
117168,-100,4,1,10,40,0,0
117688,-100,4,1,11,40,0,0
117762,-100,4,1,10,40,0,0
118282,-100,4,1,11,40,0,0
118356,-100,4,1,10,40,0,0
119470,-100,4,1,11,40,0,0
119544,-100,4,1,10,40,0,0
120658,-100,4,1,11,40,0,0
120732,-100,4,1,10,40,0,0
121846,-100,4,1,11,40,0,0
121921,-100,4,1,10,40,0,0
122143,255.31914893617,4,1,5,40,1,0
122270,304.568527918782,4,1,5,40,1,0
122422,-100,4,1,10,40,0,0
122470,297.029702970297,4,1,5,40,1,0
122745,244.897959183673,4,1,5,40,1,0
123065,297.029702970297,4,1,5,40,1,0
123213,297.029702970297,4,1,5,40,1,0
123213,-66.6666666666667,4,1,5,40,0,0
123436,-66.6666666666667,4,2,5,5,0,0
123510,-100,4,1,6,40,0,0
124401,-66.6666666666667,4,1,6,40,0,0
124623,-66.6666666666667,4,2,6,5,0,0
124674,294.117647058824,4,1,5,40,1,0
125556,352.941176470588,4,1,5,40,1,0
125556,-66.6666666666667,4,1,5,40,0,0
125850,294.117647058824,4,1,6,40,1,0
126732,-66.6666666666667,4,1,6,40,0,0
126952,-66.6666666666667,4,2,6,5,0,0
127026,-100,4,1,6,40,0,0
127908,-66.6666666666667,4,1,5,40,0,0
128129,-66.6666666666667,4,2,5,5,0,0
128202,-100,4,1,6,40,0,0
128423,-100,4,2,6,40,0,0
128497,-100,4,1,6,40,0,0
128791,363.636363636364,4,1,5,40,1,0
128972,240,4,1,5,40,1,0
129092,297.029702970297,4,1,5,40,1,0
129412,297.029702970297,4,1,5,40,1,0
130303,-66.6666666666667,4,1,5,40,0,0
130525,-100,4,2,5,5,0,0
130600,-100,4,1,5,40,0,0
131936,-100,4,1,5,20,0,0
132233,-100,4,1,5,40,0,0
132679,-66.6666666666667,4,1,5,40,0,0
132902,-100,4,2,5,5,0,0
132976,-100,4,1,6,40,0,0
133867,-66.6666666666667,4,1,6,40,0,0
134090,-66.6666666666667,4,2,6,5,0,0
134164,-100,4,1,6,40,0,0
135055,-66.6666666666667,4,1,5,40,0,0
135277,-66.6666666666667,4,2,6,5,0,0
135352,297.029702970297,4,1,6,40,1,0
136465,-100,4,2,6,5,0,0
136540,-100,4,1,6,40,0,0
136911,-100,4,2,6,5,0,0
136985,-100,4,1,6,40,0,0
137431,-66.6666666666667,4,1,5,40,0,0
137653,-100,4,2,6,5,0,0
137728,-100,4,1,6,40,0,0
138938,297.029702970297,4,1,5,40,1,0
139829,-66.6666666666667,4,1,5,40,0,0
140051,-66.6666666666667,4,2,5,5,0,0
140126,-100,4,1,5,40,0,0
142192,295.566502463054,4,1,5,40,1,0
142192,-66.6666666666667,4,1,6,40,0,0
143374,-74.0740740740741,4,1,6,40,0,0
144556,-83.3333333333333,4,1,6,40,0,0
146329,-100,4,1,6,40,0,0
146551,-100,4,2,6,5,0,0
146625,-83.3333333333333,4,1,6,40,0,0
147216,-83.3333333333333,4,2,6,40,0,0
147364,-83.3333333333333,4,1,6,40,0,0
150501,295.566502463054,4,1,5,40,1,0
150722,-100,4,2,5,5,0,0
150810,294.117647058824,4,1,5,40,1,0
150957,-100,4,2,5,40,0,0
151104,-80,4,1,5,40,0,0
151324,-80,4,2,5,5,0,0
151398,-100,4,1,5,40,0,0
151545,-100,4,2,5,40,0,0
151692,-66.6666666666667,4,1,5,40,0,0
151912,-100,4,2,5,5,0,0
151986,-100,4,1,5,40,0,0
155221,-66.6666666666667,4,1,5,40,0,0
155442,-66.6666666666667,4,2,5,5,0,0
155515,312.5,4,1,5,40,1,0
155905,-100,4,1,8,40,0,0
156608,295.566502463054,4,1,5,40,1,0
156903,-66.6666666666667,4,1,5,40,0,0
157199,-100,4,1,5,40,0,0
159268,-66.6666666666667,4,1,5,40,0,0
159563,-86.9565217391304,4,1,5,40,0,0
161632,-66.6666666666667,4,1,5,40,0,0
161780,-76.9230769230769,4,1,5,40,0,0
162223,-100,4,1,5,40,0,0
162519,-76.9230769230769,4,1,5,40,0,0
163406,315.789473684211,4,1,8,40,1,0
163721,295.566502463054,4,1,5,40,1,0
163882,297.029702970297,4,1,8,40,1,0
164179,-100,4,1,5,40,0,0
164773,-80,4,1,5,40,0,0
164995,-80,4,2,5,5,0,0
165070,-80,4,1,5,40,0,0
165367,-57.1428571428571,4,1,5,40,0,0
165589,-66.6666666666667,4,2,5,5,0,0
165664,-80,4,1,5,40,0,0
165961,-100,4,1,5,40,0,1
170119,-66.6666666666667,4,1,5,40,0,1
170342,-66.6666666666667,4,2,5,5,0,1
170416,-83.3333333333333,4,1,5,40,0,1
170862,-66.6666666666667,4,1,5,40,0,0
171084,-66.6666666666667,4,2,5,5,0,0
171159,-100,4,1,5,40,0,0
172495,-57.1428571428571,4,1,5,40,0,0
173210,297.029702970297,4,1,5,40,1,0
173284,-100,4,1,5,20,0,0
173507,-100,4,1,5,40,0,0
175586,-66.6666666666667,4,1,5,40,0,0
175809,-66.6666666666667,4,2,5,5,0,0
175917,292.682926829268,4,1,5,40,1,0
177234,-57.1428571428571,4,1,5,40,0,0
177965,-100,4,1,5,40,0,0
178038,-100,4,1,5,20,0,0
178258,-100,4,1,5,40,0,0
180307,-66.6666666666667,4,1,5,40,0,0
180526,-66.6666666666667,4,2,5,5,0,0
180616,303.030303030303,4,1,5,40,1,0
181979,-57.1428571428571,4,1,5,40,0,0
182267,299.25187032419,4,1,5,40,1,0
182790,-100,4,1,5,20,0,0
183015,-100,4,1,5,40,0,0
184062,-100,4,1,7,40,0,0
184137,-100,4,1,5,40,0,0
185109,-66.6666666666667,4,1,5,40,0,0
185430,279.06976744186,4,1,5,40,1,0
186288,297.029702970297,4,1,5,40,1,0
186733,-57.1428571428571,4,1,5,40,0,0
187165,303.030303030303,4,1,5,40,1,0
187468,297.029702970297,4,1,5,40,1,0
187542,-100,4,1,5,20,0,0
187765,-100,4,1,5,40,0,0
196972,318.302387267905,4,1,5,40,1,0
196972,-1000,4,1,5,40,0,0
197051,-1000,4,2,5,5,0,0
197449,-100,4,2,5,40,0,0
198187,304.568527918782,4,1,5,40,1,0
198187,-1000,4,1,5,40,0,0
198263,-1000,4,2,5,5,0,0
198653,300,4,2,5,40,1,0
198653,-200,4,2,5,40,0,0
198939,352.941176470588,4,2,5,40,1,0
199347,300,4,1,5,40,1,0
199347,-1000,4,1,5,40,0,0
199422,-1000,4,2,5,5,0,0
199843,300,4,2,5,40,1,0
200443,250,4,1,9,40,1,0
200568,-1000,4,1,5,40,0,0
200630,-1000,4,2,5,5,0,0
200896,400,4,2,5,40,1,0
200896,-200,4,2,5,40,0,0
200994,300,4,2,5,40,1,0
201170,327.868852459016,4,1,5,40,1,0
201333,-100,4,2,5,40,0,0
201786,272.727272727273,4,1,9,40,1,0
201854,-100,4,1,9,20,0,0
202195,-100,4,1,9,40,0,0
202467,342.857142857143,4,2,5,40,1,0
202638,-1000,4,2,5,40,0,0
202724,-1000,4,2,5,5,0,0
202934,297.029702970297,4,1,5,40,1,0
203008,-100,4,1,10,20,0,0
203379,-100,4,1,5,40,0,0
203676,-100,4,2,5,40,0,0
203825,-1000,4,2,5,40,0,0
203899,-1000,4,2,5,5,0,0
204122,-100,4,1,5,40,0,0
204196,-100,4,1,10,20,0,0
204567,-100,4,1,5,40,0,0
204864,375,4,2,5,40,1,0
205051,-1000,4,2,5,40,0,0
205145,-1000,4,2,5,5,0,0
205239,297.029702970297,4,1,11,40,1,0
205470,297.029702970297,4,1,5,40,1,0
205569,272.727272727273,4,1,5,40,1,0
205890,279.06976744186,4,1,5,40,1,0
206511,294.117647058824,4,1,6,40,1,1
207687,297.029702970297,4,1,6,40,1,1
207687,-111.111111111111,4,1,6,40,0,1
208875,-125,4,1,6,40,0,1
210063,-100,4,1,6,40,0,1
210137,-100,4,1,8,40,0,1
210211,-100,4,1,6,40,0,1
210286,-100,4,1,8,40,0,1
210360,-166.666666666667,4,1,6,40,0,1
210583,-166.666666666667,4,1,8,40,0,1
210657,-125,4,1,6,40,0,1
210731,-125,4,1,8,40,0,1
210805,-125,4,1,6,40,0,1
210954,-100,4,1,6,40,0,1
212439,-111.111111111111,4,1,6,40,0,1
214832,297.029702970297,4,1,6,40,1,1
215129,-166.666666666667,4,1,6,40,0,1
215426,-125,4,1,6,40,0,1
215723,-100,4,1,6,40,0,1
216020,294.117647058824,4,1,6,40,1,0
216240,-100,4,2,6,5,0,0
216314,-200,4,1,6,40,0,0
217196,-133.333333333333,4,1,6,40,0,0
218372,298.507462686567,4,1,6,40,1,0
219566,-80,4,1,6,40,0,0
219864,-100,4,1,6,40,0,0
220163,-133.333333333333,4,1,6,40,0,0
220461,-200,4,1,6,40,0,0
220760,295.566502463054,4,1,6,40,1,0
220760,-200,4,1,6,40,0,0
221942,-133.333333333333,4,1,6,40,0,0
223124,-100,4,1,6,40,0,0
224306,-80,4,1,6,40,0,0
224602,-100,4,1,6,40,0,0
224897,-133.333333333333,4,1,6,40,0,0
225193,-200,4,1,6,40,0,0
225489,300,4,1,6,40,1,0
225489,-200,4,1,6,40,0,0
226689,298.507462686567,4,1,6,40,1,0
226689,-133.333333333333,4,1,6,40,0,0
227883,-100,4,1,6,40,0,0
229077,-80,4,1,6,40,0,0
229375,-100,4,1,6,40,0,0
229674,-133.333333333333,4,1,6,40,0,0
229972,-200,4,1,6,40,0,0
230249,298.507462686567,4,1,6,40,1,0
230249,-200,4,1,6,40,0,0
231443,-133.333333333333,4,1,6,40,0,0
232637,295.566502463054,4,1,6,40,1,0
233819,297.029702970297,4,1,6,40,1,0
233819,-80,4,1,6,40,0,0
234116,-100,4,1,6,40,0,0
234413,-133.333333333333,4,1,6,40,0,0
234710,-200,4,1,6,40,0,0
235007,303.030303030303,4,1,5,40,1,0
235613,-100,4,1,8,40,0,0
235764,-100,4,1,5,40,0,0
236067,-100,4,1,8,40,0,0
236370,-100,4,1,5,40,0,0
236673,-100,4,1,8,40,0,0
236825,-100,4,1,5,40,0,0
237128,-100,4,1,8,40,0,0
237431,-100,4,1,5,40,0,0
237582,-100,4,1,8,40,0,0
237885,-100,4,1,5,40,0,0
238037,-100,4,1,8,40,0,0
238188,-100,4,1,5,40,0,0
238870,-100,4,2,5,5,0,0
238946,-100,4,1,5,40,0,0
239855,-100,4,1,14,40,0,0
241067,306.122448979592,4,1,14,40,1,0
242291,304.568527918782,4,1,14,40,1,0
243509,-100,4,1,14,40,0,1
243661,-100,4,1,8,40,0,1
243966,-100,4,1,14,40,0,1
244422,-100,4,1,8,40,0,1
244727,301.507537688442,4,1,14,40,1,0
247873,301.507537688442,4,1,14,40,1,0
248194,301.507537688442,4,1,14,40,1,1
248420,-100,4,2,14,5,0,1
248495,-100,4,1,8,40,0,1
248797,-100,4,1,14,40,0,1
249249,-100,4,1,8,40,0,1
249550,304.568527918782,4,1,14,40,1,0
251986,301.507537688442,4,1,14,40,1,0
253192,-100,4,1,14,40,0,1
253342,-100,4,1,8,40,0,1
253644,-100,4,1,14,40,0,1
254096,-100,4,1,8,40,0,1
254398,304.568527918782,4,1,14,40,1,0
256834,301.507537688442,4,1,14,40,1,0
257889,-100,4,1,14,40,0,1
258039,301.507537688442,4,1,14,40,1,1
258114,-100,4,2,14,5,0,1
258189,-100,4,1,8,40,0,1
258491,-100,4,1,14,40,0,1
258944,342.857142857143,4,1,8,40,1,1
259286,297.029702970297,4,1,11,40,1,0
259731,-100,4,1,8,40,0,0
259880,-100,4,1,11,40,0,0
260474,304.568527918782,4,1,11,40,1,0
260778,-100,4,1,10,40,0,0
260930,-100,4,1,8,40,0,0
261083,-100,4,1,11,40,0,0
261692,297.029702970297,4,1,11,40,1,0
262137,-100,4,2,14,40,0,0
262286,-100,4,1,11,40,0,0
262583,-100,4,1,15,40,0,0
262880,315.789473684211,4,1,11,40,1,0
263195,-100,4,1,10,40,0,0
263353,-100,4,1,8,40,0,0
263511,297.029702970297,4,1,14,40,1,0
263511,-133.333333333333,4,1,14,40,0,0
264105,301.507537688442,4,1,15,40,1,0
264557,-100,4,1,8,40,0,0
264708,-100,4,1,5,40,0,0
265009,-100,4,1,15,40,0,0
265311,307.692307692308,4,1,14,40,1,0
265464,-100,4,1,11,40,0,0
265618,-100,4,1,10,40,0,0
265772,-100,4,1,8,40,0,0
265926,-100,4,1,11,40,0,0
266525,304.568527918782,4,1,15,40,1,0
266981,-100,4,1,8,40,0,0
267134,-100,4,1,15,40,0,0
267438,304.568527918782,4,1,15,40,1,0
267514,-100,4,1,7,40,0,0
267590,-100,4,1,15,40,0,0
267818,-100,4,1,7,40,0,0
267894,-100,4,1,15,40,0,0
268199,-100,4,1,8,40,0,0
268351,-133.333333333333,4,1,15,40,0,0
268961,303.030303030303,4,1,11,40,1,0
269415,-100,4,1,8,40,0,0
269567,-100,4,1,11,40,0,0
269870,-100,4,1,15,40,0,0
270324,-100,4,1,11,40,0,0
270476,-100,4,1,10,40,0,0
270627,-100,4,1,8,40,0,0
270779,-100,4,1,11,40,0,0
271385,300,4,1,11,40,1,0
271835,-100,4,2,11,40,0,0
271985,-100,4,1,11,40,0,0
272285,-100,4,1,15,40,0,0
272585,310.880829015544,4,1,15,40,1,0
272740,-100,4,1,11,40,0,0
272895,-100,4,1,15,40,0,0
273051,-100,4,1,8,40,0,0
273206,-133.333333333333,4,1,11,40,0,0
273828,294.117647058824,4,1,15,40,1,0
274269,-100,4,1,8,40,0,0
274416,-100,4,1,11,40,0,0
274710,-100,4,1,15,40,0,0
275004,307.692307692308,4,1,11,40,1,0
275311,-100,4,1,10,40,0,0
275465,-100,4,1,8,40,0,0
275619,-100,4,1,14,40,0,0
276234,300,4,1,15,40,1,0
276684,-100,4,1,8,40,0,0
276834,-100,4,1,15,40,0,0
277584,352.941176470588,4,1,15,40,1,0
277899,300,4,1,14,40,1,0
278049,375,4,1,14,40,1,0
278049,-133.333333333333,4,1,14,40,0,0
278349,379.746835443038,4,1,14,40,1,0
278349,-133.333333333333,4,1,14,40,0,0
278647,304.568527918782,4,1,14,40,1,0
279865,297.029702970297,4,1,14,40,1,0
281053,300,4,1,11,40,1,0
281353,-100,4,1,14,40,0,0
282253,309.278350515464,4,1,14,40,1,1
282407,-100,4,1,8,40,0,1
282716,-100,4,1,14,40,0,1
283180,-100,4,1,8,40,0,1
283490,304.568527918782,4,1,11,40,1,0
283794,-100,4,1,14,40,0,0
284708,300,4,1,14,40,1,0
286958,-100,4,1,14,40,0,1
287185,-100,4,2,14,5,0,1
287263,310.880829015544,4,1,14,40,1,1
287263,-100,4,1,8,40,0,1
287574,-100,4,1,14,40,0,1
288040,-100,4,1,8,40,0,1
288351,296.296296296296,4,1,11,40,1,0
288795,-100,4,1,8,40,0,0
288943,-100,4,1,11,40,0,0
289239,-100,4,1,15,40,0,0
289536,304.568527918782,4,1,11,40,1,0
289840,-100,4,1,15,40,0,0
289992,-100,4,1,8,40,0,0
290145,-100,4,1,11,40,0,0
290754,300,4,1,11,40,1,0
291054,-100,4,1,15,40,0,0
291204,-100,4,2,11,40,0,0
291354,-100,4,1,11,40,0,0
291654,-100,4,1,15,40,0,0
291954,306.122448979592,4,1,11,40,1,0
292260,-100,4,1,10,40,0,0
292413,-100,4,1,8,40,0,0
292566,-133.333333333333,4,1,11,40,0,0
293178,306.122448979592,4,1,15,40,1,0
293637,-100,4,1,8,40,0,0
293790,294.117647058824,4,1,11,40,1,0
293937,-100,4,1,8,40,0,0
294084,-100,4,1,15,40,0,0
294378,304.568527918782,4,1,11,40,1,0
294682,-100,4,1,15,40,0,0
294834,-100,4,1,8,40,0,0
294987,-100,4,1,15,40,0,0
296053,-100,4,2,15,40,0,0
296205,292.682926829268,4,1,11,40,1,0
296497,-100,4,1,10,40,0,0
296631,260.869565217391,4,1,14,40,1,0
296761,-100,4,1,10,40,0,0
296957,300,4,1,11,40,1,0
297407,-133.333333333333,4,1,11,40,0,0
298007,304.568527918782,3,1,14,40,1,0
298007,-133.333333333333,3,1,14,40,0,0
298235,-133.333333333333,3,2,14,5,0,0
298311,-133.333333333333,3,1,14,40,0,0
298844,-133.333333333333,3,2,14,5,0,0
298920,-200,3,1,14,40,0,0
299146,-133.333333333333,3,2,14,5,0,0
299225,314.13612565445,3,1,14,40,1,0
299853,-100,3,1,11,40,0,0
300093,-100,3,2,11,5,0,0
300167,292.682926829268,3,1,14,40,1,0
300532,-100,3,2,14,5,0,0
300606,-100,3,1,14,40,0,0
300752,315.789473684211,3,1,14,40,1,0
300988,-100,3,2,14,5,0,0
301067,-100,3,1,14,40,0,0
301209,304.568527918782,3,1,14,40,1,0
301437,-100,3,2,14,5,0,0
301513,-100,3,1,14,40,0,0
301665,304.568527918782,3,1,14,40,1,0
301665,-133.333333333333,3,1,14,40,0,0
301893,-133.333333333333,3,2,14,5,0,0
301969,-133.333333333333,3,1,14,40,0,0
302121,-133.333333333333,3,1,11,40,0,0
302504,-133.333333333333,3,2,11,5,0,0
302578,295.566502463054,3,1,14,40,1,0
302578,-200,3,1,14,40,0,0
302799,-200,3,2,14,5,0,0
302873,-100,3,1,14,40,0,0
303686,-100,3,2,14,5,0,0
303760,-100,3,1,14,40,0,0
304129,-100,3,2,14,5,0,0
304203,-100,3,1,14,40,0,0
304351,310.880829015544,3,1,14,40,1,0
304584,-100,3,2,14,5,0,0
304661,-100,3,1,14,40,0,0
305050,-100,3,2,14,5,0,0
305128,-100,3,1,14,40,0,0
305283,-133.333333333333,3,1,11,40,0,0
305516,-133.333333333333,3,2,14,5,0,0
305594,-133.333333333333,3,1,14,40,0,0
306141,-133.333333333333,3,2,14,5,0,0
306216,300,3,1,14,40,1,0
306216,-200,3,1,14,40,0,0
306441,-200,3,2,14,5,0,0
306516,-100,3,1,14,40,0,0
306966,-100,3,1,11,40,0,0
307341,-100,3,2,11,5,0,0
307416,-100,3,1,14,40,0,0
307791,-100,3,2,14,5,0,0
307866,-100,3,1,14,40,0,0
308016,304.568527918782,3,1,11,40,1,0
308244,-100,3,2,11,5,0,0
308320,-100,3,1,14,40,0,0
308701,-100,3,2,14,5,0,0
308777,-100,3,1,14,40,0,0
308929,-133.333333333333,3,1,14,40,0,0
309386,-133.333333333333,3,1,11,40,0,0
309768,-133.333333333333,3,2,11,5,0,0
309843,297.029702970297,3,1,14,40,1,0
309843,-200,3,1,14,40,0,0
310065,-200,3,2,14,5,0,0
310140,-100,3,1,14,40,0,0
310956,-100,3,2,14,5,0,0
311031,-100,3,1,14,40,0,0
311402,-100,3,2,14,5,0,0
311476,-100,3,1,14,40,0,0
311625,326.086956521739,3,1,11,40,1,0
311869,-100,3,2,11,5,0,0
311951,-100,3,1,14,40,0,0
312114,-100,3,1,7,40,0,0
312277,-80,3,1,14,40,0,0
312521,-80,3,2,14,5,0,0
312603,292.682926829268,3,1,11,40,1,1
312895,-100,3,1,15,40,0,1
313481,300,3,1,15,40,1,1
314381,306.122448979592,3,1,15,40,1,1
315299,-100,3,1,11,40,0,1
315452,-100,3,1,15,40,0,1
316217,303.030303030303,3,1,14,40,1,1
316217,-80,3,1,11,40,0,1
316444,-80,3,2,11,5,0,1
316520,-80,3,1,11,40,0,1
316823,304.568527918782,3,1,15,40,1,1
318954,-100,3,1,11,40,0,1
319031,-100,3,1,14,40,0,1
319868,300,3,1,11,40,1,1
320168,-100,3,1,15,40,0,1
320768,306.122448979592,3,1,15,40,1,1
321074,-80,3,1,15,40,0,1
321303,-80,3,2,15,5,0,1
321380,-80,3,1,15,40,0,1
321686,297.029702970297,3,1,11,40,1,1
322280,-100,3,1,15,40,0,1
322577,303.030303030303,3,1,11,40,1,1
322880,-100,3,1,15,40,0,1
323183,-100,3,1,11,40,0,1
323486,-80,3,1,11,40,0,1
323713,-80,3,2,11,5,0,1
323789,-100,3,1,15,40,0,1
324092,-80,3,1,15,40,0,1
324319,-80,3,2,15,5,0,1
324395,-80,3,1,15,40,0,1
324622,-80,3,2,15,5,0,1
324698,-80,3,1,15,40,0,1
325304,297.029702970297,3,1,11,40,1,1
326492,315.789473684211,3,1,14,40,1,1
326649,-100,3,1,7,40,0,1
326807,-100,3,1,14,40,0,1
327123,294.117647058824,3,1,14,40,1,0
327123,-133.333333333333,3,1,14,40,0,0
327343,-133.333333333333,3,2,14,5,0,0
327417,-133.333333333333,3,1,14,40,0,0
327931,-133.333333333333,3,2,14,5,0,0
328005,310.880829015544,3,1,14,40,1,0
328005,-200,3,1,14,40,0,0
328238,-200,3,2,14,5,0,0
328315,-100,3,1,14,40,0,0
328782,-100,3,1,11,40,0,0
328937,303.030303030303,3,1,11,40,1,0
329164,-100,3,2,14,5,0,0
329240,-100,3,1,14,40,0,0
329618,-100,3,2,14,5,0,0
329694,-100,3,1,14,40,0,0
329846,301.507537688442,3,1,11,40,1,0
330072,-100,3,2,11,5,0,0
330147,-100,3,1,14,40,0,0
330524,-100,3,2,14,5,0,0
330599,-100,3,1,14,40,0,0
330750,272.727272727273,3,1,14,40,1,0
330750,-133.333333333333,3,1,14,40,0,0
330954,-133.333333333333,3,2,14,5,0,0
331022,352.941176470588,3,1,14,40,1,0
331198,-100,3,1,11,40,0,0
331334,320.855614973262,3,1,14,40,1,0
331334,-133.333333333333,3,1,11,40,0,0
331574,-100,3,2,14,5,0,0
331654,-200,3,1,14,40,0,0
331895,-200,3,2,14,5,0,0
331975,285.714285714286,3,1,14,40,1,0
332260,-100,3,1,11,40,0,0
332546,303.030303030303,3,1,11,40,1,0
332773,-100,3,2,11,5,0,0
332849,-100,3,1,14,40,0,0
333227,-100,3,2,14,5,0,0
333303,-100,3,1,11,40,0,0
333455,310.880829015544,3,1,11,40,1,0
333688,-100,3,2,11,5,0,0
333796,310.880829015544,3,1,11,40,1,0
333921,285.714285714286,3,1,14,40,1,0
334135,-100,3,2,14,5,0,0
334206,-100,3,1,14,40,0,0
334387,297.029702970297,3,1,11,40,1,0
334387,-133.333333333333,3,1,11,40,0,0
334609,-133.333333333333,3,2,11,5,0,0
334684,-133.333333333333,3,1,14,40,0,0
335203,-133.333333333333,3,2,14,5,0,0
335278,310.880829015544,3,1,14,40,1,0
335278,-200,3,1,14,40,0,0
335511,-200,3,2,14,5,0,0
335588,-100,3,1,14,40,0,0
336210,301.507537688442,3,1,11,40,1,0
336436,-100,3,2,11,5,0,0
336511,-100,3,1,14,40,0,0
336888,-100,3,2,14,5,0,0
336963,-100,3,1,14,40,0,0
337114,-100,3,1,11,40,0,0
337340,-100,3,2,11,5,0,0
337416,-100,3,1,14,40,0,0
337792,-100,3,2,14,5,0,0
337868,-100,3,1,14,40,0,0
338019,297.029702970297,3,1,11,40,1,0
338019,-133.333333333333,3,1,11,40,0,0
338241,-133.333333333333,3,2,14,5,0,0
338316,-133.333333333333,3,1,14,40,0,0
338464,-133.333333333333,3,1,11,40,0,0
338835,-133.333333333333,3,2,11,5,0,0
338910,307.692307692308,3,1,14,40,1,0
338910,-200,3,1,14,40,0,0
339140,-200,3,2,14,5,0,0
339217,-100,3,1,14,40,0,0
339525,-100,3,1,11,40,0,0
339833,297.029702970297,3,1,11,40,1,0
339833,-80,3,1,11,40,0,0
340055,-80,3,2,11,5,0,0
340130,-100,3,1,14,40,0,0
340427,-100,3,1,11,40,0,0
340724,333.333333333333,3,1,14,40,1,0
340974,-100,3,2,14,5,0,0
341057,-133.333333333333,3,1,14,40,0,0
341307,-133.333333333333,3,2,14,5,0,0
341390,-200,3,1,14,40,0,0
341640,-200,3,2,14,5,0,0
341690,645.161290322581,3,1,5,40,1,0
341690,-200,3,1,11,40,0,0
341770,-200,3,2,11,20,0,0
343625,-200,3,2,10,20,0,0
347496,681.818181818182,3,2,5,20,1,0
347496,-200,3,2,5,20,0,0
348177,618.556701030928,3,2,5,20,1,0
348177,-200,3,2,5,20,0,0
349104,594.059405940594,3,2,14,5,1,0
349178,-100,3,2,14,7,0,0
349252,-100,3,2,14,9,0,0
349326,-100,3,2,14,11,0,0
349401,697.674418604651,3,2,14,20,1,0
349401,-200,3,2,14,20,0,0
350416,638.297872340426,3,2,14,20,1,0
350416,-200,3,2,14,20,0,0
355545,674.157303370787,3,2,14,20,1,0
355545,-200,3,2,14,20,0,0
356219,638.297872340426,3,2,14,20,1,0
356219,-200,3,2,14,20,0,0
357176,689.655172413793,3,2,14,20,1,0
357520,-200,3,2,14,20,0,0
358151,638.297872340426,3,2,14,20,1,0
359154,500,3,2,14,20,1,0
359154,-200,3,2,14,20,0,0
359762,666.666666666667,3,2,14,20,1,0
359762,-200,3,2,14,20,0,0
360762,-1000,4,2,14,20,0,0
360803,-1000,4,2,14,5,0,0
361385,638.297872340426,3,2,14,20,1,0
361385,-200,3,2,14,20,0,0
363299,645.161290322581,3,2,14,20,1,0
363299,-1000,4,2,14,20,0,0
363944,-200,3,2,14,20,0,0
365879,-1000,4,2,14,20,0,0
365919,-1000,4,2,14,5,0,0
366524,-200,3,2,14,20,0,0
371040,-1000,4,2,14,20,0,0
371081,-1000,4,2,14,5,0,0
371686,-200,3,2,14,20,0,0
374266,779.220779220779,3,2,14,20,1,0
374266,-200,3,2,14,20,0,0
375221,645.161290322581,3,2,14,20,1,0
375221,-200,3,2,14,20,0,0
376574,645.161290322581,3,2,14,20,1,0
377170,2033.89830508475,3,2,14,20,1,0
377170,-1000,4,2,14,20,0,0
377297,-1000,4,2,14,5,0,0
381240,740.740740740741,4,2,14,20,1,0
382018,779.220779220779,4,2,14,20,1,0
382710,857.142857142857,4,2,14,20,1,0
382710,-200,3,2,14,20,0,0
383832,740.740740740741,4,2,14,20,1,0
387936,740.740740740741,4,2,14,20,1,0
388676,-200,3,2,14,20,0,0
390122,722.89156626506,4,2,14,20,1,0
390122,-200,3,2,14,20,0,0
392783,674.157303370787,4,2,14,20,1,0
394214,740.740740740741,4,2,14,20,1,0
395325,731.707317073171,4,2,14,20,1,0
395325,-200,3,2,14,20,0,0
399788,731.707317073171,4,2,14,20,1,0
399788,-200,3,2,14,20,0,0
405699,740.740740740741,4,2,14,20,1,0
405699,-200,3,2,14,20,0,0
411624,731.707317073171,4,2,14,20,1,0
411624,-200,3,2,14,20,0,0
416380,810.810810810811,4,2,14,20,1,0
417564,731.707317073171,4,2,14,20,1,0
417564,-200,3,2,14,20,0,0
423826,740.740740740741,4,2,14,20,1,0
423826,-200,3,2,14,20,0,0
429196,-200,3,2,15,20,0,0
429381,-200,3,2,14,20,0,0
429751,-200,3,2,15,20,0,0
430888,740.740740740741,4,2,14,20,1,0
430888,-200,3,2,14,20,0,0
434189,740.740740740741,4,2,14,20,1,0
436842,731.707317073171,4,2,14,20,1,0
436842,-200,3,2,14,20,0,0
439585,-200,3,2,15,20,0,0
440134,-200,3,2,14,20,0,0
444234,740.740740740741,4,2,14,20,1,0
444234,-200,3,2,14,20,0,0
444974,731.707317073171,4,2,14,20,1,0
444974,-200,3,2,14,20,0,0
446011,759.493670886076,4,2,14,20,1,0
446011,-200,3,2,14,20,0,0
448669,731.707317073171,4,2,14,20,1,0
448669,-200,3,2,14,20,0,0
452019,731.707317073171,4,2,14,20,1,0
453482,-200,3,2,15,20,0,0
459394,731.707317073171,4,2,14,20,1,0
460491,-200,3,2,15,20,0,0
465307,740.740740740741,4,2,14,20,1,0
466418,-200,3,2,14,20,0,0
479010,-200,3,2,15,20,0,0
480492,-200,3,2,14,20,0,0
483455,674.157303370787,4,2,14,20,1,0
483455,-200,3,2,15,20,0,0
484538,731.707317073171,4,2,14,20,1,0
484943,306.122448979592,3,2,14,40,1,0
484943,-200,3,2,14,40,0,0
499636,304.568527918782,3,2,14,40,1,0
499636,-200,3,2,11,40,0,0
506945,305.343511450382,3,1,5,40,1,0
506945,-200,3,2,11,40,0,0
514273,857.142857142857,4,1,11,40,1,0
514415,-100,4,2,11,40,0,0
515948,779.220779220779,4,1,5,40,1,0
516077,-100,4,2,5,40,0,0
516986,-100,4,1,5,40,0,0
517516,784.313725490196,4,1,5,40,1,0
517646,-100,4,2,5,40,0,0
519084,-100,4,1,5,40,0,0
519770,784.313725490196,4,1,5,40,1,0
519904,784.313725490196,4,1,5,40,1,0
520450,810.810810810811,4,1,8,40,1,0
520720,789.473684210526,4,1,11,40,1,0
522101,-100,4,2,11,40,0,0
522298,-100,4,1,11,40,0,0
526246,731.707317073171,4,1,11,40,1,0
527035,759.493670886076,4,1,11,40,1,0
528553,821.917808219178,4,1,5,40,1,0
529374,759.493670886076,4,1,11,40,1,0
530172,769.230769230769,4,1,11,40,1,0
532479,759.493670886076,4,1,11,40,1,0
533248,774.193548387097,4,1,11,40,1,0
536375,764.331210191083,4,1,11,40,1,0
537612,764.331210191083,4,1,11,40,1,0
537903,764.331210191083,4,1,11,40,1,0
538794,-100,4,2,11,40,0,0
539049,-100,4,1,11,40,0,0
539304,-100,4,2,11,40,0,0
539431,-100,4,1,11,40,0,0
540999,750,4,1,11,40,1,0
541126,-100,4,1,7,40,0,0
541253,-100,4,1,11,40,0,0
541874,-100,4,1,7,40,0,0
541999,-100,4,1,11,40,0,0
542249,-100,4,1,8,40,0,0
542528,705.882352941176,4,1,11,40,1,0
543233,740.740740740741,4,1,11,40,1,0
543356,-100,4,2,11,40,0,0
543603,-100,4,1,11,40,0,0
543850,-100,4,2,11,40,0,0
543973,821.917808219178,4,1,11,40,1,0
543973,-100,4,1,11,40,0,0
544591,740.740740740741,4,1,11,40,1,0
544714,779.220779220779,4,1,11,40,1,0
544843,-100,4,2,11,40,0,0
545103,-100,4,1,11,40,0,0
545493,789.473684210526,4,1,11,40,1,0
546282,740.740740740741,4,1,11,40,1,0
547022,779.220779220779,4,1,11,40,1,0
548060,714.285714285714,4,1,11,40,1,0
548179,-100,4,1,7,40,0,0
548298,-100,4,1,11,40,0,0
548536,759.493670886076,4,1,11,40,1,0
548935,714.285714285714,4,1,11,40,1,0
549295,759.493670886076,4,1,11,40,1,0
549421,-100,4,2,11,40,0,0
549548,-100,4,1,11,40,0,0
551568,769.230769230769,4,1,11,40,1,0
553875,983.606557377049,4,1,11,40,1,0
554366,-100,4,1,5,40,0,0
554644,759.493670886076,4,1,11,40,1,0
555530,-100,4,2,11,40,0,0
555656,-100,4,1,11,40,0,0
557681,750,4,1,11,40,1,0
560681,800,4,1,11,40,1,0
561316,779.220779220779,4,1,11,40,1,0
562199,771.704180064309,4,1,11,40,1,0
563742,740.740740740741,4,1,11,40,1,0
565223,789.473684210526,4,1,11,40,1,0
566379,740.740740740741,4,1,11,40,1,0
566761,740.740740740741,4,1,11,40,1,0
567501,779.220779220779,4,1,11,40,1,0
567760,-100,4,1,11,30,0,0
568020,-100,4,1,11,40,0,0
568280,759.493670886076,4,1,11,40,1,0
569292,-100,4,1,11,20,0,0
569419,-100,4,1,11,30,0,0
569545,-100,4,1,11,40,0,0
569794,779.220779220779,4,1,11,40,1,0
571352,736.196319018405,4,1,11,40,1,0
571474,-100,4,1,7,40,0,0
571597,-100,4,1,11,40,0,0
572088,779.220779220779,4,1,11,40,1,0
572217,-100,4,1,7,40,0,0
572347,-100,4,1,11,40,0,0
572607,-100,4,1,8,40,0,0
572870,800,4,1,11,40,1,0
573603,779.220779220779,4,1,11,40,1,0
574382,779.220779220779,4,1,11,40,1,0
574641,-100,4,2,11,40,0,0
575031,689.655172413793,4,1,11,40,1,0
575145,740.740740740741,4,1,11,40,1,0
575898,769.230769230769,4,1,11,40,1,0
576154,-100,4,2,11,40,0,0
576316,895.522388059701,4,1,11,40,1,0
576539,697.674418604651,4,1,11,40,1,0
576655,740.740740740741,4,1,11,40,1,0
576901,-100,4,2,11,40,0,0
577025,800,4,1,11,40,1,0
577425,338.983050847458,3,1,5,40,1,0
577425,-200,3,1,5,40,0,0
577763,-200,3,1,16,40,0,0
578441,363.636363636364,3,1,5,40,1,0
578441,-200,3,1,5,40,0,0
578804,-200,3,1,16,40,0,0
579168,-1000,4,1,16,40,0,0
579259,-200,3,2,16,5,0,0
580077,333.333333333333,3,1,17,40,1,0
580711,303.030303030303,4,1,5,40,1,0
580711,-200,4,1,11,40,0,0
580862,-200,4,2,11,40,0,0
581771,-200,4,1,17,40,0,0
581923,294.117647058824,4,1,5,40,1,0
581923,-200,4,1,17,40,0,0
582070,-200,4,2,11,40,0,0
582217,-200,4,1,17,40,0,0
583099,306.591722023505,4,1,11,40,1,0
583099,-200,4,1,11,40,0,0
583252,-200,4,2,11,40,0,0
583405,-200,4,1,11,40,0,0
583558,-200,4,2,11,40,0,0
584018,-200,4,1,17,40,0,0
584785,-200,4,1,16,40,0,0
585551,294.117647058824,4,1,11,40,1,0
585551,-200,4,1,11,40,0,0
585698,-200,4,2,11,40,0,0
585845,-200,4,1,11,40,0,0
586139,320.855614973262,4,1,11,40,1,0
586139,-200,4,1,11,40,0,0
586299,-200,4,1,17,40,0,0
586780,303.030303030303,4,1,5,40,1,0
586855,-100,4,1,17,40,0,0
587234,-100,4,1,5,40,0,0
587310,-100,4,1,17,40,0,0
587689,-100,4,1,5,40,0,0
587840,-100,4,1,17,40,0,0
587992,-200,4,1,5,40,0,0
588143,-200,4,1,16,40,0,0
589204,294.117647058824,4,1,16,40,1,0
590380,306.122448979592,4,1,11,40,1,0
591283,303.030303030303,4,1,11,40,1,0
594313,309.278350515464,4,1,11,40,1,0
595114,303.030303030303,4,1,11,40,1,0
596139,303.030303030303,4,1,11,40,1,0
597674,303.030303030303,4,1,11,40,1,0
598568,303.030303030303,4,1,11,40,1,0
600099,315.789473684211,4,1,11,40,1,0
600730,288.461538461538,4,1,11,40,1,0
600874,-200,4,1,11,40,0,0
601306,297.029702970297,4,1,11,40,1,0
602345,-200,4,1,11,40,0,0
602494,303.030303030303,4,1,11,40,1,0
603251,-200,4,1,11,40,0,0
604918,307.692307692308,4,1,11,40,1,1
605841,-200,4,1,11,40,0,1
606148,303.030303030303,4,1,11,40,1,1
607057,-200,4,1,11,40,0,1
607360,-100,4,1,11,40,0,1
608269,-133.333333333333,4,1,11,40,0,1
608572,-100,4,1,11,40,0,1
609784,-100,4,1,11,40,0,0
612208,309.278350515464,4,1,11,40,1,0
612208,-95.2380952380952,4,1,11,40,0,0
613135,-95.2380952380952,4,1,11,40,0,0
613445,300,4,1,11,40,1,0
613445,-95.2380952380952,4,1,11,40,0,0
614645,-90.9090909090909,4,1,11,40,0,0
617045,306.122448979592,4,1,11,40,1,0
617045,-86.9565217391304,4,1,11,40,0,0
619493,303.030303030303,4,1,11,40,1,0
620705,301.507537688442,4,1,11,40,1,0
621911,-95.2380952380952,4,1,11,40,0,0
624096,-95.2380952380952,4,1,7,40,0,0
624323,297.029702970297,4,1,11,40,1,0
624323,-90.9090909090909,4,1,11,40,0,0
624768,309.278350515464,4,1,11,40,1,0
624768,-90.9090909090909,4,1,11,40,0,0
625535,303.030303030303,4,1,11,40,1,0
625535,-86.9565217391304,4,1,11,40,0,0
626747,297.029702970297,4,1,11,40,1,1
627712,-100,4,1,8,40,0,1
627935,310.880829015544,4,1,11,40,1,1
629178,-100,4,1,11,40,0,0
629644,-200,4,2,10,40,0,0
630422,303.030303030303,4,1,11,40,1,0
630876,-200,4,2,10,40,0,0
631482,-200,4,1,10,40,0,0
631634,297.029702970297,4,1,11,40,1,0
634010,303.030303030303,4,1,11,40,1,0
634464,-200,4,2,10,40,0,0
635222,-100,4,1,11,40,0,0
635676,-200,4,2,10,40,0,0
636282,-100,4,1,11,40,0,0
637646,306.122448979592,4,1,11,40,1,0
639329,-133.333333333333,4,2,10,40,0,0
640094,298.507462686567,4,1,11,40,1,0
640541,-133.333333333333,4,2,10,40,0,0
641138,-100,4,1,11,40,0,0
641288,306.122448979592,4,1,11,40,1,0
642512,297.029702970297,4,1,11,40,1,0
643700,309.278350515464,4,1,11,40,1,0
644163,-133.333333333333,4,2,10,40,0,0
644937,-100,4,1,11,40,0,0
645401,-133.333333333333,4,2,10,40,0,0
645710,-133.333333333333,4,1,8,40,0,0
645864,-133.333333333333,4,2,10,40,0,0
646019,-100,4,1,8,40,0,0
646174,306.122448979592,4,1,11,40,1,0
647398,289.855072463768,4,1,11,40,1,0
648557,303.030303030303,4,1,11,40,1,0
648935,-100,4,2,11,5,0,0
649011,-100,4,1,11,40,0,0
649238,-100,4,2,11,5,0,0
649314,-100,4,1,11,40,0,0
649466,-100,4,1,8,40,0,0
649617,-100,4,1,11,40,0,0
650375,-100,4,1,8,40,0,0
650526,-100,4,1,11,40,0,0
651284,-100,4,1,8,40,0,0
651435,-200,4,1,11,40,0,0
651587,-133.333333333333,4,1,11,40,0,0
651890,-100,4,1,11,40,0,0
652193,-100,4,1,11,40,0,0
652978,303.030303030303,4,1,11,40,1,0
653432,301.507537688442,4,1,11,40,1,1
654638,-90.9090909090909,4,1,11,40,0,1
655844,309.278350515464,4,1,11,40,1,1
655844,-83.3333333333333,4,1,11,40,0,1
657081,297.029702970297,4,1,11,40,1,0
658269,306.122448979592,4,1,11,40,1,0
658269,-200,4,1,11,40,0,0
658498,-200,4,2,11,5,0,0
658575,-100,4,1,11,10,0,0
658728,-100,4,1,11,17,0,0
658881,-100,4,1,11,24,0,0
659034,-100,4,1,11,31,0,0
659187,-100,4,1,11,38,0,0
659340,-100,4,1,11,40,0,0
659493,303.030303030303,4,1,11,40,1,0
659568,-100,4,1,18,40,0,0
663129,-100,4,1,11,40,0,0
663205,-100,4,1,18,40,0,0
667977,-100,4,1,11,40,0,0
668053,-100,4,1,18,40,0,0
672826,-100,4,1,11,40,0,0
672902,-100,4,1,18,40,0,0
676462,307.022448979592,4,1,18,40,1,0
677229,-100,4,1,11,40,0,0
677690,294.117647058824,4,1,11,40,1,1
678425,392.156862745098,4,1,11,40,1,1
678622,250,4,1,11,40,1,1
678747,314.13612565445,4,1,11,40,1,1
678903,291.26213592233,4,1,11,40,1,1
679339,361.44578313253,4,1,11,40,1,1
679519,222.222222222222,4,1,11,40,1,1
679630,333.333333333333,4,1,11,40,1,1
679796,272.727272727273,4,1,11,40,1,1
679932,326.086956521739,4,1,11,40,1,1
680094,259.74025974026,4,1,11,40,1,1
680223,337.078651685393,4,1,11,40,1,1
680392,232.558139534884,4,1,11,40,1,1
680508,384.615384615385,4,1,11,40,1,1
680700,250,4,1,11,40,1,1
680825,372.670807453416,4,1,11,40,1,1
681012,250,4,1,11,40,1,1
681137,337.078651685393,4,1,11,40,1,1
681306,256.410256410256,4,1,11,40,1,1
681434,368.098159509202,4,1,11,40,1,1
681618,250,4,1,11,40,1,1
681743,306.122448979592,4,1,11,40,1,1
681896,304.568527918782,4,1,11,40,1,1
682200,267.857142857143,4,1,11,40,1,1
682400,342.857142857143,4,1,11,40,1,1
682485,304.568527918782,4,1,11,40,1,1
682941,-97.0873786407767,4,1,11,40,0,1
683246,329.67032967033,4,1,11,40,1,1
683246,-97.0873786407767,4,1,11,40,0,1
683410,289.855072463768,4,1,11,40,1,1
683554,361.44578313253,4,1,11,40,1,1
683735,259.74025974026,4,1,11,40,1,1
683864,344.827586206897,4,1,11,40,1,1
684037,267.857142857143,4,1,11,40,1,1
684170,368.098159509202,4,1,11,40,1,1
684170,-97.0873786407767,4,1,11,40,0,1
684355,251.046025104603,4,1,11,40,1,1
684480,327.868852459016,4,1,11,40,1,1
684480,-97.0873786407767,4,1,11,40,0,1
684644,280.373831775701,4,1,11,40,1,1
684784,300,4,1,11,40,1,1
684934,279.06976744186,4,1,11,40,1,1
685073,342.857142857143,4,1,11,40,1,1
685243,264.31718061674,4,1,11,40,1,1
685375,352.941176470588,4,1,11,40,1,1
685375,-97.0873786407767,4,1,11,40,0,1
685551,271.493212669683,4,1,11,40,1,1
685686,344.827586206897,4,1,11,40,1,1
685686,-97.0873786407767,4,1,11,40,0,1
685858,260.869565217391,4,1,11,40,1,1
685988,361.44578313253,4,1,11,40,1,1
686168,255.31914893617,4,1,11,40,1,1
686295,400,4,1,11,40,1,1
686495,244.897959183673,4,1,11,40,1,1
686617,326.086956521739,4,1,11,40,1,1
686617,-97.0873786407767,4,1,11,40,0,1
686781,271.493212669683,4,1,11,40,1,1
686916,304.568527918782,4,1,11,40,1,1
687068,303.030303030303,4,1,11,40,1,1
687371,303.030303030303,4,1,11,40,1,1
687371,-94.3396226415094,4,1,11,40,0,1
687825,342.857142857143,4,1,11,40,1,1
687825,-94.3396226415094,4,1,11,40,0,1
687996,271.493212669683,4,1,11,40,1,1
688131,326.086956521739,4,1,11,40,1,1
688131,-94.3396226415094,4,1,11,40,0,1
688294,288.461538461538,4,1,11,40,1,1
688438,317.460317460317,4,1,11,40,1,1
688596,292.682926829268,4,1,11,40,1,1
688742,346.820809248555,4,1,11,40,1,1
688914,255.31914893617,4,1,11,40,1,1
689041,327.868852459016,4,1,11,40,1,1
689041,-94.3396226415094,4,1,11,40,0,1
689205,292.682926829268,4,1,11,40,1,1
689351,333.333333333333,4,1,11,40,1,1
689351,-94.3396226415094,4,1,11,40,0,1
689517,263.157894736842,4,1,11,40,1,1
689648,312.5,4,1,11,40,1,1
689804,292.682926829268,4,1,11,40,1,1
689950,340.909090909091,4,1,11,40,1,1
690120,263.157894736842,4,1,11,40,1,1
690251,337.078651685393,4,1,11,40,1,1
690251,-94.3396226415094,4,1,11,40,0,1
690420,275.229357798165,4,1,11,40,1,1
690557,314.13612565445,4,1,11,40,1,1
690557,-94.3396226415094,4,1,11,40,0,1
690714,263.157894736842,4,1,11,40,1,1
690845,357.142857142857,4,1,11,40,1,1
691024,275.229357798165,4,1,11,40,1,1
691161,397.350993377483,4,1,11,40,1,1
691360,228.136882129278,4,1,11,40,1,1
691474,309.278350515464,4,1,11,40,1,1
691474,-94.3396226415094,4,1,11,40,0,1
691629,271.493212669683,4,1,11,40,1,1
691764,329.67032967033,4,1,11,40,1,1
691764,-94.3396226415094,4,1,11,40,0,1
691929,233.463035019455,4,1,11,40,1,1
691987,-100,4,1,7,40,0,1
692104,465.116279069767,4,1,7,40,1,1
692220,265.486725663717,4,1,11,40,1,1
692352,340.909090909091,4,1,11,40,1,1
692523,283.018867924528,4,1,11,40,1,1
692664,320.855614973262,4,1,11,40,1,1
692664,-91.743119266055,4,1,11,40,0,1
692824,298.507462686567,4,1,11,40,1,1
692973,352.941176470588,4,1,11,40,1,1
692973,-91.743119266055,4,1,11,40,0,1
693150,253.164556962025,4,1,11,40,1,1
693276,314.13612565445,4,1,11,40,1,1
693433,281.69014084507,4,1,11,40,1,1
693573,312.5,4,1,11,40,1,1
693730,276.497695852535,4,1,11,40,1,1
693868,326.086956521739,4,1,11,40,1,1
693868,-91.743119266055,4,1,11,40,0,1
694031,253.164556962025,4,1,11,40,1,1
694157,365.853658536585,4,1,11,40,1,1
694157,-91.743119266055,4,1,11,40,0,1
694339,248.96265560166,4,1,11,40,1,1
694463,306.122448979592,4,1,11,40,1,1
694616,276.497695852535,4,1,11,40,1,1
694754,324.324324324324,4,1,11,40,1,1
694916,276.497695852535,4,1,11,40,1,1
695054,337.078651685393,4,1,11,40,1,1
695054,-91.743119266055,4,1,11,40,0,1
695223,276.497695852535,4,1,11,40,1,1
695361,-91.743119266055,4,1,11,40,0,1
695499,295.566502463054,4,1,11,40,1,1
695794,310.880829015544,4,1,11,40,1,1
695949,348.837209302326,4,1,11,40,1,1
696124,295.566502463054,4,1,11,40,1,1
696271,322.58064516129,4,1,11,40,1,1
696271,-91.743119266055,4,1,11,40,0,1
696433,310.880829015544,4,1,11,40,1,1
696588,-91.743119266055,4,1,11,40,0,1
696743,284.36018957346,4,1,11,40,1,1
697027,329.67032967033,4,1,11,40,1,1
697521,-89.2857142857143,4,1,11,40,0,1
697686,273.972602739726,4,1,11,40,1,1
697822,322.58064516129,4,1,11,40,1,1
697822,-89.2857142857143,4,1,11,40,0,1
697983,304.568527918782,4,1,11,40,1,1
698135,326.086956521739,4,1,11,40,1,1
698297,279.06976744186,4,1,11,40,1,1
698436,340.909090909091,4,1,11,40,1,1
698607,256.410256410256,4,1,11,40,1,1
698735,350.877192982456,4,1,11,40,1,1
698735,-89.2857142857143,4,1,11,40,0,1
698909,279.06976744186,4,1,11,40,1,1
699048,365.853658536585,4,1,11,40,1,1
699048,-89.2857142857143,4,1,11,40,0,1
699230,231.660231660232,4,1,11,40,1,1
699345,322.58064516129,4,1,11,40,1,1
699505,294.117647058824,4,1,11,40,1,1
699652,348.837209302326,4,1,11,40,1,1
699827,258.620689655172,4,1,11,40,1,1
699956,340.909090909091,4,1,11,40,1,1
699956,-89.2857142857143,4,1,11,40,0,1
700127,233.463035019455,4,1,11,40,1,1
700243,348.837209302326,4,1,11,40,1,1
700243,-89.2857142857143,4,1,11,40,0,1
700418,259.74025974026,4,1,11,40,1,1
700547,350.877192982456,4,1,11,40,1,1
700721,284.36018957346,4,1,11,40,1,1
700863,322.58064516129,4,1,11,40,1,1
701023,260.869565217391,4,1,11,40,1,1
701153,372.670807453416,4,1,11,40,1,1
701153,-89.2857142857143,4,1,11,40,0,1
701339,237.154150197628,4,1,11,40,1,1
701457,314.13612565445,4,1,11,40,1,1
701457,-89.2857142857143,4,1,11,40,0,1
701613,301.507537688442,4,1,11,40,1,1
701914,301.507537688442,4,1,11,40,1,1
702064,327.868852459016,4,1,11,40,1,1
702228,272.727272727273,4,1,11,40,1,1
702364,317.460317460317,4,1,11,40,1,1
702364,-86.9565217391304,4,1,11,40,0,1
702522,266.666666666667,4,1,11,40,1,1
702655,333.333333333333,4,1,11,40,1,1
702655,-86.9565217391304,4,1,11,40,0,1
702821,266.666666666667,4,1,11,40,1,1
702954,322.58064516129,4,1,11,40,1,1
703114,275.229357798165,4,1,11,40,1,1
703251,342.857142857143,4,1,11,40,1,1
703421,277.777777777778,4,1,11,40,1,1
703559,331.491712707182,4,1,11,40,1,1
703559,-86.9565217391304,4,1,11,40,0,1
703726,275.229357798165,4,1,11,40,1,1
703863,338.983050847458,4,1,11,40,1,1
703863,-86.9565217391304,4,1,11,40,0,1
704031,277.777777777778,4,1,11,40,1,1
704169,312.5,4,1,11,40,1,1
704326,304.568527918782,4,1,11,40,1,1
704782,327.868852459016,4,1,11,40,1,1
704782,-86.9565217391304,4,1,11,40,0,1
704947,275.229357798165,4,1,11,40,1,1
705084,372.670807453416,4,1,11,40,1,1
705084,-86.9565217391304,4,1,11,40,0,1
705271,253.164556962025,4,1,11,40,1,1
705397,289.855072463768,4,1,11,40,1,1
705542,315.789473684211,4,1,11,40,1,1
705857,294.117647058824,4,1,11,40,1,1
706004,333.333333333333,4,1,11,40,1,1
706004,-86.9565217391304,4,1,11,40,0,1
706171,260.869565217391,4,1,11,40,1,1
706301,304.568527918782,4,1,11,40,1,1
706301,-86.9565217391304,4,1,11,40,0,1
706454,303.030303030303,4,1,11,40,1,1
706757,315.789473684211,4,1,11,40,1,1
707230,-84.7457627118644,4,1,11,40,0,1
707388,281.69014084507,4,1,11,40,1,1
707528,338.983050847458,4,1,11,40,1,1
707528,-84.7457627118644,4,1,11,40,0,1
707697,275.229357798165,4,1,11,40,1,1
707834,357.142857142857,4,1,11,40,1,1
708012,245.901639344262,4,1,11,40,1,1
708134,346.820809248555,4,1,11,40,1,1
708306,275.229357798165,4,1,11,40,1,1
708443,340.909090909091,4,1,11,40,1,1
708443,-84.7457627118644,4,1,11,40,0,1
708613,259.74025974026,4,1,11,40,1,1
708742,320.855614973262,4,1,11,40,1,1
708742,-84.7457627118644,4,1,11,40,0,1
708903,263.157894736842,4,1,11,40,1,1
709034,326.086956521739,4,1,11,40,1,1
709196,287.081339712919,4,1,11,40,1,1
709339,340.909090909091,4,1,11,40,1,1
709509,238.095238095238,4,1,11,40,1,1
709628,372.670807453416,4,1,11,40,1,1
709628,-84.7457627118644,4,1,11,40,0,1
709814,238.095238095238,4,1,11,40,1,1
709933,324.324324324324,4,1,11,40,1,1
709933,-84.7457627118644,4,1,11,40,0,1
710095,279.06976744186,4,1,11,40,1,1
710234,344.827586206897,4,1,11,40,1,1
710406,217.391304347826,4,1,11,40,1,1
710460,-100,4,1,7,40,0,1
710569,508.474576271186,4,1,7,40,1,1
710695,279.06976744186,4,1,11,40,1,1
710834,319.148936170213,4,1,11,40,1,1
710993,300,4,1,11,40,1,1
711143,340.909090909091,4,1,11,40,1,1
711313,294.117647058824,4,1,11,40,1,1
711607,294.117647058824,4,1,11,40,1,1
712048,319.148936170213,4,1,11,40,1,1
712048,-82.6446280991736,4,1,11,40,0,1
712207,271.493212669683,4,1,11,40,1,1
712342,357.142857142857,4,1,11,40,1,1
712342,-82.6446280991736,4,1,11,40,0,1
712520,291.26213592233,4,1,11,40,1,1
712665,355.029585798817,4,1,11,40,1,1
712841,262.008733624454,4,1,11,40,1,1
712972,298.507462686567,4,1,11,40,1,1
713120,279.06976744186,4,1,11,40,1,1
713259,342.857142857143,4,1,11,40,1,1
713259,-82.6446280991736,4,1,11,40,0,1
713429,294.117647058824,4,1,11,40,1,1
713723,-100,4,1,8,40,0,1
713870,-100,4,1,11,40,0,1
714019,300,4,1,11,40,1,0
716917,301.507537688442,4,1,11,40,1,0
718123,306.122448979592,4,1,11,40,1,0
719347,301.507537688442,4,1,11,40,1,0
721759,289.855072463768,4,1,11,40,1,0
722338,304.568527918782,4,1,11,40,1,0
722794,297.029702970297,4,1,11,40,1,0
723568,303.030303030303,4,1,11,40,1,0
725764,-100,4,2,11,5,0,0
725840,-100,4,1,11,40,0,0
726067,-100,4,2,11,5,0,0
726143,303.030303030303,4,1,11,40,1,0
726446,-133.333333333333,4,2,11,40,0,0
728112,-133.333333333333,4,1,11,40,0,0
728567,297.029702970297,4,1,11,40,1,0
729012,320.855614973262,4,1,11,40,1,0
729173,295.566502463054,4,1,11,40,1,0
729616,294.117647058824,4,1,11,40,1,0
729910,368.098159509202,4,1,11,40,1,0
730094,303.030303030303,4,1,11,40,1,0
730397,254.237288135593,4,1,11,40,1,0
730523,322.58064516129,4,1,11,40,1,0
730684,265.486725663717,4,1,11,40,1,0
730817,298.507462686567,4,1,11,40,1,0
731190,-100,4,2,11,40,0,0
731264,-100,4,2,10,40,0,0
731325,300,4,2,10,40,1,0
731325,-133.333333333333,4,2,10,40,0,0
732975,-133.333333333333,4,1,11,40,0,0
733725,303.030303030303,4,1,11,40,1,0
735315,-100,4,1,7,40,0,0
735543,-100,4,1,11,40,0,0
735752,220.588235294118,4,1,11,40,1,0
735862,300,4,1,11,40,1,0
736162,-133.333333333333,4,2,10,40,0,0
737812,-133.333333333333,4,1,10,40,0,0
737962,295.566502463054,4,1,11,40,1,0
738700,309.278350515464,4,1,11,40,1,0
739473,301.507537688442,4,1,11,40,1,0
740151,-100,4,1,7,40,0,0
740377,-100,4,1,11,40,0,0
740905,-100,4,2,11,40,0,0
741020,301.507537688442,4,2,10,40,1,0
741020,-133.333333333333,4,2,10,40,0,0
741773,-133.333333333333,4,2,14,40,0,0
741924,-133.333333333333,4,2,10,40,0,0
742678,-100,4,1,11,40,0,0
743733,298.507462686567,4,1,11,40,1,0
746568,304.568527918782,4,1,11,40,1,0
747633,352.941176470588,4,1,11,40,1,0
747810,303.030303030303,4,1,11,40,1,0
749779,352.941176470588,4,1,11,40,1,0
749955,297.029702970297,4,1,11,40,1,0
752034,304.568527918782,4,1,11,40,1,0
754013,-100,4,1,11,10,0,0
754165,-100,4,1,11,13,0,0
754318,-100,4,1,11,17,0,0
754470,-100,4,1,11,21,0,0
754622,-100,4,1,11,24,0,0
754775,-100,4,1,11,27,0,0
754927,-100,4,1,11,31,0,0
755079,-100,4,1,11,35,0,0
755231,303.030303030303,4,1,11,40,1,0
757655,315.789473684211,4,1,11,40,1,1
758602,301.507537688442,4,1,11,40,1,1
759054,284.36018957346,4,1,11,40,1,1
759480,298.507462686567,4,1,11,40,1,1
760077,306.122448979592,4,1,11,40,1,0
761301,300,4,1,11,40,1,0
762501,303.030303030303,4,1,11,40,1,1
764697,-100,4,1,7,40,0,1
764925,306.122448979592,4,1,11,40,1,0
766149,303.030303030303,4,1,11,40,1,0
767361,-100,4,1,11,40,0,1
769785,-100,4,1,11,40,0,0
772209,297.029702970297,4,1,11,40,1,1
773991,314.13612565445,4,1,11,40,1,1
774619,303.030303030303,4,1,18,40,1,1
775831,312.5,4,1,18,40,1,1
777081,303.030303030303,4,1,11,40,1,1
777156,-100,4,2,11,20,0,1
777535,-100,4,1,11,40,0,1
777611,-100,4,2,11,20,0,1
777990,320.855614973262,4,1,11,40,1,1
778070,-100,4,2,11,20,0,1
778471,292.682926829268,4,1,11,40,1,1
778544,-100,4,2,11,20,0,1
778910,-100,4,1,11,40,0,1
778983,-100,4,2,11,20,0,1
779202,320.855614973262,4,1,11,40,1,1
779522,284.36018957346,4,1,11,40,1,1
779593,-100,4,2,11,20,0,1
779948,297.029702970297,4,1,11,40,1,1
780022,-100,4,2,11,20,0,1
780393,-100,4,1,11,40,0,1
780467,-100,4,2,11,20,0,1
780839,-100,4,1,11,40,0,1
780913,-100,4,2,11,20,0,1
781284,309.278350515464,4,1,11,40,1,1
781361,-100,4,2,11,20,0,1
781593,303.030303030303,4,1,11,40,1,1
781668,-100,4,2,11,20,0,1
781896,-100,4,1,11,40,0,1
782805,355.029585798817,4,1,11,40,1,1
783161,297.029702970297,4,1,16,10,1,1
783309,-100,4,1,16,15,0,1
783458,-100,4,1,16,20,0,1
783606,-100,4,1,16,25,0,1
783755,-100,4,1,16,30,0,1
783903,-100,4,1,16,35,0,1
784052,-100,4,1,16,40,0,1
784794,314.13612565445,4,1,16,40,1,0
785265,303.030303030303,4,1,16,40,1,1
785265,-454.545454545455,4,1,5,40,0,1
785283,-454.545454545455,4,2,14,40,0,0

[Colours]
Combo1 : 158,231,86
Combo2 : 220,69,69
Combo3 : 150,62,52
Combo4 : 17,151,174

[HitObjects]
132,230,64,5,4,0:0:0:0:
130,243,212,1,4,0:0:0:0:
128,257,361,1,12,0:0:0:0:
304,121,955,5,8,0:1:0:0:
306,134,1103,1,0,0:0:0:0:
308,148,1252,1,0,0:0:0:0:
394,212,1549,2,0,L|402:168,2,35.625001358986,8|0|0,0:1|0:0|0:0,0:0:0:0:
297,263,2143,1,8,0:1:0:0:
400,176,2440,6,0,L|408:132,2,35.625001358986,0|0|8,0:1|0:0|0:1,0:0:0:0:
306,134,3034,2,0,L|298:90,2,35.625001358986,0|0|8,0:1|0:0|0:1,0:0:0:0:
203,175,3628,1,0,0:1:0:0:
201,188,3776,1,0,0:0:0:0:
199,202,3925,1,8,0:1:0:0:
297,263,4222,1,4,0:1:0:0:
299,276,4370,2,0,L|350:282,1,35.625001358986,4|8,0:0|0:1,0:0:0:0:
153,327,4816,5,0,0:0:0:0:
139,322,4964,1,0,0:0:0:0:
125,317,5113,1,8,0:1:0:0:
299,276,5707,5,8,0:1:0:0:
313,271,5855,1,0,0:0:0:0:
327,266,6004,1,0,0:1:0:0:
247,353,6301,1,8,0:1:0:0:
299,276,6598,1,0,0:1:0:0:
313,271,6746,1,0,0:0:0:0:
327,266,6895,1,8,0:1:0:0:
442,199,7192,5,0,0:1:0:0:
428,194,7340,1,0,0:0:0:0:
414,189,7489,1,8,0:1:0:0:
303,167,7786,2,0,L|286:123,2,35.625001358986,0|0|8,0:0|0:0|0:1,0:0:0:0:
442,199,8380,1,0,0:1:0:0:
428,194,8528,1,0,0:0:0:0:
414,189,8677,1,8,0:1:0:0:
303,167,8974,1,8,0:1:0:0:
303,167,9049,1,8,0:1:0:0:
303,167,9123,1,8,0:1:0:0:
303,167,9197,1,8,0:1:0:0:
303,167,9271,6,0,P|263:171|225:190,1,71.2500027179719,2|0,0:0|0:0,0:0:0:0:
220,180,9717,1,0,0:0:0:0:
205,177,9865,2,0,B|196:212|196:212|206:258,1,71.2500027179719,8|2,0:1|0:0,0:0:0:0:
68,194,10460,1,8,0:0:0:0:
72,207,10608,1,0,0:0:0:0:
76,220,10757,1,2,0:0:0:0:
196,285,11054,1,8,0:1:0:0:
192,298,11202,1,4,0:0:0:0:
188,311,11351,1,4,0:0:0:0:
60,336,11648,5,2,0:0:0:0:
76,220,11870,1,8,0:1:0:0:
83,219,11945,2,4,L|68:173,1,35.625001358986
188,202,12242,2,4,L|155:106,1,71.2500027179719,4|2,0:0|0:0,0:0:0:0:
237,140,12687,1,8,0:0:0:0:
95,128,12836,2,0,L|62:32,1,71.2500027179719,8|2,0:0|0:0,0:0:0:0:
85,64,13281,1,0,0:0:0:0:
24,151,13430,1,8,0:0:0:0:
162,185,13727,2,0,L|182:239,1,35.625001358986,4|4,0:0|0:0,0:0:0:0:
237,202,14023,6,0,L|209:283,1,71.2500027179719,8|0,0:1|0:0,0:0:0:0:
241,280,14469,1,0,0:0:0:0:
244,293,14618,2,0,B|286:289|286:289|335:299,1,71.2500027179719,8|2,0:1|0:0,0:0:0:0:
379,113,15212,1,8,0:0:0:0:
382,126,15361,1,0,0:0:0:0:
384,139,15509,1,2,0:0:0:0:
454,215,15806,2,0,L|434:270,1,35.625001358986,8|4,0:1|0:0,0:0:0:0:
360,304,16103,1,4,0:0:0:0:
345,302,16252,1,0,0:0:0:0:
331,305,16400,5,2,0:0:0:0:
188,237,16697,1,4,0:0:0:0:
203,235,16846,1,0,0:0:0:0:
218,238,16994,2,0,L|226:149,1,71.2500027179719,4|8,0:0|0:0,0:0:0:0:
136,137,17440,1,8,0:0:0:0:
311,198,17588,1,8,0:0:0:0:
136,137,17885,1,2,0:0:0:0:
149,133,18034,1,2,0:0:0:0:
201,316,18182,1,8,0:0:0:0:
228,61,18478,1,8,0:0:0:0:
211,222,18627,1,8,0:0:0:0:
224,216,18775,6,0,L|127:214,1,71.2500027179719,2|6,0:0|0:0,0:0:0:0:
141,237,19221,1,4,0:0:0:0:
401,239,19370,1,8,0:0:0:0:
313,183,19667,2,0,L|309:279,1,71.2500027179719,6|4,0:0|0:0,0:0:0:0:
284,275,20112,1,4,0:0:0:0:
275,263,20261,2,0,L|318:251,1,35.625001358986,4|2,0:0|0:0,0:0:0:0:
175,92,20558,1,8,0:0:0:0:
181,78,20706,1,4,0:0:0:0:
187,64,20855,1,6,0:0:0:0:
68,199,21152,5,2,0:0:0:0:
67,195,21300,1,4,0:0:0:0:
66,191,21449,1,6,0:0:0:0:
79,187,21597,1,0,0:0:0:0:
92,183,21746,2,0,L|83:283,1,71.2500027179719,8|6,0:0|0:0,0:0:0:0:
108,280,22191,1,0,0:0:0:0:
120,272,22340,2,0,L|116:307,1,35.625001358986,4|4,0:0|0:0,0:0:0:0:
242,226,22637,1,4,2:1:0:0:
230,218,22785,1,2,0:0:0:0:
210,362,22934,2,0,L|216:322,1,35.625001358986,8|4,0:0|0:0,0:0:0:0:
349,296,23231,2,0,L|355:256,1,35.625001358986,6|0,0:0|0:0,0:0:0:0:
285,131,23528,6,0,L|291:91,1,35.625001358986,6|4,0:0|0:0,0:0:0:0:
404,165,23825,1,6,0:0:0:0:
417,162,23973,1,0,0:0:0:0:
458,83,24122,2,0,L|369:73,1,71.2500027179719,8|6,0:0|0:0,0:0:0:0:
239,111,24716,1,4,0:0:0:0:
244,124,24865,1,0,0:0:0:0:
249,136,25013,2,0,L|291:129,1,35.625001358986,6|2,0:0|0:0,0:0:0:0:
70,172,25310,2,0,L|28:179,1,35.625001358986,8|2,0:0|0:0,0:0:0:0:
164,265,25607,1,6,0:0:0:0:
160,278,25756,1,0,0:0:0:0:
155,291,25904,2,0,L|200:280,1,35.625001358986,4|4,0:0|0:0,0:0:0:0:
357,338,26201,5,6,0:0:0:0:
344,332,26350,1,0,0:0:0:0:
330,334,26498,2,0,L|335:252,1,71.2500027179719,8|6,0:0|0:0,0:0:0:0:
370,257,26944,1,0,0:0:0:0:
364,243,27092,2,0,L|362:285,1,35.625001358986,4|4,0:0|0:0,0:0:0:0:
373,146,27389,1,6,0:0:0:0:
261,220,27538,5,2,0:0:0:0:
258,213,27612,1,2,0:0:0:0:
255,206,27686,1,8,0:0:0:0:
201,292,27835,5,2,0:0:0:0:
198,285,27909,1,2,0:0:0:0:
195,278,27983,1,8,0:0:0:0:
249,98,28132,1,8,0:0:0:0:
116,325,28280,6,0,L|90:237,1,71.2500027179719,6|2,0:0|0:0,0:0:0:0:
195,278,28726,1,0,0:0:0:0:
126,67,28874,2,0,L|162:179,1,106.875004076958,8|0,0:0|0:0,0:0:0:0:
46,150,29469,5,2,0:0:0:0:
158,168,29617,1,2,0:0:0:0:
270,186,29766,1,2,0:0:0:0:
36,158,30063,5,10,0:0:0:0:
148,176,30211,1,2,0:0:0:0:
260,194,30360,2,0,L|254:299,1,71.2500027179719,2|4,0:0|0:0,0:0:0:0:
384,123,30921,5,2,0:0:0:0:
366,235,31069,1,2,0:0:0:0:
348,348,31218,1,8,0:0:0:0:
395,117,31557,5,2,0:0:0:0:
377,229,31705,1,2,0:0:0:0:
359,342,31854,1,2,0:0:0:0:
404,114,32151,5,2,0:0:0:0:
386,226,32299,1,2,0:0:0:0:
368,339,32448,1,8,0:0:0:0:
260,294,32745,6,0,L|269:270,3,15.8333333333333,8|8|8|8,0:0|0:0|0:0|0:0,0:0:0:0:
179,332,33006,5,2,0:0:0:0:
170,328,33080,1,2,0:0:0:0:
161,324,33154,1,2,0:0:0:0:
152,320,33228,1,2,0:0:0:0:
143,316,33303,5,2,0:0:0:0:
149,202,33469,1,2,0:0:0:0:
155,88,33636,2,0,L|33:105,1,106.875004076958,8|0,0:0|0:0,0:0:0:0:
263,132,34242,6,0,L|334:123,1,71.2500027179719,2|2,0:0|0:0,0:0:0:0:
295,49,34687,1,2,0:0:0:0:
404,250,34836,1,8,0:0:0:0:
477,137,34984,5,2,0:0:0:0:
462,139,35052,1,2,0:0:0:0:
425,65,35120,1,8,0:0:0:0:
394,344,35256,1,8,0:0:0:0:
199,22,35422,2,0,L|231:78,1,53.4375020384789,6|0,0:0|0:0,0:0:0:0:
272,140,35719,5,2,0:0:0:0:
134,71,35867,1,2,0:0:0:0:
425,65,36016,1,8,0:0:0:0:
392,246,36164,5,2,0:0:0:0:
380,253,36238,1,2,0:0:0:0:
389,166,36313,1,8,0:0:0:0:
51,174,36461,1,8,0:0:0:0:
396,356,36610,2,0,L|337:325,1,53.4375020384789,4|0,0:0|0:0,0:0:0:0:
512,331,36907,5,0,0:0:0:0:
380,253,37055,1,2,0:0:0:0:
392,246,37129,1,2,0:0:0:0:
389,166,37204,1,8,0:0:0:0:
192,347,37352,5,2,0:0:0:0:
180,340,37426,1,2,0:0:0:0:
155,267,37501,6,0,L|114:260,3,23.75,8|8|8|8,0:0|0:0|0:0|0:0,0:0:0:0:
78,338,37787,5,6,0:0:0:0:
78,338,37968,6,0,L|38:352,3,23.75,4|4|4|4,0:0|0:0|0:0|0:0,0:0:0:0:
55,257,38228,5,2,0:0:0:0:
57,253,38294,1,2,0:0:0:0:
59,249,38359,2,0,L|27:247,3,23.75,8|8|8|8,0:0|0:0|0:0|0:0,0:0:0:0:
164,172,38685,6,0,L|156:149,3,23.75,2|2|2|2,0:0|0:0|0:0|0:0,0:0:0:0:
239,211,38975,2,0,L|247:188,3,23.75,2|2|2|2,0:0|0:0|0:0|0:0,0:0:0:0:
223,93,39266,6,0,L|212:63,3,23.75,8|4|2|2,0:0|0:0|0:0|0:0,0:0:0:0:
310,84,39556,5,8,0:0:0:0:
330,94,39628,1,8,0:0:0:0:
354,98,39701,1,8,0:0:0:0:
377,95,39773,1,8,0:0:0:0:
398,85,39860,6,0,L|396:125,3,23.75,2|2|2|2,0:0|0:0|0:0|0:0,0:0:0:0:
473,132,40157,2,0,L|475:172,3,23.75,2|2|2|4,0:0|0:0|0:0|0:0,0:0:0:0:
394,189,40454,6,0,L|392:229,3,23.75,4|6|2|2,0:0|0:0|0:0|0:0,0:0:0:0:
314,237,40722,5,8,0:0:0:0:
317,260,40793,1,8,0:0:0:0:
321,283,40864,1,8,0:0:0:0:
324,307,40936,1,8,0:0:0:0:
328,330,41007,2,0,L|299:329,3,23.75,4|4|4|4,0:0|0:0|0:0|0:0,0:0:0:0:
473,132,41318,6,0,L|502:131,3,23.75,4|0|0|0,0:0|0:0|0:0|0:0,0:0:0:0:
383,124,41615,1,8,0:0:0:0:
362,135,41692,1,8,0:0:0:0:
338,137,41769,1,8,0:0:0:0:
315,131,41846,1,8,0:0:0:0:
250,159,41932,6,0,L|254:200,1,23.75,6|0,0:0|0:0,0:0:0:0:
166,81,42093,2,0,L|162:122,5,23.75,8|8|8|8|8|8,0:0|0:0|0:0|0:0|0:0|0:0,0:0:0:0:
51,124,42538,5,6,0:0:0:0:
64,143,42612,1,8,0:0:0:0:
71,165,42686,1,6,0:0:0:0:
70,189,42760,1,8,0:0:0:0:
62,211,42835,5,6,0:0:0:0:
103,189,42909,1,8,0:0:0:0:
147,204,42983,1,6,0:0:0:0:
166,246,43057,1,8,0:0:0:0:
148,288,43132,5,6,0:0:0:0:
142,232,43206,1,8,0:0:0:0:
135,175,43280,1,6,0:0:0:0:
128,119,43354,1,8,0:0:0:0:
121,62,43429,5,6,0:0:0:0:
106,80,43503,1,8,0:0:0:0:
100,102,43577,1,6,0:0:0:0:
104,125,43651,1,8,0:0:0:0:
119,144,43726,5,6,0:0:0:0:
134,161,43800,1,8,0:0:0:0:
140,184,43874,1,6,0:0:0:0:
136,207,43948,1,8,0:0:0:0:
121,225,44023,5,6,0:0:0:0:
101,184,44097,1,8,0:0:0:0:
131,151,44171,1,6,0:0:0:0:
173,167,44245,1,8,0:0:0:0:
174,212,44320,5,6,0:0:0:0:
221,182,44394,1,8,0:0:0:0:
278,182,44468,1,6,0:0:0:0:
325,212,44542,1,8,0:0:0:0:
349,263,44617,5,6,0:0:0:0:
346,240,44691,1,8,0:0:0:0:
344,216,44765,1,6,0:0:0:0:
341,192,44839,1,8,0:0:0:0:
365,191,44914,5,6,0:0:0:0:
362,167,44988,1,8,0:0:0:0:
359,143,45062,1,6,0:0:0:0:
357,120,45136,1,8,0:0:0:0:
380,126,45211,5,6,0:0:0:0:
341,151,45285,1,8,0:0:0:0:
298,136,45359,1,6,0:0:0:0:
283,93,45433,1,8,0:0:0:0:
307,54,45508,5,6,0:0:0:0:
308,111,45582,1,8,0:0:0:0:
309,168,45656,1,6,0:0:0:0:
309,225,45730,1,8,0:0:0:0:
310,282,45805,6,0,L|364:267,3,47.5,6|8|6|8,0:0|0:0|0:0|0:0,0:0:0:0:
239,352,46102,5,6,0:0:0:0:
191,350,46176,1,8,0:0:0:0:
144,349,46250,1,6,0:0:0:0:
96,347,46324,1,8,0:0:0:0:
49,346,46399,5,6,0:0:0:0:
55,339,46473,1,8,0:0:0:0:
61,332,46547,1,6,0:0:0:0:
67,324,46621,1,8,0:0:0:0:
73,317,46696,5,2,0:0:0:0:
130,320,46770,1,8,0:0:0:0:
187,322,46845,1,6,0:0:0:0:
244,325,46919,1,8,0:0:0:0:
301,328,46993,5,6,0:0:0:0:
295,320,47067,1,8,0:0:0:0:
289,313,47141,1,6,0:0:0:0:
283,305,47215,1,8,0:0:0:0:
278,298,47290,5,6,0:0:0:0:
301,296,47364,1,8,0:0:0:0:
322,286,47438,1,6,0:0:0:0:
337,268,47513,1,8,0:0:0:0:
344,246,47587,5,6,0:0:0:0:
390,252,47661,1,8,0:0:0:0:
426,224,47735,1,6,0:0:0:0:
430,178,47809,1,8,0:0:0:0:
399,144,47884,5,6,0:0:0:0:
404,200,47958,1,8,0:0:0:0:
410,257,48032,1,6,0:0:0:0:
416,314,48106,1,8,0:0:0:0:
421,371,48181,6,0,L|484:357,1,47.5,6|8,0:0|0:0,0:0:0:0:
204,215,48330,2,0,L|250:204,1,47.5,6|8,0:0|0:0,0:0:0:0:
407,292,48478,6,0,L|469:277,3,47.5,2|8|6|8,0:0|0:0|0:0|0:0,0:0:0:0:
308,341,48775,5,6,0:0:0:0:
264,323,48849,1,8,0:0:0:0:
216,320,48923,1,6,0:0:0:0:
171,333,48997,1,8,0:0:0:0:
132,360,49072,5,6,0:0:0:0:
162,313,49146,1,8,0:0:0:0:
157,257,49220,1,6,0:0:0:0:
119,216,49294,1,8,0:0:0:0:
64,207,49369,6,0,L|67:157,1,47.5,6|8,0:0|0:0,0:0:0:0:
351,194,49518,2,0,L|353:143,1,47.5,6|8,0:0|0:0,0:0:0:0:
141,118,49666,6,0,L|143:67,3,47.5,6|8|6|8,0:0|0:0|0:0|0:0,0:0:0:0:
235,102,49963,5,6,0:0:0:0:
237,149,50037,1,8,0:0:0:0:
239,196,50111,1,6,0:0:0:0:
242,244,50185,1,8,0:0:0:0:
244,291,50260,5,6,0:0:0:0:
196,255,50334,1,8,0:0:0:0:
214,201,50408,1,6,0:0:0:0:
272,201,50483,1,8,0:0:0:0:
288,255,50557,6,0,L|348:235,1,47.5,6|8,0:0|0:0,0:0:0:0:
69,329,50706,2,0,L|129:309,1,47.5,6|8,0:0|0:0,0:0:0:0:
249,155,50854,5,6,0:0:0:0:
203,170,50928,1,8,0:0:0:0:
158,185,51002,1,6,0:0:0:0:
113,200,51076,1,8,0:0:0:0:
68,215,51151,6,0,L|116:167,1,47.5,6|8,0:0|0:0,0:0:0:0:
241,42,51300,2,0,L|275:9,1,47.5,6|8,0:0|0:0,0:0:0:0:
173,267,51448,5,6,0:0:0:0:
213,226,51522,1,8,0:0:0:0:
253,186,51596,1,6,0:0:0:0:
293,146,51670,1,8,0:0:0:0:
334,105,51745,6,0,L|326:175,1,47.5,6|8,0:0|0:0,0:0:0:0:
307,325,51894,2,0,L|302:373,1,47.5,6|8,0:0|0:0,0:0:0:0:
375,250,52042,5,6,0:0:0:0:
354,237,52116,1,8,0:0:0:0:
331,230,52190,1,6,0:0:0:0:
307,229,52264,1,8,0:0:0:0:
284,236,52339,5,6,0:0:0:0:
327,251,52413,1,8,0:0:0:0:
365,223,52487,1,6,0:0:0:0:
366,177,52561,1,8,0:0:0:0:
328,152,52637,5,6,0:0:0:0:
347,204,52711,1,8,0:0:0:0:
366,257,52785,1,6,0:0:0:0:
386,312,52859,1,8,0:0:0:0:
405,365,52934,6,0,L|468:339,1,47.5,6|8,0:0|0:0,0:0:0:0:
176,189,53082,2,0,L|239:163,1,47.5,6|8,0:0|0:0,0:0:0:0:
388,270,53231,6,0,L|451:244,3,47.5,6|8|6|8,0:0|0:0|0:0|0:0,0:0:0:0:
297,314,53528,5,6,0:0:0:0:
255,291,53602,1,8,0:0:0:0:
208,289,53676,1,6,0:0:0:0:
166,309,53750,1,8,0:0:0:0:
137,346,53825,5,6,0:0:0:0:
140,289,53899,1,8,0:0:0:0:
142,232,53973,1,6,0:0:0:0:
145,175,54047,1,8,0:0:0:0:
148,118,54122,6,0,L|87:130,1,47.5,6|8,0:0|0:0,0:0:0:0:
394,72,54270,2,0,L|332:83,1,47.5,6|8,0:0|0:0,0:0:0:0:
139,217,54419,6,0,L|77:228,3,47.5,6|8|2|8,0:0|0:0|0:0|0:0,0:0:0:0:
156,305,54716,5,6,0:0:0:0:
203,309,54790,1,8,0:0:0:0:
250,313,54864,1,6,0:0:0:0:
297,317,54938,1,8,0:0:0:0:
345,322,55013,5,6,0:0:0:0:
337,265,55087,1,8,0:0:0:0:
329,209,55161,1,6,0:0:0:0:
321,152,55235,1,8,0:0:0:0:
313,96,55310,6,0,L|374:104,1,47.5,6|8,0:0|0:0,0:0:0:0:
80,64,55458,2,0,L|140:71,1,47.5,6|8,0:0|0:0,0:0:0:0:
197,209,55607,5,2,0:0:0:0:
195,199,55681,1,2,0:0:0:0:
146,191,55755,1,8,0:0:0:0:
144,181,55829,1,0,0:0:0:0:
188,142,55904,6,0,L|248:149,1,47.5,2|0,0:0|0:0,0:0:0:0:
416,171,56052,2,0,L|464:177,1,47.5,2|2,0:0|0:0,0:0:0:0:
301,288,56201,5,0,0:0:0:0:
301,288,56250,2,0,L|256:283,4,31.6666666666667,8|8|8|2|2,0:0|0:0|0:0|0:0|0:0,0:0:0:0:
407,310,56498,6,0,P|412:284|396:242,1,47.5,2|2,0:0|0:0,0:0:0:0:
192,228,56665,2,0,P|177:301|282:376,1,213.750008153916,12|0,0:0|0:0,0:0:0:0:
67,140,56959,5,12,0:0:0:0:
269,284,57106,2,0,P|286:234|278:190,1,95,6|8,0:0|0:0,0:0:0:0:
193,45,57400,5,6,0:0:0:0:
388,185,57547,1,12,0:0:0:0:
192,228,57694,1,6,0:0:0:0:
506,124,57841,6,0,B|497:279|497:279|455:203,1,213.750008153916,12|0,0:0|0:0,0:0:0:0:
391,137,58101,6,0,L|395:83,1,47.5,8|2,0:0|0:0,0:0:0:0:
388,185,58248,2,0,L|392:131,1,47.5,2|2,0:0|0:0,0:0:0:0:
289,209,58395,6,0,L|283:155,1,47.5,8|2,0:0|0:0,0:0:0:0:
295,257,58542,2,0,L|289:203,1,47.5,2|2,0:0|0:0,0:0:0:0:
198,309,58689,6,0,L|183:256,1,47.5,8|2,0:0|0:0,0:0:0:0:
211,355,58836,2,0,L|196:302,1,47.5,2|2,0:0|0:0,0:0:0:0:
68,103,58983,6,0,B|39:203|39:203|82:173,1,142.500005435944,12|2,0:0|0:0,0:0:0:0:
136,0,59277,5,12,0:0:0:0:
49,295,59434,2,0,L|132:240,1,95,6|8,0:0|0:0,0:0:0:0:
220,70,59722,6,0,L|205:121,1,47.5,6|2,0:0|0:0,0:0:0:0:
140,361,59866,1,12,0:0:0:0:
509,211,60066,1,6,0:0:0:0:
394,148,60191,6,0,B|368:240|368:240|349:180,1,142.500005435944,12|2,0:0|0:0,0:0:0:0:
280,112,60490,5,8,0:0:0:0:
342,346,60637,1,2,0:0:0:0:
190,215,60784,5,8,0:0:0:0:
394,148,60931,1,2,0:0:0:0:
386,141,61004,1,2,0:0:0:0:
407,133,61078,6,0,L|419:87,1,47.5,8|2,0:0|0:0,0:0:0:0:
349,351,61225,1,2,0:0:0:0:
342,346,61298,1,2,0:0:0:0:
415,384,61372,6,0,B|461:229|461:229|473:320,1,213.750008153916,12|0,0:0|0:0,0:0:0:0:
353,259,61678,5,8,0:0:0:0:
410,63,61826,1,2,0:0:0:0:
401,65,61900,1,0,0:0:0:0:
453,68,61975,1,8,0:0:0:0:
102,121,62123,6,0,L|162:130,1,47.5,2|2,0:0|0:0,0:0:0:0:
442,165,62272,1,8,0:0:0:0:
258,351,62420,1,2,0:0:0:0:
299,52,62569,6,0,L|280:186,1,95,8|2,0:0|0:0,0:0:0:0:
391,68,62866,5,8,0:0:0:0:
206,207,63014,1,2,0:0:0:0:
233,0,63163,5,8,0:0:0:0:
324,226,63311,1,2,0:0:0:0:
103,97,63460,5,8,0:0:0:0:
330,247,63608,1,2,0:0:0:0:
324,226,63682,1,2,0:0:0:0:
268,304,63757,6,0,B|214:310|214:310|181:301|181:301|119:343|50:292,1,213.750008153916,12|0,0:0|0:0,0:0:0:0:
103,97,64070,5,8,0:0:0:0:
122,223,64218,1,2,0:0:0:0:
181,155,64367,5,8,0:0:0:0:
183,301,64515,1,2,0:0:0:0:
187,309,64589,1,2,0:0:0:0:
213,269,64664,5,8,0:0:0:0:
63,301,64812,1,2,0:0:0:0:
356,347,64961,6,0,B|377:277|377:277|364:215|364:215|387:121,1,213.750008153916,12|0,0:0|0:0,0:0:0:0:
446,216,65258,5,2,0:0:0:0:
332,74,65400,1,2,0:0:0:0:
359,360,65543,5,8,0:0:0:0:
353,293,65614,1,8,0:0:0:0:
347,227,65685,1,8,0:0:0:0:
114,292,65829,5,8,0:0:0:0:
368,371,65972,1,2,0:0:0:0:
232,82,66115,6,0,B|234:110|250:125|250:125|242:136|242:136|262:157|262:157|218:211|253:287,1,213.750008153916,12|0,0:0|0:0,0:0:0:0:
130,149,66400,5,12,0:0:0:0:
347,227,66600,2,0,P|355:273|335:339,1,95,6|8,0:0|0:0,0:0:0:0:
423,127,66884,5,6,0:0:0:0:
247,273,67033,1,12,0:0:0:0:
451,356,67181,1,6,0:0:0:0:
122,279,67330,6,0,B|179:232|179:232|198:205|198:205|224:198|224:198|304:131,1,213.750008153916,12|0,0:0|0:0,0:0:0:0:
126,177,67627,6,0,L|83:213,1,47.5,8|2,0:0|0:0,0:0:0:0:
89,207,67775,2,0,L|46:243,1,47.5,2|2,0:0|0:0,0:0:0:0:
285,146,67924,6,0,L|242:182,1,47.5,8|2,0:0|0:0,0:0:0:0:
248,176,68072,2,0,L|205:212,1,47.5,2|2,0:0|0:0,0:0:0:0:
450,116,68221,6,0,L|407:152,1,47.5,8|2,0:0|0:0,0:0:0:0:
413,146,68369,2,0,L|370:182,1,47.5,2|2,0:0|0:0,0:0:0:0:
290,330,68518,6,0,B|259:317|259:317|322:288|375:313|375:313|422:275,1,213.750008153916,12|0,0:0|0:0,0:0:0:0:
166,354,68815,5,12,0:0:0:0:
418,157,68965,2,0,L|343:215,1,95,6|8,0:0|0:0,0:0:0:0:
198,239,69265,6,0,L|266:233,1,47.5,6|2,0:0|0:0,0:0:0:0:
497,215,69415,1,12,0:0:0:0:
274,138,69565,1,6,0:0:0:0:
447,294,69715,6,0,L|277:308,1,142.5,8|0,0:0|0:0,0:0:0:0:
509,368,70015,5,8,0:0:0:0:
407,205,70165,2,0,P|432:148|508:123,1,142.5,2|0,0:0|0:0,0:0:0:0:
317,218,70465,6,0,L|257:224,1,47.5,2|2,0:0|0:0,0:0:0:0:
376,382,70615,2,0,L|436:376,1,47.5,10|2,0:0|0:0,0:0:0:0:
183,320,70765,5,2,0:0:0:0:
194,335,70840,1,2,0:0:0:0:
107,370,70915,6,0,B|96:332|106:303|106:303|97:291|97:291|146:224|87:152,1,213.750008153916,12|0,0:0|0:0,0:0:0:0:
221,147,71215,5,8,0:0:0:0:
27,228,71365,1,2,0:0:0:0:
34,245,71440,1,0,0:0:0:0:
97,291,71515,1,8,0:0:0:0:
0,100,71665,6,0,L|57:115,1,47.5,2|2,0:0|0:0,0:0:0:0:
388,185,71815,1,8,0:0:0:0:
97,291,71965,1,2,0:0:0:0:
331,113,72115,6,0,P|378:95|456:122,1,95,8|2,0:0|0:0,0:0:0:0:
245,52,72401,5,8,0:0:0:0:
388,185,72523,1,2,0:0:0:0:
376,200,72597,1,2,0:0:0:0:
432,190,72671,5,10,0:0:0:0:
420,205,72745,1,2,0:0:0:0:
427,278,72820,2,0,L|491:253,1,47.5,2|2,0:0|0:0,0:0:0:0:
195,174,72968,5,10,0:0:0:0:
200,193,73042,1,2,0:0:0:0:
205,212,73117,1,2,0:0:0:0:
210,231,73191,1,2,0:0:0:0:
131,190,73265,6,0,B|211:231|211:231|162:65,1,213.750008153916,12|0,0:0|0:0,0:0:0:0:
78,84,73594,5,8,0:0:0:0:
261,38,73742,2,0,L|292:145,1,95,2|8,0:0|0:0,0:0:0:0:
368,47,74039,5,2,0:0:0:0:
301,232,74188,1,8,0:0:0:0:
470,116,74336,5,2,0:0:0:0:
312,250,74473,2,0,L|192:256,1,95,8|2,0:0|0:0,0:0:0:0:
420,301,74792,5,2,0:0:0:0:
431,283,74857,1,2,0:0:0:0:
436,346,74922,1,8,0:0:0:0:
186,360,75053,6,0,L|233:356,1,47.5,2|2,0:0|0:0,0:0:0:0:
436,346,75201,1,8,0:0:0:0:
102,272,75350,5,8,0:0:0:0:
436,346,75498,1,2,0:0:0:0:
282,78,75647,6,0,B|274:113|294:141|294:141|271:128|271:128|319:185|268:264,1,213.750008153916,12|0,0:0|0:0,0:0:0:0:
416,123,75944,5,8,0:0:0:0:
202,190,76092,2,0,P|181:144|193:78,1,95,2|8,0:0|0:0,0:0:0:0:
97,187,76389,5,2,0:0:0:0:
271,131,76538,1,8,0:0:0:0:
134,21,76686,1,2,0:0:0:0:
373,233,76835,5,8,0:0:0:0:
126,34,76983,2,0,L|232:29,1,95,6|8,0:0|0:0,0:0:0:0:
369,24,77280,5,2,0:0:0:0:
271,131,77429,2,0,L|176:135,1,95,8|2,0:0|0:0,0:0:0:0:
44,143,77726,5,8,0:0:0:0:
369,24,77874,1,2,0:0:0:0:
215,233,78023,2,0,L|120:237,1,95,8|2,0:0|0:0,0:0:0:0:
271,131,78320,5,8,0:0:0:0:
241,322,78468,2,0,L|335:317,1,95,2|8,0:0|0:0,0:0:0:0:
429,377,78765,5,2,0:0:0:0:
353,223,78914,2,0,L|447:218,1,95,8|2,0:0|0:0,0:0:0:0:
302,320,79211,6,0,L|159:325,1,142.5,8|0,0:0|0:0,0:0:0:0:
404,315,79508,1,2,0:0:0:0:
404,315,79656,1,0,0:0:0:0:
73,367,79805,6,0,P|111:240|193:234,1,178.125,8|0,0:0|0:0,0:0:0:0:
31,49,80124,5,0,0:0:0:0:
159,325,80272,1,0,0:0:0:0:
159,325,80335,2,2,L|210:312,1,31.6666666666667
206,359,80434,6,0,B|232:230|232:230|222:170,1,190.000007247925,12|0,0:0|0:0,0:0:0:0:
312,281,80718,5,8,0:0:0:0:
125,135,80866,2,0,L|141:232,1,95,2|8,0:0|0:0,0:0:0:0:
9,213,81163,5,2,0:0:0:0:
253,244,81312,1,8,0:0:0:0:
108,127,81460,1,2,0:0:0:0:
207,57,81578,5,8,0:0:0:0:
63,301,81726,2,0,L|167:314,1,95,6|8,0:0|0:0,0:0:0:0:
278,332,82023,5,2,0:0:0:0:
181,215,82172,2,0,L|77:202,1,95,8|2,0:0|0:0,0:0:0:0:
207,57,82469,5,8,0:0:0:0:
278,332,82617,1,2,0:0:0:0:
343,110,82766,2,0,L|447:97,1,95,8|2,0:0|0:0,0:0:0:0:
317,204,83063,5,8,0:0:0:0:
207,57,83211,2,0,L|103:70,1,95,2|8,0:0|0:0,0:0:0:0:
230,255,83508,5,2,0:0:0:0:
343,110,83657,1,8,0:0:0:0:
366,107,83731,1,0,0:0:0:0:
390,104,83805,1,2,0:0:0:0:
413,101,83879,1,2,0:0:0:0:
381,25,83954,6,0,L|373:110,1,71.25,12|0,0:0|0:0,0:0:0:0:
424,59,84251,5,8,0:0:0:0:
390,90,84325,1,8,0:0:0:0:
391,136,84399,1,8,0:0:0:0:
426,166,84473,1,8,0:0:0:0:
471,159,84548,5,8,0:0:0:0:
423,133,84622,1,4,0:0:0:0:
370,150,84696,1,4,0:0:0:0:
347,200,84770,1,4,0:0:0:0:
367,251,84845,5,4,0:0:0:0:
296,245,84919,1,4,0:0:0:0:
225,239,84993,1,2,0:0:0:0:
154,232,85067,1,2,0:0:0:0:
83,226,85142,1,2,0:0:0:0:
107,199,85216,6,0,L|92:169,1,23.75,2|2,0:0|0:0,0:0:0:0:
132,178,85327,6,0,B|175:229|131:279|131:279|167:291|173:349|173:349|161:250|244:234,1,332.500003170967,6|0,0:0|0:0,0:0:0:0:
256,319,85740,5,8,0:0:0:0:
275,306,85812,1,0,0:0:0:0:
298,297,85884,1,2,0:0:0:0:
321,294,85956,1,0,0:0:0:0:
345,296,86028,1,8,0:0:0:0:
368,302,86100,1,0,0:0:0:0:
388,313,86172,1,2,0:0:0:0:
411,320,86244,1,0,0:0:0:0:
434,317,86316,1,8,0:0:0:0:
454,304,86389,1,0,0:0:0:0:
466,283,86479,6,0,L|470:344,1,47.5,2|2,0:0|0:0,0:0:0:0:
512,128,86627,2,0,L|376:140,1,95,8|2,0:0|0:0,0:0:0:0:
191,243,86924,6,0,B|231:223|231:223|249:235|249:235|285:204|352:228,1,142.500005435944,12|0,0:0|0:0,0:0:0:0:
348,70,87165,1,2,0:0:0:0:
341,52,87239,5,12,0:0:0:0:
298,297,87388,1,6,0:0:0:0:
112,150,87536,1,12,0:0:0:0:
289,196,87685,5,2,0:0:0:0:
307,192,87759,1,8,0:0:0:0:
326,189,87833,1,8,0:0:0:0:
345,186,87907,1,8,0:0:0:0:
363,183,87982,5,2,0:0:0:0:
323,159,88056,1,0,0:0:0:0:
276,161,88130,1,8,0:0:0:0:
237,186,88204,1,0,0:0:0:0:
217,229,88279,1,2,0:0:0:0:
183,260,88353,1,0,0:0:0:0:
137,257,88427,1,8,0:0:0:0:
108,222,88501,1,0,0:0:0:0:
114,176,88576,1,2,0:0:0:0:
151,149,88650,1,0,0:0:0:0:
184,117,88724,1,8,0:0:0:0:
174,72,88798,1,0,0:0:0:0:
131,57,88873,5,6,0:0:0:0:
137,109,88947,1,0,0:0:0:0:
143,161,89021,1,8,0:0:0:0:
149,213,89095,1,0,0:0:0:0:
151,262,89170,5,12,0:0:0:0:
101,232,89244,1,0,0:0:0:0:
114,176,89318,1,0,0:0:0:0:
171,171,89393,1,0,0:0:0:0:
193,223,89467,5,12,0:0:0:0:
248,199,89541,1,0,0:0:0:0:
305,219,89615,1,0,0:0:0:0:
305,219,89665,2,0,L|314:167,1,31.6666666666667,2|2,0:0|0:0,0:0:0:0:
482,32,89764,6,0,L|473:78,1,47.5,8|0,0:0|0:0,0:0:0:0:
420,328,89912,5,8,0:0:0:0:
440,284,89987,1,8,0:0:0:0:
334,356,90061,6,0,B|305:354|290:344|290:344|265:352|265:352|236:334|236:334|173:407|81:336,1,249.375002378225,6|0,0:0|0:0,0:0:0:0:
162,278,90358,5,2,0:0:0:0:
179,261,90432,1,0,0:0:0:0:
200,250,90506,1,8,0:0:0:0:
222,243,90580,1,0,0:0:0:0:
246,243,90655,1,2,0:0:0:0:
269,248,90729,1,0,0:0:0:0:
291,258,90803,1,8,0:0:0:0:
312,267,90877,1,0,0:0:0:0:
336,264,90951,1,2,0:0:0:0:
355,251,91025,1,0,0:0:0:0:
364,229,91100,1,8,0:0:0:0:
471,294,91248,5,2,0:0:0:0:
502,27,91397,2,0,L|486:163,1,95,8|2,0:0|0:0,0:0:0:0:
220,79,91637,1,2,0:0:0:0:
295,119,91711,6,0,B|256:110|256:110|140:125,1,142.500005435944,12|0,0:0|0:0,0:0:0:0:
349,187,92008,5,12,0:0:0:0:
105,214,92157,1,6,0:0:0:0:
216,0,92305,1,12,0:0:0:0:
208,138,92454,5,2,0:0:0:0:
207,156,92528,1,8,0:0:0:0:
206,175,92602,1,8,0:0:0:0:
206,194,92676,1,8,0:0:0:0:
205,213,92751,5,2,0:0:0:0:
242,185,92825,1,0,0:0:0:0:
288,187,92899,1,8,0:0:0:0:
323,217,92973,1,0,0:0:0:0:
332,263,93048,5,2,0:0:0:0:
372,285,93122,1,0,0:0:0:0:
416,271,93196,1,8,0:0:0:0:
437,230,93270,1,0,0:0:0:0:
422,186,93345,5,2,0:0:0:0:
393,150,93419,1,0,0:0:0:0:
400,105,93493,1,8,0:0:0:0:
439,80,93567,1,0,0:0:0:0:
445,136,93642,5,6,0:0:0:0:
402,114,93716,1,0,0:0:0:0:
389,68,93790,1,8,0:0:0:0:
419,31,93864,1,0,0:0:0:0:
325,19,93939,6,0,L|261:27,3,47.5,8|0|0|0,0:0|0:0|0:0|0:0,0:0:0:0:
101,62,94236,5,8,0:0:0:0:
94,108,94310,1,0,0:0:0:0:
86,155,94384,1,0,0:0:0:0:
86,155,94434,2,0,L|126:145,1,31.6666666666667,2|2,0:0|0:0,0:0:0:0:
325,19,94533,5,8,0:0:0:0:
303,260,94681,5,8,0:0:0:0:
288,214,94756,1,8,0:0:0:0:
236,296,94830,6,0,B|288:298|304:261|304:261|352:287|394:250|394:250|359:241,1,213.750008153916,6|0,0:0|0:0,0:0:0:0:
333,347,95127,5,2,0:0:0:0:
312,359,95201,1,0,0:0:0:0:
290,367,95275,1,8,0:0:0:0:
267,372,95349,1,0,0:0:0:0:
243,372,95424,1,2,0:0:0:0:
219,369,95498,1,0,0:0:0:0:
197,362,95572,1,8,0:0:0:0:
175,352,95646,1,0,0:0:0:0:
152,347,95720,1,2,0:0:0:0:
128,347,95794,1,0,0:0:0:0:
105,351,95869,1,8,0:0:0:0:
244,152,96018,5,2,0:0:0:0:
82,128,96166,2,0,L|74:234,1,95,8|2,0:0|0:0,0:0:0:0:
369,219,96463,6,0,B|338:227|314:212|314:212|279:259|202:238,1,166.250001585484,6|2,0:0|0:0,0:0:0:0:
185,384,96686,1,2,0:0:0:0:
202,375,96761,5,12,0:0:0:0:
244,152,96909,2,0,L|254:89,1,47.5,6|2,0:0|0:0,0:0:0:0:
445,293,97058,1,12,0:0:0:0:
274,267,97206,5,2,0:0:0:0:
250,264,97280,1,8,0:0:0:0:
226,261,97354,1,8,0:0:0:0:
203,258,97428,1,8,0:0:0:0:
179,255,97503,5,2,0:0:0:0:
219,232,97577,1,0,0:0:0:0:
265,242,97652,1,8,0:0:0:0:
293,279,97725,1,0,0:0:0:0:
291,325,97800,1,2,0:0:0:0:
322,360,97874,1,0,0:0:0:0:
368,363,97948,1,8,0:0:0:0:
402,332,98022,1,0,0:0:0:0:
405,285,98097,1,2,0:0:0:0:
374,251,98171,1,0,0:0:0:0:
360,207,98245,1,8,0:0:0:0:
384,168,98319,1,0,0:0:0:0:
429,159,98393,5,6,0:0:0:0:
411,208,98468,1,0,0:0:0:0:
393,257,98542,1,2,0:0:0:0:
374,306,98616,1,2,0:0:0:0:
356,355,98691,5,12,0:0:0:0:
325,308,98765,1,0,0:0:0:0:
361,263,98839,1,0,0:0:0:0:
414,283,98914,1,0,0:0:0:0:
412,341,98988,5,8,0:0:0:0:
419,335,99063,1,0,0:0:0:0:
426,329,99137,2,0,L|434:378,1,47.5,2|2,0:0|0:0,0:0:0:0:
215,282,99285,6,0,L|207:331,1,47.5,8|0,0:0|0:0,0:0:0:0:
499,272,99425,2,0,L|507:321,1,47.5,8|0,0:0|0:0,0:0:0:0:
143,197,99566,6,0,B|175:195|188:180|188:180|206:188|206:188|225:154|225:154|301:218|382:129,1,249.375002378225,6|0,0:0|0:0,0:0:0:0:
290,89,99848,5,2,0:0:0:0:
309,75,99925,1,0,0:0:0:0:
331,66,100003,1,8,0:0:0:0:
354,64,100081,1,0,0:0:0:0:
378,67,100158,1,2,0:0:0:0:
399,77,100236,1,0,0:0:0:0:
417,92,100314,1,8,0:0:0:0:
431,112,100392,1,0,0:0:0:0:
439,134,100469,1,2,0:0:0:0:
441,157,100546,1,0,0:0:0:0:
434,179,100624,1,8,0:0:0:0:
416,0,100780,5,2,0:0:0:0:
318,244,100911,2,0,L|362:132,1,95,8|2,0:0|0:0,0:0:0:0:
170,321,101208,6,0,B|178:282|178:282|169:270|169:270|190:225|145:166,1,142.500005435944,12|2,0:0|0:0,0:0:0:0:
262,73,101430,1,2,0:0:0:0:
267,59,101505,5,12,0:0:0:0:
99,238,101653,2,0,P|92:271|95:292,1,47.5,6|2,0:0|0:0,0:0:0:0:
351,333,101802,1,12,0:0:0:0:
191,234,101950,5,2,0:0:0:0:
207,216,102024,1,8,0:0:0:0:
223,199,102098,1,8,0:0:0:0:
239,181,102172,1,8,0:0:0:0:
255,164,102243,5,2,0:0:0:0:
269,204,102317,1,0,0:0:0:0:
257,248,102391,1,8,0:0:0:0:
219,276,102465,1,0,0:0:0:0:
173,275,102540,1,2,0:0:0:0:
142,309,102614,1,0,0:0:0:0:
147,354,102688,1,8,0:0:0:0:
184,381,102762,1,0,0:0:0:0:
229,370,102837,1,2,0:0:0:0:
250,329,102911,1,0,0:0:0:0:
233,286,102985,1,8,0:0:0:0:
249,241,103059,1,0,0:0:0:0:
296,283,103134,5,2,0:0:0:0:
254,302,103208,1,0,0:0:0:0:
210,286,103282,1,8,0:0:0:0:
191,244,103356,1,0,0:0:0:0:
136,299,103431,6,0,L|63:310,3,47.5,8|0|0|0,0:0|0:0|0:0|0:0,0:0:0:0:
72,28,103728,5,8,0:0:0:0:
70,75,103802,1,0,0:0:0:0:
68,122,103876,1,0,0:0:0:0:
68,122,103926,2,0,L|115:114,1,31.6666666666667,2|2,0:0|0:0,0:0:0:0:
116,216,104025,5,8,0:0:0:0:
159,197,104099,1,8,0:0:0:0:
188,160,104173,1,8,0:0:0:0:
198,114,104247,1,8,0:0:0:0:
186,69,104322,5,6,0:0:0:0:
181,92,104396,1,8,0:0:0:0:
177,115,104470,1,6,0:0:0:0:
173,139,104544,1,8,0:0:0:0:
169,162,104619,5,6,0:0:0:0:
211,141,104693,1,8,0:0:0:0:
257,147,104767,1,6,0:0:0:0:
293,178,104841,1,8,0:0:0:0:
306,222,104916,5,6,0:0:0:0:
340,177,104990,1,8,0:0:0:0:
392,156,105064,1,6,0:0:0:0:
448,166,105138,1,8,0:0:0:0:
490,203,105213,5,6,0:0:0:0:
470,216,105287,1,8,0:0:0:0:
447,220,105361,1,6,0:0:0:0:
424,214,105435,1,8,0:0:0:0:
406,199,105510,5,6,0:0:0:0:
396,177,105584,1,8,0:0:0:0:
396,154,105658,1,6,0:0:0:0:
406,132,105732,1,8,0:0:0:0:
423,117,105807,5,6,0:0:0:0:
421,164,105881,1,8,0:0:0:0:
418,212,105955,1,6,0:0:0:0:
415,259,106029,1,8,0:0:0:0:
412,307,106104,5,6,0:0:0:0:
367,270,106179,1,8,0:0:0:0:
387,217,106253,1,6,0:0:0:0:
445,220,106327,1,8,0:0:0:0:
459,274,106401,5,6,0:0:0:0:
437,263,106475,1,8,0:0:0:0:
414,258,106549,1,6,0:0:0:0:
391,261,106623,1,8,0:0:0:0:
369,270,106698,5,6,0:0:0:0:
347,280,106772,1,8,0:0:0:0:
324,285,106846,1,6,0:0:0:0:
301,282,106920,1,8,0:0:0:0:
279,273,106995,5,6,0:0:0:0:
320,254,107069,1,8,0:0:0:0:
360,276,107143,1,6,0:0:0:0:
367,321,107217,1,8,0:0:0:0:
335,354,107292,5,6,0:0:0:0:
331,297,107366,1,8,0:0:0:0:
327,240,107440,1,6,0:0:0:0:
323,183,107514,1,8,0:0:0:0:
319,126,107589,6,0,L|378:112,3,47.5,6|8|6|8,0:0|0:0|0:0|0:0,0:0:0:0:
219,89,107886,5,6,0:0:0:0:
189,124,107961,1,8,0:0:0:0:
144,120,108034,1,6,0:0:0:0:
120,81,108109,1,8,0:0:0:0:
138,39,108183,5,6,0:0:0:0:
140,48,108257,1,8,0:0:0:0:
142,57,108332,1,6,0:0:0:0:
144,66,108406,1,8,0:0:0:0:
146,75,108480,5,6,0:0:0:0:
195,48,108554,1,8,0:0:0:0:
252,46,108628,1,6,0:0:0:0:
304,69,108702,1,8,0:0:0:0:
340,112,108777,5,6,0:0:0:0:
343,103,108851,1,8,0:0:0:0:
345,93,108926,1,6,0:0:0:0:
347,83,109000,1,8,0:0:0:0:
349,73,109074,5,6,0:0:0:0:
353,96,109148,1,8,0:0:0:0:
358,119,109222,1,6,0:0:0:0:
362,142,109296,1,8,0:0:0:0:
367,166,109371,5,6,0:0:0:0:
322,152,109445,1,8,0:0:0:0:
279,169,109519,1,6,0:0:0:0:
254,209,109593,1,8,0:0:0:0:
259,255,109668,5,6,0:0:0:0:
303,222,109742,1,8,0:0:0:0:
307,166,109816,1,6,0:0:0:0:
269,126,109890,1,8,0:0:0:0:
214,128,109965,6,0,L|236:75,3,47.5,6|8|6|8,0:0|0:0|0:0|0:0,0:0:0:0:
110,142,110262,5,6,0:0:0:0:
121,121,110336,1,8,0:0:0:0:
123,97,110410,1,6,0:0:0:0:
116,75,110484,1,8,0:0:0:0:
102,56,110559,5,6,0:0:0:0:
106,103,110633,1,8,0:0:0:0:
111,151,110707,1,6,0:0:0:0:
116,198,110781,1,8,0:0:0:0:
120,245,110856,5,6,0:0:0:0:
168,217,110930,1,8,0:0:0:0:
220,235,111004,1,6,0:0:0:0:
239,287,111078,1,8,0:0:0:0:
212,335,111153,5,6,0:0:0:0:
196,317,111227,1,8,0:0:0:0:
188,295,111301,1,6,0:0:0:0:
190,272,111375,1,8,0:0:0:0:
200,251,111450,5,6,0:0:0:0:
216,233,111524,1,8,0:0:0:0:
224,211,111598,1,6,0:0:0:0:
222,188,111672,1,8,0:0:0:0:
211,167,111747,5,6,0:0:0:0:
255,177,111821,1,8,0:0:0:0:
292,148,111895,1,6,0:0:0:0:
293,103,111969,1,8,0:0:0:0:
258,72,112044,5,6,0:0:0:0:
263,129,112118,1,8,0:0:0:0:
267,186,112192,1,6,0:0:0:0:
271,243,112266,1,8,0:0:0:0:
275,300,112342,6,0,L|345:278,3,47.5,6|8|6|8,0:0|0:0|0:0|0:0,0:0:0:0:
166,362,112639,5,6,0:0:0:0:
169,314,112713,1,8,0:0:0:0:
172,267,112787,1,6,0:0:0:0:
175,219,112861,1,8,0:0:0:0:
179,172,112936,5,6,0:0:0:0:
171,178,113010,1,8,0:0:0:0:
164,184,113084,1,6,0:0:0:0:
157,190,113158,1,8,0:0:0:0:
150,196,113233,5,6,0:0:0:0:
205,188,113307,1,8,0:0:0:0:
248,222,113381,1,6,0:0:0:0:
254,278,113455,1,8,0:0:0:0:
218,320,113530,5,6,0:0:0:0:
205,300,113604,1,8,0:0:0:0:
201,277,113678,1,6,0:0:0:0:
207,254,113752,1,8,0:0:0:0:
221,236,113827,5,6,0:0:0:0:
233,216,113901,1,8,0:0:0:0:
238,193,113975,1,6,0:0:0:0:
232,170,114049,1,8,0:0:0:0:
218,151,114124,5,6,0:0:0:0:
218,198,114198,1,8,0:0:0:0:
218,245,114272,1,6,0:0:0:0:
219,293,114346,1,8,0:0:0:0:
219,340,114421,5,6,0:0:0:0:
173,305,114495,1,8,0:0:0:0:
191,251,114569,1,6,0:0:0:0:
249,252,114644,1,8,0:0:0:0:
265,306,114718,6,0,L|337:288,1,47.5,6|8,0:0|0:0,0:0:0:0:
0,278,114866,2,0,L|72:260,1,47.5,6|8,0:0|0:0,0:0:0:0:
218,198,115015,6,0,L|290:180,3,47.5,6|8|6|8,0:0|0:0|0:0|0:0,0:0:0:0:
135,263,115312,5,6,0:0:0:0:
128,215,115386,1,8,0:0:0:0:
121,168,115460,1,6,0:0:0:0:
115,121,115534,1,8,0:0:0:0:
108,74,115609,5,6,0:0:0:0:
151,109,115683,1,8,0:0:0:0:
207,110,115757,1,6,0:0:0:0:
251,76,115831,1,8,0:0:0:0:
266,22,115906,6,0,L|275:90,1,47.5,6|8,0:0|0:0,0:0:0:0:
455,92,116054,2,0,L|463:159,1,47.5,6|8,0:0|0:0,0:0:0:0:
195,103,116203,6,0,L|203:170,3,47.5,6|8|6|8,0:0|0:0|0:0|0:0,0:0:0:0:
364,80,116500,5,6,0:0:0:0:
369,127,116574,1,8,0:0:0:0:
374,174,116648,1,6,0:0:0:0:
379,221,116722,1,8,0:0:0:0:
385,268,116797,5,6,0:0:0:0:
328,264,116871,1,8,0:0:0:0:
271,259,116945,1,6,0:0:0:0:
214,255,117019,1,8,0:0:0:0:
157,251,117094,6,0,L|133:297,1,47.5,6|8,0:0|0:0,0:0:0:0:
264,46,117242,2,0,L|239:91,1,47.5,6|8,0:0|0:0,0:0:0:0:
249,302,117391,5,6,0:0:0:0:
271,259,117465,1,8,0:0:0:0:
293,217,117539,1,6,0:0:0:0:
315,175,117613,1,8,0:0:0:0:
337,133,117688,6,0,L|409:123,1,47.5,6|8,0:0|0:0,0:0:0:0:
88,167,117836,2,0,L|160:157,1,47.5,6|8,0:0|0:0,0:0:0:0:
354,222,117985,5,6,0:0:0:0:
297,229,118059,1,8,0:0:0:0:
241,237,118133,1,6,0:0:0:0:
184,245,118207,1,8,0:0:0:0:
128,252,118282,6,0,L|96:301,1,47.5,6|8,0:0|0:0,0:0:0:0:
264,46,118430,2,0,L|232:95,1,47.5,6|8,0:0|0:0,0:0:0:0:
147,108,118579,5,6,0:0:0:0:
154,130,118653,1,8,0:0:0:0:
168,149,118727,1,6,0:0:0:0:
186,164,118801,1,8,0:0:0:0:
208,173,118876,5,6,0:0:0:0:
161,180,118950,1,8,0:0:0:0:
114,187,119024,1,6,0:0:0:0:
67,193,119098,1,8,0:0:0:0:
20,200,119173,5,6,0:0:0:0:
59,161,119247,1,8,0:0:0:0:
114,167,119321,1,6,0:0:0:0:
145,213,119395,1,8,0:0:0:0:
129,266,119470,6,0,L|197:247,1,47.5,6|8,0:0|0:0,0:0:0:0:
380,192,119619,2,0,L|426:180,1,47.5,6|8,0:0|0:0,0:0:0:0:
114,167,119767,6,0,L|159:154,3,47.5,6|8|6|8,0:0|0:0|0:0|0:0,0:0:0:0:
286,122,120064,5,6,0:0:0:0:
280,169,120138,1,8,0:0:0:0:
274,216,120212,1,6,0:0:0:0:
268,263,120286,1,8,0:0:0:0:
263,310,120361,5,6,0:0:0:0:
222,268,120435,1,8,0:0:0:0:
247,218,120509,1,6,0:0:0:0:
305,227,120583,1,8,0:0:0:0:
313,283,120658,6,0,L|372:274,1,47.5,6|8,0:0|0:0,0:0:0:0:
74,319,120807,2,0,L|133:310,1,47.5,6|8,0:0|0:0,0:0:0:0:
280,169,120955,6,0,L|339:160,3,47.5,6|8|6|8,0:0|0:0|0:0|0:0,0:0:0:0:
265,39,121252,5,6,0:0:0:0:
311,46,121326,1,8,0:0:0:0:
358,54,121400,1,6,0:0:0:0:
405,62,121474,1,8,0:0:0:0:
449,66,121549,5,6,0:0:0:0:
458,122,121623,1,8,0:0:0:0:
468,178,121697,1,6,0:0:0:0:
477,235,121771,1,8,0:0:0:0:
487,291,121846,6,0,L|417:277,1,47.5,6|8,0:0|0:0,0:0:0:0:
244,239,121995,2,0,L|198:230,1,47.5,6|8,0:0|0:0,0:0:0:0:
347,67,122143,5,8,0:0:0:0:
352,59,122206,1,8,0:0:0:0:
358,54,122270,2,0,B|355:108|355:108|364:170,1,95,8|4,0:0|0:0,0:0:0:0:
327,145,122470,5,2,0:0:0:0:
320,138,122544,1,2,0:0:0:0:
313,131,122618,1,2,0:0:0:0:
306,124,122692,1,2,0:0:0:0:
277,135,122745,6,0,L|226:141,4,47.5,8|8|8|8|2,0:0|0:0|0:0|0:0|0:0,0:0:0:0:
128,105,123065,5,0,0:0:0:0:
133,97,123139,1,2,0:0:0:0:
49,72,123213,6,0,B|65:148|65:148|62:203|62:203|84:294,1,213.750008153916,12|0,0:0|0:0,0:0:0:0:
270,61,123510,5,12,0:0:0:0:
23,348,123658,2,0,L|-2:248,1,95,6|8,0:0|0:0,0:0:0:0:
152,197,123955,5,6,0:0:0:0:
109,375,124104,1,12,0:0:0:0:
316,313,124252,1,6,0:0:0:0:
68,217,124401,6,0,B|31:72|31:72|105:162,1,213.750008153916,12|0,0:0|0:0,0:0:0:0:
175,290,124674,6,0,L|160:230,1,47.5,8|2,0:0|0:0,0:0:0:0:
163,243,124821,2,0,L|148:183,1,47.5,2|2,0:0|0:0,0:0:0:0:
247,186,124968,6,0,L|232:126,1,47.5,8|2,0:0|0:0,0:0:0:0:
235,139,125115,2,0,L|220:79,1,47.5,2|2,0:0|0:0,0:0:0:0:
342,93,125262,6,0,L|327:33,1,47.5,8|2,0:0|0:0,0:0:0:0:
330,46,125409,2,0,L|315:-14,1,47.5,2|2,0:0|0:0,0:0:0:0:
479,248,125556,6,0,B|447:261|447:261|429:251|429:251|393:295|319:270,1,142.500005435944,12|2,0:0|0:0,0:0:0:0:
207,371,125850,5,12,0:0:0:0:
370,202,125997,2,0,P|415:173|475:185,1,95,6|8,0:0|0:0,0:0:0:0:
330,46,126291,6,0,L|297:80,1,47.5,6|2,0:0|0:0,0:0:0:0:
135,250,126438,1,12,0:0:0:0:
370,202,126585,1,6,0:0:0:0:
150,11,126732,6,0,B|141:161|141:161|212:93,1,213.750008153916,12|0,0:0|0:0,0:0:0:0:
40,133,127026,5,8,0:0:0:0:
260,37,127173,1,2,0:0:0:0:
135,250,127320,5,8,0:0:0:0:
150,11,127467,1,2,0:0:0:0:
147,20,127541,1,0,0:0:0:0:
154,69,127614,6,0,L|102:54,1,47.5,10|2,0:0|0:0,0:0:0:0:
341,121,127761,5,2,0:0:0:0:
338,111,127835,1,2,0:0:0:0:
425,64,127908,6,0,B|427:135|427:135|410:179|410:179|441:225|404:282,1,213.750008153916,12|0,0:0|0:0,0:0:0:0:
499,304,128202,5,0,0:0:0:0:
347,224,128350,1,2,0:0:0:0:
342,232,128423,1,0,0:0:0:0:
380,281,128497,1,8,0:0:0:0:
124,232,128644,6,0,L|192:246,1,47.5,2|2,0:0|0:0,0:0:0:0:
499,304,128791,1,8,0:0:0:0:
352,6,128972,1,2,0:0:0:0:
349,127,129092,6,0,L|401:230,1,95,8|2,0:0|0:0,0:0:0:0:
272,63,129412,5,8,0:0:0:0:
259,83,129486,1,2,0:0:0:0:
252,105,129560,1,2,0:0:0:0:
250,129,129634,1,2,0:0:0:0:
211,101,129709,5,8,0:0:0:0:
214,124,129783,1,2,0:0:0:0:
217,147,129857,2,0,L|160:171,1,47.5,2|2,0:0|0:0,0:0:0:0:
375,332,130006,2,0,L|318:356,1,47.5,10|2,0:0|0:0,0:0:0:0:
196,238,130154,2,0,L|139:262,1,47.5,2|2,0:0|0:0,0:0:0:0:
267,288,130303,6,0,B|362:248|362:248|399:209|399:209|422:263,1,213.750008153916,12|0,0:0|0:0,0:0:0:0:
496,194,130600,5,8,0:0:0:0:
469,339,130748,1,2,0:0:0:0:
314,167,130897,5,8,0:0:0:0:
375,332,131045,1,2,0:0:0:0:
381,338,131119,1,2,0:0:0:0:
333,347,131194,5,8,0:0:0:0:
496,194,131342,1,2,0:0:0:0:
173,281,131491,2,0,L|290:251,1,95,8|2,0:0|0:0,0:0:0:0:
112,128,131788,5,8,0:0:0:0:
64,355,131936,2,0,L|66:308,1,47.5,8|8,0:0|0:0,0:0:0:0:
105,118,132085,2,0,L|103:165,1,47.5,8|8,0:0|0:0,0:0:0:0:
173,281,132233,5,8,0:0:0:0:
227,18,132382,1,8,0:0:0:0:
269,187,132530,1,2,0:0:0:0:
496,48,132679,6,0,B|466:43|454:56|454:56|429:45|429:45|409:81|409:81|349:56|284:115,1,213.750008153916,12|0,0:0|0:0,0:0:0:0:
497,307,132976,5,12,0:0:0:0:
370,166,133124,2,0,P|315:186|246:156,1,95,6|8,0:0|0:0,0:0:0:0:
270,344,133421,5,6,0:0:0:0:
497,307,133570,1,12,0:0:0:0:
186,248,133718,1,6,0:0:0:0:
496,48,133867,6,0,B|473:183|473:183|424:250,1,213.750008153916,12|0,0:0|0:0,0:0:0:0:
385,73,134164,6,0,L|377:120,1,47.5,10|2,0:0|0:0,0:0:0:0:
377,119,134312,2,0,L|369:166,1,47.5,2|2,0:0|0:0,0:0:0:0:
275,126,134461,6,0,L|267:173,1,47.5,10|2,0:0|0:0,0:0:0:0:
267,172,134609,2,0,L|259:219,1,47.5,2|2,0:0|0:0,0:0:0:0:
166,180,134758,6,0,L|158:227,1,47.5,10|2,0:0|0:0,0:0:0:0:
158,226,134906,2,0,L|150:273,1,47.5,2|2,0:0|0:0,0:0:0:0:
0,69,135055,6,0,B|41:55|41:55|74:63|74:63|148:30|207:84,1,213.750008153916,12|0,0:0|0:0,0:0:0:0:
391,39,135352,5,12,0:0:0:0:
127,158,135500,2,0,L|107:275,1,95,6|8,0:0|0:0,0:0:0:0:
304,303,135797,6,0,L|294:249,1,47.5,6|2,0:0|0:0,0:0:0:0:
266,94,135946,1,12,0:0:0:0:
465,170,136094,1,6,0:0:0:0:
162,292,136243,6,0,B|185:225|185:225|172:146,1,142.5,12|0,0:0|0:0,0:0:0:0:
103,362,136540,5,12,0:0:0:0:
184,119,136688,2,0,L|208:277,1,142.5,6|0,0:0|0:0,0:0:0:0:
107,158,136985,6,0,L|98:103,1,47.5,2|2,0:0|0:0,0:0:0:0:
284,230,137134,2,0,L|292:284,1,47.5,10|2,0:0|0:0,0:0:0:0:
96,288,137282,5,2,0:0:0:0:
82,282,137356,1,2,0:0:0:0:
103,362,137431,6,0,B|178:349|178:349|235:369|235:369|320:355,1,213.750008153916,12|0,0:0|0:0,0:0:0:0:
423,366,137728,5,8,0:0:0:0:
284,230,137876,1,2,0:0:0:0:
279,238,137951,1,2,0:0:0:0:
326,242,138025,1,8,0:0:0:0:
82,282,138173,6,0,L|138:271,1,47.5,2|2,0:0|0:0,0:0:0:0:
442,217,138322,1,8,0:0:0:0:
116,122,138470,1,2,0:0:0:0:
228,209,138619,6,0,L|343:190,1,95,8|2,0:0|0:0,0:0:0:0:
241,311,138938,5,10,0:0:0:0:
218,305,139012,1,2,0:0:0:0:
194,307,139086,1,2,0:0:0:0:
172,316,139160,1,2,0:0:0:0:
131,340,139235,5,10,0:0:0:0:
131,316,139309,1,2,0:0:0:0:
132,292,139383,1,2,0:0:0:0:
133,268,139457,1,2,0:0:0:0:
90,245,139532,5,10,0:0:0:0:
90,221,139606,1,2,0:0:0:0:
89,197,139680,1,2,0:0:0:0:
88,173,139754,1,2,0:0:0:0:
156,124,139829,6,0,B|184:140|184:140|215:120|215:120|292:154|281:90|376:140,1,213.750008153916,12|0,0:0|0:0,0:0:0:0:
313,198,140126,5,8,0:0:0:0:
255,53,140274,1,2,0:0:0:0:
329,204,140423,5,8,0:0:0:0:
265,44,140571,1,2,0:0:0:0:
255,53,140645,1,2,0:0:0:0:
302,44,140720,5,8,0:0:0:0:
406,281,140868,1,2,0:0:0:0:
401,267,140942,1,2,0:0:0:0:
397,253,141017,2,0,L|455:266,1,47.5,2|2,0:0|0:0,0:0:0:0:
184,218,141165,1,8,0:0:0:0:
334,353,141314,5,8,0:0:0:0:
277,124,141462,1,8,0:0:0:0:
238,384,141611,6,0,L|246:327,1,47.5,2|2,0:0|0:0,0:0:0:0:
275,110,141759,1,8,0:0:0:0:
148,308,141908,5,2,0:0:0:0:
272,92,142056,1,2,0:0:0:0:
37,228,142192,6,0,L|12:66,1,142.500005435944,12|2,0:0|0:0,0:0:0:0:
375,247,142487,5,12,0:0:0:0:
51,238,142635,2,0,L|26:76,1,142.500005435944,12|2,0:0|0:0,0:0:0:0:
216,103,142857,1,2,0:0:0:0:
165,50,142930,5,12,0:0:0:0:
148,308,143078,2,0,L|299:314,1,142.500005435944,12|2,0:0|0:0,0:0:0:0:
303,113,143300,1,2,0:0:0:0:
354,166,143374,6,0,L|503:172,1,128.250000489235,12|2,0:0|0:0,0:0:0:0:
474,345,143595,1,2,0:0:0:0:
502,279,143669,5,12,0:0:0:0:
269,269,143817,2,0,L|141:264,1,128.250000489235,12|2,0:0|0:0,0:0:0:0:
148,104,144039,1,2,0:0:0:0:
95,51,144113,5,12,0:0:0:0:
393,63,144260,2,0,L|387:191,1,128.250000489235,12|2,0:0|0:0,0:0:0:0:
379,358,144482,1,2,0:0:0:0:
443,316,144556,6,0,L|281:310,1,113.999996520996,12|2,0:0|0:0,0:0:0:0:
117,294,144852,5,12,0:0:0:0:
455,304,144999,2,0,L|293:298,1,113.999996520996,12|2,0:0|0:0,0:0:0:0:
117,294,145295,5,12,0:0:0:0:
131,10,145443,2,0,L|125:138,1,113.999996520996,12|2,0:0|0:0,0:0:0:0:
305,130,145664,1,2,0:0:0:0:
374,93,145738,6,0,L|365:267,1,170.999994781494,12|2,0:0|0:0,0:0:0:0:
207,257,146034,2,0,L|201:128,1,113.999996520996,12|2,0:0|0:0,0:0:0:0:
382,106,146329,6,0,L|374:273,1,142.5,12|0,0:0|0:0,0:0:0:0:
469,305,146625,5,8,0:0:0:0:
408,274,146698,1,8,0:0:0:0:
340,274,146772,1,8,0:0:0:0:
279,304,146846,1,8,0:0:0:0:
227,350,146921,5,8,0:0:0:0:
238,282,146995,1,8,0:0:0:0:
251,215,147068,5,2,0:0:0:0:
84,275,147216,1,0,0:0:0:0:
209,108,147364,2,0,L|194:246,1,113.999996520996,2|8,0:0|0:0,0:0:0:0:
398,188,147659,5,2,0:0:0:0:
197,92,147807,2,0,L|182:230,1,113.999996520996,8|2,0:0|0:0,0:0:0:0:
461,45,148103,5,8,0:0:0:0:
183,73,148251,1,2,0:0:0:0:
197,92,148325,1,2,0:0:0:0:
214,38,148398,1,8,0:0:0:0:
433,123,148546,5,2,0:0:0:0:
273,142,148694,2,0,L|258:280,1,113.999996520996,8|2,0:0|0:0,0:0:0:0:
214,38,148990,5,8,0:0:0:0:
383,339,149137,1,2,0:0:0:0:
433,123,149285,2,0,L|418:261,1,113.999996520996,8|2,0:0|0:0,0:0:0:0:
273,142,149581,5,8,0:0:0:0:
383,339,149728,2,0,L|264:334,1,113.999996520996,2|8,0:0|0:0,0:0:0:0:
433,123,150024,5,2,0:0:0:0:
371,352,150172,2,0,L|252:347,1,113.999996520996,8|2,0:0|0:0,0:0:0:0:
131,231,150501,6,0,L|307:238,1,142.5,8|0,0:0|0:0,0:0:0:0:
41,228,150810,1,2,0:0:0:0:
41,228,150957,1,0,0:0:0:0:
302,311,151104,6,0,P|352:236|301:164,1,178.125,8|0,0:0|0:0,0:0:0:0:
460,16,151398,5,2,0:0:0:0:
273,237,151545,1,0,0:0:0:0:
456,116,151692,6,0,B|464:170|464:170|451:207|451:207|466:269|429:328,1,213.750008153916,12|0,0:0|0:0,0:0:0:0:
327,82,151986,5,8,0:0:0:0:
273,237,152133,2,0,L|161:243,1,95,2|8,0:0|0:0,0:0:0:0:
53,188,152427,5,2,0:0:0:0:
107,343,152574,2,0,L|219:337,1,95,8|2,0:0|0:0,0:0:0:0:
143,55,152868,5,8,0:0:0:0:
95,358,153015,1,2,0:0:0:0:
107,343,153089,1,2,0:0:0:0:
60,348,153162,1,8,0:0:0:0:
270,257,153310,5,2,0:0:0:0:
296,80,153457,2,0,L|390:79,1,95,8|2,0:0|0:0,0:0:0:0:
143,55,153751,5,8,0:0:0:0:
512,116,153898,1,2,0:0:0:0:
270,257,154045,2,0,L|269:162,1,95,8|2,0:0|0:0,0:0:0:0:
163,259,154339,5,8,0:0:0:0:
371,349,154486,2,0,L|370:254,1,95,2|8,0:0|0:0,0:0:0:0:
436,160,154780,5,2,0:0:0:0:
270,257,154927,1,8,0:0:0:0:
455,334,155074,1,2,0:0:0:0:
459,320,155148,1,2,0:0:0:0:
371,349,155221,6,0,B|332:355|332:355|318:338|318:338|224:376|181:286,1,213.750008153916,12|0,0:0|0:0,0:0:0:0:
88,362,155515,5,8,0:0:0:0:
120,328,155593,1,8,0:0:0:0:
131,282,155671,1,8,0:0:0:0:
117,237,155749,1,8,0:0:0:0:
83,206,155827,5,8,0:0:0:0:
135,228,155905,1,4,0:0:0:0:
191,227,155983,1,4,0:0:0:0:
242,203,156061,1,4,0:0:0:0:
279,159,156139,5,4,0:0:0:0:
305,224,156218,1,4,0:0:0:0:
365,260,156296,1,2,0:0:0:0:
435,250,156374,1,2,0:0:0:0:
483,199,156452,5,2,0:0:0:0:
470,279,156530,1,2,0:0:0:0:
457,359,156608,6,0,L|403:367,3,47.5,6|2|2|2,0:0|0:0|0:0|0:0,0:0:0:0:
376,384,156903,6,0,L|359:239,1,142.500005435944,12|2,0:0|0:0,0:0:0:0:
299,277,157125,1,0,0:0:0:0:
306,288,157199,6,0,L|313:241,1,47.5,2|0,0:0|0:0,0:0:0:0:
330,117,157346,2,0,L|337:70,1,47.5,8|0,0:0|0:0,0:0:0:0:
174,170,157494,5,2,0:0:0:0:
165,167,157567,1,2,0:0:0:0:
156,165,157641,1,8,0:0:0:0:
147,163,157715,1,0,0:0:0:0:
137,161,157790,6,0,L|128:93,1,47.5,2|0,0:0|0:0,0:0:0:0:
162,343,157938,2,0,L|153:275,1,47.5,8|0,0:0|0:0,0:0:0:0:
306,288,158085,5,2,0:0:0:0:
319,293,158159,1,0,0:0:0:0:
331,299,158233,2,0,L|342:192,1,95,8|2,0:0|0:0,0:0:0:0:
383,210,158455,1,0,0:0:0:0:
392,199,158529,6,0,L|454:194,1,47.5,8|0,0:0|0:0,0:0:0:0:
193,38,158676,2,0,L|255:33,1,47.5,2|0,0:0|0:0,0:0:0:0:
376,116,158824,2,0,L|438:111,1,47.5,8|0,0:0|0:0,0:0:0:0:
247,123,158972,5,6,0:0:0:0:
223,124,159046,1,2,0:0:0:0:
199,126,159119,1,2,0:0:0:0:
175,127,159193,1,2,0:0:0:0:
124,191,159268,6,0,L|162:331,1,142.500005435944,12|0,0:0|0:0,0:0:0:0:
104,286,159489,1,0,0:0:0:0:
105,299,159563,6,0,L|27:293,1,54.6250010418892,2|0,0:0|0:0,0:0:0:0:
394,328,159711,2,0,L|312:320,1,54.6250010418892,8|0,0:0|0:0,0:0:0:0:
233,219,159859,5,2,0:0:0:0:
230,195,159932,1,2,0:0:0:0:
228,171,160006,1,8,0:0:0:0:
225,148,160080,1,0,0:0:0:0:
223,124,160154,6,0,L|141:118,1,54.6250010418892,2|0,0:0|0:0,0:0:0:0:
503,149,160302,2,0,L|425:142,1,54.6250010418892,8|0,0:0|0:0,0:0:0:0:
394,328,160450,5,2,0:0:0:0:
383,318,160524,1,0,0:0:0:0:
372,308,160598,2,0,L|257:298,1,109.250002083778,8|2,0:0|0:0,0:0:0:0:
241,348,160819,1,0,0:0:0:0:
233,335,160893,6,0,L|294:328,1,54.6250010418892,8|0,0:0|0:0,0:0:0:0:
210,32,161041,2,0,L|273:26,1,54.6250010418892,2|0,0:0|0:0,0:0:0:0:
324,229,161189,2,0,L|263:224,1,54.6250010418892,8|0,0:0|0:0,0:0:0:0:
172,128,161337,5,6,0:0:0:0:
219,123,161410,1,2,0:0:0:0:
266,119,161484,1,2,0:0:0:0:
313,114,161558,1,2,0:0:0:0:
402,77,161632,6,0,L|371:224,1,142.500005435944,12|0,0:0|0:0,0:0:0:0:
441,211,161854,1,0,0:0:0:0:
451,201,161928,6,0,L|463:274,1,61.7499971733095,2|0,0:0|0:0,0:0:0:0:
325,53,162075,2,0,L|310:126,1,61.7499971733095,8|0,0:0|0:0,0:0:0:0:
329,316,162223,5,2,0:0:0:0:
297,281,162296,1,0,0:0:0:0:
254,261,162370,1,8,0:0:0:0:
207,259,162444,1,0,0:0:0:0:
162,275,162519,6,0,L|202:329,1,61.7499971733095,2|0,0:0|0:0,0:0:0:0:
20,82,162667,2,0,L|58:134,1,61.7499971733095,8|0,0:0|0:0,0:0:0:0:
252,143,162814,5,2,0:0:0:0:
242,127,162888,1,0,0:0:0:0:
232,111,162962,2,0,B|301:120|301:120|373:110,1,123.499994346619,8|2,0:0|0:0,0:0:0:0:
374,212,163258,5,8,0:0:0:0:
287,39,163406,2,0,L|231:33,1,47.5,2|2,0:0|0:0,0:0:0:0:
157,187,163563,6,0,L|282:201,1,95,2|2,0:0|0:0,0:0:0:0:
113,104,163882,5,4,0:0:0:0:
110,100,163956,1,4,0:0:0:0:
107,96,164030,1,4,0:0:0:0:
204,274,164179,1,2,0:0:0:0:
296,115,164327,2,2,L|421:129,1,95,8|2,0:0|0:0,0:0:0:0:
402,101,164550,1,2,0:0:0:0:
395,88,164624,1,2,0:0:0:0:
393,222,164773,6,0,B|262:208|262:208|319:249,1,178.125,8|0,0:0|0:0,0:0:0:0:
495,232,165070,5,8,0:0:0:0:
119,195,165218,2,0,L|178:200,1,59.375,2|2,0:0|0:0,0:0:0:0:
318,361,165367,6,0,B|329:325|311:296|311:296|327:271|327:271|286:211|332:144|388:136,1,249.375002378225,8|0,0:0|0:0,0:0:0:0:
267,18,165664,5,8,0:0:0:0:
468,345,165812,1,8,0:0:0:0:
393,222,165961,5,8,0:0:0:0:
322,215,166035,1,0,0:0:0:0:
251,208,166109,1,2,0:0:0:0:
180,201,166183,1,2,0:0:0:0:
109,194,166258,5,12,0:0:0:0:
107,180,166332,1,0,0:0:0:0:
95,105,166406,5,12,0:0:0:0:
92,90,166480,1,0,0:0:0:0:
79,17,166555,5,2,0:0:0:0:
76,2,166629,1,2,0:0:0:0:
19,60,166703,5,12,0:0:0:0:
17,74,166777,1,0,0:0:0:0:
15,88,166851,1,2,0:0:0:0:
13,102,166926,1,2,0:0:0:0:
32,170,167000,5,2,0:0:0:0:
34,184,167074,1,2,0:0:0:0:
72,244,167149,5,12,0:0:0:0:
128,237,167223,1,0,0:0:0:0:
185,230,167297,1,2,0:0:0:0:
241,223,167371,1,2,0:0:0:0:
298,216,167446,5,12,0:0:0:0:
292,203,167520,1,0,0:0:0:0:
375,242,167594,5,12,0:0:0:0:
369,229,167668,1,0,0:0:0:0:
452,271,167743,5,2,0:0:0:0:
446,258,167817,1,2,0:0:0:0:
390,316,167891,5,12,0:0:0:0:
375,317,167965,1,0,0:0:0:0:
361,318,168039,1,0,0:0:0:0:
347,320,168113,1,2,0:0:0:0:
279,290,168188,5,0,0:0:0:0:
265,288,168262,1,2,0:0:0:0:
197,305,168337,5,12,0:0:0:0:
200,257,168411,1,0,0:0:0:0:
203,210,168485,1,2,0:0:0:0:
207,162,168559,1,2,0:0:0:0:
210,115,168634,5,12,0:0:0:0:
197,121,168708,1,0,0:0:0:0:
286,146,168782,5,12,0:0:0:0:
273,152,168856,1,0,0:0:0:0:
350,190,168931,5,2,0:0:0:0:
337,196,169005,1,2,0:0:0:0:
267,225,169080,5,12,0:0:0:0:
270,240,169154,1,0,0:0:0:0:
272,254,169228,1,2,0:0:0:0:
275,268,169302,1,2,0:0:0:0:
339,293,169377,5,2,0:0:0:0:
342,307,169451,1,2,0:0:0:0:
408,347,169525,5,12,0:0:0:0:
417,310,169599,1,0,0:0:0:0:
427,273,169675,1,2,0:0:0:0:
437,236,169748,1,2,0:0:0:0:
447,200,169822,5,12,0:0:0:0:
434,204,169896,1,0,0:0:0:0:
367,194,169971,5,2,0:0:0:0:
353,197,170045,1,2,0:0:0:0:
281,207,170119,6,0,B|246:220|246:220|215:206|215:206|142:257|75:180,1,213.750008153916,12|0,0:0|0:0,0:0:0:0:
157,132,170416,5,8,0:0:0:0:
221,110,170490,1,8,0:0:0:0:
289,112,170564,1,8,0:0:0:0:
351,140,170638,1,8,0:0:0:0:
405,96,170713,5,8,0:0:0:0:
416,163,170787,1,8,0:0:0:0:
428,233,170862,6,0,B|385:246|385:246|355:226|355:226|312:266|261:252|261:252|279:308,1,213.750008153916,6|0,0:0|0:0,0:0:0:0:
287,162,171159,5,2,0:0:0:0:
263,160,171233,1,0,0:0:0:0:
240,163,171307,1,8,0:0:0:0:
218,173,171381,1,0,0:0:0:0:
199,188,171456,1,2,0:0:0:0:
185,207,171530,1,0,0:0:0:0:
176,229,171604,1,8,0:0:0:0:
173,252,171678,1,0,0:0:0:0:
176,276,171753,1,2,0:0:0:0:
185,298,171827,1,0,0:0:0:0:
198,317,171901,1,8,0:0:0:0:
13,193,172050,5,2,0:0:0:0:
266,251,172198,2,0,L|393:247,1,118.75,8|2,0:0|0:0,0:0:0:0:
279,82,172495,6,0,B|224:79|224:79|176:101|176:101|117:99,1,166.250001585484,12|2,0:0|0:0,0:0:0:0:
241,174,172792,5,8,0:0:0:0:
40,49,172941,1,2,0:0:0:0:
9,260,173089,1,8,0:0:0:0:
157,111,173210,5,2,0:0:0:0:
153,134,173284,1,8,0:0:0:0:
149,157,173358,1,8,0:0:0:0:
146,181,173432,1,8,0:0:0:0:
142,204,173507,5,2,0:0:0:0:
186,192,173581,1,0,0:0:0:0:
219,223,173655,1,8,0:0:0:0:
212,268,173729,1,0,0:0:0:0:
171,287,173804,1,2,0:0:0:0:
138,319,173878,1,0,0:0:0:0:
146,364,173952,1,8,0:0:0:0:
188,383,174026,1,0,0:0:0:0:
227,360,174101,1,2,0:0:0:0:
229,314,174175,1,0,0:0:0:0:
193,286,174249,1,8,0:0:0:0:
149,298,174323,1,0,0:0:0:0:
133,341,174398,5,2,0:0:0:0:
185,334,174472,1,2,0:0:0:0:
237,328,174546,1,2,0:0:0:0:
289,322,174620,1,2,0:0:0:0:
341,315,174695,5,8,0:0:0:0:
284,308,174769,1,0,0:0:0:0:
228,300,174843,1,0,0:0:0:0:
171,293,174917,1,2,0:0:0:0:
115,285,174992,5,8,0:0:0:0:
176,279,175066,1,0,0:0:0:0:
238,272,175140,1,2,0:0:0:0:
299,266,175214,1,2,0:0:0:0:
360,259,175289,6,0,L|419:290,1,47.5,8|0,0:0|0:0,0:0:0:0:
151,152,175437,2,0,L|209:182,1,47.5,8|0,0:0|0:0,0:0:0:0:
360,0,175586,6,0,B|358:50|321:75|321:75|329:97|329:97|273:135|304:211,1,213.750008153916,6|0,0:0|0:0,0:0:0:0:
370,163,175917,5,2,0:0:0:0:
373,186,175990,1,0,0:0:0:0:
369,209,176063,1,8,0:0:0:0:
359,230,176136,1,0,0:0:0:0:
342,248,176209,1,2,0:0:0:0:
332,269,176282,1,0,0:0:0:0:
333,292,176356,1,8,0:0:0:0:
345,312,176428,1,0,0:0:0:0:
365,324,176501,1,2,0:0:0:0:
388,325,176574,1,0,0:0:0:0:
409,315,176648,1,8,0:0:0:0:
296,186,176795,5,2,0:0:0:0:
471,375,176941,2,0,P|493:329|479:267,1,95,8|2,0:0|0:0,0:0:0:0:
364,91,177234,6,0,B|367:148|367:148|376:180|376:180|371:212|371:212|376:304,1,166.250001585484,12|2,0:0|0:0,0:0:0:0:
263,103,177526,5,8,0:0:0:0:
477,178,177673,1,2,0:0:0:0:
282,306,177819,1,8,0:0:0:0:
372,144,177965,5,2,0:0:0:0:
369,166,178038,1,8,0:0:0:0:
367,190,178111,1,8,0:0:0:0:
366,214,178184,1,8,0:0:0:0:
363,237,178258,5,2,0:0:0:0:
325,208,178331,1,0,0:0:0:0:
279,198,178404,1,8,0:0:0:0:
233,209,178477,1,0,0:0:0:0:
196,239,178550,1,2,0:0:0:0:
154,258,178624,1,0,0:0:0:0:
113,237,178697,1,8,0:0:0:0:
103,192,178770,1,0,0:0:0:0:
131,156,178843,1,2,0:0:0:0:
140,111,178916,1,0,0:0:0:0:
112,75,178990,1,8,0:0:0:0:
66,73,179062,1,0,0:0:0:0:
35,107,179135,5,2,0:0:0:0:
82,103,179209,1,0,0:0:0:0:
130,99,179282,1,8,0:0:0:0:
177,95,179355,1,0,0:0:0:0:
225,91,179429,5,8,0:0:0:0:
215,137,179502,1,0,0:0:0:0:
206,184,179575,1,2,0:0:0:0:
197,230,179648,1,2,0:0:0:0:
188,277,179721,5,8,0:0:0:0:
235,273,179795,1,0,0:0:0:0:
283,269,179868,1,2,0:0:0:0:
330,265,179941,1,2,0:0:0:0:
398,299,180014,6,0,L|427:255,3,47.5,8|2|2|2,0:0|0:0|0:0|0:0,0:0:0:0:
467,350,180307,6,0,B|349:332|349:332|222:341,1,213.750008153916,12|0,0:0|0:0,0:0:0:0:
328,383,180616,5,2,0:0:0:0:
337,361,180691,1,0,0:0:0:0:
340,337,180767,1,8,0:0:0:0:
337,314,180843,1,0,0:0:0:0:
327,292,180919,1,2,0:0:0:0:
312,275,180994,1,0,0:0:0:0:
302,253,181070,1,8,0:0:0:0:
299,229,181146,1,0,0:0:0:0:
302,206,181222,1,2,0:0:0:0:
312,184,181298,1,0,0:0:0:0:
327,167,181373,1,8,0:0:0:0:
128,252,181525,5,2,0:0:0:0:
382,231,181676,2,0,L|476:223,1,95,8|2,0:0|0:0,0:0:0:0:
277,99,181979,6,0,B|248:107|225:99|225:99|211:114|211:114|158:89|67:154,1,166.250001585484,12|2,0:0|0:0,0:0:0:0:
186,0,182267,5,8,0:0:0:0:
231,219,182416,1,2,0:0:0:0:
19,150,182566,1,8,0:0:0:0:
151,94,182715,5,2,0:0:0:0:
147,117,182790,1,8,0:0:0:0:
144,140,182864,1,8,0:0:0:0:
141,163,182939,1,8,0:0:0:0:
138,188,183015,5,2,0:0:0:0:
163,148,183089,1,0,0:0:0:0:
204,125,183164,1,8,0:0:0:0:
251,124,183239,1,0,0:0:0:0:
293,145,183314,1,2,0:0:0:0:
328,176,183388,1,0,0:0:0:0:
375,180,183464,1,8,0:0:0:0:
414,155,183538,1,0,0:0:0:0:
431,112,183613,1,2,0:0:0:0:
414,68,183687,1,0,0:0:0:0:
374,45,183762,1,8,0:0:0:0:
328,51,183837,1,0,0:0:0:0:
295,84,183912,5,2,0:0:0:0:
344,96,183987,1,0,0:0:0:0:
377,59,184062,1,8,0:0:0:0:
362,12,184136,1,0,0:0:0:0:
313,2,184211,5,8,0:0:0:0:
327,58,184286,1,0,0:0:0:0:
340,113,184361,1,0,0:0:0:0:
354,168,184436,1,0,0:0:0:0:
367,224,184511,5,8,0:0:0:0:
306,215,184585,1,0,0:0:0:0:
245,206,184660,1,2,0:0:0:0:
184,198,184735,1,2,0:0:0:0:
123,189,184810,6,0,L|135:246,1,47.5,8|0,0:0|0:0,0:0:0:0:
81,0,184960,2,0,L|93:57,1,47.5,8|0,0:0|0:0,0:0:0:0:
393,66,185109,6,0,B|330:97|328:49|269:85|269:85|225:68|179:103,1,213.750008153916,12|0,0:0|0:0,0:0:0:0:
239,162,185430,5,2,0:0:0:0:
261,167,185499,1,0,0:0:0:0:
281,181,185569,1,8,0:0:0:0:
294,201,185639,1,0,0:0:0:0:
299,224,185709,1,2,0:0:0:0:
295,247,185778,1,0,0:0:0:0:
283,268,185848,1,8,0:0:0:0:
274,289,185918,1,0,0:0:0:0:
273,313,185988,1,2,0:0:0:0:
283,335,186057,1,0,0:0:0:0:
299,352,186127,1,8,0:0:0:0:
108,189,186288,5,2,0:0:0:0:
366,279,186436,2,0,P|380:234|366:166,1,95,8|2,0:0|0:0,0:0:0:0:
131,111,186733,6,0,B|131:194|131:194|135:192|135:192|134:284,1,166.250001585484,12|2,0:0|0:0,0:0:0:0:
247,278,186956,1,2,0:0:0:0:
256,291,187030,5,8,0:0:0:0:
23,280,187165,2,0,L|23:191,1,47.5,2|2,0:0|0:0,0:0:0:0:
141,94,187316,1,8,0:0:0:0:
151,322,187468,5,2,0:0:0:0:
147,298,187542,1,8,0:0:0:0:
144,274,187616,1,8,0:0:0:0:
141,251,187690,1,8,0:0:0:0:
138,227,187765,5,2,0:0:0:0:
184,231,187839,1,0,0:0:0:0:
223,206,187913,1,8,0:0:0:0:
239,162,187987,1,0,0:0:0:0:
225,117,188062,1,2,0:0:0:0:
250,78,188136,1,0,0:0:0:0:
295,67,188210,1,8,0:0:0:0:
335,91,188284,1,0,0:0:0:0:
346,136,188359,1,2,0:0:0:0:
323,176,188433,1,0,0:0:0:0:
326,221,188507,1,8,0:0:0:0:
366,243,188581,1,0,0:0:0:0:
405,220,188656,5,2,0:0:0:0:
376,196,188730,1,0,0:0:0:0:
340,201,188804,1,8,0:0:0:0:
318,231,188878,1,0,0:0:0:0:
326,267,188953,1,2,0:0:0:0:
357,287,189027,1,0,0:0:0:0:
368,322,189101,1,8,0:0:0:0:
351,356,189175,1,0,0:0:0:0:
317,369,189250,5,2,0:0:0:0:
276,346,189324,1,8,0:0:0:0:
229,337,189398,1,8,0:0:0:0:
182,343,189472,1,8,0:0:0:0:
140,364,189547,1,8,0:0:0:0:
97,348,189621,1,8,0:0:0:0:
84,304,189695,1,8,0:0:0:0:
110,266,189769,1,8,0:0:0:0:
136,313,189844,5,2,0:0:0:0:
154,291,189918,1,0,0:0:0:0:
158,263,189992,1,8,0:0:0:0:
148,237,190066,1,0,0:0:0:0:
125,220,190141,1,2,0:0:0:0:
110,195,190215,1,2,0:0:0:0:
111,167,190289,1,8,0:0:0:0:
125,143,190363,1,0,0:0:0:0:
150,129,190438,1,2,0:0:0:0:
168,107,190512,1,0,0:0:0:0:
172,79,190586,1,8,0:0:0:0:
162,53,190660,1,0,0:0:0:0:
139,36,190735,1,2,0:0:0:0:
110,36,190809,1,0,0:0:0:0:
87,51,190883,1,8,0:0:0:0:
76,77,190957,1,0,0:0:0:0:
81,104,191032,5,2,0:0:0:0:
97,95,191106,1,0,0:0:0:0:
115,88,191180,1,8,0:0:0:0:
134,84,191254,1,0,0:0:0:0:
153,84,191329,1,2,0:0:0:0:
171,87,191403,1,0,0:0:0:0:
189,94,191477,1,8,0:0:0:0:
205,103,191551,1,0,0:0:0:0:
220,116,191626,5,2,0:0:0:0:
266,103,191700,1,8,0:0:0:0:
311,90,191774,1,8,0:0:0:0:
357,78,191848,1,8,0:0:0:0:
403,65,191923,5,2,0:0:0:0:
400,113,191997,1,8,0:0:0:0:
397,160,192071,1,8,0:0:0:0:
394,207,192145,1,8,0:0:0:0:
391,255,192220,5,2,0:0:0:0:
352,231,192294,1,0,0:0:0:0:
351,185,192368,1,8,0:0:0:0:
387,159,192442,1,0,0:0:0:0:
430,175,192517,1,2,0:0:0:0:
473,158,192591,1,0,0:0:0:0:
487,115,192665,1,8,0:0:0:0:
461,77,192739,1,0,0:0:0:0:
415,74,192814,1,2,0:0:0:0:
384,107,192888,1,0,0:0:0:0:
391,152,192962,1,8,0:0:0:0:
432,178,193037,1,0,0:0:0:0:
454,219,193111,1,2,0:0:0:0:
443,264,193185,1,0,0:0:0:0:
405,291,193259,1,8,0:0:0:0:
359,287,193334,1,0,0:0:0:0:
327,253,193408,5,2,0:0:0:0:
360,236,193482,1,0,0:0:0:0:
395,247,193557,1,8,0:0:0:0:
414,279,193630,1,0,0:0:0:0:
406,315,193705,1,2,0:0:0:0:
375,336,193779,1,0,0:0:0:0:
338,330,193854,1,8,0:0:0:0:
302,318,193928,1,0,0:0:0:0:
265,319,194002,1,2,0:0:0:0:
230,335,194076,1,0,0:0:0:0:
199,356,194151,1,8,0:0:0:0:
161,356,194225,1,0,0:0:0:0:
131,335,194299,1,2,0:0:0:0:
118,299,194374,1,0,0:0:0:0:
128,263,194448,1,8,0:0:0:0:
156,239,194522,1,0,0:0:0:0:
179,298,194596,5,2,0:0:0:0:
132,297,194670,1,8,0:0:0:0:
99,265,194744,1,8,0:0:0:0:
98,219,194818,1,8,0:0:0:0:
129,184,194893,5,2,0:0:0:0:
150,174,194967,1,0,0:0:0:0:
163,155,195041,1,8,0:0:0:0:
165,132,195115,1,0,0:0:0:0:
154,111,195190,1,2,0:0:0:0:
134,98,195264,1,0,0:0:0:0:
111,98,195339,1,8,0:0:0:0:
84,88,195413,1,0,0:0:0:0:
68,65,195487,1,2,0:0:0:0:
68,37,195561,1,0,0:0:0:0:
83,14,195636,1,8,0:0:0:0:
109,3,195710,1,0,0:0:0:0:
136,9,195784,5,2,0:0:0:0:
129,56,195858,1,0,0:0:0:0:
122,103,195932,1,8,0:0:0:0:
115,150,196006,1,0,0:0:0:0:
107,197,196082,5,2,0:0:0:0:
69,162,196156,1,0,0:0:0:0:
92,113,196229,1,8,0:0:0:0:
143,121,196304,1,0,0:0:0:0:
155,172,196378,6,0,L|215:159,1,47.5,2|0,0:0|0:0,0:0:0:0:
422,111,196527,2,0,L|469:101,1,47.5,2|0,0:0|0:0,0:0:0:0:
322,320,196675,6,0,L|368:309,3,47.5,2|0|0|0,0:0|0:0|0:0|0:0,0:0:0:0:
120,348,196972,6,0,L|115:322,1,23.75,2|0,0:0|0:0,0:0:0:0:
199,368,197449,5,0,0:0:0:0:
203,301,197608,1,0,0:0:0:0:
208,235,197767,1,0,0:0:0:0:
20,303,197926,5,2,0:0:0:0:
20,303,198187,6,0,L|45:298,1,23.75,2|0,0:0|0:0,0:0:0:0:
19,186,198653,6,0,L|74:167,1,47.5
137,186,198939,1,0,0:0:0:0:
60,377,199115,5,2,0:0:0:0:
60,377,199347,6,0,L|92:373,1,28.5,2|0,0:0|0:0,0:0:0:0:
176,383,199843,5,0,0:0:0:0:
190,318,199993,1,0,0:0:0:0:
204,253,200143,1,0,0:0:0:0:
378,347,200293,5,2,0:0:0:0:
282,371,200443,5,4,0:0:0:0:
279,366,200505,1,4,0:0:0:0:
276,361,200568,2,0,L|280:341,1,19,2|0,0:0|0:0,0:0:0:0:
378,347,200896,6,0,L|371:308,1,23.75
472,330,201170,5,2,0:0:0:0:
481,264,201333,1,0,0:0:0:0:
283,288,201497,5,2,0:0:0:0:
283,288,201786,5,2,0:0:0:0:
264,289,201854,1,4,0:0:0:0:
245,290,201922,1,4,0:0:0:0:
226,292,201990,1,4,0:0:0:0:
207,293,202058,1,4,0:0:0:0:
188,295,202126,1,4,0:0:0:0:
169,296,202195,5,2,0:0:0:0:
254,377,202331,1,0,0:0:0:0:
227,198,202467,1,0,0:0:0:0:
85,318,202638,2,0,L|80:303,1,14.25,2|0,0:0|0:0,0:0:0:0:
162,272,202934,5,2,0:0:0:0:
177,283,203008,1,4,0:0:0:0:
194,291,203082,1,4,0:0:0:0:
212,296,203156,1,4,0:0:0:0:
231,296,203231,1,4,0:0:0:0:
250,293,203305,1,4,0:0:0:0:
267,286,203379,5,2,0:0:0:0:
199,382,203528,1,0,0:0:0:0:
227,198,203676,1,0,0:0:0:0:
357,306,203825,2,0,L|360:290,1,14.25,2|0,0:0|0:0,0:0:0:0:
446,241,204122,5,0,0:0:0:0:
433,227,204196,1,4,0:0:0:0:
423,211,204270,1,4,0:0:0:0:
416,193,204344,1,4,0:0:0:0:
414,174,204419,1,4,0:0:0:0:
416,155,204493,1,4,0:0:0:0:
421,137,204567,5,2,0:0:0:0:
334,204,204716,1,2,0:0:0:0:
503,176,204864,1,0,0:0:0:0:
406,48,205051,2,0,L|399:45,1,4.75,2|0,0:0|0:0,0:0:0:0:
421,137,205239,5,6,0:0:0:0:
138,181,205470,5,2,0:0:0:0:
134,172,205519,1,2,0:0:0:0:
119,158,205569,2,0,L|65:155,3,47.5,8|8|8|8,0:0|0:0|0:0|0:0,0:0:0:0:
149,265,205890,5,2,0:0:0:0:
167,285,205959,2,0,L|221:282,6,47.5,8|8|8|8|8|8|8,0:0|0:0|0:0|0:0|0:0|0:0|0:0,0:0:0:0:
278,352,206511,5,2,0:0:0:0:
318,326,206584,1,0,0:0:0:0:
364,316,206658,1,8,0:0:0:0:
411,322,206731,1,0,0:0:0:0:
453,344,206805,6,0,L|386:353,1,47.5,6|0,0:0|0:0,0:0:0:0:
436,54,206952,2,0,L|483:47,1,47.5,12|0,0:0|0:0,0:0:0:0:
417,275,207099,6,0,L|464:268,1,47.5,6|0,0:0|0:0,0:0:0:0:
477,122,207246,2,0,L|429:128,1,47.5,12|0,0:0|0:0,0:0:0:0:
422,201,207393,6,0,L|469:194,3,47.5,6|2|8|0,0:0|0:0|0:0|0:0,0:0:0:0:
298,90,207687,5,2,0:0:0:0:
304,132,207761,1,0,0:0:0:0:
311,174,207835,1,8,0:0:0:0:
318,216,207909,1,0,0:0:0:0:
325,258,207984,6,0,L|316:308,1,42.7499986953736,6|0,0:0|0:0,0:0:0:0:
23,320,208132,2,0,L|32:270,1,42.7499986953736,12|0,0:0|0:0,0:0:0:0:
244,305,208281,6,0,L|251:262,1,42.7499986953736,6|0,0:0|0:0,0:0:0:0:
103,274,208429,2,0,L|95:316,1,42.7499986953736,12|0,0:0|0:0,0:0:0:0:
169,310,208578,6,0,L|176:267,3,42.7499986953736,6|2|8|0,0:0|0:0|0:0|0:0,0:0:0:0:
294,343,208875,5,2,0:0:0:0:
289,305,208949,1,0,0:0:0:0:
285,267,209023,1,8,0:0:0:0:
280,229,209097,1,0,0:0:0:0:
276,191,209172,6,0,L|310:134,1,38,6|0,0:0|0:0,0:0:0:0:
32,48,209320,2,0,L|12:80,1,38,12|0,0:0|0:0,0:0:0:0:
230,130,209469,6,0,L|210:162,1,38,6|0,0:0|0:0,0:0:0:0:
82,107,209617,2,0,L|101:74,1,38,12|0,0:0|0:0,0:0:0:0:
165,103,209766,6,0,L|145:135,3,38,6|0|8|0,0:0|0:0|0:0|0:0,0:0:0:0:
109,234,210063,5,8,0:0:0:0:
113,257,210137,1,4,0:0:0:0:
160,258,210211,5,8,0:0:0:0:
164,281,210286,1,4,0:0:0:0:
123,305,210360,6,0,L|76:300,1,28.4999991302491,2|2,0:0|0:0,0:0:0:0:
283,322,210508,2,0,L|236:317,1,28.4999991302491,8|4,0:0|0:0,0:0:0:0:
127,322,210657,6,0,L|90:350,1,38,8|4,0:0|0:0,0:0:0:0:
301,182,210805,2,0,L|257:217,1,38,2|2,0:0|0:0,0:0:0:0:
130,337,210954,6,0,L|124:387,1,47.5,8|0,0:0|0:0,0:0:0:0:
158,76,211102,2,0,L|151:137,1,47.5,2|2,0:0|0:0,0:0:0:0:
83,187,211251,5,2,0:0:0:0:
121,213,211325,1,0,0:0:0:0:
168,216,211399,1,8,0:0:0:0:
211,197,211473,1,0,0:0:0:0:
238,158,211548,6,0,L|286:181,1,47.5,6|0,0:0|0:0,0:0:0:0:
512,289,211696,2,0,L|469:269,1,47.5,12|0,0:0|0:0,0:0:0:0:
261,259,211845,6,0,L|304:279,1,47.5,6|0,0:0|0:0,0:0:0:0:
510,195,211993,2,0,L|466:174,1,47.5,12|0,0:0|0:0,0:0:0:0:
353,214,212142,6,0,L|400:236,3,47.5,6|0|8|0,0:0|0:0|0:0|0:0,0:0:0:0:
373,101,212439,5,2,0:0:0:0:
330,103,212513,1,0,0:0:0:0:
287,105,212587,1,8,0:0:0:0:
244,107,212661,1,0,0:0:0:0:
202,110,212736,6,0,L|220:61,1,42.7499986953736,6|0,0:0|0:0,0:0:0:0:
117,344,212885,2,0,L|134:294,1,42.7499986953736,12|0,0:0|0:0,0:0:0:0:
117,106,213033,6,0,L|102:146,1,42.7499986953736,6|0,0:0|0:0,0:0:0:0:
212,314,213182,2,0,L|229:264,1,42.7499986953736,12|0,0:0|0:0,0:0:0:0:
159,228,213330,6,0,L|176:178,3,42.7499986953736,6|0|8|0,0:0|0:0|0:0|0:0,0:0:0:0:
273,201,213627,5,2,0:0:0:0:
315,198,213701,1,0,0:0:0:0:
352,178,213775,1,8,0:0:0:0:
377,144,213849,1,0,0:0:0:0:
383,102,213924,6,0,L|393:174,1,42.7499986953736,6|0,0:0|0:0,0:0:0:0:
421,377,214073,2,0,L|415:334,1,42.7499986953736,12|0,0:0|0:0,0:0:0:0:
315,171,214221,6,0,L|324:242,1,42.7499986953736,6|0,0:0|0:0,0:0:0:0:
488,317,214370,2,0,L|482:274,1,42.7499986953736,12|0,0:0|0:0,0:0:0:0:
399,219,214518,6,0,L|404:261,3,42.7499986953736,6|0|8|0,0:0|0:0|0:0|0:0,0:0:0:0:
325,314,214832,5,2,0:0:0:0:
314,311,214906,1,2,0:0:0:0:
300,307,214980,1,2,0:0:0:0:
286,303,215054,1,2,0:0:0:0:
266,315,215129,6,0,L|276:347,1,28.4999991302491,8|0,0:0|0:0,0:0:0:0:
222,178,215277,2,0,L|232:210,1,28.4999991302491,2|2,0:0|0:0,0:0:0:0:
277,324,215426,6,0,L|314:343,1,38,8|0,0:0|0:0,0:0:0:0:
78,221,215574,2,0,L|115:240,1,38,2|2,0:0|0:0,0:0:0:0:
287,335,215723,6,0,L|322:376,1,47.5,8|0,0:0|0:0,0:0:0:0:
110,128,215871,2,0,L|145:169,1,47.5,2|2,0:0|0:0,0:0:0:0:
205,237,216020,6,0,P|286:250|372:235,1,142.5,4|0,0:0|0:0,0:0:0:0:
452,266,216314,6,0,L|463:232,3,23.75,12|0|2|0,0:0|0:0|0:0|0:0,0:0:0:0:
397,166,216608,6,0,L|386:132,3,23.75,12|0|2|2,0:0|0:0|0:0|0:0,0:0:0:0:
341,255,216902,6,0,L|315:258,3,23.75,12|0|2|2,0:0|0:0|0:0|0:0,0:0:0:0:
460,278,217196,6,0,L|471:244,3,35.625001358986,12|0|2|0,0:0|0:0|0:0|0:0,0:0:0:0:
405,158,217490,6,0,L|388:106,3,35.625001358986,12|0|2|2,0:0|0:0|0:0|0:0,0:0:0:0:
333,268,217784,6,0,L|294:272,3,35.625001358986,12|0|2|2,0:0|0:0|0:0|0:0,0:0:0:0:
370,367,218078,6,0,L|417:375,3,35.625001358986,12|0|2|2,0:0|0:0|0:0|0:0,0:0:0:0:
467,285,218372,6,0,L|484:237,3,47.5,12|0|2|0,0:0|0:0|0:0|0:0,0:0:0:0:
399,165,218670,6,0,L|380:104,3,47.5,12|0|2|0,0:0|0:0|0:0|0:0,0:0:0:0:
329,277,218969,6,0,L|277:282,3,47.5,12|0|2|2,0:0|0:0|0:0|0:0,0:0:0:0:
363,376,219267,6,0,L|417:384,3,47.5,12|0|2|2,0:0|0:0|0:0|0:0,0:0:0:0:
244,375,219566,6,0,L|173:381,3,59.375,12|0|2|0,0:0|0:0|0:0|0:0,0:0:0:0:
128,300,219864,6,0,P|118:270|116:244,1,47.5,12|0,0:0|0:0,0:0:0:0:
136,292,220013,2,0,P|126:262|124:236,1,47.5,6|2,0:0|0:0,0:0:0:0:
151,145,220163,6,0,P|170:127|196:112,1,35.625001358986,12|0,0:0|0:0,0:0:0:0:
156,155,220312,2,0,P|175:137|201:122,1,35.625001358986,6|2,0:0|0:0,0:0:0:0:
277,96,220461,6,0,P|294:99|309:104,3,23.75,12|0|2|0,0:0|0:0|0:0|0:0,0:0:0:0:
250,243,220760,6,0,L|287:238,3,23.75,12|0|2|0,0:0|0:0|0:0|0:0,0:0:0:0:
159,178,221055,6,0,L|154:141,3,23.75,12|0|2|0,0:0|0:0|0:0|0:0,0:0:0:0:
93,257,221351,6,0,L|69:260,3,23.75,12|0|2|2,0:0|0:0|0:0|0:0,0:0:0:0:
178,312,221646,6,0,L|181:335,3,23.75,12|0|2|0,0:0|0:0|0:0|0:0,0:0:0:0:
257,250,221942,6,0,L|294:245,3,35.625001358986,12|0|2|0,0:0|0:0|0:0|0:0,0:0:0:0:
151,173,222237,6,0,L|146:136,3,35.625001358986,12|0|2|0,0:0|0:0|0:0|0:0,0:0:0:0:
89,268,222533,6,0,L|52:276,3,35.625001358986,12|0|2|2,0:0|0:0|0:0|0:0,0:0:0:0:
185,318,222828,6,0,L|190:361,3,35.625001358986,12|0|2|2,0:0|0:0|0:0|0:0,0:0:0:0:
263,260,223124,6,0,L|311:253,3,47.5,12|0|2|0,0:0|0:0|0:0|0:0,0:0:0:0:
142,166,223419,6,0,L|136:115,3,47.5,12|0|2|0,0:0|0:0|0:0|0:0,0:0:0:0:
84,281,223715,6,0,L|37:292,3,47.5,12|0|2|2,0:0|0:0|0:0|0:0,0:0:0:0:
191,326,224011,6,0,L|197:380,3,47.5,12|0|2|0,0:0|0:0|0:0|0:0,0:0:0:0:
314,266,224306,6,0,L|306:327,3,59.375,12|0|2|0,0:0|0:0|0:0|0:0,0:0:0:0:
201,182,224602,6,0,L|252:177,1,47.5,12|0,0:0|0:0,0:0:0:0:
208,190,224750,2,0,L|259:185,1,47.5,6|2,0:0|0:0,0:0:0:0:
342,168,224897,6,0,L|393:163,1,35.625001358986,12|0,0:0|0:0,0:0:0:0:
349,176,225045,2,0,L|400:171,1,35.625001358986,6|2,0:0|0:0,0:0:0:0:
475,163,225193,6,0,L|515:159,3,23.75,12|0|2|2,0:0|0:0|0:0|0:0,0:0:0:0:
384,66,225489,6,0,L|343:62,3,23.75,12|0|2|0,0:0|0:0|0:0|0:0,0:0:0:0:
268,100,225789,6,0,L|227:104,3,23.75,12|0|2|2,0:0|0:0|0:0|0:0,0:0:0:0:
159,54,226089,6,0,L|118:50,3,23.75,12|0|2|2,0:0|0:0|0:0|0:0,0:0:0:0:
73,124,226389,6,0,L|32:128,3,23.75,12|0|2|0,0:0|0:0|0:0|0:0,0:0:0:0:
150,206,226689,6,0,L|191:202,3,35.625001358986,12|0|2|0,0:0|0:0|0:0|0:0,0:0:0:0:
267,251,226987,6,0,L|308:255,3,35.625001358986,12|0|2|2,0:0|0:0|0:0|0:0,0:0:0:0:
375,194,227286,6,0,L|416:190,3,35.625001358986,12|0|2|2,0:0|0:0|0:0|0:0,0:0:0:0:
461,264,227584,6,0,L|502:268,3,35.625001358986,12|0|2|2,0:0|0:0|0:0|0:0,0:0:0:0:
383,327,227883,6,0,L|330:324,3,47.5,12|0|2|0,0:0|0:0|0:0|0:0,0:0:0:0:
251,370,228181,6,0,L|202:373,3,47.5,12|0|2|2,0:0|0:0|0:0|0:0,0:0:0:0:
139,298,228480,6,0,L|86:293,3,47.5,12|0|2|2,0:0|0:0|0:0|0:0,0:0:0:0:
52,382,228778,6,0,L|4:385,3,47.5,12|0|2|0,0:0|0:0|0:0|0:0,0:0:0:0:
150,289,229077,6,0,L|76:282,3,59.375,12|0|2|0,0:0|0:0|0:0|0:0,0:0:0:0:
253,303,229375,6,0,L|244:255,1,47.5,12|0,0:0|0:0,0:0:0:0:
260,295,229524,2,0,L|251:247,1,47.5,6|2,0:0|0:0,0:0:0:0:
348,269,229674,6,0,L|348:223,1,35.625001358986,12|0,0:0|0:0,0:0:0:0:
356,262,229823,2,0,L|357:217,1,35.625001358986,6|2,0:0|0:0,0:0:0:0:
446,300,229972,6,0,L|453:259,3,23.75,12|0|2|0,0:0|0:0|0:0|0:0,0:0:0:0:
483,157,230249,6,0,L|476:116,3,23.75,12|0|2|0,0:0|0:0|0:0|0:0,0:0:0:0:
381,90,230547,6,0,L|363:52,3,23.75,12|0|2|0,0:0|0:0|0:0|0:0,0:0:0:0:
258,76,230846,6,0,L|231:43,3,23.75,12|0|2|2,0:0|0:0|0:0|0:0,0:0:0:0:
132,80,231144,6,0,L|98:55,3,23.75,12|0|2|0,0:0|0:0|0:0|0:0,0:0:0:0:
470,151,231443,6,0,L|463:110,3,35.625001358986,12|0|2|0,0:0|0:0|0:0|0:0,0:0:0:0:
368,84,231741,6,0,L|350:46,3,35.625001358986,12|0|2|2,0:0|0:0|0:0|0:0,0:0:0:0:
245,70,232040,6,0,L|218:37,3,35.625001358986,12|0|2|2,0:0|0:0|0:0|0:0,0:0:0:0:
119,74,232338,6,0,L|85:49,3,35.625001358986,12|0|2|2,0:0|0:0|0:0|0:0,0:0:0:0:
461,155,232637,6,0,L|452:108,3,47.5,12|0|2|0,0:0|0:0|0:0|0:0,0:0:0:0:
359,88,232932,6,0,L|339:44,3,47.5,12|0|2|0,0:0|0:0|0:0|0:0,0:0:0:0:
236,74,233228,6,0,L|205:37,3,47.5,12|0|2|2,0:0|0:0|0:0|0:0,0:0:0:0:
110,78,233523,6,0,L|69:51,3,47.5,12|0|2|0,0:0|0:0|0:0|0:0,0:0:0:0:
153,246,233819,6,0,L|168:189,3,59.375,12|0|2|0,0:0|0:0|0:0|0:0,0:0:0:0:
250,307,234116,6,0,L|319:325,1,47.5,12|6,0:0|0:0,0:0:0:0:
256,320,234264,2,0,L|325:338,1,47.5,6|4,0:0|0:0,0:0:0:0:
378,246,234413,6,0,L|392:190,1,35.625001358986,12|6,0:0|0:0,0:0:0:0:
388,241,234561,2,0,L|402:185,1,35.625001358986,6|4,0:0|0:0,0:0:0:0:
294,128,234710,6,0,L|255:117,3,23.75,12|6|2|0,0:0|0:0|0:0|0:0,0:0:0:0:
282,223,235007,5,8,0:0:0:0:
282,223,235158,1,2,0:0:0:0:
512,34,235310,1,8,0:0:0:0:
512,34,235461,1,2,0:0:0:0:
461,168,235613,5,4,0:0:0:0:
133,92,235764,1,8,0:0:0:0:
133,92,235916,1,2,0:0:0:0:
294,128,236067,1,4,0:0:0:0:
173,237,236219,5,2,0:0:0:0:
173,237,236370,1,2,0:0:0:0:
413,20,236522,1,8,0:0:0:0:
461,168,236673,1,4,0:0:0:0:
294,128,236825,6,0,L|320:210,1,63.3333333333333,2|2,0:0|0:0,0:0:0:0:
499,23,236976,1,8,0:0:0:0:
461,168,237128,1,4,0:0:0:0:
342,51,237279,1,4,0:0:0:0:
461,168,237431,5,2,0:0:0:0:
461,168,237582,1,4,0:0:0:0:
313,188,237734,1,4,0:0:0:0:
313,188,237885,1,2,0:0:0:0:
501,343,238037,5,4,0:0:0:0:
501,343,238188,1,2,0:0:0:0:
438,70,238340,5,8,0:0:0:0:
501,343,238491,1,8,0:0:0:0:
220,236,238643,2,0,P|303:244|372:208,1,142.5,2|0,0:0|0:0,0:0:0:0:
195,94,238946,5,8,0:0:0:0:
475,203,239097,1,8,0:0:0:0:
438,70,239249,1,2,0:0:0:0:
438,70,239400,1,2,0:0:0:0:
424,326,239552,5,8,0:0:0:0:
475,203,239703,1,2,0:0:0:0:
462,196,239779,1,2,0:0:0:0:
509,190,239855,5,8,0:0:0:0:
509,190,240007,1,2,0:0:0:0:
348,184,240158,1,4,0:0:0:0:
424,326,240310,1,2,0:0:0:0:
312,28,240461,5,8,0:0:0:0:
312,28,240613,1,2,0:0:0:0:
193,137,240764,1,4,0:0:0:0:
348,184,240916,1,2,0:0:0:0:
187,299,241067,5,8,0:0:0:0:
187,299,241219,1,2,0:0:0:0:
193,137,241373,1,4,0:0:0:0:
51,214,241526,2,0,L|114:180,1,47.5,2|2,0:0|0:0,0:0:0:0:
296,361,241679,5,8,0:0:0:0:
296,361,241832,1,2,0:0:0:0:
312,28,241985,5,8,0:0:0:0:
312,28,242138,1,2,0:0:0:0:
470,252,242291,5,8,0:0:0:0:
470,252,242443,1,2,0:0:0:0:
315,205,242595,1,4,0:0:0:0:
434,96,242747,1,2,0:0:0:0:
179,290,242900,5,12,0:0:0:0:
179,290,243052,1,2,0:0:0:0:
322,366,243204,1,4,0:0:0:0:
315,205,243356,2,0,L|318:264,1,47.5,2|2,0:0|0:0,0:0:0:0:
40,291,243509,5,8,0:0:0:0:
478,234,243661,1,4,0:0:0:0:
84,222,243813,1,4,0:0:0:0:
425,291,243966,1,2,0:0:0:0:
122,297,244118,5,8,0:0:0:0:
398,219,244270,2,0,L|340:236,1,47.5,2|2,0:0|0:0,0:0:0:0:
188,190,244422,1,4,0:0:0:0:
332,337,244575,1,4,0:0:0:0:
483,203,244727,5,12,0:0:0:0:
483,203,244877,1,2,0:0:0:0:
328,156,245028,1,4,0:0:0:0:
447,47,245179,1,2,0:0:0:0:
173,109,245330,5,12,0:0:0:0:
173,109,245480,1,2,0:0:0:0:
328,156,245631,1,4,0:0:0:0:
292,0,245782,1,2,0:0:0:0:
209,265,245933,5,12,0:0:0:0:
209,265,246083,1,2,0:0:0:0:
364,312,246234,1,4,0:0:0:0:
328,156,246385,1,2,0:0:0:0:
102,358,246536,5,8,0:0:0:0:
102,358,246686,1,2,0:0:0:0:
483,203,246837,5,8,0:0:0:0:
483,203,246987,1,2,0:0:0:0:
153,53,247139,5,12,0:0:0:0:
153,53,247289,1,2,0:0:0:0:
229,195,247440,1,4,0:0:0:0:
314,60,247591,1,2,0:0:0:0:
68,188,247742,5,12,0:0:0:0:
144,330,247873,2,0,L|202:319,2,47.5,2|2|8,0:0|0:0|0:0,0:0:0:0:
277,366,248194,6,0,P|342:355|425:375,1,142.5,2|0,0:0|0:0,0:0:0:0:
482,286,248495,5,4,0:0:0:0:
67,268,248646,1,4,0:0:0:0:
286,148,248797,1,2,0:0:0:0:
137,314,248947,5,8,0:0:0:0:
482,286,249098,2,0,L|419:294,1,47.5,2|2,0:0|0:0,0:0:0:0:
185,201,249249,1,4,0:0:0:0:
310,363,249400,1,4,0:0:0:0:
379,66,249550,5,12,0:0:0:0:
396,188,249702,1,2,0:0:0:0:
297,25,249854,5,4,0:0:0:0:
295,167,250006,1,2,0:0:0:0:
132,19,250159,5,12,0:0:0:0:
150,179,250311,1,2,0:0:0:0:
219,64,250463,5,4,0:0:0:0:
209,243,250615,1,2,0:0:0:0:
46,65,250768,5,12,0:0:0:0:
74,262,250920,1,2,0:0:0:0:
145,99,251072,5,4,0:0:0:0:
132,318,251225,1,2,0:0:0:0:
435,175,251377,5,12,0:0:0:0:
435,175,251529,1,2,0:0:0:0:
66,164,251681,5,12,0:0:0:0:
66,164,251834,1,2,0:0:0:0:
211,362,251986,5,12,0:0:0:0:
190,240,252136,1,2,0:0:0:0:
290,342,252287,5,4,0:0:0:0:
290,199,252438,1,2,0:0:0:0:
480,369,252589,5,12,0:0:0:0:
456,209,252739,1,2,0:0:0:0:
378,351,252890,5,12,0:0:0:0:
374,170,253041,1,2,0:0:0:0:
58,288,253192,5,8,0:0:0:0:
456,209,253342,1,4,0:0:0:0:
118,222,253493,1,4,0:0:0:0:
382,259,253644,1,2,0:0:0:0:
137,309,253795,5,8,0:0:0:0:
374,170,253945,2,0,L|321:201,1,47.5,2|2,0:0|0:0,0:0:0:0:
254,340,254096,1,4,0:0:0:0:
223,142,254247,1,4,0:0:0:0:
502,229,254398,5,12,0:0:0:0:
380,252,254550,1,2,0:0:0:0:
508,353,254702,5,4,0:0:0:0:
366,338,254854,1,2,0:0:0:0:
374,170,255007,5,12,0:0:0:0:
214,195,255159,1,2,0:0:0:0:
430,103,255311,5,4,0:0:0:0:
249,102,255463,1,2,0:0:0:0:
485,267,255616,5,12,0:0:0:0:
291,313,255768,1,2,0:0:0:0:
434,190,255920,5,4,0:0:0:0:
214,195,256073,1,2,0:0:0:0:
329,29,256225,5,8,0:0:0:0:
329,29,256377,1,2,0:0:0:0:
146,324,256529,5,8,0:0:0:0:
146,324,256681,1,2,0:0:0:0:
70,117,256834,5,12,0:0:0:0:
190,95,256984,1,2,0:0:0:0:
19,194,257135,5,4,0:0:0:0:
161,200,257286,1,2,0:0:0:0:
122,28,257437,5,12,0:0:0:0:
277,69,257587,1,2,0:0:0:0:
70,117,257738,5,8,0:0:0:0:
244,164,257889,6,0,P|230:233|240:335,1,142.5,2|0,0:0|0:0,0:0:0:0:
69,220,258189,5,4,0:0:0:0:
472,262,258340,1,4,0:0:0:0:
277,69,258491,1,2,0:0:0:0:
455,185,258642,5,8,0:0:0:0:
139,255,258792,2,0,L|202:242,1,47.5,2|2,0:0|0:0,0:0:0:0:
315,138,258944,1,4,0:0:0:0:
308,309,259115,1,4,0:0:0:0:
182,100,259286,5,4,0:0:0:0:
252,193,259434,1,2,0:0:0:0:
68,108,259583,2,0,L|62:222,1,95,8|4,0:0|0:0,0:0:0:0:
187,261,259880,2,0,L|193:375,1,95,12|2,0:0|0:0,0:0:0:0:
55,298,260177,5,2,0:0:0:0:
252,193,260325,2,0,P|277:241|266:309,1,95,8|2,0:0|0:0,0:0:0:0:
68,108,260626,2,0,L|74:228,1,95,12|4,0:0|0:0,0:0:0:0:
182,102,260930,1,2,0:0:0:0:
187,261,261083,5,12,0:0:0:0:
314,130,261235,1,2,0:0:0:0:
307,323,261387,1,8,0:0:0:0:
182,102,261539,1,8,0:0:0:0:
187,261,261692,5,4,0:0:0:0:
125,165,261840,1,2,0:0:0:0:
93,354,261989,2,0,L|224:359,1,95,8|0,0:0|0:0,0:0:0:0:
209,176,262286,5,12,0:0:0:0:
7,311,262434,1,2,0:0:0:0:
30,199,262583,1,6,0:0:0:0:
93,354,262731,6,0,L|224:359,1,95,8|0,0:0|0:0,0:0:0:0:
398,334,263037,2,0,L|303:330,1,95,12|4,0:0|0:0,0:0:0:0:
487,384,263353,5,2,0:0:0:0:
244,244,263511,2,0,L|315:246,1,71.2500027179719,8|2,0:0|0:0,0:0:0:0:
195,330,263808,1,8,0:0:0:0:
133,138,263956,1,8,0:0:0:0:
106,333,264105,5,4,0:0:0:0:
244,244,264255,1,2,0:0:0:0:
47,247,264406,2,0,L|13:142,1,95,12|2,0:0|0:0,0:0:0:0:
244,244,264632,1,2,0:0:0:0:
244,244,264708,2,0,L|278:139,1,95,8|2,0:0|0:0,0:0:0:0:
371,249,265009,5,6,0:0:0:0:
200,328,265160,2,0,L|82:334,1,95,8|2,0:0|0:0,0:0:0:0:
333,354,265464,2,0,L|427:349,1,95,12|4,0:0|0:0,0:0:0:0:
371,249,265772,1,4,0:0:0:0:
200,328,265926,5,8,0:0:0:0:
300,159,266080,1,2,0:0:0:0:
333,354,266234,1,8,0:0:0:0:
187,206,266387,1,8,0:0:0:0:
371,249,266525,5,4,0:0:0:0:
333,354,266677,1,2,0:0:0:0:
481,278,266829,2,0,L|476:181,1,95,12|2,0:0|0:0,0:0:0:0:
434,384,267134,5,8,0:0:0:0:
334,162,267286,1,2,0:0:0:0:
296,284,267438,1,6,0:0:0:0:
290,276,267514,1,8,0:0:0:0:
284,268,267590,6,0,L|153:265,1,95,8|2,0:0|0:0,0:0:0:0:
257,73,267818,1,8,0:0:0:0:
257,73,267894,2,0,L|351:75,1,95,8|4,0:0|0:0,0:0:0:0:
176,9,268199,5,2,0:0:0:0:
368,173,268351,2,0,L|293:171,1,71.2500027179719,8|2,0:0|0:0,0:0:0:0:
114,169,268656,2,0,L|96:86,1,71.2500027179719,12|2,0:0|0:0,0:0:0:0:
14,218,268884,1,2,0:0:0:0:
14,218,268960,5,12,0:0:0:0:
192,253,269112,1,2,0:0:0:0:
70,382,269264,2,0,L|94:263,1,95,8|2,0:0|0:0,0:0:0:0:
290,220,269567,2,0,L|266:101,1,95,12|2,0:0|0:0,0:0:0:0:
213,337,269870,5,6,0:0:0:0:
391,282,270021,2,0,L|501:279,1,95,8|2,0:0|0:0,0:0:0:0:
192,253,270324,2,0,L|97:255,1,95,12|6,0:0|0:0,0:0:0:0:
169,153,270627,1,2,0:0:0:0:
131,361,270779,5,8,0:0:0:0:
169,153,270930,1,2,0:0:0:0:
0,277,271082,1,8,0:0:0:0:
275,240,271233,1,8,0:0:0:0:
39,170,271385,5,4,0:0:0:0:
169,153,271535,1,2,0:0:0:0:
0,277,271685,2,0,L|118:293,1,95,8|0,0:0|0:0,0:0:0:0:
329,258,271985,1,12,0:0:0:0:
209,276,272135,1,2,0:0:0:0:
169,153,272285,5,0,0:0:0:0:
245,384,272435,2,0,L|339:371,1,95,8|2,0:0|0:0,0:0:0:0:
471,246,272740,2,0,L|442:156,1,95,12|6,0:0|0:0,0:0:0:0:
453,365,273051,5,2,0:0:0:0:
209,276,273206,2,0,L|292:265,1,71.2500027179719,12|2,0:0|0:0,0:0:0:0:
148,355,273517,1,8,0:0:0:0:
94,229,273673,1,8,0:0:0:0:
279,266,273828,5,4,0:0:0:0:
236,375,273975,1,2,0:0:0:0:
158,172,274122,2,0,L|281:157,1,95,8|4,0:0|0:0,0:0:0:0:
309,307,274416,2,0,L|432:292,1,95,12|2,0:0|0:0,0:0:0:0:
362,188,274710,5,6,0:0:0:0:
305,37,274857,2,0,L|206:51,1,95,8|2,0:0|0:0,0:0:0:0:
276,223,275157,2,0,L|370:209,1,95,12|4,0:0|0:0,0:0:0:0:
337,117,275465,1,4,0:0:0:0:
195,153,275619,5,8,0:0:0:0:
448,93,275773,1,2,0:0:0:0:
276,223,275927,1,8,0:0:0:0:
227,0,276080,1,8,0:0:0:0:
172,260,276234,5,4,0:0:0:0:
195,153,276384,1,2,0:0:0:0:
243,338,276534,2,0,L|351:325,1,95,12|4,0:0|0:0,0:0:0:0:
172,260,276834,5,8,0:0:0:0:
422,232,276984,1,2,0:0:0:0:
357,160,277134,1,4,0:0:0:0:
243,338,277284,6,0,L|287:243,1,95,8|2,0:0|0:0,0:0:0:0:
178,163,277584,2,0,L|163:62,1,95,8|6,0:0|0:0,0:0:0:0:
101,237,277899,5,8,0:0:0:0:
327,252,278049,2,0,L|256:247,1,71.2500027179719,8|2,0:0|0:0,0:0:0:0:
45,324,278349,2,0,L|123:329,1,71.2500027179719,8|2,0:0|0:0,0:0:0:0:
59,121,278647,5,12,0:0:0:0:
101,237,278799,1,2,0:0:0:0:
170,97,278951,5,4,0:0:0:0:
180,238,279103,1,2,0:0:0:0:
339,87,279256,5,12,0:0:0:0:
375,243,279408,1,2,0:0:0:0:
263,109,279560,5,4,0:0:0:0:
259,289,279712,1,2,0:0:0:0:
452,133,279865,5,12,0:0:0:0:
393,323,280013,1,2,0:0:0:0:
375,163,280162,5,4,0:0:0:0:
487,349,280310,1,2,0:0:0:0:
454,48,280459,5,12,0:0:0:0:
454,48,280607,1,2,0:0:0:0:
259,289,280756,5,8,0:0:0:0:
259,289,280904,2,0,L|249:210,1,47.5,2|2,0:0|0:0,0:0:0:0:
228,52,281053,5,12,0:0:0:0:
105,34,281203,1,0,0:0:0:0:
228,52,281353,5,4,0:0:0:0:
100,115,281503,1,2,0:0:0:0:
303,83,281653,5,12,0:0:0:0:
165,167,281803,1,2,0:0:0:0:
303,83,281953,5,4,0:0:0:0:
212,238,282103,2,0,L|271:222,1,47.5,2|2,0:0|0:0,0:0:0:0:
455,192,282253,5,12,0:0:0:0:
62,295,282407,1,4,0:0:0:0:
409,260,282562,1,4,0:0:0:0:
103,226,282716,1,2,0:0:0:0:
375,187,282871,5,8,0:0:0:0:
141,305,283026,2,0,L|172:265,1,47.5,2|2,0:0|0:0,0:0:0:0:
278,131,283180,1,4,0:0:0:0:
255,350,283335,1,4,0:0:0:0:
201,82,283490,5,12,0:0:0:0:
225,202,283642,1,0,0:0:0:0:
278,131,283794,5,4,0:0:0:0:
263,272,283946,1,2,0:0:0:0:
282,37,284099,5,12,0:0:0:0:
347,184,284251,1,2,0:0:0:0:
366,88,284403,5,4,0:0:0:0:
352,267,284555,1,2,0:0:0:0:
409,2,284708,5,12,0:0:0:0:
486,185,284858,1,2,0:0:0:0:
496,75,285008,5,4,0:0:0:0:
455,289,285158,1,2,0:0:0:0:
293,46,285308,5,8,0:0:0:0:
293,46,285458,1,2,0:0:0:0:
230,338,285608,5,8,0:0:0:0:
230,338,285758,1,2,0:0:0:0:
76,235,285908,5,8,0:0:0:0:
199,227,286058,1,2,0:0:0:0:
133,135,286208,5,4,0:0:0:0:
275,144,286358,1,2,0:0:0:0:
148,323,286508,5,8,0:0:0:0:
304,282,286658,1,2,0:0:0:0:
76,235,286808,5,8,0:0:0:0:
331,66,286958,6,0,P|365:136|348:202,1,142.5,2|0,0:0|0:0,0:0:0:0:
512,37,287263,5,4,0:0:0:0:
136,101,287418,1,4,0:0:0:0:
352,194,287573,1,2,0:0:0:0:
191,43,287729,5,8,0:0:0:0:
466,102,287885,2,0,L|403:89,1,47.5,2|2,0:0|0:0,0:0:0:0:
251,204,288040,1,2,0:0:0:0:
318,21,288195,1,4,0:0:0:0:
315,292,288351,5,4,0:0:0:0:
352,194,288499,1,2,0:0:0:0:
149,213,288647,2,0,L|116:123,1,95,8|4,0:0|0:0,0:0:0:0:
199,343,288943,2,0,L|82:355,1,95,12|4,0:0|0:0,0:0:0:0:
315,292,289239,5,4,0:0:0:0:
70,238,289388,2,0,P|70:186|116:136,1,95,8|2,0:0|0:0,0:0:0:0:
278,192,289688,2,0,L|388:178,1,95,12|4,0:0|0:0,0:0:0:0:
315,292,289992,5,2,0:0:0:0:
425,75,290145,5,12,0:0:0:0:
427,279,290297,1,2,0:0:0:0:
319,89,290449,1,8,0:0:0:0:
508,210,290601,1,8,0:0:0:0:
315,292,290754,5,4,0:0:0:0:
358,190,290904,1,2,0:0:0:0:
138,344,291054,2,0,L|254:360,1,95,12|0,0:0|0:0,0:0:0:0:
136,196,291354,5,8,0:0:0:0:
315,292,291504,1,2,0:0:0:0:
358,190,291654,1,6,0:0:0:0:
399,367,291804,6,0,L|502:355,1,95,8|2,0:0|0:0,0:0:0:0:
358,190,292107,2,0,L|257:202,1,95,12|4,0:0|0:0,0:0:0:0:
476,223,292413,5,2,0:0:0:0:
244,300,292566,2,0,L|317:291,1,71.2500027179719,8|2,0:0|0:0,0:0:0:0:
166,376,292872,1,8,0:0:0:0:
112,163,293025,1,8,0:0:0:0:
244,300,293178,5,4,0:0:0:0:
83,286,293331,1,2,0:0:0:0:
219,168,293484,2,0,L|186:56,1,95,12|4,0:0|0:0,0:0:0:0:
26,222,293790,2,0,L|-7:110,1,95,12|4,0:0|0:0,0:0:0:0:
112,163,294084,5,6,0:0:0:0:
327,349,294231,2,0,P|338:307|326:250,1,95,8|2,0:0|0:0,0:0:0:0:
219,168,294530,2,0,P|208:126|220:69,1,95,12|4,0:0|0:0,0:0:0:0:
112,163,294834,1,2,0:0:0:0:
304,119,294987,5,8,0:0:0:0:
128,25,295139,1,2,0:0:0:0:
205,257,295291,1,8,0:0:0:0:
357,42,295443,1,8,0:0:0:0:
288,311,295596,5,6,0:0:0:0:
257,182,295748,1,2,0:0:0:0:
126,379,295900,2,0,L|244:376,1,95,8|0,0:0|0:0,0:0:0:0:
109,253,296205,5,12,0:0:0:0:
401,344,296351,1,2,0:0:0:0:
375,230,296497,1,4,0:0:0:0:
288,311,296631,6,0,L|216:226,1,95,8|4,0:0|0:0,0:0:0:0:
457,174,296957,2,0,P|472:224|452:291,1,95,12|2,0:0|0:0,0:0:0:0:
488,45,297257,5,8,0:0:0:0:
375,230,297407,2,0,P|369:278|376:305,1,71.2500027179719,8|2,0:0|0:0,0:0:0:0:
275,99,297707,2,0,L|194:84,1,71.2500027179719,8|2,0:0|0:0,0:0:0:0:
383,61,298007,6,0,P|435:61|493:42,1,106.875004076958,2|0,0:0|0:0,0:0:0:0:
456,153,298311,5,4,0:0:0:0:
456,153,298463,1,2,0:0:0:0:
275,99,298616,2,0,P|298:149|284:216,1,106.875004076958,12|0,0:0|0:0,0:0:0:0:
331,229,298920,6,0,B|292:219|292:219|242:228,1,71.25,12|0,0:0|0:0,0:0:0:0:
189,165,299225,5,4,0:0:0:0:
193,183,299382,1,2,0:0:0:0:
179,291,299539,5,12,0:0:0:0:
183,309,299696,1,2,0:0:0:0:
306,306,299853,6,0,B|356:317|356:317|402:295|402:295|456:307,1,142.5,6|0,0:0|0:0,0:0:0:0:
346,234,300167,5,6,0:0:0:0:
266,380,300313,2,0,P|227:329|246:250,1,142.5,2|0,0:0|0:0,0:0:0:0:
139,302,300606,5,2,0:0:0:0:
306,306,300752,2,0,B|377:308|377:308|436:255,1,142.5,12|0,0:0|0:0,0:0:0:0:
440,384,301067,5,2,0:0:0:0:
346,234,301209,2,0,L|194:230,1,142.5,2|0,0:0|0:0,0:0:0:0:
266,380,301513,5,8,0:0:0:0:
131,286,301665,6,0,B|117:231|117:231|132:161,1,106.875004076958,6|0,0:0|0:0,0:0:0:0:
27,227,301969,5,8,0:0:0:0:
27,227,302121,1,6,0:0:0:0:
203,230,302274,2,0,L|229:113,1,106.875004076958,6|0,0:0|0:0,0:0:0:0:
200,89,302578,6,0,B|235:106|235:106|277:103,1,71.25,6|0,0:0|0:0,0:0:0:0:
356,66,302873,5,6,0:0:0:0:
352,47,303021,1,2,0:0:0:0:
352,175,303169,5,12,0:0:0:0:
348,156,303317,1,2,0:0:0:0:
459,168,303464,6,0,B|483:272|483:272|439:239,1,142.5,12|0,0:0|0:0,0:0:0:0:
356,66,303760,5,4,0:0:0:0:
428,337,303908,2,0,B|397:315|397:315|287:343,1,142.5,2|0,0:0|0:0,0:0:0:0:
331,254,304203,6,0,L|378:242,1,47.5,2|2,0:0|0:0,0:0:0:0:
219,287,304351,2,0,B|173:275|173:275|126:280|126:280|70:265,1,142.5,12|0,0:0|0:0,0:0:0:0:
166,374,304661,5,6,0:0:0:0:
74,177,304817,2,0,B|136:192|136:192|222:183,1,142.5,2|0,0:0|0:0,0:0:0:0:
79,267,305128,5,8,0:0:0:0:
180,104,305283,2,0,L|286:92,1,106.875004076958,6|0,0:0|0:0,0:0:0:0:
226,2,305594,5,4,0:0:0:0:
226,2,305749,1,2,0:0:0:0:
388,105,305905,2,0,B|359:156|359:156|360:227,1,106.875004076958,12|0,0:0|0:0,0:0:0:0:
345,219,306216,6,0,L|345:144,1,71.25,12|0,0:0|0:0,0:0:0:0:
463,193,306516,5,4,0:0:0:0:
480,185,306666,1,2,0:0:0:0:
414,300,306816,5,12,0:0:0:0:
431,292,306966,1,6,0:0:0:0:
283,285,307116,6,0,B|249:296|249:296|252:144,1,142.5,6|0,0:0|0:0,0:0:0:0:
344,219,307416,5,6,0:0:0:0:
173,183,307566,2,0,B|172:254|172:254|137:273|137:273|139:209,1,142.5,2|0,0:0|0:0,0:0:0:0:
283,285,307866,5,2,0:0:0:0:
70,342,308016,2,0,B|147:355|147:355|216:323,1,142.5,12|0,0:0|0:0,0:0:0:0:
36,261,308320,5,4,0:0:0:0:
284,376,308472,2,0,P|296:309|244:240,1,142.5,2|0,0:0|0:0,0:0:0:0:
379,202,308777,5,8,0:0:0:0:
205,327,308929,2,0,B|152:338|152:338|84:327,1,106.875004076958,6|0,0:0|0:0,0:0:0:0:
149,243,309234,5,8,0:0:0:0:
149,243,309386,1,6,0:0:0:0:
307,133,309538,2,0,P|283:182|298:259,1,106.875004076958,6|0,0:0|0:0,0:0:0:0:
324,205,309843,6,0,B|283:205|283:205|245:179,1,71.25,6|0,0:0|0:0,0:0:0:0:
334,297,310140,5,6,0:0:0:0:
352,292,310288,1,2,0:0:0:0:
424,228,310437,5,12,0:0:0:0:
442,223,310585,1,2,0:0:0:0:
324,205,310734,6,0,B|282:194|282:194|229:218|229:218|180:203,1,142.5,12|0,0:0|0:0,0:0:0:0:
292,292,311031,5,4,0:0:0:0:
221,134,311179,2,0,B|186:122|186:122|300:82,1,142.5,2|0,0:0|0:0,0:0:0:0:
120,79,311476,5,2,0:0:0:0:
339,6,311625,2,0,B|374:68|374:68|357:164,1,142.5,12|0,0:0|0:0,0:0:0:0:
443,18,311951,5,6,0:0:0:0:
285,87,312114,1,8,0:0:0:0:
280,78,312195,1,8,0:0:0:0:
275,69,312277,6,0,B|264:148|264:148|255:146|255:146|234:267,1,178.125,8|0,0:0|0:0,0:0:0:0:
103,106,312603,5,2,0:0:0:0:
103,106,312749,1,0,0:0:0:0:
436,180,312895,5,4,0:0:0:0:
436,180,313041,1,8,0:0:0:0:
275,69,313188,5,4,0:0:0:0:
214,332,313334,2,0,L|227:277,1,47.5,2|2,0:0|0:0,0:0:0:0:
342,310,313481,5,6,0:0:0:0:
103,260,313631,1,0,0:0:0:0:
275,69,313781,1,2,0:0:0:0:
332,324,313931,5,8,0:0:0:0:
93,274,314081,1,4,0:0:0:0:
265,83,314231,2,0,L|223:130,1,47.5,2|2,0:0|0:0,0:0:0:0:
323,191,314381,5,6,0:0:0:0:
147,49,314534,1,2,0:0:0:0:
323,191,314687,5,8,0:0:0:0:
137,148,314840,1,0,0:0:0:0:
323,191,314993,5,6,0:0:0:0:
181,243,315146,1,0,0:0:0:0:
147,49,315299,5,12,0:0:0:0:
40,147,315452,1,0,0:0:0:0:
147,49,315605,5,6,0:0:0:0:
137,148,315758,1,0,0:0:0:0:
147,49,315911,5,6,0:0:0:0:
218,97,316064,1,8,0:0:0:0:
37,248,316217,6,0,B|70:249|84:235|84:235|106:250|106:250|158:229|210:270,1,178.125,6|0,0:0|0:0,0:0:0:0:
143,337,316520,1,2,0:0:0:0:
143,337,316671,1,8,0:0:0:0:
277,181,316823,5,4,0:0:0:0:
272,183,316899,1,0,0:0:0:0:
267,185,316975,1,2,0:0:0:0:
262,187,317051,1,2,0:0:0:0:
227,156,317127,5,6,0:0:0:0:
252,167,317203,1,0,0:0:0:0:
280,172,317279,1,2,0:0:0:0:
309,169,317355,1,0,0:0:0:0:
335,158,317432,5,8,0:0:0:0:
364,143,317508,1,0,0:0:0:0:
396,149,317584,1,0,0:0:0:0:
418,173,317660,1,0,0:0:0:0:
420,206,317736,5,4,0:0:0:0:
395,233,317812,1,0,0:0:0:0:
358,236,317888,1,8,0:0:0:0:
330,212,317964,1,0,0:0:0:0:
327,175,318041,5,6,0:0:0:0:
308,138,318117,1,2,0:0:0:0:
268,127,318193,1,2,0:0:0:0:
233,148,318269,1,0,0:0:0:0:
224,189,318345,5,8,0:0:0:0:
184,212,318421,1,0,0:0:0:0:
139,201,318497,1,0,0:0:0:0:
116,161,318573,1,0,0:0:0:0:
127,116,318650,5,6,0:0:0:0:
173,95,318726,1,0,0:0:0:0:
219,115,318802,1,2,0:0:0:0:
235,163,318878,1,0,0:0:0:0:
210,207,318954,5,12,0:0:0:0:
165,238,319030,1,0,0:0:0:0:
169,292,319106,1,0,0:0:0:0:
218,315,319182,1,0,0:0:0:0:
262,283,319259,5,6,0:0:0:0:
299,330,319335,1,0,0:0:0:0:
359,330,319411,1,0,0:0:0:0:
397,284,319487,1,0,0:0:0:0:
384,226,319564,5,6,0:0:0:0:
429,180,319640,1,0,0:0:0:0:
491,191,319716,1,8,0:0:0:0:
512,249,319792,1,0,0:0:0:0:
482,303,319868,5,6,0:0:0:0:
445,22,320018,1,0,0:0:0:0:
359,330,320168,5,6,0:0:0:0:
445,22,320318,1,8,0:0:0:0:
235,228,320468,5,4,0:0:0:0:
445,22,320618,2,0,L|395:72,1,47.5,2|2,0:0|0:0,0:0:0:0:
194,101,320768,5,6,0:0:0:0:
491,191,320921,1,0,0:0:0:0:
235,228,321074,6,0,B|171:211|171:211|148:227|148:227|61:201,1,178.125,6|0,0:0|0:0,0:0:0:0:
212,328,321380,5,4,0:0:0:0:
129,340,321456,1,0,0:0:0:0:
47,352,321533,1,0,0:0:0:0:
375,292,321686,6,0,L|315:275,1,47.5,6|2,0:0|0:0,0:0:0:0:
146,226,321834,1,2,0:0:0:0:
395,144,321983,5,8,0:0:0:0:
265,147,322131,1,0,0:0:0:0:
375,292,322280,5,6,0:0:0:0:
292,15,322428,1,2,0:0:0:0:
403,154,322577,5,12,0:0:0:0:
273,157,322728,1,0,0:0:0:0:
387,47,322880,5,6,0:0:0:0:
273,157,323031,1,0,0:0:0:0:
292,15,323183,5,6,0:0:0:0:
273,157,323334,1,8,0:0:0:0:
31,97,323486,6,0,B|76:73|110:87|110:87|122:76|122:76|160:100|220:72,1,178.125,6|0,0:0|0:0,0:0:0:0:
82,161,323789,5,6,0:0:0:0:
292,15,323940,1,8,0:0:0:0:
273,157,324092,6,0,B|356:138|356:138|396:155|396:155|343:168,1,178.125,4|0,0:0|0:0,0:0:0:0:
491,71,324395,6,0,B|508:160|508:160|475:268,1,178.125,2|0,0:0|0:0,0:0:0:0:
439,350,324698,5,6,0:0:0:0:
397,155,324849,1,8,0:0:0:0:
482,243,325001,1,4,0:0:0:0:
482,243,325152,1,0,0:0:0:0:
333,357,325304,5,6,0:0:0:0:
491,71,325452,1,0,0:0:0:0:
319,204,325601,5,2,0:0:0:0:
482,243,325749,1,2,0:0:0:0:
327,348,325898,5,12,0:0:0:0:
485,62,326046,1,0,0:0:0:0:
333,357,326195,5,12,0:0:0:0:
381,9,326343,1,0,0:0:0:0:
319,204,326492,5,2,0:0:0:0:
482,243,326649,1,8,0:0:0:0:
478,229,326728,1,8,0:0:0:0:
474,215,326807,5,8,0:0:0:0:
76,187,326965,1,8,0:0:0:0:
333,357,327123,6,0,P|277:351|210:370,1,106.875004076958,6|0,0:0|0:0,0:0:0:0:
251,271,327417,5,4,0:0:0:0:
251,271,327564,1,2,0:0:0:0:
166,138,327711,2,0,B|126:98|126:98|59:83,1,106.875004076958,12|0,0:0|0:0,0:0:0:0:
67,72,328005,6,0,L|146:92,1,71.25,12|0,0:0|0:0,0:0:0:0:
95,192,328315,5,4,0:0:0:0:
82,177,328471,1,2,0:0:0:0:
96,295,328626,5,12,0:0:0:0:
83,280,328782,1,6,0:0:0:0:
186,252,328937,6,0,B|238:233|238:233|285:245|285:245|339:221,1,142.5,6|0,0:0|0:0,0:0:0:0:
241,318,329240,5,4,0:0:0:0:
345,137,329391,2,0,P|388:162|407:265,1,142.5,2|0,0:0|0:0,0:0:0:0:
417,57,329694,5,6,0:0:0:0:
320,229,329846,2,0,B|261:193|261:193|246:113,1,142.5,12|0,0:0|0:0,0:0:0:0:
221,287,330147,5,6,0:0:0:0:
345,137,330298,2,0,L|380:319,1,142.5
247,120,330599,5,8,0:0:0:0:
461,294,330750,2,0,P|435:346|378:368,1,106.875004076958,4|0,0:0|0:0,0:0:0:0:
454,164,331022,5,8,0:0:0:0:
454,164,331198,1,6,0:0:0:0:
371,276,331334,2,0,B|314:267|314:267|240:282,1,106.875004076958,6|0,0:0|0:0,0:0:0:0:
353,283,331654,6,0,B|314:277|314:277|268:286,1,71.25,6|0,0:0|0:0,0:0:0:0:
325,373,331975,5,6,0:0:0:0:
318,355,332117,1,2,0:0:0:0:
212,341,332260,5,12,0:0:0:0:
205,323,332402,1,2,0:0:0:0:
55,323,332546,6,0,P|86:258|41:162,1,142.5,12|0,0:0|0:0,0:0:0:0:
129,367,332849,5,4,0:0:0:0:
98,221,333000,2,0,P|103:148|154:87,1,142.5,2|0,0:0|0:0,0:0:0:0:
0,249,333303,5,6,0:0:0:0:
205,189,333455,2,0,L|359:202,1,142.5,12|0,0:0|0:0,0:0:0:0:
328,320,333796,5,6,0:0:0:0:
194,174,333921,2,0,L|356:156,1,142.5,2|0,0:0|0:0,0:0:0:0:
169,282,334206,5,8,0:0:0:0:
174,87,334387,2,0,B|127:117|127:117|103:179,1,106.875004076958,6|0,0:0|0:0,0:0:0:0:
62,39,334684,5,4,0:0:0:0:
62,39,334832,1,2,0:0:0:0:
195,175,334981,2,0,P|251:163|326:177,1,106.875004076958,12|0,0:0|0:0,0:0:0:0:
215,182,335278,6,0,P|256:175|294:180,1,71.25,12|0,0:0|0:0,0:0:0:0:
263,287,335588,5,4,0:0:0:0:
256,269,335744,1,2,0:0:0:0:
381,326,335899,5,8,0:0:0:0:
374,308,336055,1,2,0:0:0:0:
480,337,336210,6,0,L|499:192,1,142.5,6|0,0:0|0:0,0:0:0:0:
446,76,336511,5,4,0:0:0:0:
472,323,336662,2,0,L|455:144,1,142.5,2|0,0:0|0:0,0:0:0:0:
351,150,336963,5,0,0:0:0:0:
127,252,337114,2,0,P|190:243|281:274,1,142.5,12|0,0:0|0:0,0:0:0:0:
373,296,337416,5,6,0:0:0:0:
145,229,337566,2,0,P|201:227|280:182,1,142.5,2|0,0:0|0:0,0:0:0:0:
204,353,337868,5,8,0:0:0:0:
58,277,338019,6,0,B|48:224|48:224|70:150,1,106.875004076958,6|0,0:0|0:0,0:0:0:0:
18,360,338316,5,8,0:0:0:0:
18,360,338464,1,6,0:0:0:0:
145,229,338613,2,0,B|225:221|225:221|197:255,1,106.875004076958,6|0,0:0|0:0,0:0:0:0:
237,205,338910,6,0,L|166:213,1,71.25,6|0,0:0|0:0,0:0:0:0:
340,153,339217,5,6,0:0:0:0:
331,136,339371,1,2,0:0:0:0:
459,188,339525,5,12,0:0:0:0:
450,171,339679,1,2,0:0:0:0:
493,293,339833,6,0,B|422:301|422:301|387:285|387:285|301:292,1,178.125,12|0,0:0|0:0,0:0:0:0:
365,382,340130,5,4,0:0:0:0:
459,188,340278,1,2,0:0:0:0:
450,171,340352,1,2,0:0:0:0:
440,154,340427,5,8,0:0:0:0:
378,285,340575,1,8,0:0:0:0:
121,192,340724,6,0,B|199:174|199:174|279:179,1,142.5,8|0,0:0|0:0,0:0:0:0:
142,177,341057,6,0,B|198:163|198:163|256:167,1,106.875004076958,8|0,0:0|0:0,0:0:0:0:
160,163,341390,6,0,B|198:154|198:154|237:156,1,71.25,8|0,0:0|0:0,0:0:0:0:
338,94,341690,6,0,L|396:69,1,47.5,4|0,0:0|0:0,0:0:0:0:
381,75,342335,1,2,0:0:0:0:
409,159,342657,6,0,L|472:155,2,47.5,0|0|2,0:0|0:0|0:0,0:0:0:0:
319,241,343625,6,0,P|334:268|337:293,1,47.5,4|0,0:1|0:0,0:0:0:0:
336,284,344270,1,2,0:0:0:0:
201,239,344593,5,0,0:0:0:0:
205,257,344915,1,0,0:0:0:0:
209,275,345238,1,4,0:1:0:0:
84,279,345560,5,4,0:1:0:0:
84,279,345883,2,0,L|67:212,1,47.5,2|0,0:0|0:0,0:0:0:0:
159,172,346528,6,0,L|176:105,2,47.5
257,210,347496,5,0,0:0:0:0:
257,210,347836,2,0,L|319:198,1,47.5,2|0,0:0|0:0,0:0:0:0:
422,197,348486,6,0,L|409:265,1,47.5
319,294,349104,5,4,0:1:0:0:
319,294,349178,1,4,0:1:0:0:
319,294,349252,1,4,0:1:0:0:
319,294,349326,1,4,0:1:0:0:
319,294,349401,6,0,L|251:301,1,47.5,2|0,0:0|0:0,0:0:0:0:
271,298,350098,1,2,0:0:0:0:
164,350,350416,6,0,P|161:326|148:293,2,47.5,0|0|2,0:0|0:0|0:0,0:0:0:0:
59,285,351373,5,4,0:1:0:0:
55,266,351692,1,0,0:0:0:0:
51,247,352011,1,2,0:0:0:0:
142,167,352330,6,0,L|135:223,1,47.5
136,214,352969,1,2,0:0:0:0:
214,288,353288,6,0,L|269:280,1,47.5,4|0,0:1|0:0,0:0:0:0:
261,281,353926,1,2,0:0:0:0:
360,216,354245,5,0,0:0:0:0:
355,263,354564,1,0,0:0:0:0:
351,310,354884,1,2,0:0:0:0:
261,281,355203,5,0,0:0:0:0:
261,281,355545,2,0,L|194:290,1,47.5,0|2,0:0|0:0,0:0:0:0:
136,209,356219,6,0,L|69:218,2,47.5,0|0|2,0:0|0:0|0:0,0:0:0:0:
227,132,357176,5,4,0:1:0:0:
227,132,357520,2,0,L|234:202,1,47.5,2|0,0:0|0:0,0:0:0:0:
326,171,358151,5,0,0:0:0:0:
328,166,358310,1,0,0:0:0:0:
330,161,358470,1,0,0:0:0:0:
186,101,358789,5,4,0:1:0:0:
186,101,359154,2,0,L|180:148,1,47.5,2|4,0:0|0:1,0:0:0:0:
296,62,359762,5,4,0:1:0:0:
296,62,360095,2,0,P|331:68|381:47,1,47.5
449,91,360762,6,0,L|445:106,1,14.25,4|0,0:1|0:0,0:0:0:0:
360,162,361385,5,4,0:1:0:0:
360,162,361704,1,0,0:0:0:0:
292,293,362023,1,2,0:0:0:0:
255,198,362342,5,4,0:1:0:0:
255,198,362661,2,0,L|188:207,1,47.5
118,128,363299,6,0,L|122:141,1,14.25,2|0,0:0|0:0,0:0:0:0:
43,192,363944,5,2,0:0:0:0:
43,192,364266,2,0,L|51:252,1,47.5,0|4,0:0|0:1,0:0:0:0:
135,291,364911,5,0,0:0:0:0:
135,291,365234,2,0,L|192:280,1,47.5,2|0,0:0|0:0,0:0:0:0:
282,313,365879,6,0,L|279:328,1,14.25,4|0,0:1|0:0,0:0:0:0:
379,243,366524,6,0,L|386:301,2,47.5,2|0|0,0:0|0:0|0:0,0:0:0:0:
453,213,367331,1,0,0:0:0:0:
451,206,367492,5,2,0:0:0:0:
382,128,367815,2,0,L|433:119,1,47.5
291,84,368460,6,0,L|282:53,2,23.75,2|0|0,0:0|0:0|0:0,0:0:0:0:
189,115,369105,5,4,0:1:0:0:
189,115,369428,2,0,P|147:123|124:120,1,47.5,2|4,0:0|0:1,0:0:0:0:
78,221,370073,5,0,0:0:0:0:
94,229,370395,1,0,0:0:0:0:
110,237,370718,1,2,0:0:0:0:
109,338,371040,6,0,L|92:342,1,14.25,2|0,0:0|0:0,0:0:0:0:
215,355,371686,6,0,L|230:294,2,47.5,4|0|0,0:1|0:0|0:0,0:0:0:0:
322,273,372653,5,4,0:1:0:0:
322,273,372976,2,0,P|317:233|306:206,1,47.5,2|0,0:0|0:0,0:0:0:0:
384,145,373621,6,0,L|417:140,2,23.75,2|0|0,0:0|0:0|0:0,0:0:0:0:
307,67,374266,5,2,0:0:0:0:
307,67,374655,2,0,L|239:62,1,47.5
152,129,375221,6,0,L|141:79,2,47.5,0|0|2,0:0|0:0|0:0,0:0:0:0:
237,156,376188,6,0,L|282:149,1,23.75
222,84,376574,1,2,0:0:0:0:
355,188,376896,5,2,0:0:0:0:
355,188,377170,6,0,L|346:227,1,38,4|0,0:1|0:0,0:0:0:0:
346,225,381240,5,2,0:0:0:0:
268,154,382018,5,0,0:0:0:0:
193,113,382407,1,0,0:0:0:0:
134,174,382710,2,0,L|148:244,1,71.25
49,234,383832,1,4,0:1:0:0:
49,234,384202,5,4,0:1:0:0:
404,327,385313,5,2,0:0:0:0:
399,318,385683,1,0,0:0:0:0:
330,267,386794,5,2,0:0:0:0:
335,258,387164,1,0,0:0:0:0:
433,182,387936,5,0,0:0:0:0:
365,131,388306,1,0,0:0:0:0:
315,198,388676,2,0,L|234:191,2,63.3333333333333
419,220,390122,6,0,L|407:292,2,71.25,2|0|0,0:0|0:0|0:0,0:0:0:0:
322,305,391567,5,4,0:1:0:0:
322,305,392783,5,2,0:0:0:0:
317,296,393120,1,0,0:0:0:0:
251,255,394214,5,2,0:0:0:0:
256,246,394584,1,0,0:0:0:0:
189,328,395325,6,0,L|129:325,2,47.5
289,357,396605,6,0,P|284:320|299:274,1,71.25
206,237,397520,6,0,L|135:217,2,71.25,2|2|2,0:0|0:0|0:0,0:0:0:0:
301,181,398983,5,2,0:1:0:0:
301,181,399788,6,0,L|290:115,1,47.5
190,83,400519,6,0,P|198:119|189:171,1,71.25
94,205,401617,1,2,0:0:0:0:
94,205,401983,5,2,0:0:0:0:
214,319,403080,5,2,0:0:0:0:
211,309,403446,1,0,0:0:0:0:
392,321,403995,5,0,0:0:0:0:
392,321,404178,1,4,0:1:0:0:
451,217,404544,5,2,0:0:0:0:
451,217,404909,1,4,0:1:0:0:
348,191,405699,6,0,L|327:138,2,47.5,2|0|0,0:0|0:0|0:0,0:0:0:0:
285,272,406995,6,0,P|268:242|227:223,1,71.25
213,118,407921,6,0,L|137:156,1,71.25
74,102,409032,1,2,0:0:0:0:
74,102,409402,5,4,0:1:0:0:
114,266,410513,5,2,0:0:0:0:
111,256,410884,1,4,0:1:0:0:
210,224,411624,6,0,L|212:175,2,47.5
274,297,412904,6,0,P|293:268|330:249,1,71.25
372,342,413819,6,0,P|405:327|452:328,1,71.25
415,232,414916,1,2,0:0:0:0:
415,232,415282,5,4,0:1:0:0:
249,218,416380,5,2,0:0:0:0:
241,212,416785,1,0,0:0:0:0:
135,286,417564,6,0,L|125:350,2,47.5
46,238,418844,6,0,P|78:212|94:176,1,71.25
186,182,419759,6,0,P|172:146|175:107,2,71.25
88,99,421222,5,4,0:1:0:0:
239,42,422320,5,2,0:0:0:0:
244,51,422685,1,0,0:0:0:0:
227,159,423826,6,0,L|292:163,1,47.5
323,104,424751,1,0,0:0:0:0:
323,104,425307,6,0,L|319:161,1,47.5
397,134,426233,1,0,0:0:0:0:
394,239,426788,1,2,0:0:0:0:
394,239,427159,5,4,0:1:0:0:
369,300,428270,5,2,0:0:0:0:
361,294,428640,1,0,0:0:0:0:
361,294,429196,5,4,0:1:0:0:
361,294,429381,1,4,0:1:0:0:
261,263,429751,5,4,0:1:0:0:
252,267,430122,1,4,0:1:0:0:
425,203,430888,6,0,L|358:208,1,47.5
305,119,431628,6,0,P|348:116|386:100,1,71.25
226,68,432739,1,2,0:0:0:0:
226,68,433110,5,4,0:1:0:0:
255,313,434189,5,2,0:0:0:0:
251,304,434559,1,4,0:1:0:0:
335,265,435670,5,2,0:0:0:0:
339,256,436040,1,4,0:1:0:0:
339,256,436842,6,0,L|387:246,1,47.5
327,162,437573,6,0,P|290:173|237:167,2,71.25
166,94,439037,5,2,0:0:0:0:
229,277,439585,1,2,0:0:0:0:
229,277,439707,1,4,0:1:0:0:
60,239,440134,1,2,0:0:0:0:
60,239,440500,5,4,0:1:0:0:
398,281,441598,5,2,0:0:0:0:
393,272,441963,1,0,0:0:0:0:
301,239,443061,5,2,0:0:0:0:
306,230,443426,1,0,0:0:0:0:
252,317,444234,6,0,L|186:326,1,47.5
271,222,444974,6,0,P|312:238|360:236,1,71.25
397,300,446011,5,0,0:0:0:0:
331,140,446390,5,0,0:0:0:0:
212,273,446960,1,2,0:0:0:0:
212,273,447086,1,4,0:1:0:0:
397,300,447529,1,2,0:0:0:0:
397,300,447909,5,4,0:1:0:0:
397,300,448669,6,0,L|324:309,1,47.5
264,228,449400,6,0,P|305:225|342:209,1,71.25
246,324,450498,1,2,0:0:0:0:
246,324,450864,5,2,0:0:0:0:
167,260,452019,5,2,0:0:0:0:
164,251,452384,1,2,0:0:0:0:
336,292,452933,5,2,0:0:0:0:
336,292,453482,2,0,L|326:356,1,47.5,0|4,0:1|0:1,0:1:0:0:
259,272,454579,6,0,L|208:281,1,47.5
265,177,455311,6,0,P|308:190|354:184,2,71.25
183,131,456775,6,0,L|104:139,1,71.25
118,232,457872,1,2,0:0:0:0:
118,232,458238,5,2,0:0:0:0:
121,271,459394,5,2,0:0:0:0:
117,262,459759,1,4,0:1:0:0:
117,262,460491,6,0,L|183:255,1,47.5
267,309,461223,6,0,P|230:320|204:345,2,71.25
353,348,462686,6,0,L|360:273,1,71.25,2|2,0:0|0:0,0:0:0:0:
449,237,463784,1,0,0:0:0:0:
449,237,464150,5,0,0:0:0:0:
296,305,465307,5,2,0:0:0:0:
292,296,465677,1,2,0:0:0:0:
403,295,466418,6,0,L|396:355,1,47.5
489,245,467158,6,0,P|474:208|470:171,2,71.25
375,209,468640,5,0,0:0:0:0:
177,113,469195,1,0,0:0:0:0:
182,304,469751,1,0,0:0:0:0:
182,304,470121,5,4,0:1:0:0:
221,282,471232,5,2,0:0:0:0:
217,273,471603,1,0,0:0:0:0:
305,251,472714,5,2,0:0:0:0:
309,242,473084,2,0,L|238:246,1,71.25
236,149,474195,6,0,L|283:146,1,47.5
257,56,475677,5,2,0:0:0:0:
257,56,476047,2,0,L|344:49,2,71.25
356,137,477529,5,2,0:0:0:0:
359,271,478640,5,2,0:0:0:0:
356,261,479010,1,4,0:1:0:0:
429,293,480121,5,2,0:0:0:0:
432,283,480491,1,4,0:1:0:0:
184,218,481973,6,0,L|109:229,2,71.25
277,237,483455,6,0,P|260:279|260:322,1,71.25,0|4,0:0|0:1,0:0:0:0:
258,304,484129,1,4,0:1:0:0:
258,304,484538,1,2,0:0:0:0:
258,304,484943,6,0,P|305:303|366:315,2,95,2|0|0,0:0|0:0|0:0,0:0:0:0:
322,219,485861,6,0,L|427:202,2,95
355,120,486779,6,0,L|454:87,2,95
257,91,487698,5,0,0:0:0:0:
257,91,488004,1,0,0:0:0:0:
257,91,488310,1,0,0:0:0:0:
108,213,488616,6,0,P|126:254|132:316,2,95,2|0|0,0:0|0:0|0:0,0:0:0:0:
220,245,489534,6,0,L|214:353,2,95
320,312,490453,5,0,0:0:0:0:
320,312,490759,1,0,0:0:0:0:
320,312,491065,1,0,0:0:0:0:
423,236,491371,5,0,0:0:0:0:
432,233,491524,1,0,0:0:0:0:
441,230,491677,2,0,L|331:221,1,95
274,71,492289,6,0,P|327:70|387:50,2,95,2|0|0,0:0|0:0|0:0,0:0:0:0:
174,58,493208,6,0,L|200:186,2,95
88,115,494126,6,0,L|98:245,2,95
184,257,495045,6,0,P|230:240|289:248,2,95
355,81,495963,6,0,L|478:66,2,95,2|0|0,0:0|0:0|0:0,0:0:0:0:
261,45,496881,6,0,P|223:42|152:69,2,95
82,257,497800,6,0,L|52:129,2,95,2|0|0,0:0|0:0|0:0,0:0:0:0:
168,212,498718,5,0,0:0:0:0:
168,212,499024,1,0,0:0:0:0:
168,212,499330,1,0,0:0:0:0:
434,308,499636,6,0,L|300:324,2,95,6|0|0,1:1|0:0|0:0,0:0:0:0:
254,241,500549,6,0,P|308:236|357:203,2,95
147,218,501463,6,0,L|168:338,2,95
59,155,502377,6,0,L|52:277,2,95
347,83,503290,6,0,L|451:73,2,95,6|0|0,1:1|0:0|0:0,0:0:0:0:
302,181,504204,6,0,L|416:192,2,95
213,141,505118,5,0,0:0:0:0:
207,123,505270,1,0,0:0:0:0:
137,201,505422,5,0,0:0:0:0:
143,183,505575,2,0,L|84:187,2,47.5
228,239,506031,5,0,0:0:0:0:
245,232,506184,1,0,0:0:0:0:
309,152,506336,5,0,0:0:0:0:
326,159,506488,2,0,L|339:222,2,47.5
40,236,506945,6,0,L|59:108,2,95,6|0|0,1:1|0:0|0:0,0:0:0:0:
7,343,507861,6,0,P|58:331|131:338,2,95
141,242,508777,5,0,0:0:0:0:
141,242,509082,1,0,0:0:0:0:
141,242,509387,1,0,0:0:0:0:
220,320,509693,6,0,L|347:303,2,95
437,64,510609,6,0,L|429:198,2,95,6|0|0,1:1|0:0|0:0,0:0:0:0:
325,109,511525,6,0,L|339:212,2,95
56,173,512441,5,6,1:1:0:0:
72,163,512593,1,0,0:0:0:0:
155,198,512746,5,0,0:0:0:0:
171,188,512899,2,0,L|164:134,2,47.5
104,292,513357,5,0,0:0:0:0:
101,310,513509,1,0,0:0:0:0:
177,319,513662,5,0,0:0:0:0:
180,337,513815,2,0,L|246:326,2,47.5
321,363,514273,6,0,P|320:291|366:224,1,126.666666666667,6|0,0:0|0:0,0:0:0:0:
349,209,514987,1,0,0:0:0:0:
339,210,515130,1,0,0:0:0:0:
237,222,515415,2,0,L|219:176,2,31.6666666666667
235,361,515948,6,0,P|171:349|88:366,1,126.666666666667,2|0,0:0|0:0,0:0:0:0:
83,343,516597,1,0,0:0:0:0:
90,336,516727,1,0,0:0:0:0:
212,247,516986,1,2,0:0:0:0:
21,259,517246,1,2,0:0:0:0:
235,361,517516,6,0,L|348:363,1,95,2|0,0:0|0:0,0:0:0:0:
341,317,518038,1,0,0:0:0:0:
347,323,518169,1,0,0:0:0:0:
353,330,518300,1,0,0:0:0:0:
448,368,518561,2,0,L|455:338,3,31.6666666666667
416,257,519084,5,2,0:0:0:0:
320,212,519346,1,8,0:0:0:0:
289,218,519476,1,8,0:0:0:0:
257,219,519607,1,8,0:0:0:0:
208,285,519770,6,0,L|237:291,2,15.8333333333333,2|2|8,0:0|0:0|0:0,0:0:0:0:
125,328,520034,1,2,0:0:0:0:
124,324,520100,1,2,0:0:0:0:
123,320,520165,1,8,0:0:0:0:
320,212,520296,1,8,0:0:0:0:
208,285,520450,6,0,L|195:248,1,31.6666666666667,4|4,0:0|0:0,0:0:0:0:
21,125,520720,6,0,L|108:111,1,63.3333333333333,6|2,0:0|0:0,0:0:0:0:
83,114,521114,1,2,0:0:0:0:
203,39,521377,1,2,0:0:0:0:
203,39,521509,2,0,L|196:125,1,79.1666666666667,8|2,0:0|0:0,0:0:0:0:
196,117,521970,2,0,L|240:110,2,31.6666666666667,2|0|0,0:0|0:0|0:0,0:0:0:0:
292,51,522298,5,2,0:0:0:0:
374,181,522562,1,2,0:0:0:0:
368,163,522693,1,2,0:0:0:0:
445,187,522825,2,0,L|437:240,1,31.6666666666667,8|2,0:0|0:0,0:0:0:0:
272,315,523088,2,0,P|317:303|364:309,1,95,8|2,0:0|0:0,0:0:0:0:
363,306,523548,1,2,0:0:0:0:
362,302,523614,1,2,0:0:0:0:
179,270,523746,1,8,0:0:0:0:
433,50,523877,6,0,L|424:125,1,63.3333333333333,6|0,0:0|0:0,0:0:0:0:
386,101,524272,2,0,L|394:176,1,63.3333333333333,2|2,0:0|0:0,0:0:0:0:
255,70,524667,2,0,P|208:86|146:80,1,95,8|2,0:0|0:0,0:0:0:0:
163,84,525193,1,2,0:0:0:0:
33,56,525456,6,0,L|44:142,1,63.3333333333333,2|2,0:0|0:0,0:0:0:0:
41,118,525851,1,2,0:0:0:0:
97,224,525983,2,0,L|102:189,1,31.6666666666667,8|2,0:0|0:0,0:0:0:0:
29,320,526246,2,0,P|74:311|151:324,1,95,8|2,0:0|0:0,0:0:0:0:
122,314,526733,1,2,0:0:0:0:
41,118,526855,1,8,0:0:0:0:
289,71,527035,6,0,L|282:163,1,63.3333333333333,6|0,0:0|0:0,0:0:0:0:
284,134,527414,1,2,0:0:0:0:
424,116,527667,1,2,0:0:0:0:
424,116,527794,2,0,L|411:231,1,95,8|2,0:0|0:0,0:0:0:0:
412,210,528300,1,2,0:0:0:0:
375,331,528553,6,0,P|329:331|297:340,1,63.3333333333333,2|2,0:0|0:0,0:0:0:0:
312,334,528963,1,2,0:0:0:0:
213,245,529100,2,0,L|224:285,1,31.6666666666667,8|2,0:0|0:0,0:0:0:0:
147,372,529374,6,0,P|137:327|99:276,1,95,8|2,0:0|0:0,0:0:0:0:
110,286,529880,1,2,0:0:0:0:
312,334,530006,1,8,0:0:0:0:
140,147,530172,6,0,L|218:139,1,63.3333333333333,6|2,0:0|0:0,0:0:0:0:
206,112,530556,2,0,L|283:113,1,63.3333333333333,2|2,0:0|0:0,0:0:0:0:
373,85,530941,2,0,P|356:146|369:203,1,95,8|2,0:0|0:0,0:0:0:0:
359,176,531454,1,2,0:0:0:0:
440,296,531710,6,0,L|350:304,1,63.3333333333333,2|0,0:0|0:0,0:0:0:0:
376,301,532095,1,2,0:0:0:0:
298,340,532223,2,0,L|312:373,1,31.6666666666667,8|2,0:0|0:0,0:0:0:0:
209,304,532479,2,0,L|93:304,1,95,8|2,0:0|0:0,0:0:0:0:
113,300,532922,1,0,0:0:0:0:
112,296,532985,1,2,0:0:0:0:
62,91,533111,1,8,0:0:0:0:
176,174,533248,6,0,L|251:164,1,63.3333333333333,6|2,0:0|0:0,0:0:0:0:
256,129,533635,2,0,L|330:133,1,63.3333333333333,2|2,0:0|0:0,0:0:0:0:
312,233,534022,2,0,P|300:285|306:328,1,95,8|2,0:0|0:0,0:0:0:0:
305,325,534538,1,2,0:0:0:0:
184,336,534796,6,0,L|116:336,1,63.3333333333333,2|2,0:0|0:0,0:0:0:0:
120,336,535183,1,2,0:0:0:0:
62,269,535312,2,0,L|105:259,1,31.6666666666667,8|2,0:0|0:0,0:0:0:0:
185,145,535570,2,0,L|176:246,1,95,8|2,0:0|0:0,0:0:0:0:
176,239,536086,1,2,0:0:0:0:
16,147,536215,1,8,0:0:0:0:
299,97,536375,6,0,L|294:173,1,63.3333333333333,6|2,0:0|0:0,0:0:0:0:
294,160,536757,1,2,0:0:0:0:
398,148,537011,1,2,0:0:0:0:
398,148,537139,2,0,L|406:240,1,79.1666666666667,8|2,0:0|0:0,0:0:0:0:
404,226,537612,1,2,0:0:0:0:
337,300,537903,6,0,P|302:299|236:311,1,95,2|2,0:0|0:0,0:0:0:0:
164,357,538539,1,2,0:0:0:0:
161,359,538603,1,2,0:0:0:0:
158,361,538667,2,0,L|150:320,2,31.6666666666667,8|0|0,0:0|0:0|0:0,0:0:0:0:
63,315,539049,1,8,0:0:0:0:
63,315,539176,2,0,L|76:275,1,31.6666666666667,2|0,0:0|0:0,0:0:0:0:
138,57,539431,6,0,L|151:127,1,63.3333333333333,6|2,0:0|0:0,0:0:0:0:
242,103,539813,2,0,L|236:173,1,63.3333333333333,8|2,0:0|0:0,0:0:0:0:
238,168,540132,1,2,0:0:0:0:
240,170,540195,1,8,0:0:0:0:
343,113,540450,1,2,0:0:0:0:
148,147,540578,1,8,0:0:0:0:
148,147,540705,1,2,0:0:0:0:
343,113,540832,1,8,0:0:0:0:
82,290,540999,5,6,0:0:0:0:
189,51,541124,1,8,0:0:0:0:
187,48,541186,1,8,0:0:0:0:
185,45,541249,1,8,0:0:0:0:
238,242,541374,1,8,0:0:0:0:
39,166,541499,1,8,0:0:0:0:
343,113,541624,1,2,0:0:0:0:
341,110,541686,1,2,0:0:0:0:
339,107,541749,5,8,0:0:0:0:
166,340,541874,1,8,0:0:0:0:
164,337,541936,1,8,0:0:0:0:
162,334,541999,1,8,0:0:0:0:
141,150,542124,1,8,0:0:0:0:
238,242,542249,1,4,0:0:0:0:
72,266,542374,1,4,0:0:0:0:
404,204,542528,6,0,L|399:273,1,63.3333333333333,6|2,0:0|0:0,0:0:0:0:
439,268,542880,2,0,L|445:333,1,63.3333333333333,2|2,0:0|0:0,0:0:0:0:
336,333,543233,2,0,L|323:300,2,31.6666666666667,8|0|0,0:0|0:0|0:0,0:0:0:0:
220,345,543603,1,8,0:0:0:0:
220,345,543726,2,0,L|179:339,1,31.6666666666667,2|0,0:0|0:0,0:0:0:0:
98,362,543973,6,0,L|86:288,1,63.3333333333333,2|2,0:0|0:0,0:0:0:0:
87,299,544383,1,2,0:0:0:0:
53,92,544591,1,2,0:0:0:0:
53,92,544714,6,0,L|43:48,2,31.6666666666667,8|0|0,0:0|0:0|0:0,0:0:0:0:
15,196,545103,1,8,0:0:0:0:
142,25,545233,1,2,0:0:0:0:
87,299,545363,1,8,0:0:0:0:
237,105,545493,5,6,0:0:0:0:
433,269,545756,2,0,L|473:266,1,31.6666666666667,2|2,0:0|0:0,0:0:0:0:
359,172,546019,1,2,0:0:0:0:
247,350,546282,5,12,0:0:0:0:
213,109,546528,5,2,0:0:0:0:
213,109,546652,1,8,0:0:0:0:
433,269,546775,5,2,0:0:0:0:
433,269,546899,1,8,0:0:0:0:
158,248,547022,5,6,0:0:0:0:
158,248,547151,1,6,0:0:0:0:
363,112,547281,5,0,2:0:0:0:
363,112,547411,1,2,0:0:0:0:
78,67,547541,5,0,2:0:0:0:
78,67,547671,1,2,0:0:0:0:
137,370,547801,5,8,0:0:0:0:
512,105,548060,5,6,0:0:0:0:
512,105,548179,1,8,0:0:0:0:
353,302,548298,5,10,0:0:0:0:
353,302,548417,1,8,0:0:0:0:
137,157,548536,6,0,L|211:152,1,63.3333333333333,6|2,0:0|0:0,0:0:0:0:
227,120,548935,2,0,L|302:124,1,63.3333333333333,0|2,0:0|0:0,0:0:0:0:
290,120,549232,1,2,0:0:0:0:
290,120,549295,2,0,L|277:81,1,31.6666666666667,8|0,0:0|0:0,0:0:0:0:
366,177,549548,1,2,0:0:0:0:
203,230,549674,1,8,0:0:0:0:
445,241,549801,1,2,0:0:0:0:
445,241,550054,6,0,L|412:311,1,63.3333333333333,2|2,0:0|0:0,0:0:0:0:
417,298,550434,1,2,0:0:0:0:
318,356,550687,1,2,0:0:0:0:
318,356,550813,2,0,P|276:353|242:358,1,63.3333333333333,8|2,0:0|0:0,0:0:0:0:
312,213,551193,1,8,0:0:0:0:
312,213,551320,1,10,0:0:0:0:
159,330,551446,1,8,0:0:0:0:
96,64,551568,5,6,0:0:0:0:
316,83,551824,1,2,0:0:0:0:
450,259,552080,1,8,0:0:0:0:
159,330,552337,5,2,0:0:0:0:
159,330,552465,1,2,0:0:0:0:
98,155,552593,5,2,0:0:0:0:
98,155,552721,1,2,0:0:0:0:
293,258,552850,5,10,0:0:0:0:
293,258,552978,1,2,0:0:0:0:
46,281,553106,5,2,0:0:0:0:
46,281,553234,1,2,0:0:0:0:
225,127,553362,5,2,0:0:0:0:
225,127,553490,1,2,0:0:0:0:
90,384,553619,5,2,0:0:0:0:
90,384,553747,1,2,0:0:0:0:
147,50,553875,5,8,0:0:0:0:
152,51,553956,1,2,0:0:0:0:
157,53,554038,1,2,0:0:0:0:
133,91,554120,5,8,0:0:0:0:
128,92,554201,1,2,0:0:0:0:
123,94,554283,1,2,0:0:0:0:
127,137,554366,5,6,0:0:0:0:
222,115,554644,6,0,L|236:221,1,95,6|2,0:0|0:0,0:0:0:0:
356,142,555276,1,2,0:0:0:0:
356,142,555403,2,0,L|349:187,1,31.6666666666667,8|0,0:0|0:0,0:0:0:0:
441,209,555656,1,2,0:0:0:0:
275,303,555783,1,8,0:0:0:0:
275,303,555909,1,2,0:0:0:0:
75,111,556162,6,0,L|82:176,1,63.3333333333333,2|2,0:0|0:0,0:0:0:0:
120,171,556542,2,0,L|112:245,1,63.3333333333333,2|2,0:0|0:0,0:0:0:0:
49,335,556922,2,0,P|87:326|122:333,1,63.3333333333333,8|2,0:0|0:0,0:0:0:0:
75,111,557302,1,8,0:0:0:0:
75,111,557428,1,2,0:0:0:0:
49,335,557555,1,8,0:0:0:0:
385,206,557681,5,6,0:0:0:0:
279,52,557931,5,2,0:0:0:0:
279,52,558056,1,2,0:0:0:0:
322,310,558181,5,2,0:0:0:0:
0,111,558431,5,12,0:0:0:0:
172,250,558681,1,2,0:0:0:0:
389,209,558931,1,2,0:0:0:0:
211,53,559181,5,2,0:0:0:0:
211,53,559306,1,2,0:0:0:0:
172,250,559431,5,0,2:0:0:0:
172,250,559556,1,2,0:0:0:0:
413,132,559681,5,0,2:0:0:0:
413,132,559806,1,2,0:0:0:0:
94,173,559931,5,8,0:0:0:0:
252,327,560181,1,2,0:0:0:0:
473,310,560431,1,2,0:0:0:0:
172,250,560681,6,0,L|163:317,1,63.3333333333333,6|0,0:0|0:0,0:0:0:0:
65,262,561147,1,2,0:0:0:0:
252,327,561316,1,2,0:0:0:0:
250,324,561380,1,2,0:0:0:0:
248,321,561445,1,8,0:0:0:0:
37,136,561705,1,2,0:0:0:0:
37,136,561835,1,8,0:0:0:0:
65,262,561965,1,2,0:0:0:0:
193,138,562199,6,0,L|271:134,1,63.3333333333333,2|2,0:0|0:0,0:0:0:0:
397,150,562584,2,0,P|390:184|396:224,1,63.3333333333333,8|2,0:0|0:0,0:0:0:0:
302,205,562970,2,0,P|309:239|303:279,1,63.3333333333333,8|2,0:0|0:0,0:0:0:0:
335,84,563356,1,8,0:0:0:0:
335,84,563485,1,2,0:0:0:0:
220,241,563742,5,6,0:0:0:0:
422,330,563988,1,2,0:0:0:0:
488,118,564235,1,8,0:0:0:0:
320,284,564482,5,6,0:0:0:0:
320,284,564606,1,2,0:0:0:0:
280,105,564729,5,2,0:0:0:0:
280,105,564853,1,2,0:0:0:0:
229,350,564976,5,12,0:0:0:0:
229,350,565100,1,2,0:0:0:0:
407,189,565223,5,6,0:0:0:0:
407,189,565354,1,2,0:0:0:0:
92,141,565486,5,6,0:0:0:0:
92,141,565617,1,2,0:0:0:0:
506,65,565749,5,2,0:0:0:0:
506,65,565880,1,2,0:0:0:0:
121,282,566013,5,8,0:0:0:0:
195,256,566144,1,2,0:0:0:0:
197,253,566209,1,2,0:0:0:0:
199,250,566275,1,8,0:0:0:0:
184,329,566379,2,0,L|175:352,2,15.8333333333333,2|2|8,0:0|0:0|0:0,0:0:0:0:
0,188,566625,1,8,0:0:0:0:
260,305,566761,6,0,L|331:299,1,63.3333333333333,2|2,0:0|0:0,0:0:0:0:
421,345,567131,1,2,0:0:0:0:
403,277,567254,1,2,0:0:0:0:
422,209,567378,1,2,0:0:0:0:
338,384,567501,5,8,0:0:0:0:
338,384,567760,5,2,0:0:0:0:
337,380,567890,1,2,0:0:0:0:
336,376,568020,1,2,0:0:0:0:
335,372,568150,1,2,0:0:0:0:
76,306,568280,6,0,L|139:307,1,63.3333333333333,6|2,0:0|0:0,0:0:0:0:
215,212,568659,2,0,P|216:250|226:278,1,63.3333333333333,8|2,0:0|0:0,0:0:0:0:
219,271,568976,1,2,0:0:0:0:
214,269,569039,1,8,0:0:0:0:
214,269,569292,5,2,0:0:0:0:
215,271,569419,1,2,0:0:0:0:
216,273,569545,1,2,0:0:0:0:
217,275,569672,1,2,0:0:0:0:
462,130,569794,6,0,L|456:204,1,63.3333333333333,6|8,0:0|0:0,0:0:0:0:
438,48,570183,1,8,0:0:0:0:
469,283,570313,1,8,0:0:0:0:
270,165,570443,1,2,0:0:0:0:
267,161,570508,1,2,0:0:0:0:
264,157,570573,1,8,0:0:0:0:
264,157,570832,1,2,0:0:0:0:
462,130,570962,1,8,0:0:0:0:
462,130,571092,1,2,0:0:0:0:
249,252,571222,1,8,0:0:0:0:
336,37,571352,5,2,0:0:0:0:
233,65,571474,1,8,0:0:0:0:
462,130,571597,1,8,0:0:0:0:
249,252,571720,5,8,0:0:0:0:
336,37,571842,1,8,0:0:0:0:
328,313,571965,1,8,0:0:0:0:
301,135,572088,5,2,0:0:0:0:
337,217,572217,1,8,0:0:0:0:
336,37,572347,1,8,0:0:0:0:
328,313,572477,1,8,0:0:0:0:
301,135,572607,1,2,0:0:0:0:
337,217,572737,1,4,0:0:0:0:
113,211,572870,6,0,L|183:203,1,63.3333333333333,2|2,0:0|0:0,0:0:0:0:
116,123,573270,1,2,0:0:0:0:
116,123,573470,1,2,0:0:0:0:
113,121,573536,1,2,0:0:0:0:
110,119,573603,1,8,0:0:0:0:
494,179,573992,5,8,0:0:0:0:
494,179,574122,1,2,0:0:0:0:
252,55,574382,2,0,L|246:124,2,63.3333333333333,2|0|0,0:0|0:0|0:0,0:0:0:0:
162,81,575031,1,2,0:0:0:0:
159,79,575088,1,2,0:0:0:0:
156,77,575145,2,0,P|161:112|155:150,2,63.3333333333333,8|2|2,0:0|0:0|0:0,0:0:0:0:
83,259,575898,6,0,L|159:249,1,63.3333333333333,2|0,0:0|0:0,0:0:0:0:
127,363,576316,1,2,0:0:0:0:
124,361,576390,1,2,0:0:0:0:
219,314,576539,1,2,0:0:0:0:
221,311,576597,1,2,0:0:0:0:
223,308,576655,2,0,P|254:311|298:300,1,63.3333333333333,8|0,0:0|0:0,0:0:0:0:
401,84,577025,5,8,0:0:0:0:
444,175,577158,1,2,0:0:0:0:
257,51,577291,1,8,0:0:0:0:
73,288,577425,6,0,L|45:190,2,95,6|12|12,0:0|0:0|0:0,0:0:0:0:
188,317,578441,5,6,0:0:0:0:
393,354,578804,1,12,0:0:0:0:
393,354,578986,1,2,0:0:0:0:
475,161,579168,2,0,L|457:203,1,42.75,12|0,0:0|0:0,0:0:0:0:
367,158,580077,5,0,0:0:0:0:
367,158,580243,1,0,0:0:0:0:
367,158,580410,1,0,0:0:0:0:
367,158,580577,1,0,0:0:0:0:
282,227,580711,6,0,L|272:175,1,47.5,6|0,0:0|0:0,0:0:0:0:
184,177,581014,2,0,L|188:115,1,47.5
286,139,581317,1,0,0:0:0:0:
286,139,581468,1,0,0:0:0:0:
229,43,581620,1,0,0:0:0:0:
328,59,581771,1,0,0:0:0:0:
328,59,581847,1,0,0:0:0:0:
328,59,581923,6,0,P|360:63|407:50,3,47.5
444,119,582511,1,0,0:0:0:0:
444,119,582658,1,0,0:0:0:0:
444,119,582805,1,0,0:0:0:0:
444,119,582952,1,0,0:0:0:0:
369,171,583099,6,0,L|381:228,1,47.5,6|0,0:0|0:0,0:0:0:0:
283,211,583405,2,0,L|295:268,3,47.5,2|0|0|0,0:0|0:0|0:0|0:0,0:0:0:0:
195,197,584018,1,0,0:0:0:0:
212,294,584172,1,0,0:0:0:0:
212,294,584248,1,0,0:0:0:0:
212,294,584325,6,0,P|182:290|150:295,2,47.5
89,318,584785,5,4,0:0:0:0:
82,292,584938,1,4,0:0:0:0:
75,266,585091,1,4,0:0:0:0:
157,214,585245,5,8,0:0:0:0:
0,311,585398,1,8,0:0:0:0:
212,294,585551,6,0,L|204:349,1,47.5,6|0,0:0|0:0,0:0:0:0:
309,305,585845,1,2,0:0:0:0:
312,301,585992,1,2,0:0:0:0:
315,298,586139,1,2,0:0:0:0:
436,344,586299,5,0,0:0:0:0:
436,344,586379,1,0,0:0:0:0:
436,344,586459,2,0,L|367:352,1,47.5
411,257,586780,5,2,0:0:0:0:
415,238,586855,1,0,0:0:0:0:
416,219,586931,1,0,0:0:0:0:
415,200,587007,1,0,0:0:0:0:
410,182,587083,1,0,0:0:0:0:
403,164,587158,1,0,0:0:0:0:
425,137,587234,5,2,0:0:0:0:
407,143,587309,1,0,0:0:0:0:
388,148,587385,1,0,0:0:0:0:
369,150,587461,1,0,0:0:0:0:
350,150,587537,1,0,0:0:0:0:
332,148,587612,1,0,0:0:0:0:
313,144,587688,5,2,0:0:0:0:
336,246,587840,1,0,0:0:0:0:
336,246,587916,1,0,0:0:0:0:
336,246,587992,2,0,L|272:253,1,47.5,2|4,0:0|0:0,0:0:0:0:
285,257,588219,1,0,0:0:0:0:
282,263,588295,1,0,0:0:0:0:
345,329,588446,1,4,0:0:0:0:
257,152,588598,5,8,0:0:0:0:
418,311,588749,1,8,0:0:0:0:
192,326,588901,1,8,0:0:0:0:
192,326,589052,1,2,0:0:0:0:
257,152,589204,5,12,0:0:0:0:
295,239,589351,1,4,0:0:0:0:
308,235,589424,1,4,0:0:0:0:
321,231,589498,1,4,0:0:0:0:
183,209,589645,1,4,0:0:0:0:
352,149,589792,1,4,0:0:0:0:
352,149,589939,1,2,0:0:0:0:
277,347,590086,1,8,0:0:0:0:
177,116,590233,1,8,0:0:0:0:
50,328,590380,5,6,0:0:0:0:
125,334,590533,1,2,0:0:0:0:
201,341,590686,1,2,0:0:0:0:
277,347,590839,1,8,0:0:0:0:
122,331,591283,5,2,0:0:0:0:
198,338,591434,1,2,0:0:0:0:
274,344,591586,1,2,0:0:0:0:
274,344,591737,1,8,0:0:0:0:
330,73,591889,5,2,0:0:0:0:
335,148,592040,1,2,0:0:0:0:
341,224,592192,1,8,0:0:0:0:
347,300,592343,1,2,0:0:0:0:
353,376,592495,1,8,0:0:0:0:
350,373,592798,5,6,0:0:0:0:
344,297,592950,1,2,0:0:0:0:
338,221,593101,1,2,0:0:0:0:
332,145,593253,1,8,0:0:0:0:
341,300,593707,5,2,0:0:0:0:
335,224,593858,1,2,0:0:0:0:
329,148,594010,1,2,0:0:0:0:
117,345,594313,5,2,0:0:0:0:
94,262,594467,1,2,0:0:0:0:
117,345,594622,5,12,0:0:0:0:
153,196,594776,1,2,0:0:0:0:
117,345,594931,5,12,0:0:0:0:
367,345,595114,5,6,0:0:0:0:
367,345,595189,1,2,0:0:0:0:
367,345,595265,1,2,0:0:0:0:
376,269,595416,1,2,0:0:0:0:
386,194,595568,1,2,0:0:0:0:
395,118,595719,1,8,0:0:0:0:
373,266,596139,5,2,0:0:0:0:
383,191,596290,1,2,0:0:0:0:
392,115,596442,1,2,0:0:0:0:
392,115,596593,1,8,0:0:0:0:
124,54,596745,5,2,0:0:0:0:
199,49,596896,1,2,0:0:0:0:
275,45,597048,1,8,0:0:0:0:
351,41,597199,1,2,0:0:0:0:
427,36,597351,1,12,0:0:0:0:
424,33,597674,5,6,0:0:0:0:
348,38,597826,1,2,0:0:0:0:
272,42,597977,1,2,0:0:0:0:
196,46,598129,1,8,0:0:0:0:
345,41,598568,5,2,0:0:0:0:
269,45,598719,1,2,0:0:0:0:
193,49,598871,1,2,0:0:0:0:
193,49,599022,1,8,0:0:0:0:
149,297,599174,5,2,0:0:0:0:
117,217,599325,1,2,0:0:0:0:
149,297,599477,5,8,0:0:0:0:
194,152,599628,1,2,0:0:0:0:
194,152,599704,1,2,0:0:0:0:
194,152,599780,5,8,0:0:0:0:
451,244,600099,5,2,0:0:0:0:
297,219,600256,1,0,0:0:0:0:
297,219,600414,1,2,0:0:0:0:
463,144,600572,1,8,0:0:0:0:
441,329,600730,1,0,0:0:0:0:
346,334,600874,6,0,L|342:303,1,23.75,2|2,0:0|0:0,0:0:0:0:
327,125,601018,1,8,0:0:0:0:
258,355,601162,2,0,L|266:327,1,23.75,2|2,0:0|0:0,0:0:0:0:
319,134,601306,5,8,0:0:0:0:
451,244,601454,5,0,0:0:0:0:
451,244,601603,1,2,0:0:0:0:
178,242,601751,1,8,0:0:0:0:
327,125,601900,1,0,0:0:0:0:
327,125,602048,1,2,0:0:0:0:
222,340,602197,5,8,0:0:0:0:
190,91,602345,2,0,L|194:124,1,23.75,2|2,0:0|0:0,0:0:0:0:
229,350,602494,5,8,0:0:0:0:
90,247,602645,1,0,0:0:0:0:
90,247,602797,1,2,0:0:0:0:
327,125,602948,1,8,0:0:0:0:
190,91,603100,1,0,0:0:0:0:
190,91,603251,6,0,L|194:122,1,23.75,2|2,0:0|0:0,0:0:0:0:
229,350,603403,1,8,0:0:0:0:
327,125,603554,1,2,0:0:0:0:
223,359,603706,5,8,0:0:0:0:
377,256,603857,1,2,0:0:0:0:
377,256,604009,1,8,0:0:0:0:
204,196,604160,1,2,0:0:0:0:
338,379,604312,1,8,0:0:0:0:
338,379,604463,1,2,0:0:0:0:
327,125,604615,5,8,0:0:0:0:
223,359,604766,2,0,L|236:329,1,23.75,2|2,0:0|0:0,0:0:0:0:
127,237,604918,5,8,0:0:0:0:
118,209,604994,1,0,0:0:0:0:
119,181,605071,1,2,0:0:0:0:
128,154,605148,1,0,0:0:0:0:
146,132,605225,1,8,0:0:0:0:
169,116,605302,1,0,0:0:0:0:
139,88,605379,5,2,0:0:0:0:
161,104,605455,1,0,0:0:0:0:
187,116,605532,1,8,0:0:0:0:
215,120,605609,1,0,0:0:0:0:
244,118,605686,1,2,0:0:0:0:
271,110,605763,1,0,0:0:0:0:
295,95,605841,6,0,L|293:63,1,23.75,8|0,0:0|0:0,0:0:0:0:
303,227,605994,2,0,L|301:195,1,23.75,2|0,0:0|0:0,0:0:0:0:
416,152,606148,5,8,0:0:0:0:
404,178,606223,1,0,0:0:0:0:
397,205,606299,1,2,0:0:0:0:
396,234,606375,1,0,0:0:0:0:
400,262,606451,1,8,0:0:0:0:
409,289,606526,1,0,0:0:0:0:
445,256,606602,5,2,0:0:0:0:
420,242,606677,1,0,0:0:0:0:
392,244,606753,1,8,0:0:0:0:
369,261,606829,1,0,0:0:0:0:
360,288,606905,1,2,0:0:0:0:
366,315,606980,1,0,0:0:0:0:
386,335,607057,6,0,L|421:329,1,23.75,8|0,0:0|0:0,0:0:0:0:
246,359,607208,2,0,L|280:352,1,23.75,2|2,0:0|0:0,0:0:0:0:
303,262,607360,5,8,0:0:0:0:
331,242,607435,1,0,0:0:0:0:
348,211,607511,1,2,0:0:0:0:
348,176,607587,1,0,0:0:0:0:
331,145,607663,1,8,0:0:0:0:
301,125,607738,1,0,0:0:0:0:
329,91,607814,5,2,0:0:0:0:
327,126,607889,1,0,0:0:0:0:
325,162,607965,1,8,0:0:0:0:
323,197,608041,1,0,0:0:0:0:
321,233,608117,1,2,0:0:0:0:
319,268,608192,1,0,0:0:0:0:
317,304,608269,6,0,L|361:296,1,35.625001358986,8|0,0:0|0:0,0:0:0:0:
147,335,608420,2,0,L|191:327,1,35.625001358986,2|0,0:0|0:0,0:0:0:0:
227,227,608572,5,8,0:0:0:0:
186,238,608647,1,0,0:0:0:0:
146,224,608723,1,2,0:0:0:0:
122,190,608799,1,0,0:0:0:0:
121,148,608875,1,8,0:0:0:0:
145,113,608950,1,0,0:0:0:0:
106,83,609026,5,2,0:0:0:0:
94,122,609101,1,2,0:0:0:0:
116,158,609177,1,8,0:0:0:0:
157,165,609253,1,0,0:0:0:0:
189,140,609329,5,8,0:0:0:0:
241,116,609404,1,8,0:0:0:0:
296,124,609480,1,8,0:0:0:0:
340,159,609556,1,8,0:0:0:0:
394,171,609632,1,8,0:0:0:0:
448,154,609708,1,8,0:0:0:0:
483,110,609784,5,6,0:0:0:0:
438,124,609860,1,0,0:0:0:0:
409,161,609935,1,8,0:0:0:0:
405,208,610011,1,0,0:0:0:0:
426,249,610087,1,2,0:0:0:0:
415,296,610163,1,2,0:0:0:0:
376,322,610238,5,8,0:0:0:0:
331,307,610313,1,0,0:0:0:0:
283,309,610389,1,2,0:0:0:0:
240,328,610465,1,0,0:0:0:0:
195,321,610541,1,8,0:0:0:0:
175,280,610617,1,0,0:0:0:0:
198,241,610693,6,0,L|138:247,1,47.5,2|2,0:0|0:0,0:0:0:0:
412,221,610844,2,0,L|351:226,1,47.5,8|0,0:0|0:0,0:0:0:0:
276,142,610996,5,2,0:0:0:0:
229,145,611071,1,0,0:0:0:0:
194,115,611147,1,8,0:0:0:0:
191,69,611223,1,0,0:0:0:0:
221,34,611299,1,2,0:0:0:0:
267,30,611374,1,2,0:0:0:0:
302,61,611451,5,8,0:0:0:0:
261,83,611526,1,0,0:0:0:0:
214,85,611602,1,2,0:0:0:0:
171,65,611678,1,0,0:0:0:0:
128,81,611754,1,8,0:0:0:0:
118,125,611829,1,0,0:0:0:0:
149,158,611905,6,0,L|64:137,1,47.5,2|2,0:0|0:0,0:0:0:0:
390,213,612057,2,0,L|316:196,1,47.5,8|0,0:0|0:0,0:0:0:0:
163,268,612208,5,6,0:0:0:0:
211,258,612285,1,0,0:0:0:0:
252,285,612362,1,8,0:0:0:0:
263,333,612439,1,0,0:0:0:0:
297,369,612516,1,2,0:0:0:0:
347,370,612593,1,2,0:0:0:0:
384,337,612670,5,8,0:0:0:0:
346,304,612748,1,0,0:0:0:0:
296,298,612825,1,2,0:0:0:0:
252,323,612902,1,0,0:0:0:0:
203,327,612981,1,8,0:0:0:0:
158,304,613058,1,0,0:0:0:0:
135,259,613135,6,0,L|121:320,1,49.8749984779358,2|2,0:0|0:0,0:0:0:0:
185,50,613290,2,0,L|171:110,1,49.8749984779358,8|0,0:0|0:0,0:0:0:0:
226,232,613445,5,2,0:0:0:0:
270,210,613520,1,0,0:0:0:0:
318,220,613595,1,8,0:0:0:0:
351,256,613670,1,0,0:0:0:0:
355,305,613745,1,2,0:0:0:0:
394,337,613820,1,2,0:0:0:0:
443,327,613895,5,8,0:0:0:0:
402,299,613970,1,0,0:0:0:0:
353,292,614045,1,2,0:0:0:0:
306,309,614120,1,0,0:0:0:0:
272,346,614195,1,8,0:0:0:0:
223,351,614270,1,0,0:0:0:0:
179,326,614345,6,0,L|186:376,1,49.8749984779358,2|0,0:0|0:0,0:0:0:0:
139,81,614495,2,0,L|146:131,1,49.8749984779358,2|2,0:0|0:0,0:0:0:0:
84,303,614645,5,6,0:0:0:0:
111,256,614720,1,0,0:0:0:0:
158,232,614795,1,8,0:0:0:0:
209,235,614870,1,0,0:0:0:0:
254,263,614945,1,2,0:0:0:0:
307,263,615020,1,2,0:0:0:0:
349,230,615095,5,8,0:0:0:0:
328,277,615170,1,0,0:0:0:0:
279,295,615245,1,2,0:0:0:0:
232,272,615320,1,0,0:0:0:0:
215,223,615395,1,8,0:0:0:0:
239,177,615470,1,0,0:0:0:0:
289,162,615545,6,0,B|307:149|307:149|279:113,1,52.2500015945435,2|2,0:0|0:0,0:0:0:0:
63,269,615695,2,0,B|44:255|44:255|72:219,1,52.2500015945435,8|0,0:0|0:0,0:0:0:0:
201,96,615845,5,2,0:0:0:0:
230,52,615920,1,0,0:0:0:0:
279,32,615995,1,8,0:0:0:0:
330,42,616070,1,0,0:0:0:0:
368,78,616145,1,2,0:0:0:0:
420,88,616220,1,2,0:0:0:0:
466,63,616295,5,8,0:0:0:0:
415,74,616370,1,0,0:0:0:0:
382,114,616445,1,2,0:0:0:0:
379,166,616520,1,0,0:0:0:0:
407,210,616595,1,8,0:0:0:0:
393,261,616670,1,0,0:0:0:0:
345,282,616745,6,0,L|429:298,1,52.2500015945435,2|2,0:0|0:0,0:0:0:0:
93,233,616895,2,0,L|177:249,1,52.2500015945435,2|0,0:0|0:0,0:0:0:0:
283,336,617045,5,6,0:0:0:0:
258,287,617121,1,0,0:0:0:0:
269,235,617198,1,8,0:0:0:0:
313,203,617274,1,0,0:0:0:0:
337,155,617351,1,2,0:0:0:0:
325,103,617428,1,2,0:0:0:0:
282,71,617504,5,8,0:0:0:0:
333,82,617580,1,0,0:0:0:0:
363,127,617657,1,2,0:0:0:0:
354,179,617733,1,0,0:0:0:0:
311,211,617810,1,8,0:0:0:0:
258,204,617886,1,0,0:0:0:0:
224,162,617963,6,0,B|246:169|246:169|243:121,1,54.6250010418892,2|2,0:0|0:0,0:0:0:0:
458,279,618116,2,0,B|435:285|435:285|438:238,1,54.6250010418892,8|0,0:0|0:0,0:0:0:0:
275,339,618269,5,2,0:0:0:0:
227,309,618345,1,0,0:0:0:0:
174,302,618422,1,8,0:0:0:0:
122,316,618498,1,0,0:0:0:0:
70,305,618575,1,2,0:0:0:0:
58,255,618652,1,0,0:0:0:0:
97,220,618728,5,8,0:0:0:0:
64,178,618804,1,0,0:0:0:0:
80,129,618881,1,2,0:0:0:0:
131,116,618957,1,0,0:0:0:0:
170,153,619034,1,8,0:0:0:0:
224,162,619111,1,0,0:0:0:0:
275,142,619187,2,0,L|262:82,1,54.6250010418892,2|2,0:0|0:0,0:0:0:0:
315,363,619340,2,0,L|302:303,1,54.6250010418892,2|2,0:0|0:0,0:0:0:0:
402,112,619493,5,6,0:0:0:0:
381,154,619568,1,0,0:0:0:0:
385,200,619644,1,0,0:0:0:0:
413,238,619720,1,0,0:0:0:0:
413,285,619795,1,2,0:0:0:0:
382,319,619871,1,0,0:0:0:0:
336,325,619947,5,8,0:0:0:0:
372,296,620022,1,0,0:0:0:0:
379,251,620098,1,2,0:0:0:0:
352,213,620174,1,0,0:0:0:0:
307,205,620250,1,8,0:0:0:0:
276,169,620326,1,0,0:0:0:0:
287,122,620402,6,0,L|347:110,1,47.5,2|2,0:0|0:0,0:0:0:0:
46,171,620553,2,0,L|106:159,1,47.5,8|0,0:0|0:0,0:0:0:0:
276,241,620705,5,2,0:0:0:0:
230,229,620780,1,0,0:0:0:0:
183,237,620855,1,8,0:0:0:0:
145,265,620931,1,0,0:0:0:0:
98,272,621006,1,2,0:0:0:0:
55,250,621081,1,2,0:0:0:0:
34,206,621157,5,8,0:0:0:0:
80,200,621232,1,0,0:0:0:0:
120,224,621307,1,2,0:0:0:0:
135,268,621383,1,0,0:0:0:0:
121,312,621458,1,8,0:0:0:0:
139,356,621534,1,0,0:0:0:0:
182,373,621609,6,0,L|173:312,1,47.5,2|2,0:0|0:0,0:0:0:0:
463,343,621760,2,0,L|472:282,1,47.5,2|2,0:0|0:0,0:0:0:0:
303,370,621911,5,6,0:0:0:0:
334,332,621986,1,0,0:0:0:0:
330,284,622061,1,8,0:0:0:0:
293,252,622137,1,0,0:0:0:0:
281,206,622212,1,2,0:0:0:0:
311,168,622287,1,2,0:0:0:0:
359,170,622363,5,8,0:0:0:0:
324,204,622438,1,0,0:0:0:0:
275,208,622513,1,2,0:0:0:0:
234,181,622589,1,0,0:0:0:0:
220,134,622664,1,8,0:0:0:0:
181,107,622739,1,0,0:0:0:0:
132,116,622815,6,0,L|139:52,1,49.8749984779358,2|2,0:0|0:0,0:0:0:0:
105,345,622966,2,0,L|112:281,1,49.8749984779358,8|0,0:0|0:0,0:0:0:0:
275,208,623117,5,2,0:0:0:0:
319,187,623192,1,0,0:0:0:0:
366,199,623267,1,8,0:0:0:0:
396,239,623343,1,0,0:0:0:0:
441,255,623418,1,2,0:0:0:0:
482,230,623493,1,2,0:0:0:0:
488,182,623569,5,8,0:0:0:0:
443,200,623644,1,0,0:0:0:0:
426,245,623719,1,2,0:0:0:0:
449,287,623795,1,2,0:0:0:0:
447,335,623870,1,8,0:0:0:0:
402,352,623945,1,0,0:0:0:0:
369,319,624021,6,0,L|426:310,1,49.8749984779358,2|8,0:0|0:0,0:0:0:0:
116,361,624172,2,0,L|172:351,1,49.8749984779358,8|8,0:0|0:0,0:0:0:0:
292,253,624323,5,6,0:0:0:0:
241,254,624397,1,0,0:0:0:0:
207,217,624471,1,8,0:0:0:0:
214,167,624545,1,0,0:0:0:0:
257,140,624620,1,2,0:0:0:0:
271,90,624694,1,2,0:0:0:0:
237,50,624768,6,0,L|304:43,5,52.2500015945435,8|0|2|0|8|0,0:0|0:0|0:0|0:0|0:0|0:0,0:0:0:0:
101,112,625231,6,0,B|116:153|116:153|141:120,1,52.2500015945435,2|2,0:0|0:0,0:0:0:0:
423,110,625386,2,0,B|408:151|408:151|383:118,1,52.2500015945435,8|0,0:0|0:0,0:0:0:0:
173,259,625535,5,2,0:0:0:0:
222,244,625610,1,0,0:0:0:0:
271,260,625686,1,8,0:0:0:0:
304,299,625762,1,0,0:0:0:0:
350,321,625838,1,2,0:0:0:0:
397,302,625913,1,2,0:0:0:0:
414,255,625989,5,8,0:0:0:0:
362,254,626064,1,0,0:0:0:0:
316,277,626140,1,2,0:0:0:0:
286,319,626216,1,0,0:0:0:0:
237,331,626291,1,8,0:0:0:0:
201,296,626367,1,0,0:0:0:0:
212,247,626444,6,0,L|251:290,1,54.6250010418892
45,65,626595,2,0,L|81:105,1,54.6250010418892,8|0,0:0|0:0,0:0:0:0:
436,119,626747,5,12,0:0:0:0:
406,120,626821,1,0,0:0:0:0:
376,122,626895,1,2,0:0:0:0:
347,125,626969,1,2,0:0:0:0:
319,126,627044,5,8,0:0:0:0:
362,90,627118,1,8,0:0:0:0:
416,104,627192,1,8,0:0:0:0:
436,157,627266,1,8,0:0:0:0:
405,203,627341,1,8,0:0:0:0:
422,258,627415,1,8,0:0:0:0:
476,272,627489,5,2,0:0:0:0:
450,286,627563,1,2,0:0:0:0:
423,298,627638,6,0,L|437:222,1,47.5,2|4,0:0|0:0,0:0:0:0:
180,335,627786,2,0,L|168:274,1,47.5,4|4,0:0|0:0,0:0:0:0:
276,28,627935,6,0,L|261:90,5,47.5,6|8|8|8|8|8,0:0|0:0|0:0|0:0|0:0|0:0,0:0:0:0:
44,78,628401,5,6,0:0:0:0:
77,124,628478,1,0,0:0:0:0:
69,182,628556,1,8,0:0:0:0:
21,217,628634,1,0,0:0:0:0:
0,270,628711,1,2,0:0:0:0:
34,315,628789,1,2,0:0:0:0:
91,311,628867,6,0,L|78:251,1,47.5,8|0,0:0|0:0,0:0:0:0:
44,78,629023,2,0,L|34:30,1,47.5
298,373,629178,5,8,0:0:0:0:
304,302,629255,1,8,0:0:0:0:
310,231,629333,1,8,0:0:0:0:
316,160,629411,1,8,0:0:0:0:
322,89,629488,1,8,0:0:0:0:
231,120,629644,6,0,L|214:53,1,47.5,2|4,0:0|0:1,0:0:0:0:
145,178,629955,6,0,L|128:111,1,47.5,2|4,0:0|0:1,0:0:0:0:
63,234,630266,5,2,0:0:0:0:
171,326,630422,5,8,0:0:0:0:
242,320,630497,1,8,0:0:0:0:
313,315,630573,1,8,0:0:0:0:
384,310,630649,1,8,0:0:0:0:
455,304,630725,1,8,0:0:0:0:
411,225,630876,6,0,P|443:215|464:201,1,47.5,2|4,0:0|0:1,0:0:0:0:
324,184,631179,6,0,L|310:130,1,47.5,2|4,0:0|0:1,0:0:0:0:
264,265,631482,5,2,0:0:0:0:
258,254,631558,1,2,0:0:0:0:
249,336,631634,5,8,0:0:0:0:
423,105,631782,1,8,0:0:0:0:
286,56,631931,5,2,0:0:0:0:
395,242,632079,1,8,0:0:0:0:
143,205,632228,2,0,L|251:196,1,95,2|8,0:0|0:0,0:0:0:0:
286,56,632525,6,0,L|230:61,1,47.5,2|2,0:0|0:0,0:0:0:0:
63,75,632673,1,8,0:0:0:0:
201,296,632822,2,0,L|309:287,1,95,2|8,0:0|0:0,0:0:0:0:
328,120,633119,6,0,P|307:131|283:133,1,47.5,2|2,0:0|0:0,0:0:0:0:
136,113,633267,1,8,0:0:0:0:
286,56,633416,5,2,0:0:0:0:
295,288,633564,1,8,0:0:0:0:
404,22,633713,5,2,0:0:0:0:
295,288,633861,1,8,0:0:0:0:
481,142,634010,5,8,0:0:0:0:
410,148,634085,1,8,0:0:0:0:
339,155,634161,1,8,0:0:0:0:
268,162,634237,1,8,0:0:0:0:
197,169,634313,1,8,0:0:0:0:
136,251,634464,6,0,L|192:257,1,47.5,2|4,0:0|0:1,0:0:0:0:
63,314,634767,6,0,B|73:342|73:342|70:381,1,47.5,2|4,0:0|0:1,0:0:0:0:
171,356,635070,5,2,0:0:0:0:
312,368,635222,5,8,0:0:0:0:
321,297,635297,1,8,0:0:0:0:
330,226,635373,1,8,0:0:0:0:
339,155,635449,1,8,0:0:0:0:
348,85,635525,1,8,0:0:0:0:
428,135,635676,6,0,P|425:160|434:192,1,47.5,2|4,0:0|0:1,0:0:0:0:
512,244,635979,6,0,L|506:301,1,47.5,2|4,0:0|0:1,0:0:0:0:
417,290,636282,5,2,0:0:0:0:
413,278,636358,1,2,0:0:0:0:
393,360,636434,5,8,0:0:0:0:
496,49,636585,1,8,0:0:0:0:
302,40,636737,5,2,0:0:0:0:
512,244,636888,1,8,0:0:0:0:
201,223,637040,2,0,L|163:107,1,95,2|8,0:0|0:0,0:0:0:0:
29,275,637343,6,0,L|76:260,1,47.5,2|2,0:0|0:0,0:0:0:0:
334,183,637494,1,8,0:0:0:0:
180,384,637646,2,0,L|145:279,1,95,2|8,0:0|0:0,0:0:0:0:
278,111,637952,6,0,L|260:167,1,47.5,2|2,0:0|0:0,0:0:0:0:
197,375,638105,1,8,0:0:0:0:
201,64,638258,5,2,0:0:0:0:
213,366,638411,1,8,0:0:0:0:
106,34,638564,5,2,0:0:0:0:
230,357,638717,1,8,0:0:0:0:
350,229,638870,5,8,0:0:0:0:
278,225,638946,1,8,0:0:0:0:
207,221,639023,1,8,0:0:0:0:
136,218,639099,1,8,0:0:0:0:
65,214,639176,1,8,0:0:0:0:
103,311,639329,6,0,P|132:311|178:331,1,71.2500027179719,2|4,0:0|0:1,0:0:0:0:
16,376,639635,6,0,L|-8:274,1,71.2500027179719,2|4,0:0|0:1,0:0:0:0:
65,214,639941,5,2,0:0:0:0:
220,45,640094,5,8,0:0:0:0:
207,115,640168,1,8,0:0:0:0:
195,185,640243,1,8,0:0:0:0:
183,255,640317,1,8,0:0:0:0:
171,325,640392,1,8,0:0:0:0:
266,294,640541,6,0,L|345:288,1,71.2500027179719,2|4,0:0|0:1,0:0:0:0:
387,201,640840,6,0,L|466:207,1,71.2500027179719,2|4,0:0|0:1,0:0:0:0:
441,327,641138,5,2,0:0:0:0:
436,315,641213,1,0,0:0:0:0:
509,353,641288,5,8,0:0:0:0:
265,177,641441,1,8,0:0:0:0:
357,93,641594,5,2,0:0:0:0:
266,294,641747,1,8,0:0:0:0:
67,135,641900,2,0,L|177:130,1,95,2|8,0:0|0:0,0:0:0:0:
364,103,642206,5,2,0:0:0:0:
273,304,642359,1,8,0:0:0:0:
74,145,642512,2,0,L|184:140,1,95,2|8,0:0|0:0,0:0:0:0:
373,116,642809,5,2,0:0:0:0:
282,317,642957,1,8,0:0:0:0:
280,54,643106,6,0,L|290:104,1,47.5,2|2,0:0|0:0,0:0:0:0:
348,351,643254,1,8,0:0:0:0:
362,12,643403,5,2,0:0:0:0:
348,351,643551,1,8,0:0:0:0:
459,204,643700,5,8,0:0:0:0:
387,209,643777,1,8,0:0:0:0:
316,214,643854,1,8,0:0:0:0:
245,219,643931,1,8,0:0:0:0:
174,224,644009,1,8,0:0:0:0:
201,131,644163,6,0,L|282:115,1,71.2500027179719,2|4,0:0|0:1,0:0:0:0:
106,142,644473,6,0,P|100:102|70:68,1,71.2500027179719,2|4,0:0|0:1,0:0:0:0:
180,36,644782,5,2,0:0:0:0:
336,73,644937,5,8,0:0:0:0:
326,143,645014,1,8,0:0:0:0:
316,214,645091,1,8,0:0:0:0:
306,284,645168,1,8,0:0:0:0:
297,355,645246,1,8,0:0:0:0:
397,234,645401,6,0,P|415:204|422:156,1,71.2500027179719,2|4,0:0|0:1,0:0:0:0:
394,334,645710,6,0,L|474:316,1,71.2500027179719,4|4,0:0|0:1,0:0:0:0:
306,284,646019,5,4,0:0:0:0:
205,366,646174,5,8,0:0:0:0:
195,295,646250,1,8,0:0:0:0:
185,224,646327,1,8,0:0:0:0:
175,154,646403,1,8,0:0:0:0:
165,83,646480,5,2,0:0:0:0:
96,272,646633,1,8,0:0:0:0:
360,180,646786,2,0,L|470:175,1,95,2|8,0:0|0:0,0:0:0:0:
177,67,647092,6,0,L|183:121,1,47.5,2|2,0:0|0:0,0:0:0:0:
198,282,647245,1,8,0:0:0:0:
462,186,647398,2,0,L|367:190,1,95,2|8,0:0|0:0,0:0:0:0:
183,293,647687,6,0,L|189:227,1,47.5,2|2,0:0|0:0,0:0:0:0:
206,55,647832,1,8,0:0:0:0:
198,282,647977,5,2,0:0:0:0:
280,22,648122,1,8,0:0:0:0:
213,272,648267,5,2,0:0:0:0:
362,16,648412,1,8,0:0:0:0:
154,123,648557,5,8,0:0:0:0:
436,62,648708,2,0,P|406:108|416:223,1,142.5,2|0,0:0|0:0,0:0:0:0:
481,270,649011,2,0,B|411:292|411:292|341:281,1,142.5
308,109,649314,5,8,0:0:0:0:
361,383,649466,1,4,0:0:0:0:
277,316,649617,1,2,0:0:0:0:
283,326,649693,1,2,0:0:0:0:
342,281,649769,5,8,0:0:0:0:
119,187,649920,5,8,0:0:0:0:
166,180,649995,1,8,0:0:0:0:
213,174,650071,1,8,0:0:0:0:
260,168,650147,1,8,0:0:0:0:
308,109,650223,5,2,0:0:0:0:
243,253,650375,1,4,0:0:0:0:
251,42,650526,1,2,0:0:0:0:
256,40,650602,1,2,0:0:0:0:
261,37,650678,1,8,0:0:0:0:
164,101,650829,1,2,0:0:0:0:
159,99,650905,1,2,0:0:0:0:
233,130,650981,5,2,0:0:0:0:
231,153,651056,1,2,0:0:0:0:
229,177,651132,1,2,0:0:0:0:
228,201,651208,1,2,0:0:0:0:
226,224,651284,1,4,0:0:0:0:
146,282,651435,6,0,L|144:259,1,23.75,2|2,0:0|0:0,0:0:0:0:
321,260,651587,6,0,L|325:216,1,35.625001358986,8|8,0:0|0:0,0:0:0:0:
333,123,651738,2,0,L|336:87,1,35.625001358986,8|8,0:0|0:0,0:0:0:0:
439,360,651890,6,0,L|461:302,1,47.5,8|8,0:0|0:0,0:0:0:0:
495,203,652041,2,0,L|512:158,1,47.5,2|2,0:0|0:0,0:0:0:0:
325,206,652193,5,2,0:0:0:0:
301,200,652268,1,2,0:0:0:0:
281,188,652344,1,2,0:0:0:0:
265,171,652420,1,2,0:0:0:0:
254,150,652496,1,2,0:0:0:0:
251,126,652571,1,2,0:0:0:0:
333,123,652647,5,8,0:0:0:0:
333,123,652978,5,2,0:0:0:0:
398,334,653129,1,8,0:0:0:0:
161,189,653281,1,2,0:0:0:0:
165,197,653356,1,2,0:0:0:0:
169,205,653432,6,0,L|225:200,1,47.5,8|2,0:0|0:0,0:0:0:0:
408,185,653582,2,0,L|427:114,1,47.5,8|2,0:0|0:0,0:0:0:0:
161,220,653733,6,0,L|217:215,1,47.5,8|2,0:0|0:0,0:0:0:0:
424,195,653883,2,0,L|443:124,1,47.5,8|2,0:0|0:0,0:0:0:0:
282,298,654035,6,0,L|293:368,1,47.5,8|2,0:0|0:0,0:0:0:0:
304,359,654185,2,0,L|296:312,1,47.5,8|2,0:0|0:0,0:0:0:0:
293,50,654336,6,0,L|304:120,1,47.5,8|2,0:0|0:0,0:0:0:0:
315,111,654486,2,0,L|307:64,1,47.5,8|2,0:0|0:0,0:0:0:0:
116,209,654638,6,0,L|172:204,1,52.2500015945435,8|2,0:0|0:0,0:0:0:0:
442,182,654788,2,0,L|461:111,1,52.2500015945435,8|2,0:0|0:0,0:0:0:0:
108,224,654939,6,0,L|164:219,1,52.2500015945435,8|2,0:0|0:0,0:0:0:0:
458,192,655090,2,0,L|477:121,1,52.2500015945435,8|2,0:0|0:0,0:0:0:0:
229,313,655241,6,0,L|240:383,1,52.2500015945435,8|2,0:0|0:0,0:0:0:0:
251,374,655391,2,0,L|244:322,1,52.2500015945435,8|2,0:0|0:0,0:0:0:0:
333,59,655542,6,0,L|344:129,1,52.2500015945435,8|2,0:0|0:0,0:0:0:0:
355,120,655693,2,0,L|347:69,1,52.2500015945435,8|2,0:0|0:0,0:0:0:0:
59,214,655844,6,0,L|115:209,1,56.9999982604981,8|2,0:0|0:0,0:0:0:0:
482,175,655998,2,0,L|501:104,1,56.9999982604981,8|2,0:0|0:0,0:0:0:0:
51,229,656153,6,0,L|107:224,1,56.9999982604981,8|2,0:0|0:0,0:0:0:0:
498,185,656307,2,0,L|517:114,1,56.9999982604981,8|2,0:0|0:0,0:0:0:0:
190,314,656462,6,0,L|201:384,1,56.9999982604981,8|2,0:0|0:0,0:0:0:0:
212,375,656617,2,0,L|201:316,1,56.9999982604981,8|0,0:0|0:0,0:0:0:0:
369,42,656771,6,0,L|380:112,1,56.9999982604981,8|2,0:0|0:0,0:0:0:0:
391,103,656926,2,0,L|379:42,1,56.9999982604981,8|0,0:0|0:0,0:0:0:0:
142,94,657081,5,8,0:0:0:0:
126,111,657155,1,2,0:0:0:0:
124,135,657229,1,8,0:0:0:0:
135,155,657303,1,2,0:0:0:0:
155,167,657378,1,8,0:0:0:0:
179,165,657452,1,2,0:0:0:0:
162,129,657526,5,8,0:0:0:0:
162,152,657600,1,2,0:0:0:0:
163,176,657675,1,0,0:0:0:0:
164,200,657748,1,2,0:0:0:0:
165,223,657823,1,8,0:0:0:0:
166,247,657897,1,2,0:0:0:0:
205,265,657972,5,8,0:0:0:0:
199,242,658046,1,2,0:0:0:0:
202,218,658120,1,2,0:0:0:0:
214,198,658194,1,2,0:0:0:0:
234,184,658269,6,0,L|245:266,1,71.25,8|0,0:0|0:0,0:0:0:0:
333,321,658575,5,8,0:0:0:0:
333,306,658651,1,8,0:0:0:0:
330,287,658728,1,8,0:0:0:0:
321,265,658804,1,8,0:0:0:0:
306,241,658881,1,8,0:0:0:0:
280,221,658957,1,8,0:0:0:0:
243,212,659034,1,8,0:0:0:0:
202,218,659110,1,8,0:0:0:0:
163,245,659187,1,8,0:0:0:0:
117,269,659263,1,8,0:0:0:0:
60,257,659340,1,8,0:0:0:0:
31,202,659416,1,8,0:0:0:0:
58,140,659493,5,6,0:0:0:0:
60,163,659568,1,8,0:0:0:0:
62,187,659644,1,6,0:0:0:0:
64,210,659720,1,8,0:0:0:0:
66,234,659796,1,6,0:0:0:0:
68,258,659871,1,8,0:0:0:0:
115,293,659947,5,6,0:0:0:0:
117,269,660022,1,8,0:0:0:0:
119,245,660098,1,6,0:0:0:0:
121,222,660174,1,8,0:0:0:0:
123,198,660250,1,6,0:0:0:0:
125,174,660325,1,8,0:0:0:0:
176,201,660402,5,6,0:0:0:0:
173,191,660477,1,8,0:0:0:0:
170,181,660553,1,6,0:0:0:0:
167,171,660629,1,8,0:0:0:0:
125,174,660705,5,6,0:0:0:0:
114,128,660780,1,8,0:0:0:0:
132,85,660856,1,6,0:0:0:0:
172,60,660932,1,8,0:0:0:0:
219,62,661008,1,6,0:0:0:0:
255,93,661083,1,8,0:0:0:0:
267,137,661159,1,6,0:0:0:0:
251,181,661235,1,8,0:0:0:0:
212,207,661311,1,6,0:0:0:0:
202,253,661386,1,8,0:0:0:0:
222,295,661462,1,6,0:0:0:0:
263,318,661538,1,8,0:0:0:0:
309,311,661614,1,6,0:0:0:0:
342,278,661689,1,8,0:0:0:0:
349,232,661765,1,6,0:0:0:0:
380,195,661841,1,8,0:0:0:0:
427,190,661917,5,6,0:0:0:0:
420,202,661992,1,8,0:0:0:0:
413,214,662068,1,6,0:0:0:0:
406,227,662144,1,8,0:0:0:0:
399,239,662220,6,0,L|405:293,1,47.5,6|8,0:0|0:0,0:0:0:0:
381,63,662371,2,0,L|385:110,3,47.5,6|8|6|8,0:0|0:0|0:0|0:0,0:0:0:0:
263,318,662674,6,0,L|278:369,1,47.5,6|8,0:0|0:0,0:0:0:0:
210,147,662825,2,0,L|223:192,3,47.5,6|8|6|8,0:0|0:0|0:0|0:0,0:0:0:0:
341,247,663129,5,6,0:0:0:0:
384,230,663204,1,8,0:0:0:0:
428,244,663280,1,6,0:0:0:0:
453,284,663356,1,8,0:0:0:0:
447,330,663432,1,6,0:0:0:0:
414,362,663507,1,8,0:0:0:0:
367,365,663583,1,6,0:0:0:0:
329,339,663659,1,8,0:0:0:0:
287,318,663734,1,6,0:0:0:0:
240,311,663810,1,8,0:0:0:0:
193,320,663886,1,6,0:0:0:0:
152,343,663962,1,8,0:0:0:0:
107,354,664038,1,6,0:0:0:0:
67,332,664114,1,8,0:0:0:0:
52,288,664190,1,6,0:0:0:0:
71,246,664266,1,8,0:0:0:0:
114,228,664341,5,6,0:0:0:0:
109,251,664416,1,8,0:0:0:0:
105,274,664492,1,6,0:0:0:0:
101,298,664568,1,8,0:0:0:0:
97,321,664644,1,6,0:0:0:0:
93,344,664719,1,8,0:0:0:0:
47,352,664796,5,6,0:0:0:0:
51,328,664871,1,8,0:0:0:0:
65,310,664947,1,6,0:0:0:0:
87,300,665023,1,8,0:0:0:0:
110,302,665099,1,6,0:0:0:0:
130,314,665174,1,8,0:0:0:0:
93,344,665250,5,6,0:0:0:0:
96,335,665326,1,8,0:0:0:0:
99,326,665402,1,6,0:0:0:0:
101,317,665477,1,8,0:0:0:0:
76,261,665553,5,6,0:0:0:0:
39,288,665628,1,8,0:0:0:0:
31,334,665704,1,6,0:0:0:0:
55,373,665780,1,8,0:0:0:0:
100,384,665856,1,6,0:0:0:0:
140,362,665931,1,8,0:0:0:0:
155,319,666007,1,6,0:0:0:0:
136,275,666083,1,8,0:0:0:0:
156,234,666158,1,6,0:0:0:0:
201,226,666234,1,8,0:0:0:0:
235,257,666310,1,6,0:0:0:0:
230,303,666386,1,8,0:0:0:0:
258,339,666462,1,6,0:0:0:0:
304,348,666537,1,8,0:0:0:0:
344,324,666613,1,6,0:0:0:0:
358,280,666689,1,8,0:0:0:0:
333,254,666765,5,6,0:0:0:0:
334,268,666841,1,8,0:0:0:0:
335,282,666917,1,6,0:0:0:0:
336,296,666993,1,8,0:0:0:0:
337,311,667068,6,0,L|401:285,1,47.5,6|8,0:0|0:0,0:0:0:0:
177,377,667220,2,0,L|240:350,3,47.5,6|8|6|8,0:0|0:0|0:0|0:0,0:0:0:0:
216,189,667523,6,0,L|268:144,1,47.5,6|8,0:0|0:0,0:0:0:0:
82,300,667675,2,0,L|134:255,3,47.5,6|8|6|8,0:0|0:0|0:0|0:0,0:0:0:0:
99,149,667977,5,6,0:0:0:0:
109,103,668052,1,8,0:0:0:0:
147,78,668128,1,6,0:0:0:0:
193,88,668204,1,8,0:0:0:0:
218,127,668280,1,6,0:0:0:0:
252,158,668355,1,8,0:0:0:0:
297,153,668431,1,6,0:0:0:0:
326,117,668507,1,8,0:0:0:0:
317,71,668583,1,6,0:0:0:0:
278,47,668658,1,8,0:0:0:0:
234,58,668734,1,6,0:0:0:0:
211,99,668810,1,8,0:0:0:0:
224,142,668886,1,6,0:0:0:0:
265,163,668962,1,8,0:0:0:0:
309,146,669037,1,6,0:0:0:0:
354,163,669114,1,8,0:0:0:0:
379,204,669189,5,6,0:0:0:0:
376,180,669264,1,8,0:0:0:0:
373,156,669340,1,6,0:0:0:0:
370,133,669416,1,8,0:0:0:0:
367,109,669492,1,6,0:0:0:0:
364,86,669567,1,8,0:0:0:0:
405,44,669644,5,6,0:0:0:0:
403,67,669719,1,8,0:0:0:0:
400,91,669795,1,6,0:0:0:0:
397,114,669871,1,8,0:0:0:0:
394,138,669947,1,6,0:0:0:0:
391,161,670022,1,8,0:0:0:0:
441,160,670099,5,6,0:0:0:0:
438,150,670174,1,8,0:0:0:0:
435,140,670250,1,6,0:0:0:0:
432,130,670326,1,8,0:0:0:0:
500,126,670402,5,6,0:0:0:0:
487,81,670477,1,8,0:0:0:0:
449,53,670553,1,6,0:0:0:0:
403,56,670629,1,8,0:0:0:0:
370,88,670705,1,6,0:0:0:0:
363,134,670780,1,8,0:0:0:0:
388,174,670856,1,6,0:0:0:0:
380,219,670931,1,8,0:0:0:0:
343,247,671007,1,6,0:0:0:0:
298,243,671083,1,8,0:0:0:0:
266,209,671159,1,6,0:0:0:0:
219,211,671234,1,8,0:0:0:0:
180,237,671310,1,6,0:0:0:0:
162,281,671386,1,8,0:0:0:0:
170,328,671462,1,6,0:0:0:0:
204,360,671537,1,8,0:0:0:0:
251,354,671613,5,6,0:0:0:0:
239,346,671689,1,8,0:0:0:0:
227,338,671765,1,6,0:0:0:0:
215,330,671841,1,8,0:0:0:0:
203,323,671917,6,0,L|133:341,1,47.5,6|8,0:0|0:0,0:0:0:0:
400,274,672068,2,0,L|329:291,3,47.5,6|8|6|8,0:0|0:0|0:0|0:0,0:0:0:0:
205,182,672371,6,0,L|132:188,1,47.5,6|8,0:0|0:0,0:0:0:0:
407,164,672522,2,0,L|334:170,3,47.5,6|8|6|8,0:0|0:0|0:0|0:0,0:0:0:0:
272,56,672827,5,6,0:0:0:0:
226,49,672902,1,8,0:0:0:0:
190,78,672978,1,6,0:0:0:0:
188,124,673054,1,8,0:0:0:0:
225,160,673129,1,6,0:0:0:0:
235,205,673204,1,8,0:0:0:0:
210,245,673280,1,6,0:0:0:0:
165,256,673356,1,8,0:0:0:0:
126,232,673432,1,6,0:0:0:0:
79,224,673508,1,8,0:0:0:0:
37,244,673583,1,6,0:0:0:0:
12,284,673659,1,8,0:0:0:0:
14,330,673735,1,6,0:0:0:0:
42,368,673810,1,8,0:0:0:0:
86,384,673886,1,6,0:0:0:0:
132,373,673962,1,8,0:0:0:0:
163,338,674038,5,6,0:0:0:0:
139,340,674113,1,8,0:0:0:0:
116,343,674189,1,6,0:0:0:0:
92,346,674265,1,8,0:0:0:0:
68,349,674341,1,6,0:0:0:0:
45,351,674416,1,8,0:0:0:0:
34,380,674493,5,6,0:0:0:0:
57,378,674568,1,8,0:0:0:0:
75,363,674644,1,6,0:0:0:0:
80,340,674720,1,8,0:0:0:0:
72,319,674796,1,6,0:0:0:0:
52,307,674871,1,8,0:0:0:0:
45,351,674947,5,6,0:0:0:0:
41,343,675023,1,8,0:0:0:0:
36,334,675099,1,6,0:0:0:0:
31,325,675174,1,8,0:0:0:0:
5,376,675250,5,6,0:0:0:0:
50,383,675325,1,8,0:0:0:0:
86,354,675401,1,6,0:0:0:0:
90,308,675477,1,8,0:0:0:0:
59,274,675553,1,6,0:0:0:0:
62,227,675628,1,8,0:0:0:0:
97,196,675704,1,6,0:0:0:0:
143,195,675780,1,8,0:0:0:0:
177,226,675856,1,6,0:0:0:0:
182,272,675931,1,8,0:0:0:0:
214,306,676007,1,6,0:0:0:0:
260,315,676083,1,8,0:0:0:0:
302,294,676159,1,6,0:0:0:0:
324,253,676235,1,8,0:0:0:0:
317,207,676310,1,6,0:0:0:0:
285,173,676386,1,8,0:0:0:0:
239,166,676462,5,6,0:0:0:0:
245,178,676538,1,8,0:0:0:0:
252,191,676615,1,6,0:0:0:0:
258,204,676692,1,8,0:0:0:0:
263,217,676769,6,0,L|321:205,1,47.5,6|8,0:0|0:0,0:0:0:0:
76,258,676922,2,0,L|134:246,3,47.5,6|8|6|8,0:0|0:0|0:0|0:0,0:0:0:0:
218,348,677229,5,2,0:0:0:0:
214,339,677306,1,2,0:0:0:0:
182,326,677383,5,8,0:0:0:0:
229,327,677459,1,8,0:0:0:0:
276,328,677536,1,8,0:0:0:0:
324,329,677613,1,8,0:0:0:0:
371,331,677690,5,2,0:0:0:0:
442,132,677837,1,8,0:0:0:0:
494,243,677984,1,2,0:0:0:0:
494,243,678057,1,2,0:0:0:0:
494,243,678131,2,0,L|368:235,1,95,8|2,0:0|0:0,0:0:0:0:
220,224,678425,2,0,L|94:216,1,95,8|2,0:0|0:0,0:0:0:0:
121,245,678684,1,2,0:0:0:0:
114,240,678747,1,8,0:0:0:0:
264,97,678903,5,2,0:0:0:0:
172,358,679048,1,8,0:0:0:0:
220,224,679194,1,2,0:0:0:0:
223,232,679267,1,2,0:0:0:0:
227,240,679339,2,0,B|285:229|285:229|338:230,1,95,8|2,0:0|0:0,0:0:0:0:
502,182,679630,2,0,B|510:234|510:234|491:300,1,95,8|2,0:0|0:0,0:0:0:0:
464,314,679864,1,2,0:0:0:0:
461,307,679932,1,8,0:0:0:0:
353,72,680094,5,2,0:0:0:0:
403,228,680223,1,8,0:0:0:0:
235,161,680391,1,2,0:0:0:0:
233,170,680450,1,2,0:0:0:0:
231,178,680508,2,0,L|132:179,1,95,8|2,0:0|0:0,0:0:0:0:
71,332,680825,2,0,L|170:331,1,95,8|2,0:0|0:0,0:0:0:0:
200,362,681074,1,2,0:0:0:0:
196,355,681137,1,8,0:0:0:0:
231,178,681306,5,2,0:0:0:0:
339,368,681434,1,8,0:0:0:0:
403,228,681618,1,2,0:0:0:0:
394,224,681680,1,2,0:0:0:0:
385,220,681743,2,0,L|411:95,1,95,8|2,0:0|0:0,0:0:0:0:
231,178,682048,2,0,L|205:53,1,95,8|2,0:0|0:0,0:0:0:0:
176,105,682266,1,2,0:0:0:0:
168,98,682333,2,0,L|160:162,1,47.5,2|2,0:0|0:0,0:0:0:0:
48,164,682485,5,2,0:0:0:0:
208,293,682637,1,8,0:0:0:0:
62,342,682789,1,2,0:0:0:0:
71,340,682865,1,2,0:0:0:0:
80,339,682941,2,0,L|106:223,1,97.8499991788101,8|2,0:0|0:0,0:0:0:0:
199,136,683246,2,0,L|223:21,1,97.8499991788101,8|2,0:0|0:0,0:0:0:0:
257,31,683482,1,2,0:0:0:0:
259,40,683554,1,8,0:0:0:0:
91,157,683735,5,2,0:0:0:0:
313,117,683864,1,8,0:0:0:0:
222,275,684037,1,2,0:0:0:0:
216,267,684103,1,2,0:0:0:0:
211,259,684170,2,0,B|263:248|263:248|325:257,1,97.8499991788101,8|2,0:0|0:0,0:0:0:0:
482,312,684480,2,0,B|497:266|497:266|487:190,1,97.8499991788101,8|2,0:0|0:0,0:0:0:0:
463,192,684714,1,2,0:0:0:0:
456,198,684784,1,8,0:0:0:0:
377,104,684934,5,2,0:0:0:0:
400,262,685073,1,8,0:0:0:0:
241,191,685243,1,2,0:0:0:0:
235,183,685309,1,2,0:0:0:0:
230,175,685375,2,0,L|121:177,1,97.8499991788101,8|2,0:0|0:0,0:0:0:0:
225,329,685686,2,0,P|272:325|338:340,1,97.8499991788101,8|2,0:0|0:0,0:0:0:0:
326,310,685923,1,2,0:0:0:0:
322,304,685988,1,8,0:0:0:0:
434,384,686168,5,2,0:0:0:0:
357,185,686295,1,8,0:0:0:0:
502,286,686495,1,2,0:0:0:0:
495,279,686556,1,2,0:0:0:0:
488,272,686617,2,0,L|377:276,1,97.8499991788101,8|2,0:0|0:0,0:0:0:0:
377,303,686848,1,2,0:0:0:0:
369,298,686916,1,8,0:0:0:0:
249,145,687068,1,2,0:0:0:0:
252,168,687143,1,2,0:0:0:0:
256,191,687219,1,2,0:0:0:0:
259,215,687295,1,2,0:0:0:0:
263,238,687371,6,0,B|204:218|204:218|146:235|146:235|66:207,1,201.400000307312,2|2,0:0|0:0,0:0:0:0:
90,319,687749,1,2,0:0:0:0:
93,327,687825,2,0,B|145:343|145:343|202:328,1,100.700000153656,8|2,0:0|0:0,0:0:0:0:
386,261,688131,2,0,L|397:145,1,100.700000153656,8|2,0:0|0:0,0:0:0:0:
436,165,688366,1,2,0:0:0:0:
433,156,688438,1,8,0:0:0:0:
344,41,688596,5,2,0:0:0:0:
498,250,688742,1,8,0:0:0:0:
291,210,688914,1,2,0:0:0:0:
286,201,688977,1,2,0:0:0:0:
282,194,689041,2,0,L|181:197,1,100.700000153656,8|2,0:0|0:0,0:0:0:0:
71,49,689351,2,0,L|172:46,1,100.700000153656,8|2,0:0|0:0,0:0:0:0:
204,66,689582,1,2,0:0:0:0:
196,69,689648,1,8,0:0:0:0:
328,77,689804,5,2,0:0:0:0:
114,146,689950,1,8,0:0:0:0:
284,226,690120,1,2,0:0:0:0:
288,217,690185,1,2,0:0:0:0:
291,210,690251,2,0,L|408:207,1,100.700000153656,8|2,0:0|0:0,0:0:0:0:
268,348,690557,2,0,L|149:351,1,100.700000153656,8|2,0:0|0:0,0:0:0:0:
140,326,690779,1,2,0:0:0:0:
145,322,690845,1,8,0:0:0:0:
114,146,691024,5,2,0:0:0:0:
0,357,691161,1,8,0:0:0:0:
268,348,691360,1,2,0:0:0:0:
273,340,691417,1,2,0:0:0:0:
278,334,691474,2,0,L|415:330,1,100.700000153656,8|2,0:0|0:0,0:0:0:0:
214,143,691764,2,0,L|113:145,1,100.700000153656,8|2,0:0|0:0,0:0:0:0:
82,117,691987,1,8,0:0:0:0:
88,110,692045,2,0,L|77:188,1,47.5,8|8,0:0|0:0,0:0:0:0:
150,247,692220,5,2,0:0:0:0:
268,50,692352,1,8,0:0:0:0:
352,180,692523,1,2,0:0:0:0:
359,174,692593,1,2,0:0:0:0:
366,169,692664,2,0,B|424:161|424:161|478:167,1,103.550001106033,8|2,0:0|0:0,0:0:0:0:
356,323,692973,2,0,B|298:331|298:331|244:325,1,103.550001106033,8|2,0:0|0:0,0:0:0:0:
230,348,693213,1,2,0:0:0:0:
225,342,693276,1,8,0:0:0:0:
103,278,693433,5,2,0:0:0:0:
294,224,693573,1,8,0:0:0:0:
157,99,693730,1,2,0:0:0:0:
166,101,693799,1,2,0:0:0:0:
174,104,693868,2,0,L|182:219,1,103.550001106033,8|2,0:0|0:0,0:0:0:0:
396,65,694157,2,0,L|388:180,1,103.550001106033,8|2,0:0|0:0,0:0:0:0:
421,184,694401,1,2,0:0:0:0:
426,178,694463,1,8,0:0:0:0:
408,297,694616,5,2,0:0:0:0:
505,104,694754,1,8,0:0:0:0:
301,185,694916,1,2,0:0:0:0:
294,178,694985,1,2,0:0:0:0:
288,171,695054,2,0,B|235:181|235:181|168:169,1,103.550001106033,8|2,0:0|0:0,0:0:0:0:
24,136,695361,2,0,L|35:269,1,103.550001106033,8|2,0:0|0:0,0:0:0:0:
80,304,695572,1,2,0:0:0:0:
88,281,695645,1,2,0:0:0:0:
96,259,695719,1,2,0:0:0:0:
104,237,695793,5,2,0:0:0:0:
90,33,695949,1,8,0:0:0:0:
242,132,696124,1,2,0:0:0:0:
249,137,696197,1,2,0:0:0:0:
255,142,696271,2,0,L|361:132,1,103.550001106033,8|2,0:0|0:0,0:0:0:0:
276,322,696588,2,0,L|167:332,1,103.550001106033,8|2,0:0|0:0,0:0:0:0:
116,278,696814,1,2,0:0:0:0:
139,272,696885,1,2,0:0:0:0:
162,267,696956,1,2,0:0:0:0:
185,261,697027,5,2,0:0:0:0:
364,378,697191,1,8,0:0:0:0:
389,182,697356,1,2,0:0:0:0:
383,189,697439,1,2,0:0:0:0:
378,198,697521,2,0,B|328:204|328:204|262:166,1,106.400001298828,8|2,0:0|0:0,0:0:0:0:
120,68,697822,2,0,L|127:217,1,106.400001298828,8|2,0:0|0:0,0:0:0:0:
95,179,698059,1,2,0:0:0:0:
99,171,698135,1,8,0:0:0:0:
22,67,698297,5,2,0:0:0:0:
215,246,698436,1,8,0:0:0:0:
210,45,698607,1,2,0:0:0:0:
214,53,698671,1,2,0:0:0:0:
218,60,698735,2,0,L|330:55,1,106.400001298828,8|2,0:0|0:0,0:0:0:0:
454,216,699048,2,0,L|346:219,1,106.400001298828,8|2,0:0|0:0,0:0:0:0:
335,198,699287,1,2,0:0:0:0:
340,193,699345,1,8,0:0:0:0:
376,334,699505,5,2,0:0:0:0:
436,97,699652,1,8,0:0:0:0:
210,169,699827,1,2,0:0:0:0:
205,160,699891,1,2,0:0:0:0:
200,153,699956,2,0,B|210:206|210:206|205:277,1,106.400001298828,8|2,0:0|0:0,0:0:0:0:
7,188,700243,2,0,L|12:54,1,106.400001298828,8|2,0:0|0:0,0:0:0:0:
41,86,700482,1,2,0:0:0:0:
39,79,700547,1,8,0:0:0:0:
45,278,700721,5,2,0:0:0:0:
141,55,700863,1,8,0:0:0:0:
247,217,701023,1,2,0:0:0:0:
253,210,701088,1,2,0:0:0:0:
259,204,701153,2,0,L|389:198,1,106.400001298828,8|2,0:0|0:0,0:0:0:0:
442,365,701457,2,0,L|335:369,1,106.400001298828,8|2,0:0|0:0,0:0:0:0:
278,316,701688,1,2,0:0:0:0:
301,312,701763,1,2,0:0:0:0:
324,309,701838,1,2,0:0:0:0:
348,305,701914,5,2,0:0:0:0:
184,384,702064,1,8,0:0:0:0:
195,214,702228,1,2,0:0:0:0:
203,218,702296,1,2,0:0:0:0:
210,221,702364,2,0,L|319:207,1,109.250002083778,8|2,0:0|0:0,0:0:0:0:
66,240,702655,2,0,L|52:131,1,109.250002083778,8|2,0:0|0:0,0:0:0:0:
87,148,702887,1,2,0:0:0:0:
81,142,702954,1,8,0:0:0:0:
18,321,703114,5,2,0:0:0:0:
150,86,703251,1,8,0:0:0:0:
224,253,703421,1,2,0:0:0:0:
229,260,703490,1,2,0:0:0:0:
233,266,703559,2,0,L|360:263,1,109.250002083778,8|2,0:0|0:0,0:0:0:0:
469,81,703863,2,0,L|342:84,1,109.250002083778,8|2,0:0|0:0,0:0:0:0:
340,60,704100,1,2,0:0:0:0:
347,56,704169,1,8,0:0:0:0:
408,169,704326,5,2,0:0:0:0:
229,42,704478,1,8,0:0:0:0:
223,248,704630,1,2,0:0:0:0:
228,240,704706,1,2,0:0:0:0:
235,233,704782,2,0,L|125:232,1,109.250002083778,8|2,0:0|0:0,0:0:0:0:
378,349,705084,2,0,L|487:349,1,109.250002083778,8|2,0:0|0:0,0:0:0:0:
480,316,705334,1,2,0:0:0:0:
472,319,705397,1,8,0:0:0:0:
265,354,705541,5,2,0:0:0:0:
457,238,705699,1,8,0:0:0:0:
263,166,705857,1,2,0:0:0:0:
266,174,705930,1,2,0:0:0:0:
269,181,706004,2,0,L|134:192,1,109.250002083778,8|2,0:0|0:0,0:0:0:0:
392,34,706301,2,0,L|519:26,1,109.250002083778,8|2,0:0|0:0,0:0:0:0:
439,90,706529,1,2,0:0:0:0:
462,93,706604,1,2,0:0:0:0:
485,97,706680,1,2,0:0:0:0:
509,101,706756,5,2,0:0:0:0:
268,5,706914,1,8,0:0:0:0:
302,234,707072,1,2,0:0:0:0:
308,226,707151,1,2,0:0:0:0:
315,220,707230,2,0,B|252:227|252:227|170:214,1,112.099996065827,8|2,0:0|0:0,0:0:0:0:
20,181,707528,2,0,L|33:318,1,112.099996065827,8|2,0:0|0:0,0:0:0:0:
69,303,707765,1,2,0:0:0:0:
65,296,707834,1,8,0:0:0:0:
103,121,708012,5,2,0:0:0:0:
30,384,708134,1,8,0:0:0:0:
166,262,708306,1,2,0:0:0:0:
171,254,708374,1,2,0:0:0:0:
177,247,708443,2,0,L|297:245,1,112.099996065827,8|2,0:0|0:0,0:0:0:0:
468,178,708742,2,0,B|481:234|481:234|470:298,1,112.099996065827,8|2,0:0|0:0,0:0:0:0:
501,97,709034,1,8,0:0:0:0:
498,372,709196,5,2,0:0:0:0:
397,108,709339,1,8,0:0:0:0:
236,302,709509,1,2,0:0:0:0:
473,245,709628,2,0,B|430:256|430:256|348:246,1,112.099996065827,8|2,0:0|0:0,0:0:0:0:
109,202,709933,2,0,B|181:187|181:187|235:197,1,112.099996065827,8|2,0:0|0:0,0:0:0:0:
331,106,710234,1,8,0:0:0:0:
261,302,710406,2,0,L|278:253,3,47.5,2|8|8|8,0:0|0:0|0:0|0:0,0:0:0:0:
349,368,710695,5,2,0:0:0:0:
331,106,710834,1,8,0:0:0:0:
145,322,710993,1,2,0:0:0:0:
331,106,711143,1,8,0:0:0:0:
59,180,711313,1,2,0:0:0:0:
331,106,711460,1,8,0:0:0:0:
176,260,711607,5,2,0:0:0:0:
104,45,711754,1,8,0:0:0:0:
331,106,711901,1,2,0:0:0:0:
59,180,712048,2,0,L|184:145,1,114.949996755104,8|2,0:0|0:0,0:0:0:0:
404,210,712342,2,0,L|279:245,1,114.949996755104,8|2,0:0|0:0,0:0:0:0:
160,274,712665,1,8,0:0:0:0:
331,106,712841,5,2,0:0:0:0:
258,362,712972,1,8,0:0:0:0:
59,180,713120,1,2,0:0:0:0:
297,219,713259,2,0,B|251:212|251:212|159:264,1,114.949996755104,8|2,0:0|0:0,0:0:0:0:
242,185,713502,1,2,0:0:0:0:
239,208,713575,1,2,0:0:0:0:
236,232,713649,1,2,0:0:0:0:
233,255,713722,5,4,0:0:0:0:
77,80,713870,1,2,0:0:0:0:
442,162,714019,5,8,0:0:0:0:
416,182,714094,1,0,0:0:0:0:
398,211,714169,1,2,0:0:0:0:
391,243,714244,1,0,0:0:0:0:
394,276,714319,1,2,0:0:0:0:
408,306,714394,1,0,0:0:0:0:
448,287,714469,5,8,0:0:0:0:
418,272,714544,1,0,0:0:0:0:
385,265,714619,1,2,0:0:0:0:
352,265,714694,1,0,0:0:0:0:
320,273,714769,1,2,0:0:0:0:
290,288,714844,1,0,0:0:0:0:
313,324,714919,5,8,0:0:0:0:
309,290,714994,1,0,0:0:0:0:
306,257,715069,1,2,0:0:0:0:
302,224,715144,1,2,0:0:0:0:
299,191,715219,1,2,0:0:0:0:
295,158,715294,1,0,0:0:0:0:
250,171,715369,5,8,0:0:0:0:
276,190,715444,1,0,0:0:0:0:
309,195,715519,1,2,0:0:0:0:
340,185,715594,1,0,0:0:0:0:
363,161,715669,1,2,0:0:0:0:
372,130,715744,1,0,0:0:0:0:
335,110,715819,5,8,0:0:0:0:
341,142,715894,1,0,0:0:0:0:
347,175,715969,1,2,0:0:0:0:
354,207,716044,1,0,0:0:0:0:
394,192,716119,5,8,0:0:0:0:
387,224,716194,1,0,0:0:0:0:
381,257,716269,1,2,0:0:0:0:
374,289,716344,1,2,0:0:0:0:
331,287,716419,5,8,0:0:0:0:
346,258,716494,1,0,0:0:0:0:
377,251,716569,1,2,0:0:0:0:
403,270,716644,1,2,0:0:0:0:
406,302,716719,1,2,0:0:0:0:
384,325,716794,1,0,0:0:0:0:
310,368,716917,6,0,L|242:374,5,47.5,8|0|2|0|2|0,0:0|0:0|0:0|0:0|0:0|0:0,0:0:0:0:
130,342,717369,5,8,0:0:0:0:
162,334,717444,1,0,0:0:0:0:
187,313,717519,1,2,0:0:0:0:
202,284,717595,1,2,0:0:0:0:
203,251,717670,1,2,0:0:0:0:
190,220,717745,1,0,0:0:0:0:
160,252,717821,5,8,0:0:0:0:
193,250,717896,1,0,0:0:0:0:
226,248,717972,1,8,0:0:0:0:
259,246,718047,1,0,0:0:0:0:
292,244,718123,1,2,0:0:0:0:
326,243,718199,1,0,0:0:0:0:
308,281,718276,5,2,0:0:0:0:
300,248,718352,1,0,0:0:0:0:
293,216,718429,1,8,0:0:0:0:
286,183,718505,1,0,0:0:0:0:
325,206,718582,5,8,0:0:0:0:
332,173,718658,1,0,0:0:0:0:
339,141,718735,1,2,0:0:0:0:
346,108,718811,1,2,0:0:0:0:
385,90,718888,5,8,0:0:0:0:
390,122,718964,1,0,0:0:0:0:
372,149,719041,1,2,0:0:0:0:
341,158,719117,1,2,0:0:0:0:
312,145,719194,1,2,0:0:0:0:
299,115,719270,1,0,0:0:0:0:
346,108,719347,5,8,0:0:0:0:
348,141,719422,1,0,0:0:0:0:
351,174,719497,1,2,0:0:0:0:
353,207,719573,1,0,0:0:0:0:
356,240,719648,1,2,0:0:0:0:
358,273,719723,1,2,0:0:0:0:
400,253,719799,5,8,0:0:0:0:
375,231,719874,1,0,0:0:0:0:
342,231,719949,1,2,0:0:0:0:
318,252,720025,1,0,0:0:0:0:
312,284,720100,1,2,0:0:0:0:
329,312,720175,1,0,0:0:0:0:
358,273,720251,5,8,0:0:0:0:
325,276,720326,1,0,0:0:0:0:
292,278,720401,1,2,0:0:0:0:
259,281,720477,1,0,0:0:0:0:
226,284,720552,1,2,0:0:0:0:
193,286,720627,1,2,0:0:0:0:
217,323,720703,5,8,0:0:0:0:
210,290,720778,1,0,0:0:0:0:
204,257,720853,1,2,0:0:0:0:
198,224,720929,1,2,0:0:0:0:
232,252,721005,5,8,0:0:0:0:
238,219,721080,1,0,0:0:0:0:
244,186,721155,1,2,0:0:0:0:
250,153,721231,1,2,0:0:0:0:
210,136,721306,5,8,0:0:0:0:
208,168,721381,1,0,0:0:0:0:
229,193,721456,1,2,0:0:0:0:
262,196,721532,1,2,0:0:0:0:
288,177,721607,1,2,0:0:0:0:
294,145,721682,1,0,0:0:0:0:
250,153,721759,6,0,L|225:99,5,47.5,8|0|8|0|2|0,0:0|0:0|0:0|0:0|0:0|0:0,0:0:0:0:
341,44,722193,5,2,0:0:0:0:
324,72,722266,1,0,0:0:0:0:
326,105,722338,1,2,0:0:0:0:
345,131,722414,1,0,0:0:0:0:
375,143,722490,1,0,0:0:0:0:
407,137,722566,1,0,0:0:0:0:
380,105,722642,5,8,0:0:0:0:
383,138,722718,1,0,0:0:0:0:
386,171,722794,1,0,0:0:0:0:
390,204,722868,1,0,0:0:0:0:
393,237,722942,1,2,0:0:0:0:
397,270,723016,1,2,0:0:0:0:
433,245,723091,5,8,0:0:0:0:
400,249,723165,1,0,0:0:0:0:
367,253,723239,1,2,0:0:0:0:
334,257,723313,1,2,0:0:0:0:
301,262,723388,6,0,L|313:217,1,47.5,8|0,0:0|0:0,0:0:0:0:
201,354,723568,5,2,0:0:0:0:
199,349,723643,1,0,0:0:0:0:
198,344,723719,5,2,0:0:0:0:
155,362,723794,1,2,0:0:0:0:
114,342,723870,1,2,0:0:0:0:
103,297,723946,1,2,0:0:0:0:
129,259,724022,5,10,0:0:0:0:
115,216,724097,1,2,0:0:0:0:
138,176,724173,1,2,0:0:0:0:
183,167,724249,1,2,0:0:0:0:
220,194,724325,5,10,0:0:0:0:
172,199,724400,1,2,0:0:0:0:
125,203,724476,1,2,0:0:0:0:
78,208,724552,1,2,0:0:0:0:
30,212,724628,5,10,0:0:0:0:
49,170,724703,1,2,0:0:0:0:
93,158,724779,1,2,0:0:0:0:
130,186,724855,1,2,0:0:0:0:
131,232,724931,5,10,0:0:0:0:
137,185,725006,1,2,0:0:0:0:
144,138,725082,1,2,0:0:0:0:
150,90,725158,1,2,0:0:0:0:
156,43,725234,5,10,0:0:0:0:
191,74,725310,1,2,0:0:0:0:
174,119,725385,1,2,0:0:0:0:
125,114,725461,1,2,0:0:0:0:
115,67,725537,6,0,B|125:115|125:115|111:162|111:162|127:226,1,142.5,6|0,0:0|0:0,0:0:0:0:
54,291,725840,6,0,B|124:310|124:310|216:278,1,142.5,6|0,0:0|0:0,0:0:0:0:
349,306,726143,5,8,0:0:0:0:
361,224,726218,1,8,0:0:0:0:
374,143,726294,1,8,0:0:0:0:
260,181,726446,6,0,L|180:153,1,71.2500027179719,2|0,0:0|0:0,0:0:0:0:
97,214,726749,6,0,P|131:236|136:284,1,71.2500027179719,2|0,0:0|0:0,0:0:0:0:
158,274,726976,1,0,0:0:0:0:
160,267,727052,1,0,0:0:0:0:
259,286,727203,6,0,L|349:277,1,71.2500027179719,2|0,0:0|0:0,0:0:0:0:
308,185,727506,6,0,L|398:176,1,71.2500027179719,2|0,0:0|0:0,0:0:0:0:
351,81,727809,6,0,L|441:72,1,71.2500027179719,2|0,0:0|0:0,0:0:0:0:
420,54,728036,1,0,0:0:0:0:
414,49,728112,1,2,0:0:0:0:
408,43,728188,1,2,0:0:0:0:
402,37,728264,5,8,0:0:0:0:
329,278,728415,1,8,0:0:0:0:
213,119,728567,5,2,0:0:0:0:
181,110,728641,1,0,0:0:0:0:
151,123,728715,1,8,0:0:0:0:
134,151,728789,1,0,0:0:0:0:
137,184,728864,1,2,0:0:0:0:
160,207,728938,1,0,0:0:0:0:
190,214,729012,6,0,L|178:279,1,47.5,8|0,0:0|0:0,0:0:0:0:
380,339,729173,1,2,0:0:0:0:
351,355,729246,1,0,0:0:0:0:
318,357,729320,1,8,0:0:0:0:
287,345,729394,1,0,0:0:0:0:
264,322,729468,6,0,L|276:387,1,47.5,2|2,0:0|0:0,0:0:0:0:
445,261,729616,1,8,0:0:0:0:
416,245,729689,1,0,0:0:0:0:
383,243,729763,1,2,0:0:0:0:
352,255,729836,1,0,0:0:0:0:
329,278,729910,6,0,L|341:213,1,47.5,8|0,0:0|0:0,0:0:0:0:
203,98,730094,1,2,0:0:0:0:
209,130,730169,1,2,0:0:0:0:
215,163,730245,1,8,0:0:0:0:
222,195,730321,1,0,0:0:0:0:
228,228,730397,6,0,L|167:211,1,47.5,2|0,0:0|0:0,0:0:0:0:
338,77,730523,1,8,0:0:0:0:
331,109,730603,1,0,0:0:0:0:
325,142,730684,6,0,L|386:124,1,47.5,2|0,0:0|0:0,0:0:0:0:
467,103,730817,2,0,L|528:85,1,47.5,8|0,0:0|0:0,0:0:0:0:
443,367,730966,5,8,0:0:0:0:
432,285,731040,1,8,0:0:0:0:
421,204,731115,2,0,L|482:188,2,47.5,8|0|4,0:0|0:0|0:1,0:0:0:0:
350,304,731325,6,0,P|316:297|255:311,1,71.2500027179719,2|0,0:0|0:0,0:0:0:0:
186,355,731625,6,0,L|175:268,1,71.2500027179719,4|0,0:1|0:0,0:0:0:0:
145,286,731850,1,0,0:0:0:0:
150,272,731925,1,4,0:1:0:0:
49,266,732075,6,0,L|60:179,1,71.2500027179719,2|4,0:0|0:1,0:0:0:0:
151,171,732375,6,0,P|185:185|238:182,1,71.2500027179719,2|4,0:0|0:1,0:0:0:0:
79,102,732675,6,0,L|68:15,1,71.2500027179719,2|4,0:0|0:1,0:0:0:0:
98,62,732900,1,0,0:0:0:0:
104,49,732975,1,2,0:0:0:0:
110,36,733050,1,2,0:0:0:0:
116,23,733125,5,8,0:0:0:0:
145,260,733275,1,8,0:0:0:0:
265,110,733425,6,0,L|203:115,1,35.625001358986,2|0,0:0|0:0,0:0:0:0:
209,319,733575,1,8,0:0:0:0:
222,297,733650,1,0,0:0:0:0:
229,274,733725,1,2,0:0:0:0:
229,249,733800,1,0,0:0:0:0:
222,225,733876,6,0,L|289:219,1,47.5,8|0,0:0|0:0,0:0:0:0:
440,319,734028,1,2,0:0:0:0:
407,314,734103,1,2,0:0:0:0:
374,319,734179,1,8,0:0:0:0:
344,334,734255,1,0,0:0:0:0:
321,357,734331,6,0,L|329:295,1,47.5,2|0,0:0|0:0,0:0:0:0:
356,85,734482,1,8,0:0:0:0:
361,117,734557,1,0,0:0:0:0:
366,150,734633,1,2,0:0:0:0:
371,183,734709,1,2,0:0:0:0:
376,216,734785,6,0,L|424:196,1,47.5,8|0,0:0|0:0,0:0:0:0:
291,12,734937,1,2,0:0:0:0:
270,37,735012,1,0,0:0:0:0:
259,68,735088,1,8,0:0:0:0:
259,101,735164,1,0,0:0:0:0:
270,132,735240,6,0,L|225:149,1,47.5,2|8,0:0|0:0,0:0:0:0:
71,82,735391,1,8,0:0:0:0:
101,68,735467,1,8,0:0:0:0:
132,57,735543,6,0,L|114:101,1,47.5,2|0,0:0|0:0,0:0:0:0:
107,240,735752,6,0,L|51:232,1,47.5,2|2,0:0|0:0,0:0:0:0:
161,320,735862,5,8,0:0:0:0:
240,300,735937,1,8,0:0:0:0:
320,281,736012,1,8,0:0:0:0:
402,354,736162,6,0,L|472:360,1,71.2500027179719,4|0,0:1|0:0,0:0:0:0:
430,256,736463,6,0,P|455:230|463:196,1,71.2500027179719,4|0,0:1|0:0,0:0:0:0:
488,220,736687,1,0,0:0:0:0:
499,211,736762,1,4,0:1:0:0:
480,102,736912,6,0,L|384:94,1,71.2500027179719,2|4,0:0|0:1,0:0:0:0:
347,181,737212,6,0,L|251:189,1,71.2500027179719,2|4,0:0|0:1,0:0:0:0:
228,103,737512,6,0,L|132:95,1,71.2500027179719,2|4,0:0|0:1,0:0:0:0:
129,66,737737,1,0,0:0:0:0:
132,79,737812,1,2,0:0:0:0:
135,93,737887,1,2,0:0:0:0:
139,107,737962,5,8,0:0:0:0:
406,129,738109,1,8,0:0:0:0:
201,242,738257,6,0,L|210:192,1,47.5,2|0,0:0|0:0,0:0:0:0:
446,274,738405,5,8,0:0:0:0:
413,278,738478,1,0,0:0:0:0:
380,282,738552,1,2,0:0:0:0:
347,286,738626,1,0,0:0:0:0:
314,290,738700,6,0,B|326:279|326:279|370:275,1,47.5,8|0,0:0|0:0,0:0:0:0:
215,353,738854,5,2,0:0:0:0:
182,349,738931,1,2,0:0:0:0:
149,345,739009,1,8,0:0:0:0:
116,341,739086,1,0,0:0:0:0:
83,337,739163,6,0,B|95:348|95:348|139:352,1,47.5,2|0,0:0|0:0,0:0:0:0:
346,210,739318,5,8,0:0:0:0:
373,228,739395,1,0,0:0:0:0:
392,255,739473,1,2,0:0:0:0:
400,287,739548,1,2,0:0:0:0:
395,320,739623,6,0,L|447:309,1,47.5,8|0,0:0|0:0,0:0:0:0:
265,228,739774,5,2,0:0:0:0:
263,194,739849,1,0,0:0:0:0:
275,164,739924,1,8,0:0:0:0:
298,140,740000,1,0,0:0:0:0:
329,127,740076,6,0,L|318:80,1,47.5,2|8,0:0|0:0,0:0:0:0:
200,272,740226,1,8,0:0:0:0:
223,296,740302,1,8,0:0:0:0:
254,310,740377,6,0,L|243:356,1,47.5,2|0,0:0|0:0,0:0:0:0:
285,156,740528,2,0,L|274:202,1,47.5,8|0,0:0|0:0,0:0:0:0:
512,281,740679,5,8,0:0:0:0:
430,287,740754,1,8,0:0:0:0:
348,294,740829,2,0,L|361:240,1,47.5,8|0,0:0|0:0,0:0:0:0:
469,197,741020,6,0,L|491:106,1,71.2500027179719,4|0,0:1|0:0,0:0:0:0:
365,120,741321,6,0,L|387:29,1,71.2500027179719,4|0,0:1|0:0,0:0:0:0:
348,49,741547,1,0,0:0:0:0:
360,42,741623,1,4,0:1:0:0:
275,177,741773,6,0,P|231:169|201:177,1,71.2500027179719,4|4,0:1|0:1,0:0:0:0:
243,68,742075,6,0,P|207:71|148:57,1,71.2500027179719,2|4,0:0|0:1,0:0:0:0:
89,150,742376,6,0,L|107:234,1,71.2500027179719,2|4,0:0|0:1,0:0:0:0:
96,249,742602,1,0,0:0:0:0:
106,239,742677,1,2,0:0:0:0:
117,230,742752,1,2,0:0:0:0:
128,220,742829,5,8,0:0:0:0:
85,13,742979,1,8,0:0:0:0:
237,54,743130,6,0,L|175:51,1,47.5,2|0,0:0|0:0,0:0:0:0:
69,163,743281,1,8,0:0:0:0:
96,144,743356,1,0,0:0:0:0:
128,137,743432,1,2,0:0:0:0:
160,144,743507,1,0,0:0:0:0:
187,163,743582,6,0,L|234:165,1,47.5,8|0,0:0|0:0,0:0:0:0:
375,47,743733,1,2,0:0:0:0:
369,79,743807,1,0,0:0:0:0:
364,112,743882,1,8,0:0:0:0:
359,145,743956,1,0,0:0:0:0:
354,178,744031,6,0,L|406:163,1,47.5,2|0,0:0|0:0,0:0:0:0:
232,217,744180,1,8,0:0:0:0:
238,249,744254,1,0,0:0:0:0:
243,282,744329,1,2,0:0:0:0:
248,315,744403,1,0,0:0:0:0:
253,348,744479,6,0,L|201:333,1,47.5,8|0,0:0|0:0,0:0:0:0:
180,152,744628,1,2,0:0:0:0:
209,136,744703,1,0,0:0:0:0:
242,133,744777,1,8,0:0:0:0:
273,143,744851,1,0,0:0:0:0:
298,165,744927,6,0,L|322:121,1,47.5,2|2,0:0|0:0,0:0:0:0:
83,66,745076,1,2,0:0:0:0:
83,66,745150,1,2,0:0:0:0:
83,66,745225,6,0,L|59:21,1,47.5,8|2,0:0|0:0,0:0:0:0:
5,189,745374,1,2,0:0:0:0:
23,183,745449,1,2,0:0:0:0:
41,177,745524,5,12,0:0:0:0:
40,209,745598,1,0,0:0:0:0:
57,237,745673,1,2,0:0:0:0:
87,252,745747,1,2,0:0:0:0:
119,248,745822,1,2,0:0:0:0:
145,227,745897,1,0,0:0:0:0:
107,210,745971,5,8,0:0:0:0:
110,243,746045,1,0,0:0:0:0:
114,276,746120,1,2,0:0:0:0:
118,309,746194,1,0,0:0:0:0:
122,342,746269,1,2,0:0:0:0:
126,375,746344,1,0,0:0:0:0:
86,358,746419,5,12,0:0:0:0:
119,354,746493,1,0,0:0:0:0:
152,351,746568,1,2,0:0:0:0:
185,347,746644,1,2,0:0:0:0:
218,344,746720,1,2,0:0:0:0:
251,341,746796,1,0,0:0:0:0:
228,376,746872,5,8,0:0:0:0:
206,351,746948,1,0,0:0:0:0:
199,319,747024,1,2,0:0:0:0:
208,287,747100,1,0,0:0:0:0:
232,264,747176,1,2,0:0:0:0:
264,256,747252,1,0,0:0:0:0:
250,297,747329,5,12,0:0:0:0:
220,281,747405,1,0,0:0:0:0:
187,275,747481,1,2,0:0:0:0:
154,278,747557,1,0,0:0:0:0:
123,289,747633,6,0,L|133:239,1,47.5,8|0,0:0|0:0,0:0:0:0:
156,93,747810,1,2,0:0:0:0:
152,84,747885,1,2,0:0:0:0:
148,74,747961,5,8,0:0:0:0:
177,88,748036,1,0,0:0:0:0:
210,93,748112,1,0,0:0:0:0:
242,88,748188,1,0,0:0:0:0:
272,72,748264,1,2,0:0:0:0:
295,49,748339,1,0,0:0:0:0:
262,20,748416,5,8,0:0:0:0:
260,53,748491,1,0,0:0:0:0:
258,86,748567,1,8,0:0:0:0:
256,119,748643,1,0,0:0:0:0:
255,152,748719,1,6,0:0:0:0:
253,186,748794,1,0,0:0:0:0:
218,161,748870,5,6,0:0:0:0:
244,141,748945,1,0,0:0:0:0:
276,138,749022,1,0,0:0:0:0:
306,152,749097,1,0,0:0:0:0:
324,180,749173,1,0,0:0:0:0:
324,213,749248,1,0,0:0:0:0:
284,196,749325,5,8,0:0:0:0:
310,176,749400,1,0,0:0:0:0:
342,169,749476,1,2,0:0:0:0:
374,177,749552,1,0,0:0:0:0:
400,198,749628,1,2,0:0:0:0:
415,227,749703,1,0,0:0:0:0:
411,260,749779,6,0,L|471:253,1,47.5,8|0,0:0|0:0,0:0:0:0:
248,276,749955,1,2,0:0:0:0:
244,267,750029,1,2,0:0:0:0:
241,257,750103,5,8,0:0:0:0:
209,266,750177,1,0,0:0:0:0:
178,258,750251,1,2,0:0:0:0:
155,234,750325,1,2,0:0:0:0:
198,225,750400,5,8,0:0:0:0:
179,252,750474,1,0,0:0:0:0:
168,283,750548,1,2,0:0:0:0:
166,316,750622,1,2,0:0:0:0:
173,349,750697,1,2,0:0:0:0:
188,378,750771,1,0,0:0:0:0:
146,371,750846,5,8,0:0:0:0:
175,355,750920,1,0,0:0:0:0:
207,347,750994,1,2,0:0:0:0:
240,346,751068,1,0,0:0:0:0:
273,353,751143,1,2,0:0:0:0:
303,367,751217,1,2,0:0:0:0:
262,379,751291,5,8,0:0:0:0:
287,357,751365,1,0,0:0:0:0:
316,342,751439,1,2,0:0:0:0:
349,334,751514,1,2,0:0:0:0:
382,333,751588,1,2,0:0:0:0:
414,340,751662,1,0,0:0:0:0:
384,370,751737,5,8,0:0:0:0:
384,336,751811,1,0,0:0:0:0:
385,303,751885,1,0,0:0:0:0:
386,270,751959,1,0,0:0:0:0:
387,237,752034,1,2,0:0:0:0:
388,203,752110,1,0,0:0:0:0:
389,169,752186,6,0,B|407:178|407:178|405:225,1,47.5,8|0,0:0|0:0,0:0:0:0:
415,0,752338,1,2,0:0:0:0:
422,5,752414,1,2,0:0:0:0:
429,10,752490,5,10,0:0:0:0:
383,1,752566,1,2,0:0:0:0:
341,21,752643,1,2,0:0:0:0:
319,63,752718,1,2,0:0:0:0:
326,109,752795,5,10,0:0:0:0:
279,105,752871,1,2,0:0:0:0:
231,102,752947,1,2,0:0:0:0:
184,98,753023,1,2,0:0:0:0:
137,94,753099,5,10,0:0:0:0:
141,142,753175,1,2,0:0:0:0:
146,189,753251,1,2,0:0:0:0:
151,236,753327,1,2,0:0:0:0:
156,283,753403,5,10,0:0:0:0:
187,247,753480,1,2,0:0:0:0:
230,228,753556,1,2,0:0:0:0:
277,230,753632,1,2,0:0:0:0:
318,252,753709,5,10,0:0:0:0:
328,207,753785,1,2,0:0:0:0:
361,173,753861,1,2,0:0:0:0:
406,160,753937,1,2,0:0:0:0:
459,121,754013,5,10,0:0:0:0:
452,128,754089,1,8,0:0:0:0:
443,139,754165,1,8,0:0:0:0:
426,149,754242,1,8,0:0:0:0:
403,157,754318,1,8,0:0:0:0:
375,155,754394,1,8,0:0:0:0:
348,135,754470,1,8,0:0:0:0:
337,98,754546,1,8,0:0:0:0:
301,75,754622,1,8,0:0:0:0:
253,77,754698,1,8,0:0:0:0:
218,116,754775,1,8,0:0:0:0:
188,164,754851,1,8,0:0:0:0:
126,169,754927,1,8,0:0:0:0:
87,114,755003,1,8,0:0:0:0:
116,49,755079,1,8,0:0:0:0:
191,48,755155,1,8,0:0:0:0:
227,120,755231,5,2,0:0:0:0:
233,107,755306,1,0,0:0:0:0:
239,94,755382,1,8,0:0:0:0:
245,81,755458,1,0,0:0:0:0:
251,68,755534,2,0,L|269:183,1,95,2|8,0:0|0:0,0:0:0:0:
417,125,755837,2,0,L|399:240,1,95,2|8,0:0|0:0,0:0:0:0:
212,259,756140,1,2,0:0:0:0:
207,245,756215,1,2,0:0:0:0:
202,231,756291,6,0,L|88:227,1,95,8|2,0:0|0:0,0:0:0:0:
156,64,756594,2,0,L|250:67,1,95,8|2,0:0|0:0,0:0:0:0:
197,252,756897,2,0,L|291:255,1,95,8|2,0:0|0:0,0:0:0:0:
245,50,757200,1,8,0:0:0:0:
173,344,757352,5,2,0:0:0:0:
245,50,757503,1,8,0:0:0:0:
249,288,757655,5,2,0:0:0:0:
267,302,757733,1,0,0:0:0:0:
290,307,757812,1,8,0:0:0:0:
313,302,757891,1,0,0:0:0:0:
332,288,757970,1,2,0:0:0:0:
342,267,758049,1,0,0:0:0:0:
343,243,758128,5,8,0:0:0:0:
308,250,758206,1,0,0:0:0:0:
273,257,758285,1,2,0:0:0:0:
238,264,758364,1,0,0:0:0:0:
203,270,758443,1,8,0:0:0:0:
168,277,758522,1,0,0:0:0:0:
133,284,758602,6,0,L|141:228,5,47.5,2|0|8|0|2|2,0:0|0:0|0:0|0:0|0:0|0:0,0:0:0:0:
396,173,759054,6,0,L|388:116,5,47.5,8|0|2|2|8|0,0:0|0:0|0:0|0:0|0:0|0:0,0:0:0:0:
269,53,759480,5,2,0:0:0:0:
258,123,759554,1,0,0:0:0:0:
248,194,759629,1,8,0:0:0:0:
238,264,759703,1,0,0:0:0:0:
228,335,759778,5,2,0:0:0:0:
297,321,759853,1,2,0:0:0:0:
367,307,759927,1,2,0:0:0:0:
437,294,760001,1,2,0:0:0:0:
507,280,760076,5,2,0:0:0:0:
496,271,760153,1,0,0:0:0:0:
484,262,760230,1,0,0:0:0:0:
472,253,760306,1,0,0:0:0:0:
460,243,760383,2,0,B|477:294|477:294|463:357,1,95,2|8,0:0|0:0,0:0:0:0:
398,133,760689,2,0,B|381:82|381:82|395:19,1,95,2|8,0:0|0:0,0:0:0:0:
421,82,760918,1,0,0:0:0:0:
406,83,760994,1,2,0:0:0:0:
392,84,761071,1,0,0:0:0:0:
378,85,761148,6,0,L|409:182,1,95,8|2,0:0|0:0,0:0:0:0:
246,208,761451,2,0,L|250:309,1,95,8|2,0:0|0:0,0:0:0:0:
103,84,761751,2,0,L|81:183,1,95,8|2,0:0|0:0,0:0:0:0:
42,151,761976,1,0,0:0:0:0:
43,165,762051,1,8,0:0:0:0:
44,179,762126,1,0,0:0:0:0:
46,193,762201,5,2,0:0:0:0:
378,85,762351,1,8,0:0:0:0:
47,206,762501,5,2,0:0:0:0:
64,189,762576,1,0,0:0:0:0:
84,177,762652,1,8,0:0:0:0:
107,170,762728,1,0,0:0:0:0:
130,167,762804,1,2,0:0:0:0:
154,169,762879,1,0,0:0:0:0:
176,175,762955,5,8,0:0:0:0:
150,198,763030,1,0,0:0:0:0:
115,203,763106,1,2,0:0:0:0:
84,186,763182,1,0,0:0:0:0:
70,154,763258,1,8,0:0:0:0:
76,120,763333,1,0,0:0:0:0:
102,96,763409,5,2,0:0:0:0:
100,143,763485,1,0,0:0:0:0:
98,190,763561,1,8,0:0:0:0:
96,238,763637,1,0,0:0:0:0:
94,285,763713,1,2,0:0:0:0:
92,333,763788,1,2,0:0:0:0:
91,380,763864,5,8,0:0:0:0:
41,330,763939,1,0,0:0:0:0:
32,261,764016,1,2,0:0:0:0:
68,201,764091,1,2,0:0:0:0:
134,176,764167,1,8,0:0:0:0:
201,197,764242,1,0,0:0:0:0:
240,255,764319,5,2,0:0:0:0:
313,289,764394,1,0,0:0:0:0:
387,258,764470,1,8,0:0:0:0:
415,182,764546,1,0,0:0:0:0:
377,111,764622,5,2,0:0:0:0:
299,92,764697,1,8,0:0:0:0:
229,132,764773,1,8,0:0:0:0:
220,212,764850,1,8,0:0:0:0:
271,274,764925,5,2,0:0:0:0:
268,260,765001,1,0,0:0:0:0:
265,245,765078,1,8,0:0:0:0:
262,230,765154,1,0,0:0:0:0:
260,215,765231,2,0,B|241:234|241:234|254:312,1,95,2|8,0:0|0:0,0:0:0:0:
219,100,765537,2,0,B|238:81|238:81|225:3,1,95,2|8,0:0|0:0,0:0:0:0:
208,53,765766,1,0,0:0:0:0:
222,54,765842,1,2,0:0:0:0:
236,56,765919,1,0,0:0:0:0:
250,58,765996,6,0,L|269:169,1,95,8|2,0:0|0:0,0:0:0:0:
487,100,766300,2,0,L|468:211,1,95,8|2,0:0|0:0,0:0:0:0:
204,236,766603,2,0,L|93:217,1,95,8|2,0:0|0:0,0:0:0:0:
127,197,766830,1,0,0:0:0:0:
129,211,766905,1,8,0:0:0:0:
131,225,766981,1,0,0:0:0:0:
133,239,767057,5,2,0:0:0:0:
480,184,767209,1,8,0:0:0:0:
193,297,767361,5,2,0:0:0:0:
206,277,767436,1,0,0:0:0:0:
213,254,767512,1,8,0:0:0:0:
213,231,767588,1,0,0:0:0:0:
207,208,767664,1,2,0:0:0:0:
195,187,767739,1,0,0:0:0:0:
178,171,767815,5,8,0:0:0:0:
185,205,767890,1,0,0:0:0:0:
210,229,767966,1,2,0:0:0:0:
245,236,768042,1,0,0:0:0:0:
277,223,768118,1,8,0:0:0:0:
297,194,768193,1,0,0:0:0:0:
298,158,768270,5,2,0:0:0:0:
264,191,768345,1,0,0:0:0:0:
258,237,768421,1,8,0:0:0:0:
281,277,768497,1,0,0:0:0:0:
325,295,768573,1,2,0:0:0:0:
369,282,768648,1,0,0:0:0:0:
396,244,768724,5,8,0:0:0:0:
337,248,768799,1,0,0:0:0:0:
278,253,768875,1,2,0:0:0:0:
219,258,768951,1,0,0:0:0:0:
160,262,769027,1,8,0:0:0:0:
100,267,769102,1,0,0:0:0:0:
41,272,769179,5,2,0:0:0:0:
102,236,769254,1,0,0:0:0:0:
173,233,769330,1,8,0:0:0:0:
236,263,769406,1,0,0:0:0:0:
279,319,769482,5,2,0:0:0:0:
346,337,769557,1,2,0:0:0:0:
410,309,769633,1,2,0:0:0:0:
443,248,769709,1,2,0:0:0:0:
430,179,769785,5,2,0:0:0:0:
427,193,769861,1,0,0:0:0:0:
424,206,769936,1,8,0:0:0:0:
421,220,770012,1,0,0:0:0:0:
419,234,770088,2,0,B|366:230|366:230|301:242,1,95,2|8,0:0|0:0,0:0:0:0:
90,297,770391,2,0,B|143:301|143:301|208:289,1,95,2|8,0:0|0:0,0:0:0:0:
142,266,770618,5,0,0:0:0:0:
141,280,770693,1,2,0:0:0:0:
141,294,770769,1,0,0:0:0:0:
140,308,770845,2,0,L|256:288,1,95,8|2,0:0|0:0,0:0:0:0:
192,104,771149,2,0,L|308:84,1,95,8|2,0:0|0:0,0:0:0:0:
342,326,771452,2,0,L|458:306,1,95,8|2,0:0|0:0,0:0:0:0:
471,275,771679,1,0,0:0:0:0:
466,288,771754,1,8,0:0:0:0:
462,302,771830,1,0,0:0:0:0:
458,315,771906,5,2,0:0:0:0:
391,25,772058,1,8,0:0:0:0:
502,196,772209,5,2,0:0:0:0:
478,190,772283,1,0,0:0:0:0:
455,192,772357,1,8,0:0:0:0:
433,201,772431,1,0,0:0:0:0:
415,217,772506,1,2,0:0:0:0:
402,237,772580,1,0,0:0:0:0:
396,259,772654,5,8,0:0:0:0:
426,241,772728,1,0,0:0:0:0:
447,213,772802,1,2,0:0:0:0:
456,178,772876,1,0,0:0:0:0:
451,143,772951,1,8,0:0:0:0:
433,113,773025,1,0,0:0:0:0:
405,92,773100,5,2,0:0:0:0:
408,139,773174,1,0,0:0:0:0:
412,186,773248,1,8,0:0:0:0:
416,234,773322,1,0,0:0:0:0:
419,281,773397,1,2,0:0:0:0:
423,328,773471,1,0,0:0:0:0:
427,376,773545,5,8,0:0:0:0:
456,311,773619,1,0,0:0:0:0:
450,241,773693,1,2,0:0:0:0:
411,182,773767,1,0,0:0:0:0:
349,149,773842,1,8,0:0:0:0:
279,149,773916,1,0,0:0:0:0:
217,183,773990,5,2,0:0:0:0:
137,186,774069,1,0,0:0:0:0:
85,124,774148,1,8,0:0:0:0:
102,45,774226,1,0,0:0:0:0:
173,10,774305,5,2,0:0:0:0:
246,44,774383,1,0,0:0:0:0:
286,114,774461,1,8,0:0:0:0:
359,147,774540,1,0,0:0:0:0:
438,132,774619,5,6,0:0:0:0:
424,101,774694,1,8,0:0:0:0:
400,79,774770,1,6,0:0:0:0:
369,68,774846,1,8,0:0:0:0:
336,70,774922,1,6,0:0:0:0:
307,86,774997,1,8,0:0:0:0:
286,114,775073,5,6,0:0:0:0:
319,110,775148,1,8,0:0:0:0:
352,106,775224,1,6,0:0:0:0:
385,102,775300,1,8,0:0:0:0:
418,98,775376,1,6,0:0:0:0:
451,95,775451,1,8,0:0:0:0:
484,91,775528,5,6,0:0:0:0:
452,81,775603,1,8,0:0:0:0:
419,87,775679,1,6,0:0:0:0:
392,106,775755,1,8,0:0:0:0:
376,134,775831,1,6,0:0:0:0:
373,167,775909,1,8,0:0:0:0:
384,198,775987,1,6,0:0:0:0:
408,221,776065,1,8,0:0:0:0:
439,232,776143,1,6,0:0:0:0:
465,252,776221,1,8,0:0:0:0:
480,281,776299,1,6,0:0:0:0:
482,314,776377,1,8,0:0:0:0:
471,345,776455,1,6,0:0:0:0:
448,368,776533,1,8,0:0:0:0:
417,380,776611,1,6,0:0:0:0:
384,378,776689,1,8,0:0:0:0:
350,362,776768,1,6,0:0:0:0:
329,336,776846,1,8,0:0:0:0:
320,304,776924,1,6,0:0:0:0:
326,272,777002,1,8,0:0:0:0:
345,245,777081,6,0,L|283:255,5,47.5,2|0|0|0|0|0,0:0|0:0|0:0|0:0|0:0|0:0,0:0:0:0:
160,296,777535,6,0,L|222:305,5,47.5,8|0|0|0|0|0,0:0|0:0|0:0|0:0|0:0|0:0,0:0:0:0:
355,230,777990,6,0,L|401:222,5,47.5,2|0|0|0|0|0,0:0|0:0|0:0|0:0|0:0|0:0,0:0:0:0:
153,281,778471,6,0,L|106:273,5,47.5,8|0|0|0|0|0,0:0|0:0|0:0|0:0|0:0|0:0,0:0:0:0:
234,127,778910,6,0,L|225:70,3,47.5,2|0|0|0,0:0|0:0|0:0|0:0,0:0:0:0:
134,159,779202,5,8,0:0:0:0:
337,93,779362,1,2,0:0:0:0:
381,280,779522,6,0,L|390:222,5,47.5,2|0|0|0|0|0,0:0|0:0|0:0|0:0|0:0|0:0,0:0:0:0:
160,327,779948,6,0,L|151:269,5,47.5,8|0|0|0|0|0,0:0|0:0|0:0|0:0|0:0|0:0,0:0:0:0:
457,311,780393,6,0,L|466:253,5,47.5,2|0|0|0|0|0,0:0|0:0|0:0|0:0|0:0|0:0,0:0:0:0:
80,365,780839,6,0,L|71:307,5,47.5,8|0|0|0|0|0,0:0|0:0|0:0|0:0|0:0|0:0,0:0:0:0:
385,226,781284,6,0,L|394:168,3,47.5,2|0|0|0,0:0|0:0|0:0|0:0,0:0:0:0:
144,256,781593,6,0,L|135:198,3,47.5,8|0|0|0,0:0|0:0|0:0|0:0,0:0:0:0:
306,340,781896,5,2,0:0:0:0:
269,279,781971,1,0,0:0:0:0:
259,209,782047,1,0,0:0:0:0:
275,140,782123,1,0,0:0:0:0:
315,82,782199,1,2,0:0:0:0:
375,43,782274,1,0,0:0:0:0:
446,39,782350,5,8,0:0:0:0:
442,110,782426,1,0,0:0:0:0:
403,170,782501,1,2,0:0:0:0:
345,210,782577,1,0,0:0:0:0:
276,226,782653,1,0,0:0:0:0:
206,216,782729,1,0,0:0:0:0:
145,179,782805,6,0,L|167:116,3,47.5,2|0|0|0,0:0|0:0|0:0|0:0,0:0:0:0:
277,135,783161,5,12,0:0:0:0:
217,293,783309,1,12,0:0:0:0:
233,71,783458,5,12,0:0:0:0:
254,355,783606,1,12,0:0:0:0:
162,45,783755,5,12,0:0:0:0:
326,369,783903,1,12,0:0:0:0:
86,55,784052,5,12,0:0:0:0:
401,374,784200,1,12,0:0:0:0:
0,196,784349,5,12,0:0:0:0:
512,126,784497,1,12,0:0:0:0:
78,4,784646,1,12,0:0:0:0:
453,384,784794,1,12,0:0:0:0:
453,384,785265,6,0,B|451:354|442:330|387:319|373:348|362:370|362:370|362:378|362:378|324:364|295:389|295:389|277:369|276:294|361:253|403:257|403:257|346:154|429:78|429:78|303:43|303:43|245:144|266:203|266:203|190:266|193:341|193:341|144:160|3:301|98:376|153:333|153:333|186:312|146:194|146:194|136:126|186:29|186:29|69:37|69:37|37:116|36:178|36:178|224:126|469:217|469:217|472:159|512:133,1,2476.65007558136,6|0,0:0|3:0,0:0:0:0:
