osu file format v14

[General]
AudioFilename: audio.mp3
AudioLeadIn: 0
PreviewTime: 370795
Countdown: 1
SampleSet: Normal
StackLeniency: 0.2
Mode: 0
LetterboxInBreaks: 0
WidescreenStoryboard: 0

[Editor]
Bookmarks: 55554,65852,77046,82419,87791,97641,135020,138696,219134,231045,254575,271045,281634,291780,303543,352265,380777,395586,400169,400794,410794,423086,499912,503743
DistanceSpacing: 1
BeatDivisor: 4
GridSize: 8
TimelineZoom: 3.099999

[Metadata]
Title:Outer Isolation
TitleUnicode:Outer Isolation
Artist:Vektor
ArtistUnicode:Vektor
Creator:Fenza
Version:Desolation
Source:
Tags:Featured artist Outer Isolation sci-fi space blackened progressive technical thrash metal marathon deathstream rsi english
BeatmapID:1350433
BeatmapSetID:636432

[Difficulty]
HPDrainRate:5
CircleSize:4.7
OverallDifficulty:9.1
ApproachRate:9.6
SliderMultiplier:1.7
SliderTickRate:1

[Events]
//Background and Video events
0,0,"taken from mazzerin with permission.jpg",0,0
//Break Periods
2,306227,322609
2,424510,434584
//Storyboard Layer 0 (Background)
//Storyboard Layer 1 (Fail)
//Storyboard Layer 2 (Pass)
//Storyboard Layer 3 (Foreground)
//Storyboard Layer 4 (Overlay)
//Storyboard Sound Samples

[TimingPoints]
34046,447.761194029851,3,1,5,60,1,0
41881,-100,3,2,5,5,0,0
41956,-100,3,1,5,50,0,0
47478,442.477876106195,3,1,5,60,1,0
50132,463.320463320463,4,1,5,40,1,0
51058,428.571428571429,4,1,5,40,1,0
51486,455.062571103527,3,1,5,60,1,0
52851,447.761194029851,4,1,5,20,1,0
55538,-100,3,1,5,50,0,0
56210,-100,3,1,5,20,0,0
56434,-100,3,1,5,50,0,0
59269,-100,3,2,5,20,0,0
59567,-100,3,1,5,50,0,0
61582,-100,3,2,5,20,0,0
61806,-100,3,1,5,50,0,0
64269,-100,3,2,0,20,0,0
64493,-100,3,1,5,50,0,0
66955,-100,3,2,5,20,0,0
67179,-100,3,1,5,50,0,0
72329,-100,3,2,5,20,0,0
72552,-100,3,1,5,50,0,0
82403,-166.666666666667,3,1,5,50,0,0
82849,-166.666666666667,3,1,5,20,0,0
83521,-166.666666666667,3,1,5,50,0,0
83969,-166.666666666667,3,1,5,20,0,0
84416,-166.666666666667,3,1,5,50,0,0
84640,-166.666666666667,3,1,5,20,0,0
84864,-166.666666666667,3,1,5,50,0,0
85312,-166.666666666667,3,1,5,20,0,0
85760,-166.666666666667,3,1,5,50,0,0
85984,-166.666666666667,3,1,5,20,0,0
86207,-166.666666666667,3,1,5,50,0,0
86655,-166.666666666667,3,2,5,20,0,0
87775,-100,3,1,5,50,0,0
93148,-166.666666666667,3,1,5,50,0,0
93372,-166.666666666667,3,2,5,20,0,0
93819,-166.666666666667,3,2,5,50,0,0
94267,-166.666666666667,3,1,5,50,0,0
94715,-166.666666666667,3,2,5,20,0,0
95610,-166.666666666667,3,1,5,50,0,0
96058,-166.666666666667,3,2,5,20,0,0
96954,-166.666666666667,3,1,5,50,0,0
97402,-166.666666666667,3,2,5,20,0,0
98521,-100,3,1,5,50,0,0
109269,294.117647058824,4,1,5,50,1,0
116327,-100,4,1,6,50,0,0
118680,-90.9090909090909,4,1,6,50,0,0
126916,-90.9090909090909,4,1,5,50,0,0
129269,-90.9090909090909,4,1,6,50,0,0
138680,294.117647058824,5,1,5,50,1,1
138680,-83.3333333333333,5,1,6,60,0,1
150150,252.100840336134,5,1,5,50,1,0
150150,-83.3333333333333,5,1,6,50,0,1
150402,-200,5,1,6,50,0,1
150591,-200,5,2,6,5,0,1
150654,-83.3333333333333,5,1,6,50,0,1
150959,-83.3333333333333,5,1,6,5,0,1
151033,294.117647058824,4,1,6,60,1,0
169856,-83.3333333333333,4,1,5,50,0,1
170077,-83.3333333333333,4,1,6,5,0,1
170150,-83.3333333333333,4,1,6,30,0,1
170297,-83.3333333333333,4,1,6,35,0,1
170444,-83.3333333333333,4,1,6,40,0,1
170591,-83.3333333333333,4,1,6,45,0,1
170738,-83.3333333333333,4,1,6,50,0,1
170885,-83.3333333333333,4,1,6,55,0,1
171033,294.117647058824,3,1,5,60,1,1
171033,-83.3333333333333,3,1,5,42,0,1
172797,294.117647058824,4,1,6,60,1,0
182208,-83.3333333333333,4,1,5,50,0,1
182429,-83.3333333333333,4,1,5,5,0,1
182502,-83.3333333333333,4,1,5,30,0,1
182649,-83.3333333333333,4,1,5,35,0,1
182797,-83.3333333333333,4,1,5,40,0,1
182944,-83.3333333333333,4,1,5,45,0,1
183091,-83.3333333333333,4,1,5,50,0,1
183238,-83.3333333333333,4,1,5,55,0,1
183385,294.117647058824,3,1,5,60,1,0
183385,-83.3333333333333,3,1,5,42,0,1
185149,-166.666666666667,3,1,6,40,0,0
185223,-166.666666666667,3,2,5,30,0,0
185811,-166.666666666667,3,2,5,5,0,0
185885,-100,3,1,5,50,0,0
186032,-100,3,1,5,50,0,0
186326,294.117647058824,4,1,6,60,1,0
195737,294.117647058824,5,1,5,60,1,1
195737,-83.3333333333333,5,1,6,60,0,1
207207,252.100840336134,5,1,5,50,1,1
207207,-83.3333333333333,5,1,6,50,0,1
207459,-200,5,1,6,50,0,1
207648,-200,5,1,6,5,0,1
207711,-83.3333333333333,5,1,6,50,0,1
208026,-83.3333333333333,5,1,6,5,0,1
208089,294.117647058824,4,1,6,60,1,0
217500,-100,4,1,5,60,0,1
217647,-100,4,1,6,45,0,1
217794,-100,4,1,6,50,0,1
217941,-100,4,1,6,55,0,1
218089,-100,4,1,6,60,0,1
218236,-100,4,1,6,65,0,1
218383,-100,4,1,6,70,0,1
218530,-100,4,1,6,75,0,1
218677,294.117647058824,3,1,5,60,1,0
218677,-83.3333333333333,3,1,5,42,0,1
220441,-200,3,1,6,40,0,0
221103,-200,3,1,6,5,0,0
221177,-100,3,1,5,50,0,0
221618,294.117647058824,4,1,6,60,1,0
234559,-83.3333333333333,4,1,6,50,0,0
235735,-90.9090909090909,4,1,6,50,0,0
239706,-250,4,1,6,50,0,0
239926,-250,4,2,6,5,0,0
240000,-133.333333333333,4,1,6,50,0,0
240220,-133.333333333333,4,2,6,5,0,0
240294,-90.9090909090909,4,1,6,50,0,0
240368,-90.9090909090909,4,2,6,5,0,0
240441,-90.9090909090909,4,1,6,50,0,0
244412,-250,4,1,6,50,0,0
244632,-250,4,2,6,5,0,0
244706,-133.333333333333,4,1,6,50,0,0
244926,-133.333333333333,4,2,6,5,0,0
245000,-90.9090909090909,4,1,6,50,0,0
245073,-90.9090909090909,4,2,6,5,0,0
245147,-90.9090909090909,4,1,6,50,0,0
249118,-250,4,1,6,50,0,0
249338,-250,4,2,6,5,0,0
249412,-133.333333333333,4,1,6,50,0,0
249632,-133.333333333333,4,2,6,5,0,0
249706,-90.9090909090909,4,1,6,50,0,0
249779,-90.9090909090909,4,2,6,5,0,0
249853,-90.9090909090909,4,1,6,50,0,0
253823,-250,4,1,6,50,0,0
254044,-250,4,2,6,5,0,0
254118,-133.333333333333,4,1,6,50,0,0
254338,-133.333333333333,4,2,6,5,0,0
254412,-90.9090909090909,4,1,6,50,0,0
254485,-90.9090909090909,4,2,6,5,0,0
254559,-100,4,1,5,50,0,0
254632,-100,4,1,5,40,0,0
259265,-90.9090909090909,4,1,5,40,0,0
259706,-82.6446280991736,4,1,5,40,0,0
260147,-75.7002271006813,4,1,5,40,0,0
260441,-69.8324022346369,4,1,5,40,0,0
261323,-83.3333333333333,4,1,5,40,0,0
261618,-90.9090909090909,4,1,6,40,0,0
271029,-100,4,1,6,40,0,0
279265,-100,4,1,5,40,0,0
281618,-100,4,1,6,40,0,0
289559,255.31914893617,4,1,5,60,1,0
289559,-66.6666666666667,4,1,5,60,0,0
289687,288.461538461538,3,1,5,60,1,0
289832,337.078651685393,3,1,5,60,1,0
290000,294.117647058824,3,1,5,60,1,0
290441,294.117647058824,3,1,6,50,1,0
290441,-86.9565217391304,3,1,6,40,0,0
292205,294.117647058824,4,1,6,50,1,1
299263,294.117647058824,3,1,5,50,1,0
302791,294.117647058824,4,1,5,50,1,0
303526,-434.782608695652,4,1,5,50,0,0
304114,337.078651685393,4,1,5,40,1,0
304114,-333.333333333333,4,1,5,40,0,0
304788,352.941176470588,4,1,5,30,1,0
304788,-285.714285714286,4,1,5,30,0,0
305493,356.083086053412,4,1,5,20,1,0
305493,-166.666666666667,4,1,5,20,0,0
306027,545.454545454546,3,1,5,30,1,0
323118,662.983425414365,3,1,5,60,1,0
328421,656.455142231947,3,1,5,60,1,0
329733,-200,3,1,5,60,0,0
330278,-200,3,1,5,5,0,0
330390,670.391061452514,3,1,5,30,1,0
330390,-90.9090909090909,3,1,5,30,0,0
331061,661.764706368945,4,1,5,30,1,0
352237,-200,4,1,5,30,0,0
367458,674.157303370787,4,1,5,30,1,0
367458,-200,4,1,5,30,0,0
368132,656.936704148555,4,1,5,30,1,0
368350,-100,3,1,5,25,0,0
368569,-100,3,1,5,30,0,0
368781,-100,3,1,5,35,0,0
369014,-100,3,1,5,40,0,0
369226,-100,3,1,5,45,0,0
369445,-100,3,1,5,50,0,0
369664,-100,3,1,5,55,0,0
369883,-100,3,1,5,60,0,0
370102,677.966101694915,4,1,5,60,1,0
370102,-100,3,1,5,65,0,0
370327,-100,3,1,5,70,0,0
370553,-100,3,1,5,75,0,0
370779,309.278350515464,4,1,5,60,1,1
370779,-66.6666666666667,4,1,5,60,0,1
372016,310.880829015544,4,1,5,60,1,1
372016,-66.6666666666667,4,1,5,60,0,1
374503,317.460317460317,4,1,5,60,1,1
375772,312.5,4,1,5,60,1,1
375772,-66.6666666666667,4,1,5,60,0,1
378272,309.278350515464,4,1,5,60,1,1
378272,-66.6666666666667,4,1,5,60,0,1
379509,314.13612565445,4,1,5,60,1,1
380765,312.5,4,1,5,60,1,1
380765,-66.6666666666667,4,1,5,60,0,1
416390,322.58064516129,4,1,5,60,1,1
416390,-66.6666666666667,4,1,5,60,0,1
417035,306.122448979592,4,1,5,60,1,1
417035,-66.6666666666667,4,1,5,60,0,1
417647,312.5,4,1,5,60,1,1
417647,-66.6666666666667,4,1,5,60,0,1
418272,312.174817898023,4,1,5,60,1,1
418278,-90.9090909090909,3,1,5,50,0,1
418903,-86.9565217391304,3,1,5,50,0,1
419528,-83.3333333333333,3,1,5,50,0,1
420153,-80,3,1,5,50,0,1
420769,416.666666666667,3,1,5,50,1,0
420769,-769.230769230769,3,1,5,50,0,0
420883,-769.230769230769,3,2,5,5,0,0
424310,599.101347978033,3,1,5,20,1,0
424320,-200,3,2,5,10,0,0
435093,447.761194029851,3,1,5,50,1,0
435093,-166.666666666667,3,2,5,25,0,0
435876,-166.666666666667,3,2,5,5,0,0
435988,-90.9090909090909,3,2,5,25,0,0
436324,-90.9090909090909,3,2,5,5,0,0
436436,-62.5,3,2,5,25,0,0
436772,-62.5,3,2,5,5,0,0
436884,-62.5,3,2,5,25,0,0
437779,-100,3,1,5,40,0,0
439570,-80,3,1,5,40,0,0
441809,294.117647058824,4,1,5,60,1,1
441809,-86.9565217391304,4,1,6,50,0,1
451220,294.117647058824,5,1,5,60,1,1
451220,-83.3333333333333,5,1,6,50,0,1
462689,252.100840336134,5,1,5,60,1,0
462689,-83.3333333333333,5,1,6,50,0,0
462941,-200,5,1,6,50,0,0
463130,-200,5,2,5,5,0,0
463193,-83.3333333333333,5,1,6,50,0,0
463508,-83.3333333333333,5,2,5,5,0,0
463571,294.117647058824,4,1,5,60,1,0
472982,-100,4,1,5,45,0,1
473129,-100,4,1,5,50,0,1
473276,-100,4,1,5,55,0,1
473423,-100,4,1,5,60,0,1
473571,-100,4,1,5,65,0,1
473718,-100,4,1,5,70,0,1
473865,-100,4,1,5,75,0,1
474012,-100,4,1,5,80,0,1
474159,303.030303030303,4,1,5,45,1,0
474613,322.58064516129,4,1,5,42,1,0
474613,-105.263157894737,4,1,5,32,0,0
475096,346.820809248555,4,1,5,39,1,0
475096,-111.111111111111,4,1,5,29,0,0
475616,363.636363636364,4,1,5,36,1,0
475616,-117.647058823529,4,1,5,26,0,0
476161,394.736842105263,4,1,5,33,1,0
476161,-125,4,1,5,23,0,0
476753,422.535211267606,4,1,5,30,1,0
476753,-133.333333333333,4,1,5,20,0,0
477386,454.545454545455,4,1,5,30,1,0
477386,-142.857142857143,4,1,5,20,0,0
478067,483.870967741935,4,1,5,30,1,0
478067,-153.846153846154,4,1,5,20,0,0
478792,512.820512820513,4,1,5,30,1,0
478792,-166.666666666667,4,1,5,20,0,0
478824,-166.666666666667,4,2,5,5,0,0
479561,566.037735849057,4,1,5,30,1,0
479561,-181.818181818182,4,1,5,20,0,0
479596,-181.818181818182,4,2,5,5,0,0
480410,594.059405940594,4,1,5,30,1,0
480410,-200,4,1,5,20,0,0
480447,-200,4,2,5,5,0,0
481301,641.711229946524,4,1,5,30,1,0
481301,-222.222222222222,4,1,5,20,0,0
481341,-222.222222222222,4,2,5,5,0,0
482263,662.983425414365,4,1,5,60,1,0
482263,-1000,4,1,5,20,0,0
482304,-1000,4,2,5,5,0,0
486240,447.761194029851,4,1,5,20,1,0
486240,-200,4,2,5,10,0,0
486687,-166.666666666667,4,2,5,10,0,0
487359,-155.642023346303,4,2,5,5,0,0

[Colours]
Combo1 : 129,129,129
Combo2 : 74,255,74
Combo3 : 88,184,103
Combo4 : 180,180,180

[HitObjects]
43,48,34046,5,4,0:0:0:0:
43,48,34941,1,0,0:0:0:0:
75,157,35165,1,0,0:0:0:0:
154,75,35389,5,2,0:0:0:0:
154,75,36060,1,0,0:0:0:0:
256,196,36284,2,0,L|292:162,1,42.5
310,48,36508,6,0,L|288:67,2,28.3333333333333
206,132,36732,5,2,0:0:0:0:
206,132,37628,1,0,0:0:0:0:
40,181,37851,1,0,0:0:0:0:
166,301,38075,5,2,0:0:0:0:
132,179,38747,2,0,L|148:234,1,42.5
294,287,38971,1,2,0:0:0:0:
287,245,39082,1,0,0:0:0:0:
281,204,39195,5,2,0:0:0:0:
316,174,39307,1,0,0:0:0:0:
351,144,39419,5,2,0:0:0:0:
469,63,39643,2,0,L|469:115,1,42.5
470,46,39866,1,0,0:0:0:0:
362,64,40090,1,0,0:0:0:0:
273,1,40314,1,0,0:0:0:0:
165,19,40538,1,0,0:0:0:0:
225,213,40762,5,2,0:0:0:0:
66,137,41434,2,0,L|118:129,1,42.5,2|0,0:0|0:0,0:0:0:0:
80,253,41657,5,2,0:0:0:0:
76,222,41769,2,0,L|126:215,1,42.5,2|0,0:0|2:0,0:0:0:0:
133,308,41956,5,2,0:0:0:0:
135,321,42030,1,2,0:0:0:0:
137,334,42105,1,2,0:0:0:0:
141,337,43001,1,0,0:0:0:0:
225,213,43225,1,0,0:0:0:0:
349,297,43448,5,2,0:0:0:0:
349,297,43896,2,0,L|404:288,1,42.5
359,380,44120,1,0,0:0:0:0:
379,376,44231,1,0,0:0:0:0:
399,375,44344,5,2,0:0:0:0:
394,332,44455,1,0,0:0:0:0:
390,290,44567,1,0,0:0:0:0:
385,248,44679,1,0,0:0:0:0:
381,205,44791,5,4,0:0:0:0:
393,29,45575,1,0,0:0:0:0:
385,38,45687,1,0,0:0:0:0:
312,125,45911,1,0,0:0:0:0:
161,29,46135,5,2,0:0:0:0:
161,29,46583,2,0,L|142:75,1,42.5,2|0,0:0|0:0,0:0:0:0:
80,14,46807,1,0,0:0:0:0:
71,33,46918,1,0,0:0:0:0:
62,52,47031,5,2,0:0:0:0:
103,60,47142,1,0,0:0:0:0:
145,68,47254,1,0,0:0:0:0:
187,76,47366,1,0,0:0:0:0:
228,84,47478,5,2,0:0:0:0:
157,311,47920,2,0,L|138:265,1,42.5,2|0,0:0|0:0,0:0:0:0:
76,326,48141,1,0,0:0:0:0:
67,307,48252,1,0,0:0:0:0:
58,288,48362,5,2,0:0:0:0:
114,129,48584,1,2,0:0:0:0:
224,256,48805,5,2,0:0:0:0:
318,108,49026,1,0,0:0:0:0:
333,141,49137,1,2,0:0:0:0:
350,173,49247,1,0,0:0:0:0:
385,256,49469,1,0,0:0:0:0:
471,109,49690,1,2,0:0:0:0:
416,320,49911,1,2,0:0:0:0:
301,107,50132,5,6,0:0:0:0:
301,107,50826,2,0,L|250:80,1,42.5
160,37,51058,1,0,0:0:0:0:
206,179,51272,1,0,0:0:0:0:
65,110,51486,5,2,0:0:0:0:
65,110,51941,2,0,L|45:154,1,42.5,2|0,0:0|0:0,0:0:0:0:
111,299,52168,1,0,0:0:0:0:
111,277,52282,1,0,0:0:0:0:
110,254,52396,5,2,0:0:0:0:
152,253,52509,1,2,0:0:0:0:
194,252,52623,1,0,0:0:0:0:
237,251,52737,1,0,0:0:0:0:
279,251,52851,5,6,0:0:0:0:
300,338,53298,1,0,0:0:0:0:
331,204,53522,1,2,0:0:0:0:
372,381,53746,5,2,0:0:0:0:
434,116,53970,1,2,0:0:0:0:
403,249,54194,5,2,0:0:0:0:
263,143,54418,6,0,L|254:101,2,28.3333333333333
282,235,54642,1,2,0:0:0:0:
455,206,54865,5,2,0:0:0:0:
300,338,55089,1,2,0:0:0:0:
108,271,55313,1,2,0:0:0:0:
61,333,55537,6,0,P|34:297|35:244,1,85,4|0,0:0|0:0,0:0:0:0:
150,77,55985,1,8,0:0:0:0:
108,143,56209,5,2,2:0:0:0:
121,150,56283,1,2,2:0:0:0:
134,153,56358,1,2,2:0:0:0:
147,154,56433,5,4,0:0:0:0:
72,74,56656,1,4,0:0:0:0:
216,118,56880,1,4,0:0:0:0:
213,95,56992,2,0,L|210:44,1,42.5,8|0,0:0|0:0,0:0:0:0:
368,151,57216,1,8,0:0:0:0:
369,130,57328,6,0,B|370:72|370:72|386:46,1,85,12|0,0:0|0:0,0:0:0:0:
454,13,57664,1,8,0:0:0:0:
461,20,57776,2,0,L|508:22,1,42.5,4|0,0:0|0:0,0:0:0:0:
456,150,58000,1,8,0:0:0:0:
454,192,58112,1,8,0:0:0:0:
452,234,58224,5,4,0:0:0:0:
295,93,58448,1,4,0:0:0:0:
251,301,58671,6,0,B|192:301|192:301|166:317,1,85,4|0,0:0|0:0,0:0:0:0:
21,220,59119,6,0,B|47:213|47:213|78:222|78:222|104:216,1,85,4|4,0:0|0:0,0:0:0:0:
52,297,59567,5,4,0:0:0:0:
90,107,59791,1,4,0:0:0:0:
227,242,60015,6,0,B|285:242|285:242|311:258,1,85,4|0,0:0|0:0,0:0:0:0:
388,326,60351,1,0,0:0:0:0:
424,340,60463,5,12,0:0:0:0:
430,169,60686,1,8,0:0:0:0:
429,126,60798,1,2,0:0:0:0:
428,84,60911,6,0,B|370:71|370:71|341:81,1,85,4|0,0:0|0:0,0:0:0:0:
221,142,61358,2,0,B|163:154|163:154|134:144,1,85,4|4,0:0|0:0,0:0:0:0:
10,103,61806,5,4,0:0:0:0:
169,314,62030,1,4,0:0:0:0:
63,236,62254,1,4,0:0:0:0:
39,238,62366,2,0,L|49:294,1,42.5,8|0,0:0|0:0,0:0:0:0:
225,257,62590,1,8,0:0:0:0:
227,235,62702,5,4,0:0:0:0:
353,346,62926,1,8,0:0:0:0:
394,354,63037,1,8,0:0:0:0:
433,341,63149,2,0,L|468:375,1,42.5,4|0,0:0|0:0,0:0:0:0:
387,197,63373,1,8,0:0:0:0:
387,239,63484,1,8,0:0:0:0:
388,281,63597,5,4,0:0:0:0:
221,142,63821,1,4,0:0:0:0:
418,61,64045,5,4,0:0:0:0:
296,77,64268,6,2,L|263:94,2,28.3333333333333,2|2|2,2:0|2:0|2:0,2:0:0:0:
204,212,64493,5,4,0:0:0:0:
20,82,64717,1,4,0:0:0:0:
157,28,64940,1,8,0:0:0:0:
143,44,65052,2,0,L|192:31,1,42.5,8|0,0:0|0:0,0:0:0:0:
100,124,65276,5,8,0:0:0:0:
99,134,65331,1,8,0:0:0:0:
100,146,65388,6,0,B|40:149|40:149|15:166,1,85,4|0,0:0|0:0,0:0:0:0:
79,257,65724,1,8,0:0:0:0:
74,236,65836,5,4,0:0:0:0:
115,229,65947,1,8,0:0:0:0:
163,249,66059,5,8,0:0:0:0:
205,245,66171,1,8,0:0:0:0:
247,241,66283,5,4,0:0:0:0:
184,33,66507,1,4,0:0:0:0:
395,82,66731,1,4,0:0:0:0:
417,150,66955,5,2,2:0:0:0:
403,153,67030,1,2,2:0:0:0:
389,152,67104,1,2,2:0:0:0:
375,149,67178,5,4,0:0:0:0:
184,33,67403,1,4,0:0:0:0:
68,225,67627,1,12,0:0:0:0:
86,236,67739,2,0,L|81:178,1,42.5,8|0,0:0|0:0,0:0:0:0:
26,348,67963,1,8,0:0:0:0:
46,369,68075,6,0,B|104:381|104:381|133:371,1,85,4|0,0:0|0:0,0:0:0:0:
183,289,68411,1,8,0:0:0:0:
199,309,68523,5,8,0:0:0:0:
241,308,68634,1,8,0:0:0:0:
283,307,68746,1,8,0:0:0:0:
326,306,68858,1,8,0:0:0:0:
368,306,68970,5,4,0:0:0:0:
395,82,69194,1,4,0:0:0:0:
188,171,69418,6,0,B|129:171|129:171|103:187,1,85,4|0,0:0|0:0,0:0:0:0:
286,34,69866,2,0,B|345:34|345:34|371:18,1,85,4|0,0:0|0:0,0:0:0:0:
369,181,70314,2,0,L|369:232,1,42.5,4|0,0:0|0:0,0:0:0:0:
205,116,70538,2,0,L|205:74,1,42.5,4|0,0:0|0:0,0:0:0:0:
395,82,70761,5,4,0:0:0:0:
373,92,70873,2,0,B|432:92|432:92|458:108,1,85,8|0,0:0|0:0,0:0:0:0:
439,202,71209,2,0,L|488:204,1,42.5,4|0,0:0|0:0,0:0:0:0:
293,240,71433,1,8,0:0:0:0:
250,238,71544,1,8,0:0:0:0:
208,236,71656,5,4,0:0:0:0:
127,101,71881,1,2,0:0:0:0:
132,374,72105,5,12,0:0:0:0:
85,319,72329,5,2,2:0:0:0:
108,304,72403,1,2,2:0:0:0:
136,300,72477,1,2,2:0:0:0:
162,306,72552,5,4,0:0:0:0:
167,168,72776,1,12,0:0:0:0:
284,240,73000,1,12,0:0:0:0:
267,241,73112,2,0,L|283:282,1,42.5,8|0,0:0|0:0,0:0:0:0:
97,188,73336,1,8,0:0:0:0:
80,187,73448,6,0,L|110:107,1,85,12|0,0:0|0:0,0:0:0:0:
177,7,73784,1,8,0:0:0:0:
155,24,73896,5,12,0:0:0:0:
197,25,74007,1,8,0:0:0:0:
239,27,74119,1,8,0:0:0:0:
282,29,74231,1,8,0:0:0:0:
324,31,74343,5,4,0:0:0:0:
284,240,74567,1,4,0:0:0:0:
485,171,74791,2,0,B|429:150|429:150|399:156,1,85,8|8,0:0|0:0,0:0:0:0:
273,251,75127,1,8,0:0:0:0:
284,240,75239,6,0,L|267:156,1,85,4|0,0:0|0:0,0:0:0:0:
110,23,75687,1,4,0:0:0:0:
160,272,75910,1,4,0:0:0:0:
351,105,76135,5,12,0:0:0:0:
424,71,76358,1,8,0:0:0:0:
430,88,76469,1,8,0:0:0:0:
479,105,76582,5,12,0:0:0:0:
436,105,76693,1,8,0:0:0:0:
394,105,76805,1,8,0:0:0:0:
351,105,76917,1,8,0:0:0:0:
309,105,77029,5,12,0:0:0:0:
139,105,77254,1,2,0:0:0:0:
232,10,77478,6,0,B|232:68|232:68|248:95,1,85,12|8,0:0|0:0,0:0:0:0:
218,271,77926,2,0,B|218:212|218:212|202:186,1,85,12|8,0:0|0:0,0:0:0:0:
111,332,78372,5,4,0:0:0:0:
281,332,78597,1,2,0:0:0:0:
384,217,78821,6,0,B|325:217|325:217|299:233,1,85,4|8,0:0|0:0,0:0:0:0:
123,203,79269,2,0,B|181:203|181:203|208:187,1,85,12|8,0:0|0:0,0:0:0:0:
278,147,79605,1,8,0:0:0:0:
294,140,79717,5,4,0:0:0:0:
464,140,79940,1,2,0:0:0:0:
205,103,80164,5,12,0:0:0:0:
385,283,80388,1,8,0:0:0:0:
364,32,80612,2,0,B|364:90|364:90|380:117,1,85,12|8,0:0|0:0,0:0:0:0:
218,140,81060,5,4,0:0:0:0:
48,140,81283,1,2,0:0:0:0:
307,103,81507,5,12,0:0:0:0:
127,283,81731,1,8,0:0:0:0:
148,32,81955,2,0,B|148:90|148:90|132:117,1,85,12|8,0:0|0:0,0:0:0:0:
256,315,82402,5,12,0:0:0:0:
213,239,82627,2,0,L|277:228,1,50.9999984436036,8|0,0:0|2:0,0:0:0:0:
381,180,83073,1,0,2:0:0:0:
381,280,83297,1,0,2:0:0:0:
479,109,83521,5,8,0:0:0:0:
483,343,83745,5,12,0:0:0:0:
482,224,83969,1,0,2:0:0:0:
381,180,84193,1,0,2:0:0:0:
307,276,84418,5,4,2:0:0:0:
341,343,84642,1,0,2:0:0:0:
132,332,84864,5,8,0:0:0:0:
37,145,85089,6,0,L|15:202,2,50.9999984436036,4|0|0,0:0|0:0|0:0,0:0:0:0:
246,156,85760,5,4,2:0:0:0:
280,89,85984,1,0,2:0:0:0:
137,212,86209,5,8,0:0:0:0:
405,306,86433,6,0,L|470:326,1,50.9999984436036,12|0,0:0|0:0,0:0:0:0:
425,173,86879,5,0,0:0:0:0:
342,165,87103,1,0,0:0:0:0:
282,221,87327,1,0,0:0:0:0:
285,304,87551,1,0,0:0:0:0:
18,192,87775,5,8,0:0:0:0:
134,384,87999,1,8,0:0:0:0:
106,107,88224,2,0,B|106:165|106:165|90:192,1,85,12|8,0:0|0:0,0:0:0:0:
206,341,88671,2,0,B|206:283|206:283|222:256,1,85,12|8,0:0|0:0,0:0:0:0:
0,316,89119,5,10,0:0:0:0:
28,313,89194,1,8,0:0:0:0:
56,310,89268,1,8,0:0:0:0:
84,307,89343,1,10,0:0:0:0:
232,177,89567,5,4,0:0:0:0:
361,325,89791,1,4,2:0:0:0:
371,131,90015,5,4,0:0:0:0:
291,361,90239,1,12,0:0:0:0:
132,177,90461,5,12,0:0:0:0:
266,223,90685,1,8,0:0:0:0:
172,10,90910,2,0,B|172:68|172:68|188:95,1,85,12|8,0:0|0:0,0:0:0:0:
78,297,91358,2,0,B|78:239|78:239|62:212,1,85,12|8,0:0|0:0,0:0:0:0:
82,87,91693,1,0,0:0:0:0:
78,104,91806,6,0,L|121:99,1,42.5,10|0,0:0|0:0,0:0:0:0:
231,152,92030,1,8,0:0:0:0:
273,147,92142,1,8,0:0:0:0:
315,142,92253,5,12,0:0:0:0:
313,198,92365,1,8,0:0:0:0:
312,255,92477,1,8,0:0:0:0:
171,240,92701,1,12,0:0:0:0:
158,220,92813,2,0,L|201:215,1,42.5,8|0,0:0|0:0,0:0:0:0:
366,307,93036,1,8,0:0:0:0:
379,327,93149,6,0,L|328:340,1,50.9999984436036,14|0,0:0|0:0,0:0:0:0:
453,307,93596,1,0,0:0:0:0:
255,359,93821,5,4,2:0:0:0:
185,326,94045,1,0,2:0:0:0:
273,147,94267,5,8,1:0:0:0:
73,160,94492,2,0,L|77:99,1,50.9999984436036,12|0,0:0|0:0,0:0:0:0:
276,233,94939,5,0,0:0:0:0:
351,194,95163,1,4,0:0:0:0:
353,110,95388,1,0,0:0:0:0:
181,44,95612,5,8,0:0:0:0:
209,225,95836,6,0,L|199:157,1,50.9999984436036,12|0,0:0|0:0,0:0:0:0:
137,331,96283,5,0,0:0:0:0:
208,376,96507,1,4,0:0:0:0:
282,336,96731,1,0,0:0:0:0:
361,175,96954,5,8,0:0:0:0:
460,323,97179,6,0,L|430:274,1,50.9999984436036,12|0,0:0|0:0,0:0:0:0:
439,99,97627,5,0,0:0:0:0:
368,54,97851,1,4,0:0:0:0:
294,94,98074,1,0,0:0:0:0:
223,50,98298,1,0,0:0:0:0:
71,131,98521,5,4,0:0:0:0:
218,223,98745,1,4,0:0:0:0:
65,305,98970,2,0,B|54:247|54:247|65:218,1,85,12|8,0:0|0:0,0:0:0:0:
223,50,99418,2,0,B|233:107|233:107|222:136,1,85,12|8,0:0|0:0,0:0:0:0:
135,29,99752,1,8,0:0:0:0:
137,47,99864,5,4,0:0:0:0:
351,57,100088,1,4,0:0:0:0:
305,226,100313,2,0,B|294:168|294:168|305:139,1,85,12|8,0:0|0:0,0:0:0:0:
478,16,100761,2,0,B|488:73|488:73|477:102,1,85,12|8,0:0|0:0,0:0:0:0:
425,206,101097,1,8,0:0:0:0:
434,190,101209,5,4,0:0:0:0:
227,131,101433,1,4,2:0:0:0:
478,98,101656,5,4,0:0:0:0:
382,331,101880,1,8,0:0:0:0:
307,92,102104,2,0,B|306:149|306:149|323:177,1,85,12|8,0:0|0:0,0:0:0:0:
494,94,102551,5,8,0:0:0:0:
388,350,102775,1,8,0:0:0:0:
509,227,103000,2,0,L|463:206,1,42.5,12|0,0:0|0:0,0:0:0:0:
314,284,103224,1,0,0:0:0:0:
333,275,103336,1,0,0:0:0:0:
353,264,103448,5,12,0:0:0:0:
312,252,103559,1,8,0:0:0:0:
271,241,103671,2,0,L|279:295,1,42.5,8|0,0:0|0:0,0:0:0:0:
248,98,103895,5,4,0:0:0:0:
206,338,104118,1,4,0:0:0:0:
20,182,104343,2,0,B|77:181|77:181|105:198,1,85,12|8,0:0|0:0,0:0:0:0:
314,169,104791,2,0,B|371:169|371:169|399:153,1,85,12|8,0:0|0:0,0:0:0:0:
449,264,105127,1,8,0:0:0:0:
441,246,105239,5,4,0:0:0:0:
347,51,105462,1,4,0:0:0:0:
226,230,105686,2,0,B|168:229|168:229|141:246,1,85,12|8,0:0|0:0,0:0:0:0:
395,155,106134,2,0,B|452:155|452:155|480:139,1,85,12|8,0:0|0:0,0:0:0:0:
427,313,106581,5,4,0:0:0:0:
459,66,106806,1,4,0:0:0:0:
230,162,107030,2,0,B|172:161|172:161|145:178,1,85,12|8,0:0|0:0,0:0:0:0:
512,204,107477,5,4,0:0:0:0:
314,52,107701,1,4,0:0:0:0:
85,313,107924,5,4,0:0:0:0:
53,66,108149,1,4,0:0:0:0:
282,162,108373,2,0,B|339:161|339:161|368:180,1,85,12|8,0:0|0:0,0:0:0:0:
0,204,108821,5,4,0:0:0:0:
198,52,109045,1,12,0:0:0:0:
211,65,109156,1,8,0:0:0:0:
256,24,109269,5,4,0:0:0:0:
256,24,109416,2,0,B|309:34|309:34|356:18|356:18|437:33,1,170,2|0,2:0|0:0,0:0:0:0:
333,168,109857,5,8,0:0:0:0:
363,175,109930,1,8,0:0:0:0:
394,183,110004,1,8,0:0:0:0:
425,191,110077,1,8,0:0:0:0:
456,199,110151,2,0,L|444:145,3,42.5,2|0|0|0,0:0|0:0|0:0|0:0,0:0:0:0:
386,102,110445,5,8,0:0:0:0:
404,343,110592,1,8,0:0:0:0:
475,306,110739,1,2,0:0:0:0:
446,275,110812,1,2,0:0:0:0:
405,263,110886,1,8,0:0:0:0:
365,274,110959,1,0,0:0:0:0:
335,304,111033,2,0,L|323:250,1,42.5,8|0,0:0|0:0,0:0:0:0:
262,150,111180,5,8,0:0:0:0:
257,170,111253,1,8,0:0:0:0:
250,190,111327,2,4,B|205:180|205:180|166:195,1,85,12|2,0:0|0:0,0:0:0:0:
214,291,111548,1,2,0:0:0:0:
214,269,111621,5,6,0:0:0:0:
121,122,111769,1,0,0:0:0:0:
31,247,111916,2,0,B|58:216|58:216|106:209,1,85,8|2,0:0|0:0,0:0:0:0:
102,209,112136,1,2,0:0:0:0:
102,209,112210,2,0,L|105:310,1,85,2|0,0:0|0:0,0:0:0:0:
228,359,112504,5,2,0:0:0:0:
267,367,112577,1,2,0:0:0:0:
304,349,112651,1,8,0:0:0:0:
325,313,112724,1,2,0:0:0:0:
325,271,112798,6,0,L|381:284,1,42.5
488,372,112945,1,2,0:0:0:0:
481,351,113018,1,2,0:0:0:0:
474,329,113092,2,0,L|460:282,1,42.5,2|0,0:0|0:0,0:0:0:0:
444,120,113239,5,2,0:0:0:0:
437,140,113313,1,2,0:0:0:0:
425,158,113386,6,0,B|396:152|396:152|354:157,2,56.6666666666667,12|8|8,0:0|0:0|0:0,0:0:0:0:
199,97,113680,2,0,B|228:103|228:103|270:98,2,56.6666666666667,12|8|8,0:0|0:0|0:0,0:0:0:0:
240,222,113974,5,12,0:0:0:0:
231,36,114121,1,0,0:0:0:0:
76,135,114269,2,0,B|140:127|140:127|134:161,1,85,12|2,0:0|0:0,0:0:0:0:
98,233,114489,1,2,0:0:0:0:
99,250,114563,2,0,L|25:253,1,42.5,8|0,0:0|0:0,0:0:0:0:
204,346,114710,2,0,L|246:347,1,42.5,8|0,0:0|0:0,0:0:0:0:
350,236,114857,1,0,0:0:0:0:
353,260,114930,5,8,0:0:0:0:
381,262,115003,1,8,0:0:0:0:
409,264,115077,1,8,0:0:0:0:
437,266,115151,6,0,L|429:213,3,42.5,4|0|0|0,0:0|0:0|0:0|0:0,0:0:0:0:
271,149,115445,1,8,0:0:0:0:
243,151,115519,1,8,0:0:0:0:
215,153,115593,6,0,L|223:100,3,42.5,4|0|0|0,0:0|0:0|0:0|0:0,0:0:0:0:
385,39,115886,1,8,0:0:0:0:
413,41,115959,1,8,0:0:0:0:
441,43,116033,5,8,0:0:0:0:
446,85,116106,1,8,0:0:0:0:
451,127,116180,1,8,0:0:0:0:
456,169,116253,1,8,0:0:0:0:
461,211,116327,6,0,L|417:205,1,42.5,4|0,0:0|0:0,0:0:0:0:
285,77,116474,2,0,L|329:70,1,42.5,4|0,0:0|0:0,0:0:0:0:
317,191,116621,5,8,0:0:0:0:
314,233,116694,1,8,0:0:0:0:
311,275,116768,1,8,0:0:0:0:
309,318,116841,1,8,0:0:0:0:
306,360,116916,6,0,L|254:353,1,42.5,4|0,0:0|0:0,0:0:0:0:
140,203,117063,2,0,L|192:210,1,42.5,4|0,0:0|0:0,0:0:0:0:
33,288,117210,5,8,0:0:0:0:
74,294,117283,1,8,0:0:0:0:
116,301,117357,1,8,0:0:0:0:
158,308,117430,1,8,0:0:0:0:
200,315,117504,6,0,L|235:274,1,42.5,4|0,0:0|0:0,0:0:0:0:
171,100,117651,2,0,L|136:141,1,42.5,4|0,0:0|0:0,0:0:0:0:
317,191,117798,5,8,0:0:0:0:
358,195,117871,1,8,0:0:0:0:
398,181,117945,1,8,0:0:0:0:
427,151,118018,1,8,0:0:0:0:
439,110,118092,2,0,B|461:147|461:147|461:197,1,85,12|8,0:0|0:0,0:0:0:0:
345,100,118313,1,8,0:0:0:0:
345,100,118386,2,0,L|356:54,1,42.5,8|0,0:0|0:0,0:0:0:0:
307,232,118533,2,0,L|318:186,1,42.5,8|0,0:0|0:0,0:0:0:0:
264,22,118680,6,0,P|216:14|164:28,1,93.5000028533936,12|8,0:0|0:0,0:0:0:0:
128,103,118901,1,0,0:0:0:0:
128,103,118974,1,8,0:0:0:0:
48,249,119121,2,0,L|45:357,1,93.5000028533936,12|8,0:0|0:0,0:0:0:0:
178,186,119416,2,0,L|165:293,1,93.5000028533936,12|8,0:0|0:0,0:0:0:0:
313,136,119710,2,0,L|289:241,1,93.5000028533936,12|8,0:0|0:0,0:0:0:0:
377,81,120004,6,0,P|341:53|290:57,1,93.5000028533936,12|8,0:0|0:0,0:0:0:0:
233,273,120298,2,0,P|269:301|320:297,1,93.5000028533936,12|8,0:0|0:0,0:0:0:0:
456,116,120592,1,12,0:0:0:0:
292,227,120739,1,6,0:0:0:0:
456,116,120886,1,12,0:0:0:0:
233,273,121033,6,0,L|111:269,1,93.5000028533936,12|8,0:0|0:0,0:0:0:0:
45,265,121254,1,0,0:0:0:0:
45,265,121327,1,8,0:0:0:0:
117,126,121474,2,0,B|115:57|115:57|83:29,1,93.5000028533936,12|8,0:0|0:0,0:0:0:0:
257,166,121769,2,0,L|258:66,1,93.5000028533936,12|8,0:0|0:0,0:0:0:0:
395,126,122063,2,0,B|397:57|397:57|429:29,1,93.5000028533936,12|8,0:0|0:0,0:0:0:0:
389,255,122357,6,0,L|383:349,1,93.5000028533936,12|8,0:0|0:0,0:0:0:0:
193,238,122651,2,0,L|187:145,1,93.5000028533936,12|8,0:0|0:0,0:0:0:0:
328,21,122945,1,12,0:0:0:0:
288,295,123092,1,14,0:0:0:0:
395,126,123239,1,12,0:0:0:0:
193,238,123386,6,0,P|145:227|94:246,1,93.5000028533936,12|8,0:0|0:0,0:0:0:0:
152,316,123607,1,0,0:0:0:0:
152,316,123680,1,8,0:0:0:0:
30,357,123827,2,0,L|34:250,1,93.5000028533936,12|8,0:0|0:0,0:0:0:0:
144,68,124121,2,0,L|147:161,1,93.5000028533936,12|8,0:0|0:0,0:0:0:0:
258,356,124416,2,0,L|261:262,1,93.5000028533936,12|8,0:0|0:0,0:0:0:0:
346,93,124710,6,0,P|390:82|435:100,1,93.5000028533936,12|8,0:0|0:0,0:0:0:0:
420,319,125004,2,0,P|376:330|331:312,1,93.5000028533936,12|8,0:0|0:0,0:0:0:0:
227,131,125298,1,12,0:0:0:0:
379,249,125445,1,10,0:0:0:0:
264,55,125592,1,12,0:0:0:0:
154,252,125739,6,0,P|110:263|65:245,1,93.5000028533936,12|8,0:0|0:0,0:0:0:0:
27,167,125960,1,0,0:0:0:0:
27,167,126033,1,8,0:0:0:0:
230,212,126180,2,0,L|221:324,1,93.5000028533936,12|8,0:0|0:0,0:0:0:0:
215,2,126474,1,12,0:0:0:0:
114,191,126621,1,6,0:0:0:0:
215,2,126769,1,12,0:0:0:0:
114,191,126916,5,12,0:0:0:0:
97,217,126989,1,0,0:0:0:0:
88,247,127063,1,0,0:0:0:0:
87,278,127136,1,0,0:0:0:0:
93,308,127210,1,0,0:0:0:0:
107,336,127283,1,0,0:0:0:0:
127,359,127357,2,0,P|145:345|190:347,1,46.7500014266968,4|0,0:0|0:0,0:0:0:0:
306,261,127504,5,0,0:0:0:0:
334,272,127577,1,0,0:0:0:0:
365,275,127651,1,0,0:0:0:0:
396,270,127724,1,0,0:0:0:0:
424,257,127798,2,0,P|431:277|423:308,1,46.7500014266968,4|0,0:0|0:0,0:0:0:0:
230,212,127945,2,0,P|223:192|231:161,1,46.7500014266968,4|0,0:0|0:0,0:0:0:0:
354,17,128092,5,12,0:0:0:0:
355,48,128165,1,0,0:0:0:0:
356,79,128239,1,0,0:0:0:0:
357,110,128312,1,0,0:0:0:0:
359,141,128386,1,0,0:0:0:0:
360,172,128459,1,0,0:0:0:0:
361,203,128533,2,0,P|337:193|313:197,1,46.7500014266968,12|0,0:0|0:0,0:0:0:0:
165,260,128680,5,0,0:0:0:0:
139,242,128753,1,0,0:0:0:0:
119,218,128827,1,0,0:0:0:0:
108,189,128900,1,0,0:0:0:0:
107,158,128974,5,12,0:0:0:0:
153,160,129047,1,8,0:0:0:0:
200,163,129121,2,0,L|254:166,1,46.7500014266968,8|0,0:0|0:0,0:0:0:0:
43,23,129269,6,0,B|26:64|26:64|29:113,1,93.5000028533936,12|8,0:0|0:0,0:0:0:0:
39,210,129489,1,0,0:0:0:0:
39,210,129563,1,8,0:0:0:0:
200,163,129710,2,0,L|201:268,1,93.5000028533936,12|0,0:0|0:0,0:0:0:0:
315,112,130004,2,0,L|343:213,1,93.5000028533936,12|0,0:0|0:0,0:0:0:0:
412,32,130298,2,0,L|465:122,1,93.5000028533936,12|0,0:0|0:0,0:0:0:0:
235,98,130592,6,0,P|186:90|144:118,1,93.5000028533936,12|0,0:0|0:0,0:0:0:0:
168,321,130886,2,0,P|217:329|259:301,1,93.5000028533936,12|0,0:0|0:0,0:0:0:0:
459,112,131180,1,14,0:0:0:0:
423,360,131327,1,12,0:0:0:0:
340,202,131474,1,12,0:0:0:0:
495,316,131621,6,0,P|457:283|401:282,1,93.5000028533936,12|8,0:0|0:0,0:0:0:0:
348,324,131842,1,0,0:0:0:0:
348,324,131916,1,8,0:0:0:0:
340,108,132063,2,0,L|340:202,1,93.5000028533936,12|8,0:0|0:0,0:0:0:0:
222,156,132357,2,0,L|213:250,1,93.5000028533936,12|8,0:0|0:0,0:0:0:0:
99,194,132651,2,0,L|82:286,1,93.5000028533936,12|8,0:0|0:0,0:0:0:0:
45,79,132945,6,0,P|88:59|145:76,1,93.5000028533936,12|8,0:0|0:0,0:0:0:0:
308,144,133239,2,0,P|267:164|222:156,1,93.5000028533936,12|8,0:0|0:0,0:0:0:0:
258,35,133533,1,12,0:0:0:0:
270,229,133680,1,6,0:0:0:0:
258,35,133827,1,12,0:0:0:0:
180,233,133974,6,0,P|188:280|224:312,1,93.5000028533936,12|8,0:0|0:0,0:0:0:0:
315,317,134195,1,0,0:0:0:0:
315,317,134269,1,8,0:0:0:0:
456,258,134416,2,0,L|475:353,1,93.5000028533936,12|8,0:0|0:0,0:0:0:0:
352,144,134710,2,0,L|333:239,1,93.5000028533936,12|8,0:0|0:0,0:0:0:0:
456,30,135004,2,0,L|475:125,1,93.5000028533936,12|8,0:0|0:0,0:0:0:0:
317,10,135298,6,0,B|250:12|250:12|265:46,1,93.5000028533936,12|8,0:0|0:0,0:0:0:0:
184,232,135592,2,0,B|251:230|251:230|236:196,1,93.5000028533936,12|8,0:0|0:0,0:0:0:0:
103,101,135886,1,12,0:0:0:0:
79,316,136033,1,6,0:0:0:0:
103,101,136180,1,12,0:0:0:0:
0,202,136327,6,0,P|42:193|107:209,1,93.5000028533936,12|8,0:0|0:0,0:0:0:0:
184,232,136548,1,0,0:0:0:0:
184,232,136621,1,8,0:0:0:0:
264,110,136769,2,0,L|377:65,1,93.5000028533936,12|8,0:0|0:0,0:0:0:0:
337,210,137063,2,0,L|457:195,1,93.5000028533936,12|8,0:0|0:0,0:0:0:0:
381,325,137357,2,0,L|501:342,1,93.5000028533936,12|8,0:0|0:0,0:0:0:0:
263,271,137651,6,0,P|246:323|261:366,1,93.5000028533936,12|8,0:0|0:0,0:0:0:0:
173,147,137945,2,0,P|190:95|175:52,1,93.5000028533936,12|8,0:0|0:0,0:0:0:0:
44,316,138239,1,12,0:0:0:0:
103,101,138386,1,6,0:0:0:0:
44,316,138533,1,12,0:0:0:0:
263,271,138680,5,12,0:0:0:0:
275,275,138753,1,0,0:0:0:0:
287,279,138827,1,0,0:0:0:0:
299,283,138900,1,0,0:0:0:0:
313,255,138974,5,12,0:0:0:0:
325,259,139047,1,0,0:0:0:0:
337,263,139121,1,0,0:0:0:0:
349,267,139194,1,0,0:0:0:0:
362,238,139268,5,12,0:0:0:0:
374,242,139341,1,0,0:0:0:0:
386,246,139415,1,0,0:0:0:0:
398,250,139488,1,0,0:0:0:0:
411,221,139562,5,12,0:0:0:0:
423,225,139635,1,0,0:0:0:0:
435,229,139709,1,0,0:0:0:0:
447,233,139782,1,0,0:0:0:0:
460,204,139857,5,12,0:0:0:0:
484,242,139929,1,8,0:0:0:0:
482,292,140003,1,8,0:0:0:0:
450,331,140076,1,8,0:0:0:0:
402,344,140150,5,12,0:0:0:0:
389,346,140224,1,0,0:0:0:0:
377,347,140297,1,0,0:0:0:0:
364,349,140370,1,0,0:0:0:0:
319,349,140444,5,12,0:0:0:0:
306,350,140518,1,0,0:0:0:0:
293,352,140591,1,0,0:0:0:0:
281,354,140664,1,0,0:0:0:0:
235,353,140738,5,12,0:0:0:0:
222,354,140813,1,0,0:0:0:0:
209,356,140886,1,0,0:0:0:0:
197,358,140959,1,0,0:0:0:0:
151,357,141032,5,12,0:0:0:0:
138,358,141107,1,0,0:0:0:0:
125,360,141180,1,0,0:0:0:0:
113,362,141253,1,0,0:0:0:0:
67,361,141327,5,12,0:0:0:0:
47,314,141400,1,8,0:0:0:0:
64,267,141474,1,8,0:0:0:0:
80,220,141547,1,8,0:0:0:0:
61,173,141621,5,12,0:0:0:0:
66,161,141694,1,0,0:0:0:0:
70,149,141768,1,0,0:0:0:0:
74,137,141841,1,0,0:0:0:0:
100,95,141915,5,12,0:0:0:0:
102,107,141988,1,0,0:0:0:0:
104,120,142062,1,0,0:0:0:0:
106,132,142135,1,0,0:0:0:0:
127,170,142209,5,12,0:0:0:0:
132,159,142283,1,0,0:0:0:0:
136,147,142357,1,0,0:0:0:0:
141,135,142430,1,0,0:0:0:0:
164,91,142503,5,12,0:0:0:0:
166,103,142576,1,0,0:0:0:0:
168,116,142650,1,0,0:0:0:0:
170,128,142723,1,0,0:0:0:0:
186,172,142797,5,12,0:0:0:0:
236,172,142870,1,8,0:0:0:0:
287,173,142944,1,8,0:0:0:0:
338,174,143017,1,8,0:0:0:0:
389,174,143091,5,12,0:0:0:0:
387,162,143164,1,0,0:0:0:0:
385,149,143238,1,0,0:0:0:0:
382,137,143311,1,0,0:0:0:0:
402,92,143385,5,12,0:0:0:0:
405,107,143458,1,0,0:0:0:0:
408,123,143532,1,0,0:0:0:0:
411,137,143605,1,0,0:0:0:0:
372,168,143680,5,12,0:0:0:0:
369,150,143753,1,0,0:0:0:0:
365,131,143827,1,0,0:0:0:0:
361,114,143900,1,0,0:0:0:0:
413,97,143974,5,12,0:0:0:0:
417,118,144047,1,0,0:0:0:0:
422,141,144121,1,0,0:0:0:0:
427,162,144194,1,0,0:0:0:0:
384,215,144268,5,12,0:0:0:0:
394,262,144341,1,8,0:0:0:0:
440,279,144415,1,8,0:0:0:0:
479,249,144488,1,8,0:0:0:0:
475,200,144562,5,12,0:0:0:0:
462,202,144635,1,0,0:0:0:0:
449,204,144709,1,0,0:0:0:0:
437,206,144782,1,0,0:0:0:0:
384,215,144856,5,12,0:0:0:0:
371,216,144929,1,0,0:0:0:0:
358,218,145003,1,0,0:0:0:0:
346,220,145076,1,0,0:0:0:0:
292,228,145150,5,12,0:0:0:0:
279,229,145223,1,0,0:0:0:0:
266,231,145297,1,0,0:0:0:0:
254,233,145370,1,0,0:0:0:0:
200,241,145445,5,12,0:0:0:0:
187,242,145518,1,0,0:0:0:0:
174,244,145592,1,0,0:0:0:0:
162,246,145665,1,0,0:0:0:0:
108,254,145738,5,12,0:0:0:0:
104,303,145812,1,8,0:0:0:0:
143,333,145885,1,8,0:0:0:0:
189,316,145959,1,8,0:0:0:0:
199,269,146032,5,12,0:0:0:0:
199,256,146105,1,0,0:0:0:0:
200,243,146179,1,0,0:0:0:0:
200,230,146253,1,0,0:0:0:0:
158,201,146327,5,12,0:0:0:0:
159,188,146400,1,0,0:0:0:0:
160,176,146474,1,0,0:0:0:0:
161,162,146547,1,0,0:0:0:0:
203,133,146620,5,12,0:0:0:0:
203,120,146693,1,0,0:0:0:0:
204,107,146767,1,0,0:0:0:0:
204,94,146840,1,0,0:0:0:0:
162,65,146915,5,12,0:0:0:0:
163,52,146988,1,0,0:0:0:0:
164,40,147062,1,0,0:0:0:0:
165,26,147135,1,0,0:0:0:0:
210,5,147209,5,12,0:0:0:0:
246,40,147282,1,8,0:0:0:0:
294,55,147356,1,8,0:0:0:0:
344,48,147429,1,8,0:0:0:0:
385,19,147503,5,12,0:0:0:0:
397,22,147576,1,0,0:0:0:0:
409,26,147650,1,0,0:0:0:0:
421,30,147723,1,0,0:0:0:0:
476,52,147797,5,12,0:0:0:0:
463,55,147870,1,0,0:0:0:0:
451,59,147944,1,0,0:0:0:0:
439,63,148017,1,0,0:0:0:0:
384,84,148092,5,12,0:0:0:0:
397,87,148165,1,0,0:0:0:0:
409,91,148239,1,0,0:0:0:0:
421,95,148312,1,0,0:0:0:0:
476,116,148385,5,12,0:0:0:0:
463,119,148458,1,0,0:0:0:0:
451,123,148532,1,0,0:0:0:0:
439,127,148605,1,0,0:0:0:0:
384,148,148680,5,12,0:0:0:0:
334,155,148753,1,8,0:0:0:0:
299,192,148827,1,8,0:0:0:0:
293,241,148900,1,8,0:0:0:0:
319,285,148974,5,12,0:0:0:0:
330,279,149047,1,0,0:0:0:0:
342,274,149121,1,0,0:0:0:0:
353,268,149194,1,0,0:0:0:0:
394,291,149268,5,12,0:0:0:0:
402,278,149341,1,0,0:0:0:0:
411,265,149415,1,0,0:0:0:0:
420,253,149488,1,0,0:0:0:0:
475,251,149562,5,12,0:0:0:0:
475,233,149635,1,0,0:0:0:0:
477,214,149709,1,0,0:0:0:0:
479,196,149782,1,0,0:0:0:0:
509,139,149857,5,12,0:0:0:0:
498,121,149930,1,0,0:0:0:0:
489,101,150004,1,0,0:0:0:0:
481,81,150077,1,0,0:0:0:0:
446,20,150150,6,0,B|416:15|416:15|369:27,2,67.9999979248048,12|8|8,0:0|0:0|0:0,0:0:0:0:
309,30,150402,6,0,B|285:31|270:39|270:39|257:52|244:58,1,63.75,4|0,0:0|0:0,0:0:0:0:
419,93,150654,6,0,B|386:89|386:89|353:99|353:99|306:95|306:95|271:129|228:142|174:112,1,254.999992218018,12|0,0:0|0:0,0:0:0:0:
83,60,151033,6,0,P|65:102|82:149,1,85,12|0,0:0|0:0,0:0:0:0:
138,189,151253,1,0,0:0:0:0:
138,189,151327,1,2,0:0:0:0:
278,319,151474,2,0,P|296:277|279:230,1,85,12|0,0:0|0:0,0:0:0:0:
222,189,151694,1,0,0:0:0:0:
222,189,151768,1,2,0:0:0:0:
123,304,151915,6,0,B|77:311|77:311|32:297,1,85,12|0,0:0|0:0,0:0:0:0:
44,216,152135,1,0,0:0:0:0:
44,216,152209,1,0,0:0:0:0:
302,156,152356,2,0,B|348:149|348:149|393:163,1,85,12|0,0:0|0:0,0:0:0:0:
380,243,152576,1,0,0:0:0:0:
380,243,152650,1,0,0:0:0:0:
394,80,152797,5,4,0:0:0:0:
265,267,152944,1,8,0:0:0:0:
168,62,153091,1,2,0:0:0:0:
189,62,153164,1,0,0:0:0:0:
207,62,153238,1,8,0:0:0:0:
124,215,153385,6,0,P|83:227|26:201,1,85,12|8,0:0|0:0,0:0:0:0:
83,145,153606,1,0,0:0:0:0:
83,145,153680,1,2,0:0:0:0:
224,338,153827,2,0,P|264:349|304:337,1,85,12|2,0:0|0:0,0:0:0:0:
265,267,154047,1,0,0:0:0:0:
265,267,154121,1,8,0:0:0:0:
492,280,154268,6,0,L|479:189,1,85,6|8,0:0|0:0,0:0:0:0:
467,111,154488,1,0,0:0:0:0:
467,111,154562,1,2,0:0:0:0:
224,64,154709,2,0,L|211:148,1,85,12|2,0:0|0:0,0:0:0:0:
199,233,154929,1,0,0:0:0:0:
199,233,155003,1,8,0:0:0:0:
378,274,155150,5,6,0:0:0:0:
211,148,155297,1,8,0:0:0:0:
186,356,155444,1,2,0:0:0:0:
205,346,155517,1,0,0:0:0:0:
224,337,155591,1,0,0:0:0:0:
243,328,155664,1,0,0:0:0:0:
262,319,155738,6,0,B|308:323|308:323|342:353,1,85,12|8,0:0|0:0,0:0:0:0:
378,274,155959,1,0,0:0:0:0:
378,274,156033,1,2,0:0:0:0:
199,233,156180,2,0,B|153:229|153:229|119:199,1,85,12|2,0:0|0:0,0:0:0:0:
83,278,156401,1,0,0:0:0:0:
83,278,156475,1,8,0:0:0:0:
51,54,156621,6,0,L|63:148,1,85,6|8,0:0|0:0,0:0:0:0:
148,117,156841,1,0,0:0:0:0:
148,117,156915,1,2,0:0:0:0:
188,317,157062,2,0,L|198:232,1,85,12|2,0:0|0:0,0:0:0:0:
285,254,157282,1,0,0:0:0:0:
285,254,157356,1,8,0:0:0:0:
252,65,157503,5,6,0:0:0:0:
198,232,157650,1,8,0:0:0:0:
419,119,157797,1,2,0:0:0:0:
398,112,157870,1,0,0:0:0:0:
378,105,157944,1,8,0:0:0:0:
365,286,158091,6,0,L|465:321,1,85,6|8,0:0|0:0,0:0:0:0:
392,203,158312,1,0,0:0:0:0:
392,203,158385,1,2,0:0:0:0:
255,338,158533,2,0,L|355:373,1,85,12|2,0:0|0:0,0:0:0:0:
282,255,158753,1,0,0:0:0:0:
282,255,158827,1,8,0:0:0:0:
117,331,158974,6,0,P|72:333|29:305,1,85,6|8,0:0|0:0,0:0:0:0:
11,237,159194,1,0,0:0:0:0:
11,237,159268,1,2,0:0:0:0:
255,338,159415,2,0,P|300:340|343:312,1,85,12|2,0:0|0:0,0:0:0:0:
361,244,159635,1,0,0:0:0:0:
361,244,159709,1,8,0:0:0:0:
456,350,159856,5,12,0:0:0:0:
461,307,159929,1,8,0:0:0:0:
466,265,160003,1,8,0:0:0:0:
472,223,160076,1,8,0:0:0:0:
477,181,160150,1,8,0:0:0:0:
365,113,160297,1,8,0:0:0:0:
498,12,160444,6,0,L|414:2,1,85,6|8,0:0|0:0,0:0:0:0:
305,28,160665,1,0,0:0:0:0:
305,28,160738,1,2,0:0:0:0:
90,124,160885,2,0,L|174:134,1,85,12|2,0:0|0:0,0:0:0:0:
283,108,161106,1,0,0:0:0:0:
283,108,161179,1,8,0:0:0:0:
154,246,161327,6,0,P|133:282|137:324,1,85,6|8,0:0|0:0,0:0:0:0:
231,263,161547,1,0,0:0:0:0:
231,263,161621,1,2,0:0:0:0:
418,174,161768,2,0,P|439:209|435:251,1,85,12|2,0:0|0:0,0:0:0:0:
341,191,161988,1,0,0:0:0:0:
341,191,162062,1,8,0:0:0:0:
348,321,162209,5,6,0:0:0:0:
364,115,162356,1,8,0:0:0:0:
435,251,162503,1,6,0:0:0:0:
392,253,162576,1,0,0:0:0:0:
350,255,162650,1,8,0:0:0:0:
307,257,162723,1,0,0:0:0:0:
265,259,162797,6,0,B|242:231|242:231|188:230,1,85,6|8,0:0|0:0,0:0:0:0:
95,267,163018,1,0,0:0:0:0:
95,267,163091,1,2,0:0:0:0:
201,60,163238,2,0,B|229:83|229:83|230:137,1,85,12|2,0:0|0:0,0:0:0:0:
193,230,163459,1,0,0:0:0:0:
193,230,163532,1,8,0:0:0:0:
54,20,163680,6,0,L|48:119,1,85,6|8,0:0|0:0,0:0:0:0:
52,208,163900,1,0,0:0:0:0:
52,208,163974,1,2,0:0:0:0:
214,372,164121,2,0,L|220:273,1,85,12|2,0:0|0:0,0:0:0:0:
216,184,164341,1,0,0:0:0:0:
216,184,164415,1,8,0:0:0:0:
155,339,164562,5,6,0:0:0:0:
156,120,164709,1,8,0:0:0:0:
346,231,164856,1,2,0:0:0:0:
364,221,164929,1,0,0:0:0:0:
383,211,165003,1,8,0:0:0:0:
442,39,165150,6,0,L|418:134,1,85,6|8,0:0|0:0,0:0:0:0:
328,138,165371,1,0,0:0:0:0:
328,138,165444,1,2,0:0:0:0:
333,384,165591,2,0,L|309:289,1,85,12|2,0:0|0:0,0:0:0:0:
219,285,165812,1,0,0:0:0:0:
219,285,165885,1,8,0:0:0:0:
21,332,166033,6,0,P|57:306|102:312,1,85,6|8,0:0|0:0,0:0:0:0:
143,228,166253,1,0,0:0:0:0:
143,228,166327,1,2,0:0:0:0:
386,324,166474,2,0,P|350:298|305:304,1,85,12|2,0:0|0:0,0:0:0:0:
264,220,166694,1,0,0:0:0:0:
264,220,166768,1,8,0:0:0:0:
196,117,166915,5,6,0:0:0:0:
211,329,167062,1,8,0:0:0:0:
388,211,167209,1,2,0:0:0:0:
369,200,167282,1,0,0:0:0:0:
350,190,167356,1,8,0:0:0:0:
143,228,167503,6,0,B|79:229|79:229|116:208,1,85,6|8,0:0|0:0,0:0:0:0:
54,161,167724,1,0,0:0:0:0:
54,161,167797,1,2,0:0:0:0:
183,42,167944,2,0,B|247:41|247:41|210:62,1,85,12|2,0:0|0:0,0:0:0:0:
272,109,168165,1,0,0:0:0:0:
272,109,168238,1,8,0:0:0:0:
403,36,168385,6,0,L|424:125,1,85,6|8,0:0|0:0,0:0:0:0:
388,211,168606,1,0,0:0:0:0:
388,211,168680,1,2,0:0:0:0:
211,292,168827,2,0,L|232:203,1,85,12|2,0:0|0:0,0:0:0:0:
196,117,169048,1,0,0:0:0:0:
196,117,169122,1,8,0:0:0:0:
304,255,169268,5,6,0:0:0:0:
228,51,169415,1,8,0:0:0:0:
109,137,169562,1,2,0:0:0:0:
151,136,169635,1,0,0:0:0:0:
194,133,169709,1,8,0:0:0:0:
236,134,169782,1,2,0:0:0:0:
278,134,169856,6,0,P|310:82|401:100,1,152.999995330811,6|0,0:0|0:0,0:0:0:0:
411,100,170150,5,8,0:0:0:0:
347,142,170297,1,8,0:0:0:0:
443,196,170444,1,8,0:0:0:0:
327,260,170591,1,8,0:0:0:0:
467,337,170738,1,8,0:0:0:0:
307,378,170885,1,8,0:0:0:0:
122,225,171033,6,0,P|88:124|125:20,1,203.999993774414,6|0,0:0|0:0,0:0:0:0:
390,225,171474,2,0,P|424:124|387:20,1,203.999993774414,6|0,0:0|0:0,0:0:0:0:
91,131,171915,6,0,P|45:153|27:215,2,101.999996887207,6|0|0,0:0|0:0|0:0,0:0:0:0:
426,130,172356,2,0,P|472:152|490:214,2,101.999996887207,6|0|0,0:0|0:0|0:0,0:0:0:0:
364,301,172797,5,6,0:0:0:0:
426,130,172944,2,0,L|396:35,1,85,8|2,0:0|0:0,0:0:0:0:
259,259,173238,2,0,L|289:164,1,85,12|2,0:0|0:0,0:0:0:0:
322,90,173458,1,0,0:0:0:0:
322,90,173532,1,8,0:0:0:0:
432,254,173679,1,6,0:0:0:0:
259,259,173826,1,8,0:0:0:0:
249,299,173899,1,0,0:0:0:0:
237,341,173973,1,2,0:0:0:0:
114,179,174120,6,0,L|144:84,1,85,12|2,0:0|0:0,0:0:0:0:
228,96,174341,1,0,0:0:0:0:
228,96,174414,1,8,0:0:0:0:
29,33,174561,1,6,0:0:0:0:
74,237,174708,1,8,0:0:0:0:
175,20,174855,1,2,0:0:0:0:
195,13,174928,1,0,0:0:0:0:
215,6,175002,1,8,0:0:0:0:
242,178,175149,6,0,L|256:277,1,85,6|8,0:0|0:0,0:0:0:0:
160,206,175370,1,0,0:0:0:0:
160,206,175444,1,2,0:0:0:0:
419,134,175591,2,0,L|433:233,1,85,12|2,0:0|0:0,0:0:0:0:
337,162,175812,1,0,0:0:0:0:
337,162,175886,1,8,0:0:0:0:
402,17,176032,1,6,0:0:0:0:
237,90,176179,1,8,0:0:0:0:
239,133,176252,1,0,0:0:0:0:
242,178,176326,1,2,0:0:0:0:
65,45,176473,6,0,L|72:154,1,85,12|2,0:0|0:0,0:0:0:0:
77,220,176694,1,0,0:0:0:0:
77,220,176767,1,8,0:0:0:0:
164,351,176914,1,6,0:0:0:0:
211,163,177061,1,8,0:0:0:0:
350,297,177208,1,2,0:0:0:0:
329,303,177281,1,0,0:0:0:0:
309,310,177355,2,0,L|255:325,1,42.5
472,260,177502,6,0,L|478:154,1,85,6|8,0:0|0:0,0:0:0:0:
483,77,177723,1,0,0:0:0:0:
483,77,177797,1,2,0:0:0:0:
288,28,177944,2,0,L|294:134,1,85,12|2,0:0|0:0,0:0:0:0:
299,211,178165,1,0,0:0:0:0:
299,211,178239,1,8,0:0:0:0:
386,24,178385,1,6,0:0:0:0:
181,43,178532,1,8,0:0:0:0:
168,26,178605,1,0,0:0:0:0:
154,9,178679,1,2,0:0:0:0:
145,175,178826,6,0,B|109:195|109:195|90:238,1,85,12|2,0:0|0:0,0:0:0:0:
223,195,179047,1,0,0:0:0:0:
223,195,179120,1,8,0:0:0:0:
96,335,179267,1,6,0:0:0:0:
38,155,179414,1,8,0:0:0:0:
181,281,179561,1,2,0:0:0:0:
201,285,179634,1,0,0:0:0:0:
222,289,179708,1,8,0:0:0:0:
286,123,179855,6,0,L|316:214,1,85,6|8,0:0|0:0,0:0:0:0:
344,294,180076,1,0,0:0:0:0:
344,294,180149,1,2,0:0:0:0:
480,59,180297,2,0,L|436:144,1,85,12|2,0:0|0:0,0:0:0:0:
399,220,180518,1,0,0:0:0:0:
399,220,180591,1,8,0:0:0:0:
245,52,180738,2,0,B|214:84|214:84|201:137,1,85,6|8,0:0|0:0,0:0:0:0:
286,123,180958,1,0,0:0:0:0:
286,123,181032,1,2,0:0:0:0:
102,73,181179,5,12,0:0:0:0:
96,93,181252,1,0,0:0:0:0:
91,114,181326,1,2,0:0:0:0:
20,15,181473,1,8,0:0:0:0:
55,235,181620,1,6,0:0:0:0:
205,123,181767,1,8,0:0:0:0:
226,308,181914,1,2,0:0:0:0:
246,302,181987,1,0,0:0:0:0:
268,296,182061,5,8,0:0:0:0:
264,338,182134,1,8,0:0:0:0:
261,380,182208,6,0,P|297:335|386:343,1,152.999995330811,6|0,0:0|0:0,0:0:0:0:
402,355,182502,5,8,0:0:0:0:
491,290,182649,1,8,0:0:0:0:
385,212,182797,1,8,0:0:0:0:
500,128,182944,1,8,0:0:0:0:
362,229,183091,1,8,0:0:0:0:
197,108,183238,1,8,0:0:0:0:
261,380,183385,6,0,L|274:157,1,203.999993774414,6|0,0:0|0:0,0:0:0:0:
80,16,183826,2,0,L|91:219,1,203.999993774414,6|0,0:0|0:0,0:0:0:0:
188,9,184267,6,0,B|206:57|206:57|196:107,2,101.999996887207,6|0|0,0:0|0:0|0:0,0:0:0:0:
366,382,184708,2,0,B|348:334|348:334|357:283,2,101.999996887207,6|0|0,0:0|0:0|0:0,0:0:0:0:
441,326,185149,6,0,B|440:310|440:310|447:300|447:300|443:288|443:288|448:279|448:279|441:262|441:262|441:249|441:249|428:238|428:238|423:221|423:221|405:212|405:212|394:197|394:197|376:197|376:197|363:189|363:189|342:195|342:195|325:195,1,229.499992996216,6|0,0:0|0:0,0:0:0:0:
261,270,185885,5,10,0:0:0:0:
261,291,185958,1,10,0:0:0:0:
264,312,186032,5,8,0:0:0:0:
226,292,186105,1,8,0:0:0:0:
188,272,186179,1,8,0:0:0:0:
152,291,186252,1,8,0:0:0:0:
116,313,186326,6,0,L|113:213,1,85,6|8,0:0|0:0,0:0:0:0:
111,136,186546,1,0,0:0:0:0:
111,136,186620,1,2,0:0:0:0:
213,23,186767,2,0,B|248:79|248:79|248:109,1,85,12|2,0:0|0:0,0:0:0:0:
393,0,187061,2,0,B|395:65|395:65|380:91,1,85,12|2,0:0|0:0,0:0:0:0:
307,248,187355,1,8,0:0:0:0:
318,62,187502,5,2,0:0:0:0:
306,264,187649,1,8,0:0:0:0:
305,280,187723,1,0,0:0:0:0:
304,296,187796,1,2,0:0:0:0:
389,149,187943,1,8,0:0:0:0:
213,234,188090,1,2,0:0:0:0:
170,234,188163,1,0,0:0:0:0:
128,234,188237,1,8,0:0:0:0:
163,97,188384,1,2,0:0:0:0:
206,97,188457,1,0,0:0:0:0:
248,97,188531,1,8,0:0:0:0:
53,229,188678,6,0,L|36:327,1,85,6|8,0:0|0:0,0:0:0:0:
148,345,188899,1,0,0:0:0:0:
148,345,188973,1,2,0:0:0:0:
84,77,189120,2,0,L|67:175,1,85,12|2,0:0|0:0,0:0:0:0:
218,17,189414,2,0,L|252:110,1,85,12|2,0:0|0:0,0:0:0:0:
301,31,189634,1,0,0:0:0:0:
301,31,189708,1,8,0:0:0:0:
373,206,189855,5,0,0:0:0:0:
457,38,190002,1,8,0:0:0:0:
456,54,190076,1,0,0:0:0:0:
455,70,190149,1,2,0:0:0:0:
311,150,190296,1,8,0:0:0:0:
443,350,190443,1,2,0:0:0:0:
443,307,190516,1,0,0:0:0:0:
443,265,190590,1,8,0:0:0:0:
293,230,190737,1,2,0:0:0:0:
293,272,190811,1,0,0:0:0:0:
293,315,190884,1,8,0:0:0:0:
391,125,191031,6,0,B|368:86|368:86|325:60,1,85,6|8,0:0|0:0,0:0:0:0:
249,88,191252,1,0,0:0:0:0:
249,88,191326,1,2,0:0:0:0:
293,230,191473,2,0,B|338:229|338:229|382:205,1,85,12|2,0:0|0:0,0:0:0:0:
272,2,191767,2,0,B|227:2|227:2|183:26,1,85,12|2,0:0|0:0,0:0:0:0:
165,105,191987,1,0,0:0:0:0:
165,105,192061,1,8,0:0:0:0:
25,49,192208,5,2,0:0:0:0:
37,234,192355,1,8,0:0:0:0:
38,250,192429,1,0,0:0:0:0:
39,266,192502,1,2,0:0:0:0:
92,75,192649,1,8,0:0:0:0:
202,203,192796,1,2,0:0:0:0:
238,180,192869,1,0,0:0:0:0:
274,158,192943,1,8,0:0:0:0:
120,205,193090,1,2,0:0:0:0:
83,182,193163,1,0,0:0:0:0:
47,160,193237,1,8,0:0:0:0:
118,366,193384,5,6,0:0:0:0:
160,133,193531,1,8,0:0:0:0:
160,133,193605,1,0,0:0:0:0:
160,133,193678,1,2,0:0:0:0:
341,286,193826,2,0,L|355:193,1,85,12|2,0:0|0:0,0:0:0:0:
219,344,194120,2,0,L|206:259,1,85,12|2,0:0|0:0,0:0:0:0:
182,172,194341,1,0,0:0:0:0:
182,172,194414,1,8,0:0:0:0:
118,366,194561,5,2,0:0:0:0:
4,265,194708,1,8,0:0:0:0:
20,264,194782,1,0,0:0:0:0:
36,263,194855,1,2,0:0:0:0:
85,141,195002,1,8,0:0:0:0:
215,122,195149,1,2,0:0:0:0:
228,81,195222,1,0,0:0:0:0:
241,41,195296,1,8,0:0:0:0:
99,178,195443,1,2,0:0:0:0:
113,218,195516,1,0,0:0:0:0:
126,258,195590,1,8,0:0:0:0:
389,238,195737,5,12,0:0:0:0:
399,231,195810,1,0,0:0:0:0:
410,224,195884,1,0,0:0:0:0:
421,217,195957,1,0,0:0:0:0:
393,184,196031,5,12,0:0:0:0:
403,177,196104,1,0,0:0:0:0:
414,170,196178,1,0,0:0:0:0:
425,163,196251,1,0,0:0:0:0:
396,129,196325,5,12,0:0:0:0:
406,122,196398,1,0,0:0:0:0:
417,115,196472,1,0,0:0:0:0:
428,108,196545,1,0,0:0:0:0:
399,74,196619,5,12,0:0:0:0:
409,67,196692,1,0,0:0:0:0:
420,60,196766,1,0,0:0:0:0:
431,53,196839,1,0,0:0:0:0:
481,43,196913,5,12,0:0:0:0:
481,93,196986,1,8,0:0:0:0:
482,144,197060,1,8,0:0:0:0:
483,195,197133,1,8,0:0:0:0:
483,246,197207,5,12,0:0:0:0:
483,258,197280,1,0,0:0:0:0:
483,271,197354,1,0,0:0:0:0:
483,284,197427,1,0,0:0:0:0:
451,322,197501,5,12,0:0:0:0:
442,330,197574,1,0,0:0:0:0:
433,339,197648,1,0,0:0:0:0:
424,348,197721,1,0,0:0:0:0:
375,351,197796,5,12,0:0:0:0:
363,350,197869,1,0,0:0:0:0:
350,350,197943,1,0,0:0:0:0:
337,350,198016,1,0,0:0:0:0:
300,317,198090,5,12,0:0:0:0:
292,308,198163,1,0,0:0:0:0:
283,299,198237,1,0,0:0:0:0:
274,289,198310,1,0,0:0:0:0:
267,240,198384,5,12,0:0:0:0:
311,220,198457,1,8,0:0:0:0:
350,249,198531,1,8,0:0:0:0:
344,297,198604,1,8,0:0:0:0:
300,317,198678,5,12,0:0:0:0:
288,321,198751,1,0,0:0:0:0:
276,325,198825,1,0,0:0:0:0:
264,330,198898,1,0,0:0:0:0:
227,305,198972,5,12,0:0:0:0:
215,309,199045,1,0,0:0:0:0:
203,313,199119,1,0,0:0:0:0:
191,318,199192,1,0,0:0:0:0:
153,292,199266,5,12,0:0:0:0:
141,296,199339,1,0,0:0:0:0:
129,300,199413,1,0,0:0:0:0:
117,305,199486,1,0,0:0:0:0:
79,279,199561,5,12,0:0:0:0:
67,283,199634,1,0,0:0:0:0:
55,287,199708,1,0,0:0:0:0:
43,292,199781,1,0,0:0:0:0:
5,266,199854,5,12,0:0:0:0:
17,217,199927,1,8,0:0:0:0:
57,187,200001,1,8,0:0:0:0:
107,186,200074,1,8,0:0:0:0:
147,217,200148,5,12,0:0:0:0:
148,204,200221,1,0,0:0:0:0:
150,192,200295,1,0,0:0:0:0:
151,179,200368,1,0,0:0:0:0:
193,154,200442,5,12,0:0:0:0:
191,169,200515,1,0,0:0:0:0:
189,184,200589,1,0,0:0:0:0:
187,199,200662,1,0,0:0:0:0:
139,219,200737,5,12,0:0:0:0:
141,201,200810,1,0,0:0:0:0:
144,183,200884,1,0,0:0:0:0:
146,165,200957,1,0,0:0:0:0:
203,151,201031,5,12,0:0:0:0:
200,172,201104,1,0,0:0:0:0:
197,194,201178,1,0,0:0:0:0:
194,215,201251,1,0,0:0:0:0:
172,277,201325,5,12,0:0:0:0:
222,277,201398,1,8,0:0:0:0:
273,277,201472,1,8,0:0:0:0:
324,277,201545,1,8,0:0:0:0:
375,277,201619,5,12,0:0:0:0:
366,267,201692,1,0,0:0:0:0:
357,258,201766,1,0,0:0:0:0:
348,249,201839,1,0,0:0:0:0:
344,200,201913,5,12,0:0:0:0:
352,190,201986,1,0,0:0:0:0:
361,181,202060,1,0,0:0:0:0:
370,172,202133,1,0,0:0:0:0:
374,122,202208,5,12,0:0:0:0:
366,112,202281,1,0,0:0:0:0:
357,103,202355,1,0,0:0:0:0:
348,94,202428,1,0,0:0:0:0:
343,44,202501,5,12,0:0:0:0:
351,34,202574,1,0,0:0:0:0:
360,25,202648,1,0,0:0:0:0:
369,16,202721,1,0,0:0:0:0:
421,48,202795,5,12,0:0:0:0:
370,45,202868,1,8,0:0:0:0:
319,42,202942,1,8,0:0:0:0:
268,39,203015,1,8,0:0:0:0:
217,37,203090,5,12,0:0:0:0:
209,47,203163,1,0,0:0:0:0:
200,56,203237,1,0,0:0:0:0:
191,65,203310,1,0,0:0:0:0:
186,114,203384,5,12,0:0:0:0:
194,124,203457,1,0,0:0:0:0:
203,133,203531,1,0,0:0:0:0:
212,142,203604,1,0,0:0:0:0:
216,192,203679,5,12,0:0:0:0:
208,202,203752,1,0,0:0:0:0:
199,211,203826,1,0,0:0:0:0:
190,220,203899,1,0,0:0:0:0:
185,270,203972,5,12,0:0:0:0:
193,280,204045,1,0,0:0:0:0:
202,289,204119,1,0,0:0:0:0:
211,298,204192,1,0,0:0:0:0:
263,266,204266,5,12,0:0:0:0:
212,269,204339,1,8,0:0:0:0:
161,272,204413,1,8,0:0:0:0:
110,275,204486,1,8,0:0:0:0:
59,277,204560,5,12,0:0:0:0:
63,265,204633,1,0,0:0:0:0:
68,253,204707,1,0,0:0:0:0:
72,241,204780,1,0,0:0:0:0:
44,197,204855,5,12,0:0:0:0:
57,195,204928,1,0,0:0:0:0:
69,194,205002,1,0,0:0:0:0:
82,192,205075,1,0,0:0:0:0:
105,144,205149,5,12,0:0:0:0:
114,154,205222,1,0,0:0:0:0:
121,164,205296,1,0,0:0:0:0:
129,175,205369,1,0,0:0:0:0:
182,170,205442,5,12,0:0:0:0:
177,183,205516,1,0,0:0:0:0:
172,194,205590,1,0,0:0:0:0:
167,207,205663,1,0,0:0:0:0:
197,250,205737,5,12,0:0:0:0:
241,226,205810,1,8,0:0:0:0:
291,228,205884,1,8,0:0:0:0:
333,256,205957,1,8,0:0:0:0:
355,302,206031,5,12,0:0:0:0:
367,297,206104,1,0,0:0:0:0:
379,293,206178,1,0,0:0:0:0:
391,289,206251,1,0,0:0:0:0:
431,255,206325,5,12,0:0:0:0:
429,238,206398,1,0,0:0:0:0:
429,222,206472,1,0,0:0:0:0:
429,207,206545,1,0,0:0:0:0:
404,148,206619,5,12,0:0:0:0:
384,144,206692,1,0,0:0:0:0:
366,138,206766,1,0,0:0:0:0:
349,133,206839,1,0,0:0:0:0:
281,135,206913,5,12,0:0:0:0:
269,156,206987,1,0,0:0:0:0:
254,174,207061,1,0,0:0:0:0:
242,192,207134,1,0,0:0:0:0:
297,240,207207,6,0,B|324:200|324:200|357:209,2,67.9999979248048,12|8|8,0:0|0:0|0:0,0:0:0:0:
255,301,207459,6,0,L|218:353,1,63.75,12|0,0:0|0:0,0:0:0:0:
363,375,207711,6,0,P|431:293|335:205,1,254.999992218018,12|0,0:0|0:0,0:0:0:0:
255,301,208089,6,0,L|156:281,1,85,6|8,0:0|0:0,0:0:0:0:
141,202,208309,1,0,0:0:0:0:
141,202,208383,1,2,0:0:0:0:
16,138,208530,2,0,L|115:118,1,85,12|2,0:0|0:0,0:0:0:0:
139,39,208750,1,0,0:0:0:0:
139,39,208824,1,8,0:0:0:0:
51,220,208971,6,0,B|36:261|36:261|38:309,1,85,6|8,0:0|0:0,0:0:0:0:
112,354,209191,1,0,0:0:0:0:
112,354,209265,1,2,0:0:0:0:
241,151,209412,2,0,B|256:192|256:192|254:240,1,85,12|2,0:0|0:0,0:0:0:0:
180,285,209632,1,0,0:0:0:0:
180,285,209706,1,8,0:0:0:0:
316,365,209853,1,6,0:0:0:0:
314,144,210000,1,8,0:0:0:0:
221,363,210147,1,6,0:0:0:0:
221,363,210221,1,0,0:0:0:0:
221,363,210294,1,8,0:0:0:0:
355,222,210441,6,0,L|461:230,1,85,6|8,0:0|0:0,0:0:0:0:
479,311,210662,1,0,0:0:0:0:
479,311,210736,1,2,0:0:0:0:
314,144,210883,2,0,L|208:152,1,85,12|2,0:0|0:0,0:0:0:0:
190,233,211104,1,0,0:0:0:0:
190,233,211178,1,8,0:0:0:0:
34,103,211324,6,0,B|23:145|23:145|31:192,1,85,6|8,0:0|0:0,0:0:0:0:
103,147,211544,1,0,0:0:0:0:
103,147,211618,1,2,0:0:0:0:
110,352,211765,2,0,B|121:310|121:310|113:263,1,85,12|2,0:0|0:0,0:0:0:0:
41,308,211985,1,0,0:0:0:0:
41,308,212059,1,8,0:0:0:0:
212,282,212206,1,6,0:0:0:0:
186,111,212353,1,8,0:0:0:0:
127,295,212500,1,2,0:0:0:0:
170,289,212574,1,0,0:0:0:0:
212,282,212647,1,8,0:0:0:0:
254,275,212721,1,0,0:0:0:0:
296,268,212794,5,6,0:0:0:0:
315,89,212941,1,8,0:0:0:0:
315,89,213015,1,0,0:0:0:0:
315,89,213089,1,2,0:0:0:0:
419,312,213236,1,12,0:0:0:0:
439,115,213383,1,2,0:0:0:0:
439,115,213457,1,0,0:0:0:0:
439,115,213531,1,8,0:0:0:0:
344,342,213677,1,6,0:0:0:0:
492,220,213824,1,8,0:0:0:0:
492,220,213897,1,0,0:0:0:0:
492,220,213971,1,2,0:0:0:0:
221,194,214118,6,0,L|115:191,1,85,12|2,0:0|0:0,0:0:0:0:
95,200,214339,1,0,0:0:0:0:
64,229,214413,1,8,0:0:0:0:
51,269,214486,1,0,0:0:0:0:
60,310,214559,1,6,0:0:0:0:
279,270,214706,1,8,0:0:0:0:
140,361,214853,1,6,0:0:0:0:
142,318,214926,1,0,0:0:0:0:
144,276,215000,1,8,0:0:0:0:
154,64,215147,5,6,0:0:0:0:
333,179,215294,1,8,0:0:0:0:
333,179,215368,1,0,0:0:0:0:
333,179,215441,1,2,0:0:0:0:
100,168,215589,5,12,0:0:0:0:
279,75,215736,1,2,0:0:0:0:
279,75,215809,1,0,0:0:0:0:
279,75,215883,1,8,0:0:0:0:
372,254,216030,1,6,0:0:0:0:
477,123,216177,1,8,0:0:0:0:
434,123,216250,1,0,0:0:0:0:
392,123,216324,1,2,0:0:0:0:
349,123,216397,1,0,0:0:0:0:
307,123,216471,6,0,L|255:31,1,85,12|2,0:0|0:0,0:0:0:0:
181,49,216691,1,0,0:0:0:0:
181,49,216765,1,8,0:0:0:0:
244,204,216912,2,0,L|203:279,1,85,6|8,0:0|0:0,0:0:0:0:
74,115,217206,1,6,0:0:0:0:
102,113,217279,1,0,0:0:0:0:
130,112,217353,5,8,0:0:0:0:
146,151,217426,1,8,0:0:0:0:
162,191,217500,5,12,0:0:0:0:
304,124,217647,1,8,0:0:0:0:
290,288,217794,1,8,0:0:0:0:
149,190,217941,1,8,0:0:0:0:
311,113,218089,1,8,0:0:0:0:
295,300,218236,1,8,0:0:0:0:
133,187,218383,1,8,0:0:0:0:
320,99,218530,1,8,0:0:0:0:
156,277,218677,6,0,P|63:249|50:146,1,203.999993774414,12|0,0:0|0:0,0:0:0:0:
356,277,219118,2,0,P|449:249|462:146,1,203.999993774414,12|0,0:0|0:0,0:0:0:0:
127,85,219559,6,0,L|134:207,2,101.999996887207,12|0|0,0:0|0:0|0:0,0:0:0:0:
385,85,220000,2,0,L|378:207,2,101.999996887207,12|0|0,0:0|0:0|0:0,0:0:0:0:
255,21,220441,6,0,B|246:43|246:43|257:64|257:64|246:85|246:85|259:106|259:106|248:124|248:124|260:144|260:144|249:159|249:159|257:179|257:179|254:192,1,191.25,6|0,0:0|0:0,0:0:0:0:
254,266,221177,5,10,0:0:0:0:
255,287,221250,1,10,0:0:0:0:
253,304,221324,5,8,0:0:0:0:
291,285,221397,1,8,0:0:0:0:
329,266,221471,1,10,0:0:0:0:
351,301,221544,1,8,0:0:0:0:
375,339,221618,6,0,L|470:339,1,85,6|8,0:0|0:0,0:0:0:0:
304,374,221838,1,0,0:0:0:0:
304,374,221912,1,2,0:0:0:0:
439,185,222059,2,0,B|459:222|459:222|461:273,1,85,12|2,0:0|0:0,0:0:0:0:
254,189,222353,2,0,B|234:152|234:152|232:101,1,85,12|2,0:0|0:0,0:0:0:0:
232,87,222573,1,0,0:0:0:0:
232,66,222647,1,8,0:0:0:0:
389,235,222794,5,2,0:0:0:0:
388,27,222941,1,8,0:0:0:0:
388,27,223015,1,0,0:0:0:0:
388,27,223088,1,2,0:0:0:0:
322,214,223235,1,8,0:0:0:0:
135,148,223382,1,2,0:0:0:0:
92,148,223455,1,0,0:0:0:0:
50,148,223529,1,8,0:0:0:0:
232,66,223676,1,2,0:0:0:0:
274,66,223749,1,0,0:0:0:0:
316,66,223823,1,8,0:0:0:0:
157,222,223970,6,0,B|155:279|155:279|163:306,1,85,6|8,0:0|0:0,0:0:0:0:
217,150,224191,1,0,0:0:0:0:
217,150,224265,1,2,0:0:0:0:
51,279,224412,2,0,B|43:306|43:306|46:375,1,85,12|2,0:0|0:0,0:0:0:0:
263,304,224706,2,0,B|271:277|271:277|268:208,1,85,12|2,0:0|0:0,0:0:0:0:
289,220,224926,1,0,0:0:0:0:
311,220,224999,1,8,0:0:0:0:
429,348,225147,5,2,0:0:0:0:
430,137,225294,1,8,0:0:0:0:
430,137,225368,1,0,0:0:0:0:
430,137,225441,1,2,0:0:0:0:
332,340,225588,1,8,0:0:0:0:
474,238,225735,1,2,0:0:0:0:
431,238,225808,1,0,0:0:0:0:
389,238,225882,1,8,0:0:0:0:
385,58,226029,1,2,0:0:0:0:
427,58,226102,1,0,0:0:0:0:
470,58,226176,1,8,0:0:0:0:
232,152,226323,5,6,0:0:0:0:
506,169,226470,1,8,0:0:0:0:
506,169,226544,1,0,0:0:0:0:
506,169,226618,1,2,0:0:0:0:
282,77,226765,2,0,B|241:64|241:64|185:71,1,85,12|2,0:0|0:0,0:0:0:0:
183,258,227059,2,0,B|224:271|224:271|280:264,1,85,12|2,0:0|0:0,0:0:0:0:
286,261,227279,1,0,0:0:0:0:
307,257,227353,1,8,0:0:0:0:
232,152,227500,5,2,0:0:0:0:
72,280,227647,1,8,0:0:0:0:
72,280,227720,1,0,0:0:0:0:
72,280,227794,1,2,0:0:0:0:
199,69,227941,1,8,0:0:0:0:
52,165,228088,1,2,0:0:0:0:
94,163,228161,1,0,0:0:0:0:
136,162,228235,1,8,0:0:0:0:
222,334,228382,1,2,0:0:0:0:
180,332,228455,1,0,0:0:0:0:
138,331,228529,1,8,0:0:0:0:
373,243,228676,6,0,B|404:238|404:238|423:245|423:245|456:241,1,85,6|8,0:0|0:0,0:0:0:0:
443,164,228897,1,0,0:0:0:0:
443,164,228970,1,2,0:0:0:0:
382,337,229118,2,0,L|287:337,1,85,12|2,0:0|0:0,0:0:0:0:
232,152,229412,2,0,L|327:152,1,85,12|2,0:0|0:0,0:0:0:0:
315,173,229632,1,0,0:0:0:0:
313,194,229706,1,8,0:0:0:0:
420,32,229853,5,2,0:0:0:0:
253,73,230000,1,8,0:0:0:0:
210,73,230073,1,0,0:0:0:0:
168,73,230147,1,2,0:0:0:0:
381,126,230294,1,8,0:0:0:0:
338,1,230441,1,2,0:0:0:0:
331,43,230514,1,0,0:0:0:0:
325,85,230588,1,8,0:0:0:0:
478,205,230735,1,2,0:0:0:0:
445,177,230808,1,0,0:0:0:0:
411,151,230882,1,8,0:0:0:0:
230,220,231029,5,6,0:0:0:0:
207,238,231102,1,0,0:0:0:0:
198,265,231176,1,0,0:0:0:0:
209,291,231249,1,0,0:0:0:0:
232,305,231323,1,2,0:0:0:0:
260,301,231396,1,0,0:0:0:0:
279,281,231470,5,12,0:0:0:0:
251,282,231543,1,0,0:0:0:0:
223,282,231617,1,0,0:0:0:0:
194,282,231690,1,0,0:0:0:0:
166,283,231764,1,2,0:0:0:0:
138,283,231837,1,0,0:0:0:0:
109,283,231912,5,12,0:0:0:0:
111,294,231985,1,0,0:0:0:0:
113,304,232059,1,10,0:0:0:0:
116,315,232132,1,0,0:0:0:0:
124,354,232206,5,12,0:0:0:0:
148,339,232279,1,0,0:0:0:0:
164,317,232353,1,0,0:0:0:0:
170,289,232426,1,0,0:0:0:0:
163,262,232500,1,2,0:0:0:0:
146,240,232573,1,0,0:0:0:0:
121,227,232647,5,12,0:0:0:0:
96,212,232720,1,0,0:0:0:0:
80,190,232794,1,0,0:0:0:0:
74,162,232867,1,0,0:0:0:0:
81,135,232941,1,0,0:0:0:0:
98,113,233014,1,0,0:0:0:0:
123,100,233088,5,12,0:0:0:0:
126,110,233161,1,0,0:0:0:0:
129,120,233235,1,0,0:0:0:0:
132,130,233308,1,0,0:0:0:0:
146,154,233382,5,12,0:0:0:0:
174,153,233455,1,0,0:0:0:0:
202,152,233529,1,0,0:0:0:0:
230,151,233602,1,0,0:0:0:0:
259,150,233676,1,2,0:0:0:0:
287,149,233749,1,0,0:0:0:0:
315,149,233823,5,12,0:0:0:0:
293,122,233896,1,0,0:0:0:0:
259,118,233970,1,0,0:0:0:0:
231,138,234043,1,0,0:0:0:0:
225,172,234117,1,2,0:0:0:0:
244,201,234190,1,0,0:0:0:0:
277,209,234265,5,12,0:0:0:0:
283,200,234338,1,0,0:0:0:0:
289,191,234412,1,0,0:0:0:0:
294,182,234485,1,0,0:0:0:0:
315,149,234559,6,0,B|334:136|334:136|335:220,1,101.999996887207,12|0,0:0|0:0,0:0:0:0:
350,359,234779,1,8,0:0:0:0:
350,359,234853,2,0,L|402:346,1,50.9999984436036
453,196,235000,2,0,L|401:183,1,50.9999984436036,12|0,0:0|0:0,0:0:0:0:
288,294,235147,2,0,L|337:281,1,50.9999984436036
404,111,235294,1,8,0:0:0:0:
403,85,235367,1,0,0:0:0:0:
402,60,235441,5,12,0:0:0:0:
399,64,235514,1,0,0:0:0:0:
396,68,235588,1,0,0:0:0:0:
393,72,235661,1,0,0:0:0:0:
403,20,235735,5,6,0:0:0:0:
356,20,235808,1,2,0:0:0:0:
309,20,235882,1,2,0:0:0:0:
118,130,236029,1,6,0:0:0:0:
285,203,236176,2,0,B|296:157|296:157|286:97,1,93.5000028533936,8|0,0:0|0:0,0:0:0:0:
99,36,236470,1,8,0:0:0:0:
137,224,236618,2,0,L|149:282,2,46.7500014266968,2|0|8,0:0|0:0|0:0,0:0:0:0:
32,177,236912,5,6,0:0:0:0:
20,132,236985,1,0,0:0:0:0:
32,87,237059,1,2,0:0:0:0:
54,328,237206,1,8,0:0:0:0:
205,159,237353,1,6,0:0:0:0:
216,114,237426,1,0,0:0:0:0:
204,69,237500,1,2,0:0:0:0:
47,255,237647,1,8,0:0:0:0:
301,317,237794,1,6,0:0:0:0:
346,328,237867,1,0,0:0:0:0:
391,316,237941,1,2,0:0:0:0:
205,159,238088,5,12,0:0:0:0:
160,148,238161,1,0,0:0:0:0:
115,160,238235,1,2,0:0:0:0:
303,133,238382,1,0,0:0:0:0:
163,247,238529,2,0,L|164:293,2,46.7500014266968,8|0|0,0:0|0:0|0:0,0:0:0:0:
156,21,238823,1,8,0:0:0:0:
355,127,238970,1,2,0:0:0:0:
329,130,239044,1,0,0:0:0:0:
303,133,239118,1,8,0:0:0:0:
473,55,239265,5,12,0:0:0:0:
495,95,239338,1,0,0:0:0:0:
496,141,239412,1,2,0:0:0:0:
368,341,239559,1,12,0:0:0:0:
233,219,239706,6,0,P|255:214|297:216,1,51,12|0,0:0|0:0,0:0:0:0:
389,247,240000,6,0,P|339:235|287:242,1,95.6250036478044,12|0,0:0|0:0,0:0:0:0:
460,253,240294,6,0,B|483:255|483:255|509:251,1,46.7500014266968,12|0,0:0|0:0,0:0:0:0:
368,341,240441,5,12,0:0:0:0:
321,339,240514,1,0,0:0:0:0:
274,337,240588,1,2,0:0:0:0:
342,167,240735,1,2,0:0:0:0:
117,275,240882,2,0,L|57:282,2,46.7500014266968,8|0|2,0:0|0:0|0:0,0:0:0:0:
173,109,241176,1,8,0:0:0:0:
189,332,241323,2,0,L|196:392,2,46.7500014266968,2|0|8,0:0|0:0|0:0,0:0:0:0:
101,149,241618,5,6,0:0:0:0:
92,103,241691,1,0,0:0:0:0:
108,60,241765,1,2,0:0:0:0:
233,219,241912,1,8,0:0:0:0:
365,149,242059,1,6,0:0:0:0:
373,103,242132,1,0,0:0:0:0:
357,60,242206,1,2,0:0:0:0:
148,209,242353,1,8,0:0:0:0:
371,309,242500,1,6,0:0:0:0:
417,304,242573,1,0,0:0:0:0:
455,279,242647,1,10,0:0:0:0:
298,108,242794,5,12,0:0:0:0:
251,112,242867,1,0,0:0:0:0:
213,137,242941,1,2,0:0:0:0:
447,108,243088,1,2,0:0:0:0:
279,209,243235,2,0,L|281:256,2,46.7500014266968,8|0|2,0:0|0:0|0:0,0:0:0:0:
433,27,243529,1,8,0:0:0:0:
207,50,243676,2,0,L|163:77,2,46.7500014266968,2|0|8,0:0|0:0|0:0,0:0:0:0:
113,257,243970,5,6,0:0:0:0:
111,303,244043,1,0,0:0:0:0:
133,343,244117,1,2,0:0:0:0:
251,112,244265,1,12,0:0:0:0:
78,168,244412,6,4,P|101:161|132:161,1,51,12|4,0:0|0:0,0:0:0:0:
113,257,244706,6,0,P|68:263|12:242,1,95.6250036478044,12|0,0:0|0:0,0:0:0:0:
200,222,245000,6,0,B|225:222|225:222|257:237,1,46.7500014266968,12|0,0:0|0:0,0:0:0:0:
49,96,245147,5,12,0:0:0:0:
38,51,245220,1,0,0:0:0:0:
55,8,245294,1,2,0:0:0:0:
251,112,245441,1,2,0:0:0:0:
78,168,245588,2,0,L|26:173,2,46.7500014266968,8|0|2,0:0|0:0|0:0,0:0:0:0:
244,24,245882,1,8,0:0:0:0:
285,239,246029,2,0,L|315:281,2,46.7500014266968,2|0|8,0:0|0:0|0:0,0:0:0:0:
410,29,246323,5,6,0:0:0:0:
455,27,246396,1,0,0:0:0:0:
494,52,246470,1,2,0:0:0:0:
251,112,246618,1,8,0:0:0:0:
483,164,246765,1,6,0:0:0:0:
507,202,246838,1,0,0:0:0:0:
504,248,246912,1,2,0:0:0:0:
331,67,247060,1,8,0:0:0:0:
171,151,247206,1,6,0:0:0:0:
126,152,247279,1,0,0:0:0:0:
87,127,247353,1,8,0:0:0:0:
323,247,247500,5,6,0:0:0:0:
347,286,247573,1,0,0:0:0:0:
344,332,247647,1,8,0:0:0:0:
251,112,247794,1,2,0:0:0:0:
31,205,247941,2,0,L|28:257,2,46.7500014266968,8|0|2,0:0|0:0|0:0,0:0:0:0:
159,30,248235,1,8,0:0:0:0:
183,274,248382,2,0,L|186:326,2,46.7500014266968,2|0|8,0:0|0:0|0:0,0:0:0:0:
331,67,248676,5,12,0:0:0:0:
376,61,248749,1,0,0:0:0:0:
418,80,248823,1,2,0:0:0:0:
171,151,248970,1,12,0:0:0:0:
48,28,249118,6,0,P|35:61|35:80,1,51,12|0,0:0|0:0,0:0:0:0:
87,134,249412,6,0,P|89:181|66:235,1,95.6250036478044,12|0,0:0|0:0,0:0:0:0:
30,304,249706,6,0,B|24:328|24:328|26:353,1,46.7500014266968,12|0,0:0|0:0,0:0:0:0:
183,274,249853,5,12,0:0:0:0:
227,264,249926,1,0,0:0:0:0:
271,280,250000,1,2,0:0:0:0:
293,96,250147,1,2,0:0:0:0:
392,326,250294,2,0,L|392:280,2,46.7500014266968,8|0|2,0:0|0:0|0:0,0:0:0:0:
386,69,250588,1,8,0:0:0:0:
271,280,250735,2,8,L|243:333,2,46.7500014266968,2|8|8,0:0|0:0|0:0,0:0:0:0:
459,127,251029,5,6,0:0:0:0:
477,84,251102,1,0,0:0:0:0:
474,38,251176,1,2,0:0:0:0:
487,276,251323,1,8,0:0:0:0:
293,96,251470,1,6,0:0:0:0:
274,53,251543,1,0,0:0:0:0:
277,7,251617,1,2,0:0:0:0:
477,199,251765,1,8,0:0:0:0:
210,276,251912,1,6,0:0:0:0:
164,286,251985,1,0,0:0:0:0:
120,273,252059,1,8,0:0:0:0:
370,125,252206,5,6,0:0:0:0:
415,114,252279,1,0,0:0:0:0:
459,127,252353,1,8,0:0:0:0:
277,7,252500,1,2,0:0:0:0:
265,225,252647,2,0,L|263:283,2,46.7500014266968,8|0|2,0:0|0:0|0:0,0:0:0:0:
387,26,252941,1,8,0:0:0:0:
154,20,253088,2,0,L|80:21,2,46.7500014266968,2|0|8,0:0|0:0|0:0,0:0:0:0:
350,255,253382,5,12,0:0:0:0:
345,301,253455,1,0,0:0:0:0:
320,339,253529,1,2,0:0:0:0:
205,117,253676,1,12,0:0:0:0:
21,287,253823,6,0,P|51:282|85:288,1,51,12|0,0:0|0:0,0:0:0:0:
109,198,254118,6,0,P|66:191|14:213,1,95.6250036478044,12|0,0:0|0:0,0:0:0:0:
165,272,254412,6,0,B|187:277|187:277|215:273,1,46.7500014266968,12|0,0:0|0:0,0:0:0:0:
425,303,254559,5,12,0:0:0:0:
430,289,254632,1,0,0:0:0:0:
433,276,254706,1,0,0:0:0:0:
434,262,254779,1,0,0:0:0:0:
432,245,254853,2,0,P|424:217|411:193,1,42.5
380,43,255000,1,12,0:0:0:0:
374,55,255073,1,0,0:0:0:0:
370,69,255147,1,0,0:0:0:0:
369,83,255220,1,0,0:0:0:0:
371,97,255294,1,0,0:0:0:0:
375,111,255367,1,0,0:0:0:0:
382,123,255441,2,0,L|436:117,1,42.5,12|0,0:0|0:0,0:0:0:0:
497,16,255588,2,0,L|443:22,1,42.5,8|0,0:0|0:0,0:0:0:0:
283,73,255735,5,12,0:0:0:0:
270,79,255808,1,0,0:0:0:0:
256,83,255882,1,0,0:0:0:0:
242,85,255955,1,0,0:0:0:0:
228,84,256029,2,0,P|200:75|183:57,1,42.5
242,185,256176,1,12,0:0:0:0:
254,178,256249,1,0,0:0:0:0:
268,174,256323,1,0,0:0:0:0:
282,172,256396,1,0,0:0:0:0:
297,174,256470,2,0,P|325:183|342:201,1,42.5
281,325,256618,1,12,0:0:0:0:
281,315,256691,1,0,0:0:0:0:
281,304,256765,1,2,0:0:0:0:
282,294,256838,1,0,0:0:0:0:
284,259,256912,5,12,0:0:0:0:
265,269,256985,1,0,0:0:0:0:
245,274,257059,1,0,0:0:0:0:
224,273,257132,1,0,0:0:0:0:
204,265,257206,2,0,L|159:273,1,42.5,8|0,0:0|0:0,0:0:0:0:
92,315,257353,1,12,0:0:0:0:
81,296,257426,1,0,0:0:0:0:
76,276,257500,1,0,0:0:0:0:
77,255,257573,1,0,0:0:0:0:
86,232,257647,1,0,0:0:0:0:
100,213,257720,1,0,0:0:0:0:
119,197,257794,2,0,B|124:174|124:174|119:146,1,42.5,12|0,0:0|0:0,0:0:0:0:
5,132,257941,2,0,B|22:147|22:147|49:157,1,42.5,8|0,0:0|0:0,0:0:0:0:
171,55,258088,5,12,0:0:0:0:
191,49,258161,1,0,0:0:0:0:
212,48,258235,1,0,0:0:0:0:
233,53,258308,1,0,0:0:0:0:
251,63,258382,2,0,L|301:58,1,42.5,8|0,0:0|0:0,0:0:0:0:
459,34,258529,1,12,0:0:0:0:
445,50,258602,1,0,0:0:0:0:
436,69,258676,1,0,0:0:0:0:
432,90,258749,1,0,0:0:0:0:
435,111,258823,1,0,0:0:0:0:
443,130,258896,1,0,0:0:0:0:
457,146,258970,2,0,L|498:133,1,42.5,12|0,0:0|0:0,0:0:0:0:
337,118,259118,2,0,L|296:131,1,42.5,8|0,0:0|0:0,0:0:0:0:
465,239,259265,5,12,0:0:0:0:
474,251,259338,1,0,0:0:0:0:
481,265,259412,1,0,0:0:0:0:
485,280,259485,1,0,0:0:0:0:
486,295,259559,2,0,P|484:323|473:344,1,46.7500014266968
288,298,259706,1,12,0:0:0:0:
301,287,259779,1,0,0:0:0:0:
316,280,259853,1,0,0:0:0:0:
333,276,259926,1,0,0:0:0:0:
350,275,260000,2,0,P|377:279|401:295,1,51.4249985483361
218,345,260147,1,12,0:0:0:0:
210,333,260220,1,0,0:0:0:0:
205,320,260294,1,0,0:0:0:0:
203,306,260367,1,0,0:0:0:0:
202,290,260441,6,0,B|209:260|209:260|232:235,3,60.8599975112184,12|0|0|0,0:0|0:0|0:0|0:0,0:0:0:0:
77,241,260735,2,0,L|1:245,1,60.8599975112184,10|0,0:0|0:0,0:0:0:0:
54,359,260882,1,10,0:0:0:0:
83,363,260955,1,8,0:0:0:0:
113,356,261029,2,0,B|126:332|126:332|126:292,1,60.8599975112184,10|0,0:0|0:0,0:0:0:0:
130,106,261176,1,10,0:0:0:0:
100,101,261249,1,8,0:0:0:0:
70,108,261323,6,0,P|51:147|72:213,1,101.999996887207,12|0,0:0|0:0,0:0:0:0:
196,165,261544,5,0,0:0:0:0:
196,165,261618,2,0,B|218:118|218:118|204:57,1,93.5000028533936,6|8,0:0|0:0,0:0:0:0:
275,29,261838,1,0,0:0:0:0:
275,29,261912,1,2,0:0:0:0:
456,112,262059,2,0,L|359:109,1,93.5000028533936,12|2,0:0|0:0,0:0:0:0:
179,239,262353,2,0,L|276:236,1,93.5000028533936,12|2,0:0|0:0,0:0:0:0:
436,347,262647,6,0,B|446:303|446:303|433:251,1,93.5000028533936,12|2,0:0|0:0,0:0:0:0:
180,148,262941,2,0,B|169:195|169:195|179:239,1,93.5000028533936,12|2,0:0|0:0,0:0:0:0:
481,191,263235,2,0,B|434:179|434:179|390:189,1,93.5000028533936,12|2,0:0|0:0,0:0:0:0:
227,319,263529,1,6,0:0:0:0:
282,108,263676,1,12,0:0:0:0:
371,301,263823,1,12,0:0:0:0:
102,187,263970,6,0,B|83:142|83:142|83:88,1,93.5000028533936,6|8,0:0|0:0,0:0:0:0:
170,115,264191,1,0,0:0:0:0:
170,115,264265,1,2,0:0:0:0:
138,320,264412,2,0,L|35:321,1,93.5000028533936,12|2,0:0|0:0,0:0:0:0:
296,190,264706,2,0,L|389:189,1,93.5000028533936,12|2,0:0|0:0,0:0:0:0:
217,363,265000,6,0,B|223:318|223:318|206:257,1,93.5000028533936,12|2,0:0|0:0,0:0:0:0:
289,98,265294,2,0,B|283:143|283:143|300:204,1,93.5000028533936,12|2,0:0|0:0,0:0:0:0:
102,187,265588,2,0,B|57:193|57:193|-4:176,1,93.5000028533936,12|2,0:0|0:0,0:0:0:0:
205,25,265882,1,4,0:0:0:0:
92,261,266029,1,12,0:0:0:0:
50,9,266176,1,12,0:0:0:0:
289,98,266323,6,0,L|386:100,1,93.5000028533936,6|8,0:0|0:0,0:0:0:0:
474,100,266544,1,0,0:0:0:0:
474,100,266618,1,2,0:0:0:0:
229,162,266765,2,0,B|209:119|209:119|214:68,1,93.5000028533936,12|2,0:0|0:0,0:0:0:0:
435,186,267059,2,0,B|455:229|455:229|450:280,1,93.5000028533936,12|2,0:0|0:0,0:0:0:0:
185,260,267353,6,0,L|76:261,1,93.5000028533936,12|2,0:0|0:0,0:0:0:0:
390,185,267647,2,0,L|499:186,1,93.5000028533936,12|2,0:0|0:0,0:0:0:0:
232,347,267941,2,0,L|123:348,1,93.5000028533936,12|2,0:0|0:0,0:0:0:0:
170,129,268235,1,6,0:0:0:0:
304,300,268382,1,12,0:0:0:0:
307,87,268529,1,12,0:0:0:0:
168,253,268676,6,0,L|70:255,1,93.5000028533936,6|8,0:0|0:0,0:0:0:0:
41,178,268897,1,0,0:0:0:0:
41,178,268970,1,2,0:0:0:0:
296,183,269118,2,0,L|394:185,1,93.5000028533936,12|2,0:0|0:0,0:0:0:0:
117,70,269412,2,0,L|19:72,1,93.5000028533936,12|2,0:0|0:0,0:0:0:0:
168,253,269706,6,0,B|159:301|159:301|168:355,1,93.5000028533936,12|2,0:0|0:0,0:0:0:0:
389,184,270000,2,0,B|398:136|398:136|389:82,1,93.5000028533936,12|2,0:0|0:0,0:0:0:0:
243,264,270294,2,0,B|234:312|234:312|243:366,1,93.5000028533936,12|2,0:0|0:0,0:0:0:0:
464,195,270588,1,6,0:0:0:0:
215,192,270735,1,12,0:0:0:0:
430,320,270882,1,6,0:0:0:0:
498,80,271029,5,12,0:0:0:0:
464,195,271176,2,0,L|514:205,2,42.5,8|0|2,0:0|0:0|0:0,0:0:0:0:
346,35,271470,1,12,0:0:0:0:
336,44,271618,1,2,0:0:0:0:
344,261,271765,1,12,0:0:0:0:
354,252,271913,1,2,0:0:0:0:
425,31,272059,5,12,0:0:0:0:
422,52,272206,1,2,0:0:0:0:
308,162,272353,1,12,0:0:0:0:
305,140,272500,1,2,0:0:0:0:
191,56,272647,1,12,0:0:0:0:
188,77,272794,1,2,0:0:0:0:
123,189,272941,1,6,0:0:0:0:
263,82,273088,1,12,0:0:0:0:
101,15,273235,1,6,0:0:0:0:
112,102,273382,5,6,0:0:0:0:
134,276,273529,2,0,L|139:325,2,42.5,8|0|2,0:0|0:0|0:0,0:0:0:0:
11,205,273823,1,12,0:0:0:0:
35,202,273970,1,2,0:0:0:0:
191,226,274118,1,12,0:0:0:0:
215,223,274265,1,2,0:0:0:0:
371,247,274412,5,12,0:0:0:0:
370,275,274559,1,2,0:0:0:0:
262,110,274706,1,12,0:0:0:0:
263,82,274853,1,2,0:0:0:0:
214,289,275000,1,12,0:0:0:0:
213,317,275147,1,2,0:0:0:0:
322,172,275294,1,6,0:0:0:0:
160,228,275441,1,12,0:0:0:0:
290,341,275588,1,12,0:0:0:0:
453,285,275735,5,6,0:0:0:0:
306,257,275882,2,0,L|258:249,2,42.5,8|0|2,0:0|0:0|0:0,0:0:0:0:
443,192,276176,1,12,0:0:0:0:
469,191,276323,1,2,0:0:0:0:
293,168,276470,1,12,0:0:0:0:
267,167,276617,1,2,0:0:0:0:
435,60,276765,5,12,0:0:0:0:
435,85,276912,1,2,0:0:0:0:
276,95,277059,1,12,0:0:0:0:
276,70,277206,1,2,0:0:0:0:
117,60,277353,1,12,0:0:0:0:
117,85,277500,1,2,0:0:0:0:
179,206,277647,1,6,0:0:0:0:
201,38,277794,1,12,0:0:0:0:
45,103,277941,1,6,0:0:0:0:
110,259,278088,5,6,0:0:0:0:
266,194,278235,2,0,L|311:175,2,42.5,8|0|2,0:0|0:0|0:0,0:0:0:0:
75,177,278529,1,12,0:0:0:0:
49,188,278676,1,2,0:0:0:0:
215,273,278823,1,6,0:0:0:0:
201,38,278970,1,12,0:0:0:0:
110,259,279118,1,10,0:0:0:0:
347,228,279265,5,12,0:0:0:0:
356,254,279338,1,0,0:0:0:0:
360,282,279412,1,0,0:0:0:0:
357,310,279485,1,0,0:0:0:0:
346,336,279559,1,0,0:0:0:0:
330,360,279632,1,0,0:0:0:0:
309,378,279706,2,0,L|305:330,1,42.5,12|0,0:0|0:0,0:0:0:0:
290,172,279853,5,0,0:0:0:0:
314,152,279926,1,0,0:0:0:0:
345,144,280000,1,0,0:0:0:0:
376,150,280073,1,0,0:0:0:0:
401,169,280147,2,0,B|421:174|421:174|459:169,1,42.5,12|0,0:0|0:0,0:0:0:0:
267,249,280294,2,0,B|246:253|246:253|224:249,1,42.5,12|0,0:0|0:0,0:0:0:0:
199,13,280441,5,6,0:0:0:0:
182,39,280514,1,0,0:0:0:0:
176,70,280588,1,0,0:0:0:0:
181,102,280661,1,0,0:0:0:0:
195,132,280735,1,0,0:0:0:0:
217,158,280809,1,0,0:0:0:0:
247,175,280882,2,0,L|302:171,1,42.5,12|0,0:0|0:0,0:0:0:0:
102,163,281029,5,0,0:0:0:0:
104,192,281102,1,0,0:0:0:0:
100,219,281176,1,0,0:0:0:0:
88,245,281249,1,0,0:0:0:0:
70,267,281323,1,4,0:0:0:0:
41,238,281397,5,8,0:0:0:0:
83,239,281470,1,8,0:0:0:0:
125,240,281544,1,8,0:0:0:0:
168,242,281618,6,0,L|166:297,2,42.5,6|0|8,0:0|0:0|0:0,0:0:0:0:
51,335,281912,1,6,0:0:0:0:
230,318,282059,1,8,0:0:0:0:
126,172,282206,1,6,0:0:0:0:
127,370,282353,1,12,0:0:0:0:
298,271,282500,1,2,0:0:0:0:
298,271,282573,1,0,0:0:0:0:
298,271,282647,1,8,0:0:0:0:
386,364,282794,5,6,0:0:0:0:
235,203,282941,1,8,0:0:0:0:
449,282,283088,1,6,0:0:0:0:
230,318,283235,1,12,0:0:0:0:
308,110,283382,1,6,0:0:0:0:
124,244,283529,1,8,0:0:0:0:
330,239,283676,1,6,0:0:0:0:
368,28,283823,1,12,0:0:0:0:
191,94,283970,5,6,0:0:0:0:
191,94,284044,1,0,0:0:0:0:
191,94,284118,1,8,0:0:0:0:
381,124,284265,1,6,0:0:0:0:
227,15,284412,1,8,0:0:0:0:
210,203,284559,1,6,0:0:0:0:
368,28,284706,1,12,0:0:0:0:
440,252,284853,1,12,0:0:0:0:
440,252,284926,1,0,0:0:0:0:
440,252,285000,1,8,0:0:0:0:
308,110,285147,5,6,0:0:0:0:
380,334,285294,1,12,0:0:0:0:
381,124,285441,1,6,0:0:0:0:
262,353,285588,1,12,0:0:0:0:
436,169,285735,1,6,0:0:0:0:
165,254,285882,1,12,0:0:0:0:
323,175,286029,1,2,0:0:0:0:
325,181,286103,1,0,0:0:0:0:
326,188,286176,1,8,0:0:0:0:
330,194,286249,1,0,0:0:0:0:
331,201,286323,6,0,L|341:246,1,42.5,6|0,0:0|0:0,0:0:0:0:
288,41,286470,1,8,0:0:0:0:
254,273,286618,1,6,0:0:0:0:
349,109,286765,1,8,0:0:0:0:
160,109,286912,1,6,0:0:0:0:
407,170,287059,1,12,0:0:0:0:
151,245,287206,1,6,0:0:0:0:
151,245,287279,1,0,0:0:0:0:
151,245,287353,1,8,0:0:0:0:
256,109,287500,5,6,0:0:0:0:
187,308,287647,1,8,0:0:0:0:
13,107,287794,1,6,0:0:0:0:
214,196,287941,1,12,0:0:0:0:
57,30,288088,1,6,0:0:0:0:
51,259,288235,1,8,0:0:0:0:
142,51,288382,1,6,0:0:0:0:
151,245,288529,1,12,0:0:0:0:
104,138,288676,5,12,0:0:0:0:
293,152,288823,1,8,0:0:0:0:
187,308,288970,1,8,0:0:0:0:
408,138,289118,5,12,0:0:0:0:
219,152,289265,1,8,0:0:0:0:
325,308,289412,1,8,0:0:0:0:
88,132,289559,6,0,B|94:157|94:157|88:190|88:190|92:191|92:191|84:222|84:222|91:253,1,127.500004863739,12|8,0:0|0:0,0:0:0:0:
256,376,289831,5,8,0:0:0:0:
423,132,290001,5,12,0:0:0:0:
215,148,290148,1,8,0:0:0:0:
331,319,290295,1,8,0:0:0:0:
256,38,290441,5,12,0:0:0:0:
215,25,290514,1,0,0:0:0:0:
173,32,290588,1,0,0:0:0:0:
138,55,290661,1,0,0:0:0:0:
117,91,290735,2,0,B|90:90|90:90|50:73,1,48.8750009322167,12|0,0:0|0:0,0:0:0:0:
309,129,290882,2,0,B|331:115|331:115|358:80,1,48.8750009322167,12|0,0:0|0:0,0:0:0:0:
180,276,291029,1,0,0:0:0:0:
180,276,291102,1,0,0:0:0:0:
180,276,291176,6,0,B|180:302|180:302|197:343,1,48.8750009322167,12|0,0:0|0:0,0:0:0:0:
235,126,291323,2,0,B|212:113|212:113|167:107,1,48.8750009322167,12|0,0:0|0:0,0:0:0:0:
337,248,291470,1,0,0:0:0:0:
337,248,291543,1,0,0:0:0:0:
337,248,291617,2,0,B|400:251,1,48.8750009322167,12|0,0:0|0:0,0:0:0:0:
134,177,291764,1,0,0:0:0:0:
134,177,291837,1,0,0:0:0:0:
134,177,291911,2,0,B|71:180,1,48.8750009322167,12|0,0:0|0:0,0:0:0:0:
256,38,292058,2,0,B|319:41,1,48.8750009322167,12|0,0:0|0:0,0:0:0:0:
252,276,292205,6,0,L|252:233,2,42.5,6|0|8,0:0|0:0|0:0,0:0:0:0:
347,98,292499,1,6,0:0:0:0:
327,319,292646,1,8,0:0:0:0:
254,107,292793,1,6,0:0:0:0:
252,364,292940,1,12,0:0:0:0:
410,161,293087,1,2,0:0:0:0:
410,161,293160,1,0,0:0:0:0:
410,161,293234,1,8,0:0:0:0:
191,70,293381,5,6,0:0:0:0:
252,233,293528,1,8,0:0:0:0:
394,37,293675,1,6,0:0:0:0:
188,146,293822,1,12,0:0:0:0:
386,270,293969,1,6,0:0:0:0:
322,150,294116,1,8,0:0:0:0:
316,353,294263,1,6,0:0:0:0:
254,107,294410,1,12,0:0:0:0:
72,284,294557,5,6,0:0:0:0:
72,284,294631,1,0,0:0:0:0:
72,284,294705,1,8,0:0:0:0:
254,186,294852,1,6,0:0:0:0:
132,349,294999,1,8,0:0:0:0:
51,161,295146,1,6,0:0:0:0:
218,329,295293,1,12,0:0:0:0:
280,101,295440,1,2,0:0:0:0:
280,101,295513,1,0,0:0:0:0:
280,101,295587,1,8,0:0:0:0:
406,174,295734,5,6,0:0:0:0:
183,196,295881,1,8,0:0:0:0:
426,88,296028,1,12,0:0:0:0:
141,107,296175,1,6,0:0:0:0:
386,260,296322,1,6,0:0:0:0:
335,43,296469,1,8,0:0:0:0:
239,268,296616,1,2,0:0:0:0:
240,278,296690,1,0,0:0:0:0:
241,289,296763,1,8,0:0:0:0:
242,299,296836,1,0,0:0:0:0:
243,310,296910,6,0,L|248:358,1,42.5,6|0,0:0|0:0,0:0:0:0:
225,141,297057,1,8,0:0:0:0:
53,266,297205,1,6,0:0:0:0:
202,70,297352,1,8,0:0:0:0:
171,315,297499,1,6,0:0:0:0:
137,110,297646,1,12,0:0:0:0:
91,346,297793,1,2,0:0:0:0:
91,346,297866,1,0,0:0:0:0:
91,346,297940,1,8,0:0:0:0:
319,268,298087,5,6,0:0:0:0:
114,228,298234,1,8,0:0:0:0:
296,384,298381,1,6,0:0:0:0:
341,149,298528,1,12,0:0:0:0:
171,315,298675,1,6,0:0:0:0:
396,250,298822,1,8,0:0:0:0:
228,88,298969,1,6,0:0:0:0:
264,218,299116,1,6,0:0:0:0:
418,80,299263,5,12,0:0:0:0:
386,326,299410,1,8,0:0:0:0:
341,149,299557,1,8,0:0:0:0:
94,80,299704,5,12,0:0:0:0:
126,326,299851,1,8,0:0:0:0:
171,149,299998,1,8,0:0:0:0:
434,68,300145,5,12,0:0:0:0:
399,339,300292,1,8,0:0:0:0:
349,144,300439,1,8,0:0:0:0:
77,68,300586,5,12,0:0:0:0:
113,339,300733,1,8,0:0:0:0:
162,144,300880,1,8,0:0:0:0:
264,352,301027,5,12,0:0:0:0:
290,334,301100,1,0,0:0:0:0:
321,326,301174,1,0,0:0:0:0:
352,330,301247,1,0,0:0:0:0:
379,344,301321,2,0,L|415:310,1,42.5,12|0,0:0|0:0,0:0:0:0:
281,197,301468,2,0,L|311:226,1,42.5,12|0,0:0|0:0,0:0:0:0:
444,153,301615,1,0,0:0:0:0:
444,153,301688,1,0,0:0:0:0:
444,153,301762,6,0,L|451:97,1,42.5,12|0,0:0|0:0,0:0:0:0:
213,193,301909,2,0,L|218:235,1,42.5,12|0,0:0|0:0,0:0:0:0:
297,32,302056,1,0,0:0:0:0:
297,32,302129,1,0,0:0:0:0:
297,32,302203,2,0,B|316:28|316:28|345:35,1,42.5,12|0,0:0|0:0,0:0:0:0:
122,103,302350,1,0,0:0:0:0:
122,103,302423,1,0,0:0:0:0:
122,103,302497,2,0,B|103:107|103:107|74:100,1,42.5,12|0,0:0|0:0,0:0:0:0:
317,136,302644,2,0,B|336:132|336:132|365:139,1,42.5,12|0,0:0|0:0,0:0:0:0:
101,24,302791,5,12,0:0:0:0:
59,23,302864,1,8,0:0:0:0:
23,45,302938,1,8,0:0:0:0:
160,275,303085,1,12,0:0:0:0:
182,47,303232,1,12,0:0:0:0:
10,267,303379,1,12,0:0:0:0:
287,306,303526,6,0,B|292:294|288:283|288:283|297:268|297:268|295:253|298:239,1,68.4249977030183,12|0,2:0|2:0,2:0:0:0:
443,301,304114,2,0,B|431:296|420:300|420:300|405:291|405:291|378:298|357:294,1,89.2499972763062,2|0,2:0|2:0,2:0:0:0:
447,132,304788,2,0,B|444:142|446:154|446:154|437:169|437:169|446:202|440:232,1,104.124996822357,2|0,2:0|2:0,2:0:0:0:
259,126,305493,2,0,B|307:135|345:121|345:121|360:130|360:130|369:127|383:131,1,127.499996109009,2|0,2:0|2:0,2:0:0:0:
417,70,306027,5,2,2:0:0:0:
103,37,323118,6,0,B|146:31|146:31|168:42|168:42|223:37,1,113.333333333333,6|0,2:0|2:0,2:0:0:0:
188,209,323780,2,0,B|161:174|161:174|159:150|159:150|128:105,1,113.333333333333,6|0,2:0|2:0,2:0:0:0:
245,147,324443,1,6,2:0:0:0:
80,176,324664,1,2,2:0:0:0:
188,209,324885,1,2,2:0:0:0:
34,244,325106,6,0,B|26:305|26:305|38:356,1,113.333333333333,6|0,2:0|2:0,2:0:0:0:
191,320,325769,2,0,B|199:259|199:259|187:208,1,113.333333333333,6|0,2:0|2:0,2:0:0:0:
291,362,326432,2,0,B|351:370|351:370|402:358,1,113.333333333333,6|0,2:0|2:0,2:0:0:0:
494,188,327095,5,6,2:0:0:0:
497,166,327758,2,0,L|499:133,2,28.3333333333333,0|0|0,2:0|2:0|2:0,2:0:0:0:
423,57,328421,6,0,L|349:56,1,56.6666666666667,6|0,2:0|2:0,2:0:0:0:
264,57,328858,1,2,2:0:0:0:
334,216,329077,2,0,L|408:215,1,56.6666666666667,2|0,2:0|2:0,2:0:0:0:
493,216,329515,1,2,2:0:0:0:
366,364,329733,6,0,P|344:342|326:367,1,70.8333333333333,6|0,2:0|2:0,2:0:0:0:
429,315,330390,6,0,L|425:289,8,15.5833338088989,12|0|0|0|0|0|0|0|0,0:0|0:0|0:0|0:0|0:0|0:0|0:0|0:0|0:0,0:0:0:0:
344,286,330892,1,8,0:0:0:0:
343,282,330948,1,8,0:0:0:0:
342,278,331004,1,8,0:0:0:0:
342,271,331061,6,0,L|330:203,2,56.6666666666667,6|2|2,2:0|2:0|2:0,2:0:0:0:
400,149,331722,2,0,L|409:204,1,56.6666666666667,6|2,2:0|2:0,2:0:0:0:
319,131,332163,1,2,2:0:0:0:
256,233,332384,6,0,B|229:238|229:238|181:231,2,56.6666666666667,12|2|2,2:0|2:0|2:0,2:0:0:0:
224,115,333046,2,0,L|227:180,1,56.6666666666667,6|2,2:0|2:0,2:0:0:0:
231,308,333487,1,0,2:0:0:0:
60,217,333708,6,0,B|53:187|53:187|57:157,1,56.6666666666667,6|2,2:2|2:0,2:0:0:0:
98,84,334149,1,2,2:0:0:0:
128,251,334369,2,0,B|135:281|135:281|131:311,1,56.6666666666667,6|2,2:0|2:0,2:0:0:0:
224,115,334811,1,2,2:0:0:0:
66,286,335031,6,0,L|66:351,2,56.6666666666667,12|2|2,2:0|2:0|2:0,2:0:0:0:
199,355,335693,2,0,L|281:354,1,56.6666666666667,6|2,2:0|2:0,2:0:0:0:
417,303,336134,1,2,2:0:0:0:
258,225,336355,6,0,B|254:250|254:250|261:280,2,56.6666666666667,6|2|2,2:2|2:0|2:0,2:0:0:0:
345,361,337016,2,0,B|348:335|348:335|341:305,1,56.6666666666667,6|2,2:0|2:0,2:0:0:0:
307,167,337458,1,2,2:0:0:0:
409,67,337678,6,0,B|438:63|438:63|475:71,1,56.6666666666667,12|2,2:0|2:0,2:0:0:0:
434,141,338119,1,2,2:0:0:0:
307,167,338340,2,0,B|277:170|277:170|241:163,1,56.6666666666667,6|2,2:0|2:0,2:0:0:0:
445,215,338781,1,2,2:0:0:0:
280,41,339002,6,0,B|273:66|273:66|281:111,1,56.6666666666667,6|2,2:2|2:0,2:0:0:0:
359,120,339443,1,2,2:0:0:0:
254,281,339663,2,0,B|261:256|261:256|255:225,1,56.6666666666667,6|2,2:2|2:0,2:0:0:0:
193,98,340105,1,2,2:0:0:0:
65,160,340325,6,0,L|49:102,1,56.6666666666667,12|2,2:0|2:0,2:0:0:0:
192,22,340766,1,2,2:0:0:0:
99,264,340987,1,6,2:2:0:0:
213,249,341208,1,2,2:0:0:0:
142,158,341428,1,2,2:0:0:0:
373,349,341649,6,0,B|405:351|405:351|441:339,1,56.6666666666667,6|2,2:2|2:0,2:0:0:0:
369,260,342090,1,2,2:0:0:0:
209,338,342311,2,0,B|177:340|177:340|141:328,1,56.6666666666667,6|2,2:0|2:0,2:0:0:0:
320,197,342752,1,2,2:0:0:0:
380,365,342972,6,0,B|412:367|412:367|448:355,1,56.6666666666667,6|2,2:2|2:0,2:0:0:0:
383,254,343413,1,2,2:0:0:0:
213,249,343634,1,6,2:0:0:0:
170,248,343744,1,2,2:0:0:0:
128,247,343854,1,2,2:0:0:0:
85,246,343964,1,2,2:0:0:0:
43,246,344075,5,2,2:2:0:0:
50,228,344186,1,2,2:0:0:0:
34,269,344296,6,0,B|28:297|28:297|35:341,1,56.6666666666667,6|2,2:2|2:0,2:0:0:0:
145,317,344737,1,2,2:0:0:0:
285,363,344958,2,0,L|353:362,1,56.6666666666667,6|0,2:0|2:0,2:0:0:0:
213,249,345399,1,2,2:0:0:0:
23,271,345619,6,0,B|17:299|17:299|24:343,1,56.6666666666667,12|2,2:0|2:0,2:0:0:0:
161,324,346061,1,2,2:0:0:0:
265,174,346281,1,6,2:0:0:0:
307,173,346391,1,2,2:0:0:0:
349,173,346501,1,2,2:0:0:0:
392,172,346611,1,2,2:0:0:0:
434,172,346722,5,2,2:2:0:0:
432,195,346833,1,2,2:0:0:0:
437,152,346943,6,0,L|445:86,1,56.6666666666667,6|0,2:2|2:0,2:0:0:0:
455,12,347384,1,2,2:0:0:0:
349,173,347605,2,0,L|355:229,1,56.6666666666667,6|0,2:0|2:0,2:0:0:0:
503,178,348046,1,2,2:0:0:0:
351,343,348266,6,0,B|323:338|323:338|291:346,2,56.6666666666667,12|2|2,2:0|2:0|2:0,2:0:0:0:
454,265,348928,2,0,L|525:279,1,56.6666666666667,6|0,2:0|2:0,2:0:0:0:
294,273,349369,1,2,2:0:0:0:
159,359,349590,6,0,B|132:351|132:351|97:350,1,56.6666666666667,6|2,2:2|2:0,2:0:0:0:
37,269,350031,1,2,2:0:0:0:
144,137,350252,6,0,L|183:143,3,21.25,2|2|2|2,2:0|2:0|2:0|2:0,2:0:0:0:
295,167,350693,5,2,0:1:0:0:
37,269,350913,5,12,0:0:0:0:
68,123,351134,1,0,0:0:0:0:
227,153,351355,1,0,0:0:0:0:
356,108,351575,6,0,L|371:105,2,14.1666666666667,2|2|0,0:0|0:0|0:0,0:0:0:0:
436,78,351796,2,0,L|440:128,1,28.3333333333333,2|2,1:2|2:0,0:0:0:0:
345,214,352016,2,0,L|347:185,1,28.3333333333333,2|2,1:2|2:0,0:0:0:0:
412,357,352237,6,0,L|365:355,2,28.3333333333333,6|0|0,2:2|2:0|2:0,2:0:0:0:
298,319,352899,2,0,L|269:320,1,28.3333333333333,2|0,2:0|2:0,2:0:0:0:
171,326,353340,1,2,2:0:0:0:
36,358,353561,6,0,P|32:341|33:324,2,28.3333333333333,8|0|0,1:0|2:0|2:0,0:0:0:0:
103,234,354222,2,0,P|105:252|104:267,1,28.3333333333333,6|0,2:0|2:0,2:0:0:0:
29,184,354663,1,2,2:0:0:0:
133,79,354884,6,0,L|173:79,2,28.3333333333333,6|0|0,1:2|2:0|2:0,0:0:0:0:
32,23,355546,2,0,P|26:40|26:54,1,28.3333333333333,2|2,0:0|0:0,0:0:0:0:
98,152,355987,1,2,1:0:0:0:
242,52,356208,6,0,L|268:52,1,14.1666666666667,12|0,1:0|2:0,0:0:0:0:
375,164,356428,1,2,2:0:0:0:
417,163,356538,1,2,2:0:0:0:
459,162,356649,2,0,L|484:161,1,14.1666666666667,2|0,2:0|2:0,2:0:0:0:
408,48,356869,2,0,L|393:48,1,14.1666666666667,6|0,2:0|2:0,2:0:0:0:
289,165,357090,1,2,2:0:0:0:
295,206,357200,1,2,2:0:0:0:
322,238,357311,1,2,2:0:0:0:
361,253,357421,1,2,2:0:0:0:
402,246,357531,6,0,L|404:287,2,28.3333333333333,2|0|0,2:0|2:0|2:0,2:0:0:0:
348,367,358193,2,0,L|348:338,1,28.3333333333333,2|0,2:0|2:0,2:0:0:0:
359,173,358634,1,2,2:0:0:0:
186,261,358855,5,12,1:0:0:0:
402,246,359075,1,2,2:0:0:0:
195,159,359296,1,2,2:0:0:0:
224,382,359516,5,6,2:0:0:0:
359,173,359737,1,2,2:0:0:0:
110,160,359958,1,6,2:0:0:0:
402,246,360178,6,0,L|431:245,2,28.3333333333333,6|0|0,2:2|2:0|2:0,2:0:0:0:
359,115,360840,2,0,P|356:132|356:148,1,28.3333333333333,2|0,2:0|2:0,2:0:0:0:
470,153,361281,1,2,2:2:0:0:
268,61,361502,6,0,L|235:63,2,28.3333333333333,12|0|0,1:0|2:0|2:0,2:0:0:0:
404,29,362163,2,0,L|435:27,2,28.3333333333333,6|0|0,2:0|2:0|2:0,2:0:0:0:
293,175,362825,6,0,P|290:193|296:210,1,28.3333333333333,6|0,2:2|2:0,2:0:0:0:
327,285,363266,1,2,2:0:0:0:
482,360,363487,2,0,P|485:342|479:325,1,28.3333333333333,6|0,2:2|2:0,2:0:0:0:
362,200,363928,1,2,1:0:0:0:
202,320,364149,6,0,L|164:319,1,28.3333333333333,12|0,1:0|2:0,0:0:0:0:
294,373,364590,1,2,2:0:0:0:
198,190,364811,2,0,L|179:188,1,14.1666666666667,2|0,2:2|2:0,2:0:0:0:
87,284,365031,1,2,2:0:0:0:
77,324,365141,1,2,2:0:0:0:
90,364,365252,2,0,L|109:362,1,14.1666666666667,2|0,2:2|2:0,2:0:0:0:
89,186,365472,6,0,L|88:156,2,28.3333333333333,2|0|0,2:2|2:0|2:0,2:0:0:0:
217,255,366134,2,0,P|234:257|249:255,1,28.3333333333333,6|0,2:0|2:0,2:0:0:0:
213,110,366575,1,2,0:0:0:0:
283,312,366796,6,0,P|285:340|278:368,1,56.6666666666667,12|0,1:0|0:0,0:0:0:0:
354,155,367458,2,0,P|376:138|404:131,1,56.6666666666667,6|0,1:2|0:0,0:0:0:0:
182,172,368131,5,8,0:0:0:0:
283,312,368350,1,8,0:0:0:0:
354,155,368569,1,8,0:0:0:0:
183,179,368788,5,8,0:0:0:0:
320,337,369007,1,8,0:0:0:0:
393,137,369226,1,8,0:0:0:0:
184,186,369445,5,8,0:0:0:0:
349,347,369664,1,8,0:0:0:0:
427,117,369883,1,8,0:0:0:0:
185,194,370102,5,8,0:0:0:0:
380,354,370327,1,8,0:0:0:0:
444,95,370553,1,8,0:0:0:0:
300,214,370779,6,0,B|331:211|331:211|348:217|348:217|386:215,1,85,12|0,0:0|0:0,0:0:0:0:
473,213,370985,1,2,0:0:0:0:
378,287,371088,2,0,L|283:292,1,85,8|0,0:0|0:0,0:0:0:0:
314,137,371294,1,2,0:0:0:0:
314,137,371346,1,2,0:0:0:0:
314,137,371397,6,0,B|274:128|250:136|250:136|230:127|230:127|201:143|175:144|143:130,1,170,8|0,0:0|0:0,0:0:0:0:
185,57,371706,1,2,0:0:0:0:
224,207,371809,2,0,B|221:250|221:250|203:297,1,85,8|0,0:0|0:0,0:0:0:0:
76,377,372016,6,0,B|116:368|140:376|140:376|160:367|160:367|189:383|215:384|247:370,1,170,8|0,0:0|0:0,0:0:0:0:
293,291,372326,1,2,0:0:0:0:
224,207,372430,2,0,B|183:198|183:198|137:212,1,85,8|0,0:0|0:0,0:0:0:0:
375,377,372637,6,0,B|416:386|416:386|462:372,1,85,8|0,0:0|0:0,0:0:0:0:
461,246,372845,1,8,0:0:0:0:
417,183,372948,1,8,0:0:0:0:
341,206,373052,1,8,0:0:0:0:
341,285,373155,1,8,0:0:0:0:
415,310,373259,6,0,P|458:250|435:149,2,170,12|0|0,0:0|0:0|0:0,0:0:0:0:
334,123,373777,1,2,0:0:0:0:
334,123,373829,1,2,0:0:0:0:
334,123,373881,6,0,B|328:160|328:160|341:206,1,85,8|0,0:0|0:0,0:0:0:0:
498,100,374088,5,8,0:0:0:0:
413,90,374192,1,8,0:0:0:0:
334,123,374295,1,8,0:0:0:0:
249,113,374399,1,8,0:0:0:0:
175,24,374503,5,12,0:0:0:0:
234,83,374608,1,8,0:0:0:0:
259,164,374714,1,8,0:0:0:0:
245,247,374820,1,8,0:0:0:0:
195,314,374926,1,8,0:0:0:0:
118,348,375032,1,8,0:0:0:0:
25,272,375137,5,12,0:0:0:0:
31,270,375243,1,8,0:0:0:0:
137,229,375349,5,10,0:0:0:0:
136,237,375455,1,8,0:0:0:0:
118,348,375561,5,10,0:0:0:0:
94,285,375667,1,8,0:0:0:0:
195,314,375772,6,0,B|281:343|276:293|363:322,2,170,12|0|0,0:0|0:0|0:0,0:0:0:0:
334,245,376292,1,2,0:0:0:0:
334,245,376344,1,2,0:0:0:0:
334,245,376397,2,0,P|374:244|428:269,1,85,8|0,0:0|0:0,0:0:0:0:
137,229,376605,2,0,P|97:230|43:205,1,85,8|0,0:0|0:0,0:0:0:0:
330,147,376813,2,0,P|368:135|427:145,1,85,8|0,0:0|0:0,0:0:0:0:
195,314,377022,6,0,B|210:248|210:248|204:202|204:202|216:134,2,170,12|0|0,0:0|0:0|0:0,0:0:0:0:
141,138,377542,5,2,0:0:0:0:
141,138,377594,1,2,0:0:0:0:
141,138,377647,1,8,0:0:0:0:
183,71,377751,2,0,L|165:26,2,42.5,2|2|8,0:0|0:0|0:0,0:0:0:0:
262,73,377959,1,2,0:0:0:0:
262,73,378011,1,2,0:0:0:0:
262,73,378063,2,0,B|295:78|295:78|312:71|312:71|352:77,1,85,8|0,0:0|0:0,0:0:0:0:
493,17,378272,6,0,L|478:214,1,170,12|0,0:0|0:0,0:0:0:0:
421,373,378581,1,2,0:0:0:0:
466,295,378684,2,0,B|424:286|424:286|373:293,1,85,8|0,0:0|0:0,0:0:0:0:
298,317,378839,1,0,0:0:0:0:
298,317,378890,5,8,0:0:0:0:
212,280,378993,2,0,B|202:322|202:322|209:372,1,85,8|0,0:0|0:0,0:0:0:0:
321,228,379199,2,0,B|331:186|331:186|324:136,1,85,8|0,0:0|0:0,0:0:0:0:
160,207,379406,1,8,0:0:0:0:
80,251,379509,5,12,0:0:0:0:
31,183,379613,1,8,0:0:0:0:
43,101,379718,1,8,0:0:0:0:
109,52,379823,1,8,0:0:0:0:
192,63,379927,1,8,0:0:0:0:
268,31,380032,1,8,0:0:0:0:
395,39,380137,5,12,0:0:0:0:
392,47,380241,1,8,0:0:0:0:
325,144,380346,5,10,0:0:0:0:
322,138,380451,1,8,0:0:0:0:
268,31,380556,5,10,0:0:0:0:
330,72,380660,1,8,0:0:0:0:
320,216,380765,6,0,L|312:316,1,85,12|0,0:0|0:0,0:0:0:0:
457,180,380973,2,0,L|463:95,1,85,8|0,0:0|0:0,0:0:0:0:
330,72,381181,1,8,0:0:0:0:
248,144,381285,1,2,0:0:0:0:
248,144,381337,1,2,0:0:0:0:
248,144,381390,6,0,B|180:150|180:150|139:136|139:136|65:141,1,170,12|0,0:0|0:0,0:0:0:0:
128,207,381702,1,2,0:0:0:0:
195,81,381806,2,0,B|202:38|202:38|188:-6,1,85,8|8,0:0|0:0,0:0:0:0:
59,261,382015,6,0,P|130:291|210:243,1,170,12|0,0:0|0:0,0:0:0:0:
320,216,382327,1,2,0:0:0:0:
398,264,382431,2,0,B|410:309|410:309|397:353,1,85,8|2,0:0|0:0,0:0:0:0:
313,365,382587,1,2,0:0:0:0:
313,365,382640,6,0,L|220:360,1,85,8|0,0:0|0:0,0:0:0:0:
128,207,382848,5,8,0:0:0:0:
207,249,382952,1,8,0:0:0:0:
296,217,383056,1,8,0:0:0:0:
370,268,383160,1,8,0:0:0:0:
439,332,383265,5,8,0:0:0:0:
487,265,383369,1,8,0:0:0:0:
475,183,383473,1,8,0:0:0:0:
409,132,383577,1,8,0:0:0:0:
327,143,383681,1,8,0:0:0:0:
251,112,383785,1,8,0:0:0:0:
217,10,383890,5,12,0:0:0:0:
225,12,383994,1,8,0:0:0:0:
322,31,384098,5,10,0:0:0:0:
319,38,384202,1,8,0:0:0:0:
251,111,384306,5,10,0:0:0:0:
253,104,384410,1,8,0:0:0:0:
262,54,384515,5,12,0:0:0:0:
180,85,384619,2,0,L|137:104,2,42.5,2|2|8,0:0|0:0|0:0,0:0:0:0:
106,29,384827,1,2,0:0:0:0:
106,29,384879,1,2,0:0:0:0:
106,29,384931,1,8,0:0:0:0:
20,65,385035,2,0,L|57:92,2,42.5,2|2|8,0:0|0:0|0:0,0:0:0:0:
8,157,385244,1,2,0:0:0:0:
8,157,385296,1,2,0:0:0:0:
8,157,385348,1,8,0:0:0:0:
81,213,385452,1,2,0:0:0:0:
81,213,385504,1,2,0:0:0:0:
81,213,385556,2,0,B|118:222|118:222|175:212,1,85,8|0,0:0|0:0,0:0:0:0:
312,181,385766,6,0,L|404:181,1,85,12|0,0:0|0:0,0:0:0:0:
283,276,385922,1,0,0:0:0:0:
283,276,385974,2,0,L|191:276,1,85,8|0,0:0|0:0,0:0:0:0:
374,258,386182,1,8,0:0:0:0:
407,354,386286,1,2,0:0:0:0:
407,354,386338,1,2,0:0:0:0:
407,354,386391,6,0,P|455:324|449:204,1,170,12|0,0:0|0:0,0:0:0:0:
308,335,386703,1,2,0:0:0:0:
231,294,386807,2,0,B|223:249|223:249|233:193,1,85,8|0,0:0|0:0,0:0:0:0:
374,258,387016,6,0,B|309:261|309:261|272:247|272:247|181:255,2,170,12|0|0,0:0|0:0|0:0,0:0:0:0:
260,319,387536,1,2,0:0:0:0:
328,192,387641,6,0,B|334:149|334:149|329:97,1,85,12|0,0:0|0:0,0:0:0:0:
167,76,387849,5,14,0:0:0:0:
172,81,387953,1,8,0:0:0:0:
259,140,388057,5,8,0:0:0:0:
255,145,388161,1,8,0:0:0:0:
158,188,388266,5,8,0:0:0:0:
193,136,388370,5,8,0:0:0:0:
185,135,388474,1,2,0:0:0:0:
90,136,388578,5,8,0:0:0:0:
85,146,388682,1,2,0:0:0:0:
35,235,388786,5,8,0:0:0:0:
30,250,388891,1,2,0:0:0:0:
98,341,388995,5,8,0:0:0:0:
108,357,389099,1,2,0:0:0:0:
233,338,389202,5,8,0:0:0:0:
252,342,389307,1,2,0:0:0:0:
359,259,389410,5,8,0:0:0:0:
380,328,389516,1,8,0:0:0:0:
430,276,389620,6,0,L|453:237,2,42.5,2|2|8,0:0|0:0|0:0,0:0:0:0:
375,194,389828,1,2,0:0:0:0:
375,194,389880,1,2,0:0:0:0:
375,194,389932,1,8,0:0:0:0:
418,105,390036,2,0,L|441:66,2,42.5,2|2|8,0:0|0:0|0:0,0:0:0:0:
362,23,390245,1,2,0:0:0:0:
362,23,390297,1,2,0:0:0:0:
362,23,390349,1,8,0:0:0:0:
262,30,390453,1,2,0:0:0:0:
262,30,390505,1,2,0:0:0:0:
262,30,390557,2,0,B|236:64|236:64|229:121,1,85,8|8,0:0|0:0,0:0:0:0:
318,103,390765,5,6,0:0:0:0:
290,167,390869,1,8,0:0:0:0:
235,210,390973,1,2,0:0:0:0:
165,219,391077,1,8,0:0:0:0:
100,193,391181,1,2,0:0:0:0:
57,138,391285,1,8,0:0:0:0:
46,69,391390,5,6,1:2:0:0:
51,58,391494,1,0,0:0:0:0:
111,94,391599,2,0,B|150:87|150:87|203:94,1,85,2|8,0:0|0:0,0:0:0:0:
208,291,391807,2,0,B|169:298|169:298|116:291,1,85,2|8,0:0|0:0,0:0:0:0:
278,371,392015,5,6,0:0:0:0:
347,379,392119,1,8,0:0:0:0:
412,352,392223,1,2,0:0:0:0:
456,297,392327,1,8,0:0:0:0:
467,228,392431,1,2,0:0:0:0:
444,162,392535,1,8,0:0:0:0:
391,116,392640,5,6,1:2:0:0:
378,115,392745,1,8,0:0:0:0:
458,94,392849,2,0,L|477:8,1,85,2|8,0:0|0:0,0:0:0:0:
337,221,393057,2,0,L|355:303,1,85,2|8,0:0|0:0,0:0:0:0:
467,228,393265,5,6,0:0:0:0:
402,224,393369,1,8,0:0:0:0:
337,221,393473,1,2,0:0:0:0:
274,214,393577,1,8,0:0:0:0:
210,210,393681,1,2,0:0:0:0:
146,205,393785,1,8,0:0:0:0:
80,200,393890,5,6,0:2:0:0:
69,192,393995,1,0,0:0:0:0:
43,255,394099,2,0,B|38:298|38:298|53:346,1,85,2|8,0:0|0:0,0:0:0:0:
150,121,394307,2,0,B|115:95|115:95|66:84,1,85,2|8,0:0|0:0,0:0:0:0:
212,280,394515,5,12,0:0:0:0:
233,280,394619,1,8,0:0:0:0:
254,280,394723,1,8,0:0:0:0:
275,280,394827,1,8,0:0:0:0:
351,324,394932,5,12,0:0:0:0:
280,322,395036,1,8,0:0:0:0:
209,321,395140,1,8,0:0:0:0:
138,320,395245,1,8,0:0:0:0:
104,259,395349,2,0,B|98:217|98:217|119:158,1,85,2|8,0:0|0:0,0:0:0:0:
229,32,395557,2,0,B|235:74|235:74|214:133,1,85,2|8,0:0|0:0,0:0:0:0:
50,25,395765,5,6,0:0:0:0:
98,75,395869,1,8,0:0:0:0:
162,106,395973,1,2,0:0:0:0:
232,115,396077,1,8,0:0:0:0:
300,99,396181,1,2,0:0:0:0:
360,61,396285,1,8,0:0:0:0:
403,5,396390,5,6,1:2:0:0:
419,4,396495,1,0,0:0:0:0:
485,14,396599,2,0,B|505:52|505:52|502:104,1,85,2|8,0:0|0:0,0:0:0:0:
389,214,396807,2,0,B|369:176|369:176|372:124,1,85,2|8,0:0|0:0,0:0:0:0:
480,317,397015,5,6,0:0:0:0:
446,255,397119,1,8,0:0:0:0:
389,214,397223,1,2,0:0:0:0:
319,203,397327,1,8,0:0:0:0:
252,223,397431,1,2,0:0:0:0:
201,271,397535,1,8,0:0:0:0:
176,337,397640,5,6,1:2:0:0:
179,352,397745,1,8,0:0:0:0:
246,326,397849,2,0,L|348:331,1,85,2|8,0:0|0:0,0:0:0:0:
112,222,398057,2,0,L|10:227,1,85,2|8,0:0|0:0,0:0:0:0:
135,53,398265,5,6,0:0:0:0:
138,123,398369,1,8,0:0:0:0:
175,182,398473,1,2,0:0:0:0:
236,216,398577,1,8,0:0:0:0:
306,217,398681,1,2,0:0:0:0:
367,183,398785,1,8,0:0:0:0:
404,123,398890,5,6,1:2:0:0:
409,110,398995,1,8,0:0:0:0:
416,43,399099,2,0,B|381:19|381:19|328:17,1,85,2|8,0:0|0:0,0:0:0:0:
367,260,399307,2,0,B|402:284|402:284|455:286,1,85,2|8,0:0|0:0,0:0:0:0:
253,11,399515,5,6,0:0:0:0:
206,62,399620,1,8,0:0:0:0:
206,131,399724,1,2,0:0:0:0:
252,182,399828,1,8,0:0:0:0:
288,242,399932,1,2,0:0:0:0:
278,311,400036,1,8,0:0:0:0:
217,269,400140,5,8,0:0:0:0:
215,263,400192,1,8,0:0:0:0:
213,257,400244,1,8,0:0:0:0:
288,242,400348,6,0,B|323:239|323:239|340:248|340:248|385:245,1,85,2|8,0:0|0:0,0:0:0:0:
180,335,400557,2,0,B|145:338|145:338|128:329|128:329|83:332,1,85,2|8,0:0|0:0,0:0:0:0:
5,247,400765,5,6,0:0:0:0:
75,245,400869,1,8,0:0:0:0:
146,244,400973,1,2,0:0:0:0:
217,243,401077,1,8,0:0:0:0:
288,242,401181,1,2,0:0:0:0:
359,241,401285,1,8,0:0:0:0:
429,240,401390,5,2,0:0:0:0:
404,174,401494,1,8,0:0:0:0:
345,137,401598,1,2,0:0:0:0:
276,144,401702,1,8,0:0:0:0:
225,192,401806,1,2,0:0:0:0:
214,260,401910,1,8,0:0:0:0:
247,321,402015,5,6,0:0:0:0:
306,283,402119,1,8,0:0:0:0:
342,223,402223,1,2,0:0:0:0:
348,153,402327,1,8,0:0:0:0:
322,87,402431,1,2,0:0:0:0:
270,40,402535,1,8,0:0:0:0:
203,21,402640,5,10,0:0:0:0:
135,38,402745,2,0,B|90:48|90:48|44:40,1,85,8|2,0:0|0:0,0:0:0:0:
28,150,402953,1,8,0:0:0:0:
94,151,403057,1,8,0:0:0:0:
116,214,403161,1,8,0:0:0:0:
65,257,403265,5,6,0:0:0:0:
106,314,403370,1,8,0:0:0:0:
166,349,403474,1,2,0:0:0:0:
236,358,403578,1,8,0:0:0:0:
303,337,403682,1,2,0:0:0:0:
357,292,403786,1,8,0:0:0:0:
387,228,403890,5,6,1:2:0:0:
391,216,403995,2,0,B|399:172|399:172|392:121,1,85,8|2,0:0|0:0,0:0:0:0:
263,8,404203,1,8,0:0:0:0:
256,92,404307,1,10,0:0:0:0:
250,177,404411,1,8,0:0:0:0:
244,262,404515,5,6,0:0:0:0:
174,215,404620,2,0,L|155:258,2,42.5,2|2|8,0:0|0:0|0:0,0:0:0:0:
179,130,404828,2,0,L|132:135,2,42.5,2|2|8,0:0|0:0|0:0,0:0:0:0:
54,145,405036,1,2,0:0:0:0:
54,151,405088,1,2,0:0:0:0:
56,156,405140,1,12,0:0:0:0:
88,230,405245,1,2,0:0:0:0:
87,236,405297,1,2,0:0:0:0:
85,241,405349,1,12,0:0:0:0:
53,314,405452,2,0,L|34:358,2,42.5,2|2|8,0:0|0:0|0:0,0:0:0:0:
134,355,405660,1,2,0:0:0:0:
140,355,405712,1,2,0:0:0:0:
146,355,405765,6,0,B|176:348|176:348|195:355|195:355|239:349,1,85,6|8,0:0|0:0,0:0:0:0:
279,303,405974,1,2,0:0:0:0:
348,305,406078,1,8,0:0:0:0:
398,353,406182,1,2,0:0:0:0:
466,341,406286,1,8,0:0:0:0:
506,285,406390,5,6,1:2:0:0:
506,271,406495,1,8,0:0:0:0:
425,278,406599,2,0,L|419:182,1,85,2|8,0:0|0:0,0:0:0:0:
489,29,406807,2,0,L|483:113,1,85,2|8,0:0|0:0,0:0:0:0:
352,159,407015,5,2,0:0:0:0:
317,97,407120,1,8,0:0:0:0:
258,60,407223,1,2,0:0:0:0:
188,56,407327,1,8,0:0:0:0:
124,85,407431,1,2,0:0:0:0:
83,142,407535,1,8,0:0:0:0:
74,211,407640,5,6,1:2:0:0:
75,225,407745,1,8,0:0:0:0:
102,285,407849,2,0,B|142:291|142:291|200:282,1,85,2|8,0:0|0:0,0:0:0:0:
124,85,408057,2,0,B|84:79|84:79|26:88,1,85,2|8,0:0|0:0,0:0:0:0:
44,331,408265,5,2,0:0:0:0:
110,353,408369,1,8,0:0:0:0:
181,352,408473,1,2,0:0:0:0:
247,327,408577,1,8,0:0:0:0:
313,302,408682,1,2,0:0:0:0:
383,301,408786,1,8,0:0:0:0:
450,323,408890,5,2,0:0:0:0:
397,369,408995,1,8,0:0:0:0:
328,379,409099,1,2,0:0:0:0:
265,350,409203,1,8,0:0:0:0:
228,290,409307,1,2,0:0:0:0:
230,220,409411,1,8,0:0:0:0:
271,163,409515,5,2,0:0:0:0:
281,164,409620,1,8,0:0:0:0:
360,133,409724,2,0,B|401:143|401:143|465:132,1,85,2|0,0:0|0:0,0:0:0:0:
451,55,409932,1,10,0:0:0:0:
373,17,410036,2,0,B|332:7|332:7|268:18,1,85,8|2,0:0|0:0,0:0:0:0:
325,260,410245,1,8,0:0:0:0:
394,255,410349,1,10,0:0:0:0:
442,205,410453,1,8,0:0:0:0:
444,136,410557,2,0,B|468:152|468:152|466:218,1,85,10|0,0:0|0:0,0:0:0:0:
274,88,410765,6,0,B|237:85|217:91|217:91|200:86|200:86|175:97|125:90,1,127.5,6|0,0:0|0:0,0:0:0:0:
135,85,410973,1,2,0:0:0:0:
37,180,411077,2,0,B|29:221|29:221|38:265,1,85,8|2,0:0|0:0,0:0:0:0:
247,242,411285,2,0,B|255:199|255:199|247:158,1,85,8|2,0:0|0:0,0:0:0:0:
114,281,411494,2,0,B|106:322|106:322|115:366,1,85,8|2,0:0|0:0,0:0:0:0:
324,343,411702,2,0,B|332:300|332:300|324:259,1,85,8|2,0:0|0:0,0:0:0:0:
492,354,411910,5,8,0:0:0:0:
452,281,412015,1,6,0:0:0:0:
408,352,412119,2,0,L|302:340,1,85,8|2,0:0|0:0,0:0:0:0:
163,168,412328,2,0,L|269:156,1,85,8|2,0:0|0:0,0:0:0:0:
452,281,412536,2,0,L|346:269,1,85,8|2,0:0|0:0,0:0:0:0:
207,97,412744,2,0,L|313:85,1,85,8|2,0:0|0:0,0:0:0:0:
113,30,412953,5,8,0:0:0:0:
42,46,413057,1,2,0:0:0:0:
6,108,413161,1,8,0:0:0:0:
26,178,413265,1,6,0:0:0:0:
90,211,413370,2,0,B|95:255|95:255|79:304,1,85,8|2,0:0|0:0,0:0:0:0:
207,97,413578,2,0,B|202:53|202:53|218:4,1,85,8|2,0:0|0:0,0:0:0:0:
323,211,413786,2,0,B|318:254|318:254|334:303,1,85,8|2,0:0|0:0,0:0:0:0:
439,97,413995,2,0,B|434:53|434:53|450:4,1,85,8|2,0:0|0:0,0:0:0:0:
456,272,414203,6,0,B|450:252|435:237|435:237|436:234|436:234|414:236|397:245,1,85,8|2,0:0|0:0,0:0:0:0:
397,319,414411,1,8,0:0:0:0:
260,313,414515,5,6,0:0:0:0:
254,243,414619,1,8,0:0:0:0:
214,184,414723,1,2,0:0:0:0:
147,172,414827,1,8,0:0:0:0:
81,199,414931,5,6,0:0:0:0:
44,262,415036,1,8,0:0:0:0:
47,334,415140,5,6,1:2:0:0:
51,345,415245,1,8,0:0:0:0:
123,339,415349,2,0,B|166:329|166:329|200:284,1,85,2|8,0:0|0:0,0:0:0:0:
354,217,415557,2,0,B|311:207|311:207|277:162,1,85,2|8,0:0|0:0,0:0:0:0:
127,16,415765,5,6,0:0:0:0:
79,67,415869,1,8,0:0:0:0:
70,136,415973,1,2,0:0:0:0:
103,198,416077,1,8,0:0:0:0:
165,230,416181,1,2,0:0:0:0:
234,221,416285,1,8,0:0:0:0:
285,174,416390,5,6,1:2:0:0:
289,159,416497,1,8,0:0:0:0:
354,176,416605,2,0,L|454:190,1,85,2|8,0:0|0:0,0:0:0:0:
504,48,416820,2,0,L|404:62,1,85,2|8,0:0|0:0,0:0:0:0:
347,261,417035,5,6,0:0:0:0:
340,346,417137,2,0,B|292:349|292:349|252:334,1,85,8|2,0:0|0:0,0:0:0:0:
419,311,417341,2,0,B|467:308|467:308|507:323,1,85,8|2,0:0|0:0,0:0:0:0:
179,280,417545,6,0,L|164:370,1,85,8|2,0:0|0:0,0:0:0:0:
29,195,417751,2,0,L|44:285,1,85,8|2,0:0|0:0,0:0:0:0:
179,110,417959,2,0,L|164:200,1,85,8|2,0:0|0:0,0:0:0:0:
29,25,418167,1,8,0:0:0:0:
83,113,418272,5,6,0:0:0:0:
116,44,418376,1,8,0:0:0:0:
187,17,418480,1,2,0:0:0:0:
257,47,418584,1,8,0:0:0:0:
317,93,418688,1,2,0:0:0:0:
392,85,418792,1,8,0:0:0:0:
442,28,418896,5,6,0:0:0:0:
365,3,419000,1,8,0:0:0:0:
287,22,419104,1,2,0:0:0:0:
230,79,419208,1,8,0:0:0:0:
213,157,419312,1,2,0:0:0:0:
239,234,419416,1,8,0:0:0:0:
301,285,419520,5,6,0:0:0:0:
320,203,419624,1,8,0:0:0:0:
291,124,419728,1,2,0:0:0:0:
224,75,419832,1,8,0:0:0:0:
140,71,419936,1,2,0:0:0:0:
68,114,420040,1,8,0:0:0:0:
32,190,420145,5,6,0:0:0:0:
116,176,420249,1,8,0:0:0:0:
189,220,420353,1,2,0:0:0:0:
217,301,420457,1,8,0:0:0:0:
283,355,420561,1,2,0:0:0:0:
368,353,420665,1,8,0:0:0:0:
430,293,420769,6,0,B|425:264|434:246|434:246|420:218|420:218|435:177|432:142|407:116,1,187.849998853455,4|2,0:0|2:0,0:0:0:0:
141,189,435093,5,2,0:0:0:0:
158,283,435316,1,2,0:0:0:0:
248,316,435540,6,0,L|339:315,1,76.4999976654053,2|0,0:0|0:0,0:0:0:0:
381,355,435988,6,0,P|392:295|334:244,1,140.25000428009,2|0,0:0|0:0,0:0:0:0:
245,200,436436,6,0,P|321:245|418:193,1,204,2|0,0:0|0:0,0:0:0:0:
330,153,436884,5,2,0:0:0:0:
160,247,437107,1,2,1:0:0:0:
35,21,437331,5,12,1:0:0:0:
35,21,437779,5,12,1:0:0:0:
245,200,438003,1,2,1:0:0:0:
76,164,438227,2,0,L|184:156,1,85,8|0,0:0|0:0,0:0:0:0:
435,142,438675,1,6,1:2:0:0:
207,36,438898,1,8,0:0:0:0:
212,269,439122,5,6,1:2:0:0:
170,330,439234,2,0,L|140:375,1,42.5,8|0,0:0|0:0,0:0:0:0:
290,265,439458,5,8,0:0:0:0:
330,331,439570,2,0,L|354:378,1,53.125,8|0,0:0|0:0,0:0:0:0:
436,223,439794,5,8,0:0:0:0:
435,143,439905,1,8,0:0:0:0:
435,63,440018,5,8,0:0:0:0:
350,77,440130,1,8,0:0:0:0:
275,35,440242,1,6,1:2:0:0:
275,35,440466,5,12,0:0:0:0:
350,77,440913,5,12,0:0:0:0:
435,63,441361,5,12,0:0:0:0:
123,90,441809,6,0,L|62:80,2,48.8750009322167,6|0|8,0:0|0:0|0:0,0:0:0:0:
364,7,442103,1,6,0:0:0:0:
203,160,442250,1,12,0:0:0:0:
187,206,442323,1,0,0:0:0:0:
191,254,442397,1,2,0:0:0:0:
346,126,442544,1,12,0:0:0:0:
188,331,442691,1,6,0:0:0:0:
215,87,442838,1,12,0:0:0:0:
116,307,442985,5,6,0:0:0:0:
146,268,443058,1,0,0:0:0:0:
191,254,443132,1,8,0:0:0:0:
238,270,443205,1,0,0:0:0:0:
267,307,443279,1,6,0:0:0:0:
395,227,443426,2,0,L|508:242,1,97.7500018644333,12|2,0:0|0:0,0:0:0:0:
203,160,443720,2,0,L|90:175,1,97.7500018644333,12|2,0:0|0:0,0:0:0:0:
336,274,444014,1,12,0:0:0:0:
450,140,444161,5,6,0:0:0:0:
460,92,444234,1,0,0:0:0:0:
444,47,444308,1,8,0:0:0:0:
406,16,444381,1,0,0:0:0:0:
359,10,444455,1,6,0:0:0:0:
253,233,444603,1,6,0:0:0:0:
288,265,444676,1,0,0:0:0:0:
336,274,444750,1,8,0:0:0:0:
381,257,444823,1,0,0:0:0:0:
410,218,444897,1,6,0:0:0:0:
323,92,445044,1,6,0:0:0:0:
338,348,445191,1,12,0:0:0:0:
109,233,445338,5,6,0:0:0:0:
110,184,445411,1,0,0:0:0:0:
111,135,445485,1,8,0:0:0:0:
112,86,445558,1,0,0:0:0:0:
113,37,445632,1,6,0:0:0:0:
240,124,445779,2,0,L|264:16,1,97.7500018644333,12|2,0:0|0:0,0:0:0:0:
205,333,446073,2,0,L|181:225,1,97.7500018644333,12|2,0:0|0:0,0:0:0:0:
113,37,446367,1,12,0:0:0:0:
113,310,446514,5,6,0:0:0:0:
156,332,446587,1,0,0:0:0:0:
205,333,446661,1,8,0:0:0:0:
248,311,446734,1,0,0:0:0:0:
276,272,446808,1,6,0:0:0:0:
475,215,446956,1,6,0:0:0:0:
432,237,447029,1,0,0:0:0:0:
383,238,447103,1,8,0:0:0:0:
340,216,447176,1,0,0:0:0:0:
312,177,447250,1,6,0:0:0:0:
419,55,447397,1,6,0:0:0:0:
368,309,447544,1,12,0:0:0:0:
501,143,447691,5,6,0:0:0:0:
453,132,447764,1,0,0:0:0:0:
405,122,447838,1,8,0:0:0:0:
357,112,447911,1,0,0:0:0:0:
309,102,447985,1,6,0:0:0:0:
113,37,448132,2,0,B|61:33|61:33|-10:58,1,97.7500018644333,12|2,0:0|0:0,0:0:0:0:
309,102,448426,2,0,B|338:58|338:58|352:-15,1,97.7500018644333,12|2,0:0|0:0,0:0:0:0:
154,239,448720,1,12,0:0:0:0:
190,126,448867,5,6,0:0:0:0:
234,146,448940,1,0,0:0:0:0:
263,184,449014,1,8,0:0:0:0:
272,231,449087,1,0,0:0:0:0:
257,277,449161,1,6,0:0:0:0:
118,352,449309,1,12,0:0:0:0:
73,331,449382,1,0,0:0:0:0:
44,293,449456,1,2,0:0:0:0:
35,246,449529,1,0,0:0:0:0:
50,200,449603,1,12,0:0:0:0:
214,367,449750,1,6,0:0:0:0:
381,203,449897,1,12,0:0:0:0:
451,367,450044,5,6,0:0:0:0:
458,318,450117,1,0,0:0:0:0:
465,270,450191,1,8,0:0:0:0:
473,222,450264,1,0,0:0:0:0:
480,173,450338,1,6,0:0:0:0:
248,179,450485,2,0,L|257:277,1,97.7500018644333,12|2,0:0|0:0,0:0:0:0:
392,101,450779,2,0,L|401:3,1,97.7500018644333,12|2,0:0|0:0,0:0:0:0:
370,321,451073,1,12,0:0:0:0:
239,81,451220,5,12,0:0:0:0:
226,81,451293,1,0,0:0:0:0:
213,81,451367,1,0,0:0:0:0:
200,81,451440,1,0,0:0:0:0:
187,123,451514,5,12,0:0:0:0:
174,123,451587,1,0,0:0:0:0:
161,123,451661,1,0,0:0:0:0:
148,123,451734,1,0,0:0:0:0:
134,164,451808,5,12,0:0:0:0:
121,164,451881,1,0,0:0:0:0:
108,164,451955,1,0,0:0:0:0:
95,164,452028,1,0,0:0:0:0:
81,205,452102,5,12,0:0:0:0:
68,205,452175,1,0,0:0:0:0:
55,205,452249,1,0,0:0:0:0:
42,205,452322,1,0,0:0:0:0:
28,246,452396,5,12,0:0:0:0:
10,292,452469,1,8,0:0:0:0:
28,339,452543,1,8,0:0:0:0:
72,361,452616,1,8,0:0:0:0:
120,347,452690,5,12,0:0:0:0:
133,350,452763,1,0,0:0:0:0:
145,353,452837,1,0,0:0:0:0:
158,356,452910,1,0,0:0:0:0:
179,317,452984,5,12,0:0:0:0:
191,314,453057,1,0,0:0:0:0:
203,311,453131,1,0,0:0:0:0:
216,308,453204,1,0,0:0:0:0:
236,347,453279,5,12,0:0:0:0:
248,350,453352,1,0,0:0:0:0:
260,353,453426,1,0,0:0:0:0:
273,356,453499,1,0,0:0:0:0:
293,317,453573,5,12,0:0:0:0:
305,314,453646,1,0,0:0:0:0:
317,311,453720,1,0,0:0:0:0:
330,308,453793,1,0,0:0:0:0:
350,347,453867,5,12,0:0:0:0:
393,371,453940,1,8,0:0:0:0:
442,362,454014,1,8,0:0:0:0:
472,322,454087,1,8,0:0:0:0:
468,272,454161,5,12,0:0:0:0:
456,268,454234,1,0,0:0:0:0:
444,264,454308,1,0,0:0:0:0:
432,260,454381,1,0,0:0:0:0:
397,229,454455,5,12,0:0:0:0:
409,225,454528,1,0,0:0:0:0:
421,221,454602,1,0,0:0:0:0:
433,217,454675,1,0,0:0:0:0:
468,185,454750,5,12,0:0:0:0:
456,181,454823,1,0,0:0:0:0:
444,177,454897,1,0,0:0:0:0:
432,173,454970,1,0,0:0:0:0:
397,141,455043,5,12,0:0:0:0:
409,137,455117,1,0,0:0:0:0:
421,133,455191,1,0,0:0:0:0:
433,129,455264,1,0,0:0:0:0:
467,95,455337,5,12,0:0:0:0:
438,53,455410,1,8,0:0:0:0:
390,37,455484,1,8,0:0:0:0:
342,52,455557,1,8,0:0:0:0:
313,93,455631,5,12,0:0:0:0:
312,106,455704,1,0,0:0:0:0:
311,118,455778,1,0,0:0:0:0:
310,131,455851,1,0,0:0:0:0:
282,153,455925,5,12,0:0:0:0:
283,137,455998,1,0,0:0:0:0:
284,122,456072,1,0,0:0:0:0:
285,107,456145,1,0,0:0:0:0:
324,84,456220,5,12,0:0:0:0:
323,103,456293,1,0,0:0:0:0:
322,121,456367,1,0,0:0:0:0:
320,139,456440,1,0,0:0:0:0:
275,162,456514,5,12,0:0:0:0:
276,139,456587,1,0,0:0:0:0:
277,118,456661,1,0,0:0:0:0:
280,96,456734,1,0,0:0:0:0:
284,33,456808,5,12,0:0:0:0:
233,33,456881,1,8,0:0:0:0:
182,33,456955,1,8,0:0:0:0:
131,33,457028,1,8,0:0:0:0:
80,33,457102,5,12,0:0:0:0:
70,40,457175,1,0,0:0:0:0:
60,48,457249,1,0,0:0:0:0:
50,56,457322,1,0,0:0:0:0:
70,92,457396,5,12,0:0:0:0:
65,103,457469,1,0,0:0:0:0:
60,115,457543,1,0,0:0:0:0:
56,127,457616,1,0,0:0:0:0:
90,147,457690,5,12,0:0:0:0:
91,159,457763,1,0,0:0:0:0:
93,172,457837,1,0,0:0:0:0:
96,184,457910,1,0,0:0:0:0:
135,184,457985,5,12,0:0:0:0:
142,194,458058,1,0,0:0:0:0:
150,204,458132,1,0,0:0:0:0:
159,213,458205,1,0,0:0:0:0:
192,193,458278,5,12,0:0:0:0:
241,194,458351,1,8,0:0:0:0:
268,234,458425,1,8,0:0:0:0:
252,280,458498,1,8,0:0:0:0:
205,294,458572,5,12,0:0:0:0:
203,307,458645,1,0,0:0:0:0:
200,319,458719,1,0,0:0:0:0:
198,332,458792,1,0,0:0:0:0:
183,373,458867,5,12,0:0:0:0:
180,360,458940,1,0,0:0:0:0:
178,347,459014,1,0,0:0:0:0:
175,335,459087,1,0,0:0:0:0:
159,294,459161,5,12,0:0:0:0:
156,307,459234,1,0,0:0:0:0:
154,320,459308,1,0,0:0:0:0:
151,332,459381,1,0,0:0:0:0:
135,373,459455,5,12,0:0:0:0:
132,360,459528,1,0,0:0:0:0:
130,347,459602,1,0,0:0:0:0:
127,335,459675,1,0,0:0:0:0:
111,293,459749,5,12,0:0:0:0:
62,281,459822,1,8,0:0:0:0:
36,239,459896,1,8,0:0:0:0:
46,190,459969,1,8,0:0:0:0:
87,163,460043,5,12,0:0:0:0:
90,151,460116,1,0,0:0:0:0:
93,138,460190,1,0,0:0:0:0:
97,126,460263,1,0,0:0:0:0:
132,102,460337,5,12,0:0:0:0:
128,116,460410,1,0,0:0:0:0:
124,131,460484,1,0,0:0:0:0:
120,146,460557,1,0,0:0:0:0:
77,172,460632,5,12,0:0:0:0:
81,155,460705,1,0,0:0:0:0:
86,137,460779,1,0,0:0:0:0:
91,119,460852,1,0,0:0:0:0:
141,98,460925,5,12,0:0:0:0:
136,118,460998,1,0,0:0:0:0:
130,140,461072,1,0,0:0:0:0:
124,161,461145,1,0,0:0:0:0:
112,222,461220,5,12,0:0:0:0:
162,219,461293,1,8,0:0:0:0:
213,217,461367,1,8,0:0:0:0:
264,215,461440,1,8,0:0:0:0:
315,213,461514,5,12,0:0:0:0:
311,225,461587,1,0,0:0:0:0:
307,237,461661,1,0,0:0:0:0:
304,249,461734,1,0,0:0:0:0:
314,295,461808,5,12,0:0:0:0:
323,305,461881,1,0,0:0:0:0:
334,316,461955,1,0,0:0:0:0:
345,327,462028,1,0,0:0:0:0:
398,343,462102,5,12,0:0:0:0:
413,340,462175,1,0,0:0:0:0:
431,335,462249,1,0,0:0:0:0:
449,330,462322,1,0,0:0:0:0:
496,280,462397,5,12,0:0:0:0:
502,262,462470,1,0,0:0:0:0:
506,240,462544,1,0,0:0:0:0:
512,219,462617,1,0,0:0:0:0:
494,150,462689,6,0,B|452:164|452:164|446:212,2,67.9999979248048,12|8|8,0:0|0:0|0:0,0:0:0:0:
494,75,462941,6,0,L|429:95,1,63.75,12|0,0:0|0:0,0:0:0:0:
332,16,463193,6,0,P|294:131|379:218,1,254.999992218018,12|0,0:0|0:0,0:0:0:0:
512,219,463571,6,0,L|498:308,1,85,6|8,0:0|0:0,0:0:0:0:
434,358,463791,1,0,0:0:0:0:
434,358,463865,1,2,0:0:0:0:
217,270,464012,2,0,L|231:181,1,85,12|2,0:0|0:0,0:0:0:0:
295,130,464232,1,0,0:0:0:0:
295,130,464306,1,8,0:0:0:0:
242,360,464453,6,0,B|200:362|200:362|154:340,1,85,6|8,0:0|0:0,0:0:0:0:
95,293,464673,1,0,0:0:0:0:
95,293,464747,1,0,0:0:0:0:
66,109,464894,2,0,B|108:111|108:111|154:89,1,85,6|8,0:0|0:0,0:0:0:0:
213,42,465114,1,0,0:0:0:0:
213,42,465188,1,0,0:0:0:0:
65,210,465335,1,6,0:0:0:0:
62,12,465482,1,8,0:0:0:0:
234,109,465629,1,2,0:0:0:0:
252,98,465702,1,0,0:0:0:0:
270,87,465776,1,8,0:0:0:0:
482,35,465923,6,0,B|439:29|439:29|394:38,1,85,6|8,0:0|0:0,0:0:0:0:
356,129,466144,1,0,0:0:0:0:
356,129,466218,1,2,0:0:0:0:
468,338,466365,2,0,B|494:303|494:303|509:260,1,85,12|2,0:0|0:0,0:0:0:0:
449,181,466586,1,0,0:0:0:0:
449,181,466660,1,8,0:0:0:0:
232,331,466806,5,6,0:0:0:0:
427,265,466953,1,8,0:0:0:0:
427,265,467026,1,0,0:0:0:0:
427,265,467100,1,0,0:0:0:0:
233,174,467247,1,12,0:0:0:0:
380,338,467394,1,2,0:0:0:0:
380,338,467468,1,0,0:0:0:0:
380,338,467541,1,8,0:0:0:0:
164,253,467688,5,6,0:0:0:0:
301,99,467835,1,8,0:0:0:0:
232,331,467982,1,2,0:0:0:0:
213,341,468055,1,0,0:0:0:0:
194,351,468129,1,8,0:0:0:0:
72,197,468276,6,0,B|60:155|60:155|65:103,1,85,6|8,0:0|0:0,0:0:0:0:
86,31,468497,1,0,0:0:0:0:
86,31,468571,1,2,0:0:0:0:
301,99,468718,2,0,B|313:141|313:141|308:193,1,85,12|2,0:0|0:0,0:0:0:0:
287,265,468939,1,0,0:0:0:0:
287,265,469013,1,8,0:0:0:0:
303,15,469159,5,6,0:0:0:0:
206,163,469306,1,8,0:0:0:0:
203,184,469379,1,0,0:0:0:0:
201,205,469453,1,2,0:0:0:0:
373,103,469600,2,0,B|413:111|413:111|468:102,1,85,12|2,0:0|0:0,0:0:0:0:
415,31,469821,1,0,0:0:0:0:
415,31,469894,1,8,0:0:0:0:
412,223,470041,5,6,0:0:0:0:
303,15,470188,1,8,0:0:0:0:
309,182,470335,1,2,0:0:0:0:
305,204,470408,1,0,0:0:0:0:
300,225,470482,1,8,0:0:0:0:
119,149,470629,6,0,B|77:138|77:138|30:148,1,85,6|8,0:0|0:0,0:0:0:0:
30,71,470850,1,0,0:0:0:0:
30,71,470923,1,2,0:0:0:0:
35,315,471071,2,0,B|77:326|77:326|124:316,1,85,12|2,0:0|0:0,0:0:0:0:
208,296,471292,1,0,0:0:0:0:
208,296,471365,1,8,0:0:0:0:
345,360,471512,5,6,0:0:0:0:
254,177,471659,1,8,0:0:0:0:
261,157,471732,1,0,0:0:0:0:
268,137,471806,1,2,0:0:0:0:
463,257,471953,1,12,0:0:0:0:
431,257,472026,1,0,0:0:0:0:
399,257,472100,1,2,0:0:0:0:
367,257,472173,1,0,0:0:0:0:
335,257,472247,2,0,L|284:258,1,42.5,8|0,0:0|0:0,0:0:0:0:
298,67,472394,5,6,0:0:0:0:
208,296,472541,1,8,0:0:0:0:
314,140,472688,1,2,0:0:0:0:
289,140,472761,1,0,0:0:0:0:
268,137,472835,5,8,0:0:0:0:
226,142,472908,1,8,0:0:0:0:
184,147,472982,5,12,0:0:0:0:
199,69,473129,1,8,0:0:0:0:
171,223,473276,1,8,0:0:0:0:
80,32,473423,1,8,0:0:0:0:
298,67,473571,1,8,0:0:0:0:
167,260,473718,1,8,0:0:0:0:
0,59,473865,1,8,0:0:0:0:
258,14,474012,1,8,0:0:0:0:
88,272,474159,6,0,B|76:316|76:316|83:362,2,85,12|0|0,0:0|0:0|0:0,0:0:0:0:
415,267,474613,6,0,B|426:309|426:309|420:353,2,80.7499978437424,12|0|0,0:0|0:0|0:0,0:0:0:0:
104,264,475096,6,0,B|93:303|93:303|100:345,2,76.4999976654053,12|0|0,0:0|0:0|0:0,0:0:0:0:
400,260,475616,6,0,B|410:297|410:297|404:337,2,72.2500013780594,12|0|0,0:0|0:0|0:0,0:0:0:0:
119,256,476161,6,0,B|109:291|109:291|115:329,2,68,12|0|0,0:0|0:0|0:0,0:0:0:0:
385,253,476753,6,0,B|395:286|395:286|389:322,2,63.7500024318696,12|0|0,0:0|0:0|0:0,0:0:0:0:
132,250,477386,6,0,B|123:282|123:282|129:316,2,59.4999981842042,12|0|0,0:0|0:0|0:0,0:0:0:0:
372,247,478067,6,0,B|381:277|381:277|376:309,2,55.2499974708558,12|0|0,0:0|0:0|0:0,0:0:0:0:
304,75,478792,6,0,P|243:66|189:101,1,127.499996109009,12|0,0:0|0:0,0:0:0:0:
285,314,479561,6,0,P|340:286|360:229,1,116.875003566742,12|0,0:0|0:0,0:0:0:0:
159,110,480410,6,0,P|132:165|147:220,1,106.25,12|0,0:0|0:0,0:0:0:0:
382,201,481301,6,0,P|371:140|339:106,1,95.6249970817567,12|0,0:0|0:0,0:0:0:0:
148,258,482263,6,0,P|185:297|228:304,1,97.75,12|0,0:0|0:0,0:0:0:0:
299,331,486240,6,0,P|304:317|304:299,1,21.25,2|0,0:0|0:0,0:0:0:0:
374,305,486463,2,0,P|371:290|362:274,1,21.25,2|0,0:0|0:0,0:0:0:0:
425,244,486687,6,0,P|390:217|332:224,1,101.999996887207,2|0,0:0|0:0,0:0:0:0:
267,42,487359,6,0,B|292:55|292:55|299:66|303:81|304:95|301:108|303:119|303:119|360:118|360:118|390:91|390:91|363:101|363:101|486:24|486:24|437:74|409:101|404:113|404:113|426:105|448:95|467:90|486:85|535:77|535:77|510:88|492:95|472:106|467:123|467:123|523:154|523:154|460:216|460:216|535:322|535:322|425:218|425:218|488:294|488:294|401:244|401:244|301:246|301:246|301:256|306:267|306:281|301:294|297:304|292:312|292:312|268:315|268:315|246:312|246:312|239:304|236:294|232:281|232:267|236:256|236:246|236:246|136:244|136:244|50:294|50:294|113:218|113:218|2:322|2:322|78:216|78:216|15:154|15:154|71:123|71:123|65:106|45:95|27:88|2:77|2:77|51:85|71:90|89:95|111:105|134:113|134:113|128:101|100:74|51:24|51:24|174:101|174:101|148:91|148:91|177:118|177:118|233:119|233:119|236:108|233:95|234:81|239:66|243:55|243:55|267:42|267:42,1,3058.29989266831,2|0,0:0|0:0,0:0:0:0:
