osu file format v14

[General]
AudioFilename: Fast Paced Society.mp3
AudioLeadIn: 0
PreviewTime: 325834
Countdown: 0
SampleSet: Normal
StackLeniency: 0.7
Mode: 1
LetterboxInBreaks: 0
WidescreenStoryboard: 0

[Editor]
DistanceSpacing: 0.5
BeatDivisor: 4
GridSize: 32
TimelineZoom: 3.3

[Metadata]
Title:Fast Paced Society
TitleUnicode:Fast Paced Society
Artist:Vektor
ArtistUnicode:Vektor
Creator:Skull Kid
Version:Inner Oni
Source:
Tags:outer isolation blackened progressive technical thrash metal marathon
BeatmapID:1102046
BeatmapSetID:518689

[Difficulty]
HPDrainRate:4
CircleSize:4
OverallDifficulty:6.5
ApproachRate:9
SliderMultiplier:1.4
SliderTickRate:1

[Events]
//Background and Video events
0,0,"VEKTOR.jpg",0,82
//Break Periods
//Storyboard Layer 0 (Background)
//Storyboard Layer 1 (Fail)
//Storyboard Layer 2 (Pass)
//Storyboard Layer 3 (Foreground)
//Storyboard Sound Samples

[TimingPoints]
200,454.545454545455,4,1,0,70,1,0
200,-90.9090909090909,4,1,0,70,0,0
18381,-90.0900900900901,4,1,0,70,0,0
18609,-89.2857142857143,4,1,0,70,0,0
18836,-88.4955752212389,4,1,0,70,0,0
19063,-87.719298245614,4,1,0,70,0,0
19290,-86.9565217391304,4,1,0,70,0,0
19518,-86.2068965517241,4,1,0,70,0,0
19745,-85.4700854700855,4,1,0,70,0,0
19859,-84.7457627118644,4,1,0,70,0,0
19972,-84.0336134453781,4,1,0,70,0,0
20200,-83.3333333333333,4,1,0,70,0,0
20427,-82.6446280991736,4,1,0,70,0,0
20654,-81.9672131147541,4,1,0,70,0,0
20881,-81.3008130081301,4,1,0,70,0,0
21109,-80.6451612903226,4,1,0,70,0,0
21336,-80,4,1,0,70,0,0
21563,-79.3650793650794,4,1,0,70,0,0
21677,-78.7401574803149,4,1,0,70,0,0
21790,-78.125,4,1,0,70,0,0
22018,-77.5193798449612,4,1,0,70,0,0
22245,-76.9230769230769,4,1,0,70,0,0
22472,-76.3358778625954,4,1,0,70,0,0
22700,-75.7575757575758,4,1,0,70,0,0
22927,-75.187969924812,4,1,0,70,0,0
23154,-74.6268656716418,4,1,0,70,0,0
23381,-74.0740740740741,4,1,0,70,0,0
23495,-73.5294117647059,4,1,0,70,0,0
23609,-72.992700729927,4,1,0,70,0,0
23836,-72.463768115942,4,1,0,70,0,0
23950,-71.9424460431655,4,1,0,70,0,0
24006,-71.4285714285714,4,1,0,70,0,0
24063,-70.9219858156028,4,1,0,70,0,0
24177,-70.4225352112676,4,1,0,70,0,0
24290,-69.9300699300699,4,1,0,70,0,0
24404,-69.4444444444444,4,1,0,70,0,0
24518,-68.9655172413793,4,1,0,70,0,0
24575,-68.4931506849315,4,1,0,70,0,0
24631,-68.0272108843537,4,1,0,70,0,0
24688,-67.5675675675676,4,1,0,70,0,0
24745,-67.1140939597315,4,1,0,70,0,0
24859,-66.6666666666667,4,1,0,70,0,0
24972,-66.2251655629139,4,1,0,70,0,0
25086,-65.7894736842105,4,1,0,70,0,0
25200,-65.359477124183,4,1,0,70,0,0
25313,-64.9350649350649,4,1,0,70,0,0
25427,-64.5161290322581,4,1,0,70,0,0
25540,-64.1025641025641,4,1,0,70,0,0
25597,-64.1025641025641,4,1,0,80,0,0
25654,283.018867924528,4,1,0,80,1,0
43767,303.030303030303,4,1,0,80,1,0
43767,-94.3396226415094,4,1,0,80,0,0
44475,258.620689655172,4,1,0,80,1,8
44475,-109.89010989011,4,1,0,80,0,0
45181,283.018867924528,4,1,0,80,1,0
47141,283.018867924528,4,1,0,80,1,8
47424,283.018867924528,4,1,0,80,1,0
61008,303.030303030303,4,1,0,80,1,0
61008,-94.3396226415094,4,1,0,80,0,0
62579,472.44094488189,4,1,0,80,1,8
63996,-100,4,1,0,70,0,8
64151,348.837209302326,4,1,0,70,1,0
65197,348.837209302326,4,1,0,70,1,0
103220,-101.010101010101,4,1,0,70,0,0
103394,-102.040816326531,4,1,0,70,0,0
103481,-103.092783505155,4,1,0,70,0,0
103569,-104.166666666667,4,1,0,70,0,0
103656,-105.263157894737,4,1,0,70,0,0
103743,-106.382978723404,4,1,0,70,0,0
103801,-107.52688172043,4,1,0,70,0,0
103859,-108.695652173913,4,1,0,70,0,0
103917,-109.89010989011,4,1,0,70,0,0
104005,-111.111111111111,4,1,0,70,0,0
104092,-112.359550561798,4,1,0,70,0,0
104179,-113.636363636364,4,1,0,70,0,0
104223,-113.636363636364,4,1,0,60,0,0
104266,394.736842105263,3,1,0,60,1,0
121831,-101.010101010101,3,1,0,60,0,0
121930,-102.040816326531,3,1,0,60,0,0
122029,-103.092783505155,3,1,0,60,0,0
122226,-104.166666666667,3,1,0,60,0,0
122325,-105.263157894737,3,1,0,60,0,0
122423,-106.382978723404,3,1,0,60,0,0
122621,-107.52688172043,3,1,0,60,0,0
122818,-108.695652173913,3,1,0,60,0,0
123016,-109.89010989011,3,1,0,60,0,0
123213,-111.111111111111,3,1,0,60,0,0
123706,-111.111111111111,3,1,0,40,0,0
131305,-109.89010989011,3,1,0,40,0,0
131404,-108.695652173913,3,1,0,40,0,0
131502,-107.52688172043,3,1,0,40,0,0
131700,-106.382978723404,3,1,0,40,0,0
131897,-105.263157894737,3,1,0,40,0,0
131996,-104.166666666667,3,1,0,40,0,0
132094,-103.092783505155,3,1,0,40,0,0
132292,-102.040816326531,3,1,0,40,0,0
132489,-101.010101010101,3,1,0,40,0,0
132588,-100,3,1,0,50,0,0
150943,-99.009900990099,3,1,0,50,0,0
151042,-98.0392156862745,3,1,0,50,0,0
151239,-97.0873786407767,3,1,0,50,0,0
151437,-96.1538461538461,3,1,0,50,0,0
151535,-96.1538461538461,3,1,0,70,0,0
151634,-95.2380952380952,3,1,0,70,0,0
194858,303.030303030303,4,1,0,70,1,8
194858,-125,4,1,0,70,0,8
195464,346.820809248555,4,1,0,70,1,8
195464,-109.89010989011,4,1,0,70,0,8
196157,365.853658536585,4,1,0,70,1,0
231278,365.853658536585,6,1,0,70,1,0
233473,365.853658536585,5,1,0,70,1,0
235302,365.853658536585,6,1,0,70,1,0
241887,365.853658536585,5,1,0,70,1,0
243716,365.853658536585,6,1,0,70,1,0
248106,365.853658536585,3,1,0,70,1,0
248839,-83.3333333333333,3,1,0,75,0,0
250211,-83.3333333333333,3,1,0,80,0,0
250301,365.853658536585,3,1,0,80,1,8
250303,295.566502463054,4,1,0,80,1,0
254273,292.117216901902,4,1,0,80,1,8
254565,-100,4,1,0,80,0,8
254613,303.030303030303,4,1,0,80,1,8
254613,-96.1538461538461,4,1,0,80,0,8
254714,293.999470800953,4,1,0,80,1,8
255008,294.117647058824,4,1,0,80,1,0
272655,294.117647058824,4,1,0,80,1,8
273244,428.571428571429,3,1,0,80,1,0
273244,-66.6666666666667,3,1,0,80,0,0
273351,-66.6666666666667,3,1,0,60,0,0
273672,-67.1140939597315,3,1,0,60,0,0
273886,-67.5675675675676,3,1,0,60,0,0
274101,-68.0272108843537,3,1,0,60,0,0
274315,-68.4931506849315,3,1,0,60,0,0
274529,-68.9655172413793,3,1,0,60,0,0
274744,-69.4444444444444,3,1,0,60,0,0
274958,-69.9300699300699,3,1,0,60,0,0
275172,-70.4225352112676,3,1,0,60,0,0
275386,-70.9219858156028,3,1,0,60,0,0
275601,-71.4285714285714,3,1,0,60,0,0
275815,-71.9424460431655,3,1,0,60,0,0
276029,-72.463768115942,3,1,0,60,0,0
276244,-72.992700729927,3,1,0,60,0,0
276458,-73.5294117647059,3,1,0,60,0,0
276672,-74.0740740740741,3,1,0,60,0,0
276886,-74.6268656716418,3,1,0,60,0,0
277101,-75.187969924812,3,1,0,60,0,0
277315,-75.7575757575758,3,1,0,60,0,0
277422,-76.3358778625954,3,1,0,60,0,0
277529,-76.9230769230769,3,1,0,60,0,0
277636,-77.5193798449612,3,1,0,60,0,0
277744,-78.125,3,1,0,60,0,0
277958,-78.7401574803149,3,1,0,60,0,0
278172,-79.3650793650794,3,1,0,60,0,0
278386,-80,3,1,0,60,0,0
278601,-80.6451612903226,3,1,0,60,0,0
278815,-81.3008130081301,3,1,0,60,0,0
279029,-81.9672131147541,3,1,0,60,0,0
279244,-82.6446280991736,3,1,0,60,0,0
279458,-83.3333333333333,3,1,0,60,0,0
279672,-84.0336134453781,3,1,0,60,0,0
279886,-84.7457627118644,3,1,0,60,0,0
280101,-85.4700854700855,3,1,0,60,0,0
280315,-86.2068965517241,3,1,0,60,0,0
280529,-86.9565217391304,3,1,0,60,0,0
280744,-87.719298245614,3,1,0,60,0,0
280958,-88.4955752212389,3,1,0,60,0,0
281172,-89.2857142857143,3,1,0,60,0,0
281386,-90.0900900900901,3,1,0,60,0,0
281601,-90.9090909090909,3,1,0,60,0,0
281815,-91.743119266055,3,1,0,60,0,0
282029,-92.5925925925926,3,1,0,60,0,0
282244,-93.4579439252336,3,1,0,60,0,0
282458,-94.3396226415094,3,1,0,60,0,0
282672,-95.2380952380952,3,1,0,60,0,0
282886,-96.1538461538461,3,1,0,60,0,0
283101,-97.0873786407767,3,1,0,60,0,0
283315,-98.0392156862745,3,1,0,60,0,0
283529,-99.009900990099,3,1,0,60,0,0
283744,-100,3,1,0,60,0,0
283958,-99.009900990099,3,1,0,60,0,0
284172,-98.0392156862745,3,1,0,60,0,0
284386,-97.0873786407767,3,1,0,60,0,0
284601,-96.1538461538461,3,1,0,60,0,0
284815,-95.2380952380952,3,1,0,60,0,0
285029,-94.3396226415094,3,1,0,60,0,0
285244,-93.4579439252336,3,1,0,60,0,0
285458,-92.5925925925926,3,1,0,60,0,0
285672,-91.743119266055,3,1,0,60,0,0
285886,-90.9090909090909,3,1,0,60,0,0
286101,-90.0900900900901,3,1,0,60,0,0
286315,-89.2857142857143,3,1,0,60,0,0
286529,-88.4955752212389,3,1,0,60,0,0
286744,-87.719298245614,3,1,0,60,0,0
286958,-86.9565217391304,3,1,0,60,0,0
287172,-86.2068965517241,3,1,0,60,0,0
287386,-85.4700854700855,3,1,0,60,0,0
287601,-84.7457627118644,3,1,0,60,0,0
287708,-84.0336134453781,3,1,0,60,0,0
287815,-83.3333333333333,3,1,0,60,0,0
287922,-82.6446280991736,3,1,0,60,0,0
288029,-81.9672131147541,3,1,0,60,0,0
288244,-81.3008130081301,3,1,0,60,0,0
288458,-80.6451612903226,3,1,0,60,0,0
288672,-80,3,1,0,60,0,0
288886,-79.3650793650794,3,1,0,60,0,0
289101,-78.7401574803149,3,1,0,60,0,0
289315,-78.125,3,1,0,60,0,0
289529,-77.5193798449612,3,1,0,60,0,0
289744,-76.9230769230769,3,1,0,60,0,0
289958,-76.3358778625954,3,1,0,60,0,0
290172,-75.7575757575758,3,1,0,60,0,0
290386,-75.187969924812,3,1,0,60,0,0
290601,-74.6268656716418,3,1,0,60,0,0
290815,-74.0740740740741,3,1,0,60,0,0
291029,-73.5294117647059,3,1,0,60,0,0
291244,-72.992700729927,3,1,0,60,0,0
291458,-72.463768115942,3,1,0,60,0,0
291672,-71.9424460431655,3,1,0,60,0,0
291886,-71.4285714285714,3,1,0,60,0,0
292101,-70.9219858156028,3,1,0,60,0,0
292315,-70.4225352112676,3,1,0,60,0,0
292529,-69.9300699300699,3,1,0,60,0,0
292744,-69.4444444444444,3,1,0,60,0,0
293029,-68.9655172413793,3,1,0,60,0,0
293101,-68.4931506849315,3,1,0,60,0,0
293172,-68.0272108843537,3,1,0,60,0,0
293386,-67.5675675675676,3,1,0,60,0,0
293601,-67.1140939597315,3,1,0,60,0,0
293708,-67.1140939597315,3,1,0,80,0,0
293815,288.461538461538,4,1,0,80,1,0
326122,-100,4,1,0,80,0,1
335353,-100,4,1,0,80,0,0
349199,283.018867924528,4,1,0,80,1,0
349199,-102.040816326531,4,1,0,80,0,0
351038,-100,4,1,0,80,0,0
374104,297.029702970297,4,1,0,80,1,0
374104,-95.2380952380952,4,1,0,80,0,0
376480,288.461538461538,4,1,0,80,1,0
376480,-98.0392156862745,4,1,0,80,0,0

[HitObjects]
256,192,200,5,4,0:0:0:0:
256,192,427,1,8,0:0:0:0:
256,192,503,1,8,0:0:0:0:
256,192,578,1,0,0:0:0:0:
256,192,654,1,0,0:0:0:0:
256,192,881,1,12,0:0:0:0:
256,192,1109,1,0,0:0:0:0:
256,192,1336,1,8,0:0:0:0:
256,192,1563,1,8,0:0:0:0:
256,192,1790,1,0,0:0:0:0:
256,192,2018,1,4,0:0:0:0:
256,192,2245,1,8,0:0:0:0:
256,192,2321,1,8,0:0:0:0:
256,192,2396,1,0,0:0:0:0:
256,192,2472,1,0,0:0:0:0:
256,192,2700,1,12,0:0:0:0:
256,192,2927,1,0,0:0:0:0:
256,192,3154,1,8,0:0:0:0:
256,192,3381,1,0,0:0:0:0:
256,192,3609,1,8,0:0:0:0:
256,192,3836,1,4,0:0:0:0:
256,192,4063,1,8,0:0:0:0:
256,192,4139,1,8,0:0:0:0:
256,192,4215,1,0,0:0:0:0:
256,192,4290,1,0,0:0:0:0:
256,192,4518,1,12,0:0:0:0:
256,192,4745,1,0,0:0:0:0:
256,192,4972,1,8,0:0:0:0:
256,192,5200,1,8,0:0:0:0:
256,192,5427,1,0,0:0:0:0:
256,192,5654,1,4,0:0:0:0:
256,192,5881,1,8,0:0:0:0:
256,192,5957,1,8,0:0:0:0:
256,192,6033,1,0,0:0:0:0:
256,192,6109,1,0,0:0:0:0:
256,192,6336,1,12,0:0:0:0:
256,192,6563,1,0,0:0:0:0:
256,192,6790,1,8,0:0:0:0:
256,192,7018,1,0,0:0:0:0:
256,192,7245,1,8,0:0:0:0:
256,192,7472,1,4,0:0:0:0:
256,192,7700,1,8,0:0:0:0:
256,192,7775,1,8,0:0:0:0:
256,192,7851,1,0,0:0:0:0:
256,192,7927,1,0,0:0:0:0:
256,192,8154,1,12,0:0:0:0:
256,192,8381,1,0,0:0:0:0:
256,192,8609,1,8,0:0:0:0:
256,192,8836,1,8,0:0:0:0:
256,192,9063,1,0,0:0:0:0:
256,192,9290,1,8,0:0:0:0:
256,192,9442,1,0,0:0:0:0:
256,192,9593,1,0,0:0:0:0:
256,192,9745,1,8,0:0:0:0:
256,192,9859,1,0,0:0:0:0:
256,192,9972,1,0,0:0:0:0:
256,192,10086,1,0,0:0:0:0:
256,192,10200,1,8,0:0:0:0:
256,192,10275,1,0,0:0:0:0:
256,192,10351,1,0,0:0:0:0:
256,192,10427,1,0,0:0:0:0:
256,192,10503,1,0,0:0:0:0:
256,192,10578,1,0,0:0:0:0:
256,192,10654,1,8,0:0:0:0:
256,192,10730,1,8,0:0:0:0:
256,192,10806,1,8,0:0:0:0:
256,192,10881,1,8,0:0:0:0:
256,192,10957,1,8,0:0:0:0:
256,192,11033,1,8,0:0:0:0:
256,192,11109,1,0,0:0:0:0:
256,192,11336,1,8,0:0:0:0:
256,192,11563,1,0,0:0:0:0:
256,192,11790,1,8,0:0:0:0:
256,192,12018,1,0,0:0:0:0:
256,192,12245,1,8,0:0:0:0:
256,192,12472,1,8,0:0:0:0:
256,192,12586,1,0,0:0:0:0:
256,192,12700,1,8,0:0:0:0:
256,192,12927,1,0,0:0:0:0:
256,192,13154,1,8,0:0:0:0:
256,192,13381,1,0,0:0:0:0:
256,192,13609,1,8,0:0:0:0:
256,192,13836,1,0,0:0:0:0:
256,192,14063,1,8,0:0:0:0:
256,192,14290,1,8,0:0:0:0:
256,192,14404,1,8,0:0:0:0:
256,192,14518,1,0,0:0:0:0:
256,192,14745,1,0,0:0:0:0:
256,192,14972,1,8,0:0:0:0:
256,192,15200,1,0,0:0:0:0:
256,192,15427,1,8,0:0:0:0:
256,192,15654,1,0,0:0:0:0:
256,192,15881,1,8,0:0:0:0:
256,192,16109,1,8,0:0:0:0:
256,192,16222,1,0,0:0:0:0:
256,192,16336,1,8,0:0:0:0:
256,192,16563,1,0,0:0:0:0:
256,192,16790,1,8,0:0:0:0:
256,192,17018,1,0,0:0:0:0:
256,192,17245,1,8,0:0:0:0:
256,192,17472,1,0,0:0:0:0:
256,192,17700,1,8,0:0:0:0:
256,192,17927,1,8,0:0:0:0:
256,192,18040,1,0,0:0:0:0:
256,192,18154,1,8,0:0:0:0:
256,192,18268,1,8,0:0:0:0:
256,192,18381,1,0,0:0:0:0:
256,192,18609,1,8,0:0:0:0:
256,192,18836,1,0,0:0:0:0:
256,192,19063,1,8,0:0:0:0:
256,192,19290,1,0,0:0:0:0:
256,192,19518,1,8,0:0:0:0:
256,192,19745,1,8,0:0:0:0:
256,192,19859,1,0,0:0:0:0:
256,192,19972,1,8,0:0:0:0:
256,192,20200,1,0,0:0:0:0:
256,192,20427,1,8,0:0:0:0:
256,192,20654,1,0,0:0:0:0:
256,192,20881,1,8,0:0:0:0:
256,192,21109,1,0,0:0:0:0:
256,192,21336,1,8,0:0:0:0:
256,192,21563,1,8,0:0:0:0:
256,192,21677,1,8,0:0:0:0:
256,192,21790,1,0,0:0:0:0:
256,192,22018,1,0,0:0:0:0:
256,192,22245,1,8,0:0:0:0:
256,192,22472,1,0,0:0:0:0:
256,192,22700,1,8,0:0:0:0:
256,192,22927,1,0,0:0:0:0:
256,192,23154,1,8,0:0:0:0:
256,192,23381,1,8,0:0:0:0:
256,192,23495,1,0,0:0:0:0:
256,192,23609,1,8,0:0:0:0:
256,192,23836,1,0,0:0:0:0:
256,192,23950,1,0,0:0:0:0:
256,192,24006,1,0,0:0:0:0:
256,192,24063,1,8,0:0:0:0:
256,192,24177,1,8,0:0:0:0:
256,192,24290,1,0,0:0:0:0:
256,192,24404,1,0,0:0:0:0:
256,192,24518,1,8,0:0:0:0:
256,192,24575,1,8,0:0:0:0:
256,192,24631,1,8,0:0:0:0:
256,192,24688,1,8,0:0:0:0:
256,192,24745,1,0,0:0:0:0:
256,192,24859,1,0,0:0:0:0:
256,192,24972,1,8,0:0:0:0:
256,192,25086,1,0,0:0:0:0:
256,192,25200,1,8,0:0:0:0:
256,192,25313,1,8,0:0:0:0:
256,192,25427,1,0,0:0:0:0:
256,192,25540,1,0,0:0:0:0:
256,192,25654,1,12,0:0:0:0:
256,192,25795,1,0,0:0:0:0:
256,192,25866,1,0,0:0:0:0:
256,192,25937,1,0,0:0:0:0:
256,192,26007,1,0,0:0:0:0:
256,192,26078,1,8,0:0:0:0:
256,192,26220,1,0,0:0:0:0:
256,192,26290,1,0,0:0:0:0:
256,192,26361,1,8,0:0:0:0:
256,192,26432,1,8,0:0:0:0:
256,192,26503,1,0,0:0:0:0:
256,192,26644,1,0,0:0:0:0:
256,192,26786,1,8,0:0:0:0:
256,192,26927,1,0,0:0:0:0:
256,192,26998,1,0,0:0:0:0:
256,192,27069,1,0,0:0:0:0:
256,192,27139,1,0,0:0:0:0:
256,192,27210,1,8,0:0:0:0:
256,192,27352,1,0,0:0:0:0:
256,192,27422,1,0,0:0:0:0:
256,192,27493,1,8,0:0:0:0:
256,192,27564,1,0,0:0:0:0:
256,192,27635,1,8,0:0:0:0:
256,192,27705,1,8,0:0:0:0:
256,192,27776,1,0,0:0:0:0:
256,192,27847,1,0,0:0:0:0:
256,192,27918,1,8,0:0:0:0:
256,192,28059,1,0,0:0:0:0:
256,192,28130,1,0,0:0:0:0:
256,192,28201,1,0,0:0:0:0:
256,192,28271,1,0,0:0:0:0:
256,192,28342,1,8,0:0:0:0:
256,192,28484,1,0,0:0:0:0:
256,192,28554,1,0,0:0:0:0:
256,192,28625,1,8,0:0:0:0:
256,192,28696,1,8,0:0:0:0:
256,192,28767,1,0,0:0:0:0:
256,192,28908,1,0,0:0:0:0:
256,192,29050,1,8,0:0:0:0:
256,192,29120,1,8,0:0:0:0:
256,192,29191,1,0,0:0:0:0:
256,192,29262,1,0,0:0:0:0:
256,192,29333,1,8,0:0:0:0:
256,192,29403,1,0,0:0:0:0:
256,192,29474,1,0,0:0:0:0:
256,192,29545,1,0,0:0:0:0:
256,192,29616,1,8,0:0:0:0:
256,192,29687,1,8,0:0:0:0:
256,192,29757,1,8,0:0:0:0:
256,192,29828,1,8,0:0:0:0:
256,192,29899,1,0,0:0:0:0:
256,192,30040,1,0,0:0:0:0:
256,192,30182,1,12,0:0:0:0:
256,192,30323,1,0,0:0:0:0:
256,192,30394,1,0,0:0:0:0:
256,192,30465,1,0,0:0:0:0:
256,192,30536,1,0,0:0:0:0:
256,192,30606,1,8,0:0:0:0:
256,192,30748,1,0,0:0:0:0:
256,192,30819,1,0,0:0:0:0:
256,192,30889,1,8,0:0:0:0:
256,192,30960,1,8,0:0:0:0:
256,192,31031,1,0,0:0:0:0:
256,192,31172,1,0,0:0:0:0:
256,192,31314,1,8,0:0:0:0:
256,192,31455,1,0,0:0:0:0:
256,192,31526,1,0,0:0:0:0:
256,192,31597,1,0,0:0:0:0:
256,192,31668,1,0,0:0:0:0:
256,192,31738,1,8,0:0:0:0:
256,192,31880,1,0,0:0:0:0:
256,192,31951,1,0,0:0:0:0:
256,192,32021,1,8,0:0:0:0:
256,192,32092,1,0,0:0:0:0:
256,192,32163,1,8,0:0:0:0:
256,192,32234,1,8,0:0:0:0:
256,192,32304,1,0,0:0:0:0:
256,192,32375,1,0,0:0:0:0:
256,192,32446,1,8,0:0:0:0:
256,192,32587,1,0,0:0:0:0:
256,192,32658,1,0,0:0:0:0:
256,192,32729,1,0,0:0:0:0:
256,192,32800,1,0,0:0:0:0:
256,192,32870,1,8,0:0:0:0:
256,192,33012,1,0,0:0:0:0:
256,192,33083,1,0,0:0:0:0:
256,192,33153,1,8,0:0:0:0:
256,192,33224,1,8,0:0:0:0:
256,192,33295,1,0,0:0:0:0:
256,192,33437,1,0,0:0:0:0:
256,192,33578,1,8,0:0:0:0:
256,192,33720,1,0,0:0:0:0:
256,192,33790,1,0,0:0:0:0:
256,192,33861,1,8,0:0:0:0:
256,192,33932,1,0,0:0:0:0:
256,192,34003,1,0,0:0:0:0:
256,192,34073,1,0,0:0:0:0:
256,192,34144,1,8,0:0:0:0:
256,192,34215,1,8,0:0:0:0:
256,192,34286,1,8,0:0:0:0:
256,192,34356,1,8,0:0:0:0:
256,192,34427,1,0,0:0:0:0:
256,192,34569,1,0,0:0:0:0:
256,192,34710,1,8,0:0:0:0:
256,192,34781,1,8,0:0:0:0:
256,192,34852,1,0,0:0:0:0:
256,192,34922,1,0,0:0:0:0:
256,192,34993,1,8,0:0:0:0:
256,192,35064,1,0,0:0:0:0:
256,192,35135,1,8,0:0:0:0:
256,192,35205,1,8,0:0:0:0:
256,192,35276,1,0,0:0:0:0:
256,192,35347,1,0,0:0:0:0:
256,192,35418,1,8,0:0:0:0:
256,192,35488,1,0,0:0:0:0:
256,192,35559,1,8,0:0:0:0:
256,192,35630,1,8,0:0:0:0:
256,192,35701,1,0,0:0:0:0:
256,192,35771,1,0,0:0:0:0:
256,192,35842,1,8,0:0:0:0:
256,192,35913,1,0,0:0:0:0:
256,192,35984,1,0,0:0:0:0:
256,192,36054,1,0,0:0:0:0:
256,192,36125,1,8,0:0:0:0:
256,192,36196,1,0,0:0:0:0:
256,192,36267,1,8,0:0:0:0:
256,192,36337,1,8,0:0:0:0:
256,192,36408,1,0,0:0:0:0:
256,192,36479,1,0,0:0:0:0:
256,192,36550,1,8,0:0:0:0:
256,192,36620,1,0,0:0:0:0:
256,192,36691,1,8,0:0:0:0:
256,192,36762,1,8,0:0:0:0:
256,192,36833,1,0,0:0:0:0:
256,192,36903,1,0,0:0:0:0:
256,192,36974,1,8,0:0:0:0:
256,192,37045,1,8,0:0:0:0:
256,192,37116,1,0,0:0:0:0:
256,192,37187,1,0,0:0:0:0:
256,192,37257,1,0,0:0:0:0:
256,192,37328,1,0,0:0:0:0:
256,192,37399,1,8,0:0:0:0:
256,192,37470,1,8,0:0:0:0:
256,192,37540,1,0,0:0:0:0:
256,192,37611,1,0,0:0:0:0:
256,192,37682,1,8,0:0:0:0:
256,192,37753,1,0,0:0:0:0:
256,192,37823,1,8,0:0:0:0:
256,192,37894,1,8,0:0:0:0:
256,192,37965,1,8,0:0:0:0:
256,192,38036,1,0,0:0:0:0:
256,192,38106,1,8,0:0:0:0:
256,192,38177,1,8,0:0:0:0:
256,192,38248,1,0,0:0:0:0:
256,192,38319,1,0,0:0:0:0:
256,192,38389,1,0,0:0:0:0:
256,192,38460,1,0,0:0:0:0:
256,192,38531,1,8,0:0:0:0:
256,192,38602,1,8,0:0:0:0:
256,192,38672,1,0,0:0:0:0:
256,192,38743,1,0,0:0:0:0:
256,192,38814,1,8,0:0:0:0:
256,192,38885,1,0,0:0:0:0:
256,192,38955,1,8,0:0:0:0:
256,192,39026,1,8,0:0:0:0:
256,192,39097,1,0,0:0:0:0:
256,192,39168,1,0,0:0:0:0:
256,192,39238,1,8,0:0:0:0:
256,192,39380,1,0,0:0:0:0:
256,192,39451,1,0,0:0:0:0:
256,192,39521,1,8,0:0:0:0:
256,192,39592,1,8,0:0:0:0:
256,192,39663,1,0,0:0:0:0:
256,192,39734,1,0,0:0:0:0:
256,192,39804,1,8,0:0:0:0:
256,192,39875,1,0,0:0:0:0:
256,192,39946,1,0,0:0:0:0:
256,192,40017,1,0,0:0:0:0:
256,192,40087,1,8,0:0:0:0:
256,192,40158,1,0,0:0:0:0:
256,192,40229,1,8,0:0:0:0:
256,192,40300,1,8,0:0:0:0:
256,192,40370,1,8,0:0:0:0:
256,192,40441,1,0,0:0:0:0:
256,192,40512,1,0,0:0:0:0:
256,192,40583,1,0,0:0:0:0:
256,192,40653,1,8,0:0:0:0:
256,192,40724,1,0,0:0:0:0:
256,192,40795,1,8,0:0:0:0:
256,192,40866,1,8,0:0:0:0:
256,192,40937,1,0,0:0:0:0:
256,192,41007,1,0,0:0:0:0:
256,192,41078,1,8,0:0:0:0:
256,192,41149,1,0,0:0:0:0:
256,192,41220,1,8,0:0:0:0:
256,192,41290,1,0,0:0:0:0:
256,192,41361,1,0,0:0:0:0:
256,192,41432,1,0,0:0:0:0:
256,192,41503,1,8,0:0:0:0:
256,192,41573,1,8,0:0:0:0:
256,192,41644,1,0,0:0:0:0:
256,192,41715,1,0,0:0:0:0:
256,192,41786,1,8,0:0:0:0:
256,192,41856,1,0,0:0:0:0:
256,192,41927,1,8,0:0:0:0:
256,192,41998,1,8,0:0:0:0:
256,192,42069,1,0,0:0:0:0:
256,192,42210,1,8,0:0:0:0:
256,192,42281,1,0,0:0:0:0:
256,192,42352,1,8,0:0:0:0:
256,192,42493,1,0,0:0:0:0:
256,192,42635,1,8,0:0:0:0:
256,192,42729,1,8,0:0:0:0:
256,192,42823,1,0,0:0:0:0:
256,192,42918,1,8,0:0:0:0:
256,192,43012,1,0,0:0:0:0:
256,192,43106,1,0,0:0:0:0:
256,192,43201,1,8,0:0:0:0:
256,192,43295,1,8,0:0:0:0:
256,192,43389,1,0,0:0:0:0:
256,192,43484,1,8,0:0:0:0:
256,192,43578,1,0,0:0:0:0:
256,192,43672,1,0,0:0:0:0:
256,192,43767,1,8,0:0:0:0:
256,192,43868,1,8,0:0:0:0:
256,192,43969,1,8,0:0:0:0:
256,192,44070,1,8,0:0:0:0:
256,192,44171,1,8,0:0:0:0:
256,192,44272,1,8,0:0:0:0:
256,192,44373,1,8,0:0:0:0:
256,192,44475,1,4,0:0:0:0:
256,192,44733,1,12,0:0:0:0:
256,192,44992,1,12,0:0:0:0:
256,192,47141,1,8,0:0:0:0:
256,192,47211,1,8,0:0:0:0:
256,192,47282,1,0,0:0:0:0:
256,192,47353,1,0,0:0:0:0:
256,192,47424,1,8,0:0:0:0:
256,192,47565,1,0,0:0:0:0:
256,192,47636,1,0,0:0:0:0:
256,192,47707,1,0,0:0:0:0:
256,192,47777,1,0,0:0:0:0:
256,192,47848,1,8,0:0:0:0:
256,192,47990,1,0,0:0:0:0:
256,192,48060,1,0,0:0:0:0:
256,192,48131,1,8,0:0:0:0:
256,192,48202,1,8,0:0:0:0:
256,192,48273,1,0,0:0:0:0:
256,192,48414,1,0,0:0:0:0:
256,192,48556,1,8,0:0:0:0:
256,192,48697,1,0,0:0:0:0:
256,192,48768,1,0,0:0:0:0:
256,192,48839,1,0,0:0:0:0:
256,192,48909,1,0,0:0:0:0:
256,192,48980,1,8,0:0:0:0:
256,192,49122,1,0,0:0:0:0:
256,192,49192,1,0,0:0:0:0:
256,192,49263,1,8,0:0:0:0:
256,192,49334,1,0,0:0:0:0:
256,192,49405,1,8,0:0:0:0:
256,192,49475,1,8,0:0:0:0:
256,192,49546,1,0,0:0:0:0:
256,192,49617,1,0,0:0:0:0:
256,192,49688,1,8,0:0:0:0:
256,192,49829,1,0,0:0:0:0:
256,192,49900,1,0,0:0:0:0:
256,192,49971,1,0,0:0:0:0:
256,192,50041,1,0,0:0:0:0:
256,192,50112,1,8,0:0:0:0:
256,192,50254,1,0,0:0:0:0:
256,192,50324,1,0,0:0:0:0:
256,192,50395,1,8,0:0:0:0:
256,192,50466,1,8,0:0:0:0:
256,192,50537,1,0,0:0:0:0:
256,192,50678,1,0,0:0:0:0:
256,192,50820,1,8,0:0:0:0:
256,192,50890,1,8,0:0:0:0:
256,192,50961,1,0,0:0:0:0:
256,192,51032,1,0,0:0:0:0:
256,192,51103,1,8,0:0:0:0:
256,192,51174,1,0,0:0:0:0:
256,192,51244,1,0,0:0:0:0:
256,192,51315,1,0,0:0:0:0:
256,192,51386,1,8,0:0:0:0:
256,192,51457,1,8,0:0:0:0:
256,192,51527,1,8,0:0:0:0:
256,192,51598,1,8,0:0:0:0:
256,192,51669,1,0,0:0:0:0:
256,192,51810,1,0,0:0:0:0:
256,192,51952,1,8,0:0:0:0:
256,192,52023,1,8,0:0:0:0:
256,192,52093,1,0,0:0:0:0:
256,192,52164,1,0,0:0:0:0:
256,192,52235,1,8,0:0:0:0:
256,192,52306,1,0,0:0:0:0:
256,192,52376,1,8,0:0:0:0:
256,192,52447,1,8,0:0:0:0:
256,192,52518,1,0,0:0:0:0:
256,192,52589,1,0,0:0:0:0:
256,192,52659,1,8,0:0:0:0:
256,192,52730,1,0,0:0:0:0:
256,192,52801,1,8,0:0:0:0:
256,192,52872,1,8,0:0:0:0:
256,192,52942,1,0,0:0:0:0:
256,192,53013,1,0,0:0:0:0:
256,192,53084,1,8,0:0:0:0:
256,192,53155,1,0,0:0:0:0:
256,192,53225,1,0,0:0:0:0:
256,192,53296,1,0,0:0:0:0:
256,192,53367,1,8,0:0:0:0:
256,192,53438,1,0,0:0:0:0:
256,192,53508,1,8,0:0:0:0:
256,192,53579,1,8,0:0:0:0:
256,192,53650,1,0,0:0:0:0:
256,192,53721,1,0,0:0:0:0:
256,192,53791,1,8,0:0:0:0:
256,192,53862,1,0,0:0:0:0:
256,192,53933,1,8,0:0:0:0:
256,192,54004,1,8,0:0:0:0:
256,192,54074,1,0,0:0:0:0:
256,192,54145,1,0,0:0:0:0:
256,192,54216,1,8,0:0:0:0:
256,192,54287,1,8,0:0:0:0:
256,192,54357,1,0,0:0:0:0:
256,192,54428,1,0,0:0:0:0:
256,192,54499,1,0,0:0:0:0:
256,192,54570,1,0,0:0:0:0:
256,192,54640,1,8,0:0:0:0:
256,192,54711,1,8,0:0:0:0:
256,192,54782,1,0,0:0:0:0:
256,192,54853,1,0,0:0:0:0:
256,192,54923,1,8,0:0:0:0:
256,192,54994,1,0,0:0:0:0:
256,192,55065,1,8,0:0:0:0:
256,192,55136,1,8,0:0:0:0:
256,192,55207,1,8,0:0:0:0:
256,192,55277,1,0,0:0:0:0:
256,192,55348,1,8,0:0:0:0:
256,192,55419,1,8,0:0:0:0:
256,192,55490,1,0,0:0:0:0:
256,192,55560,1,0,0:0:0:0:
256,192,55631,1,0,0:0:0:0:
256,192,55702,1,0,0:0:0:0:
256,192,55773,1,8,0:0:0:0:
256,192,55843,1,8,0:0:0:0:
256,192,55914,1,0,0:0:0:0:
256,192,55985,1,0,0:0:0:0:
256,192,56056,1,8,0:0:0:0:
256,192,56126,1,0,0:0:0:0:
256,192,56197,1,8,0:0:0:0:
256,192,56268,1,8,0:0:0:0:
256,192,56339,1,0,0:0:0:0:
256,192,56409,1,0,0:0:0:0:
256,192,56480,1,8,0:0:0:0:
256,192,56622,1,0,0:0:0:0:
256,192,56692,1,0,0:0:0:0:
256,192,56763,1,8,0:0:0:0:
256,192,56834,1,8,0:0:0:0:
256,192,56905,1,0,0:0:0:0:
256,192,56975,1,0,0:0:0:0:
256,192,57046,1,8,0:0:0:0:
256,192,57117,1,0,0:0:0:0:
256,192,57188,1,0,0:0:0:0:
256,192,57258,1,0,0:0:0:0:
256,192,57329,1,8,0:0:0:0:
256,192,57400,1,0,0:0:0:0:
256,192,57471,1,8,0:0:0:0:
256,192,57541,1,8,0:0:0:0:
256,192,57612,1,8,0:0:0:0:
256,192,57683,1,0,0:0:0:0:
256,192,57754,1,0,0:0:0:0:
256,192,57824,1,0,0:0:0:0:
256,192,57895,1,8,0:0:0:0:
256,192,57966,1,0,0:0:0:0:
256,192,58037,1,8,0:0:0:0:
256,192,58107,1,8,0:0:0:0:
256,192,58178,1,0,0:0:0:0:
256,192,58249,1,0,0:0:0:0:
256,192,58320,1,8,0:0:0:0:
256,192,58390,1,0,0:0:0:0:
256,192,58461,1,8,0:0:0:0:
256,192,58532,1,0,0:0:0:0:
256,192,58603,1,0,0:0:0:0:
256,192,58673,1,0,0:0:0:0:
256,192,58744,1,8,0:0:0:0:
256,192,58815,1,8,0:0:0:0:
256,192,58886,1,0,0:0:0:0:
256,192,58957,1,0,0:0:0:0:
256,192,59027,1,8,0:0:0:0:
256,192,59098,1,0,0:0:0:0:
256,192,59169,1,8,0:0:0:0:
256,192,59240,1,8,0:0:0:0:
256,192,59310,1,0,0:0:0:0:
256,192,59452,1,8,0:0:0:0:
256,192,59523,1,0,0:0:0:0:
256,192,59593,1,8,0:0:0:0:
256,192,59735,1,0,0:0:0:0:
256,192,59876,1,8,0:0:0:0:
256,192,59971,1,8,0:0:0:0:
256,192,60065,1,0,0:0:0:0:
256,192,60159,1,8,0:0:0:0:
256,192,60254,1,0,0:0:0:0:
256,192,60348,1,0,0:0:0:0:
256,192,60442,1,8,0:0:0:0:
256,192,60537,1,8,0:0:0:0:
256,192,60631,1,0,0:0:0:0:
256,192,60725,1,8,0:0:0:0:
256,192,60820,1,0,0:0:0:0:
256,192,60914,1,0,0:0:0:0:
256,192,61008,1,8,0:0:0:0:
256,192,61109,1,8,0:0:0:0:
256,192,61210,1,8,0:0:0:0:
256,192,61311,1,8,0:0:0:0:
256,192,61412,1,8,0:0:0:0:
256,192,61513,1,8,0:0:0:0:
256,192,61614,1,8,0:0:0:0:
256,192,61715,1,4,0:0:0:0:
256,192,64151,1,0,0:0:0:0:
256,192,64209,1,0,0:0:0:0:
256,192,64267,1,0,0:0:0:0:
256,192,64325,1,8,0:0:0:0:
256,192,64412,1,8,0:0:0:0:
256,192,64499,1,0,0:0:0:0:
256,192,64587,1,0,0:0:0:0:
256,192,64674,1,8,0:0:0:0:
256,192,64848,1,8,0:0:0:0:
256,192,65023,1,0,0:0:0:0:
256,192,65110,1,0,0:0:0:0:
256,192,65197,1,8,0:0:0:0:
256,192,65371,1,8,0:0:0:0:
256,192,65545,1,0,0:0:0:0:
256,192,65720,1,12,0:0:0:0:
256,192,66069,1,0,0:0:0:0:
256,192,66243,1,8,0:0:0:0:
256,192,66417,1,8,0:0:0:0:
256,192,66592,1,4,0:0:0:0:
256,192,66766,1,0,0:0:0:0:
256,192,66853,1,0,0:0:0:0:
256,192,66941,1,8,0:0:0:0:
256,192,67115,1,0,0:0:0:0:
256,192,67202,1,0,0:0:0:0:
256,192,67290,1,0,0:0:0:0:
256,192,67464,1,0,0:0:0:0:
256,192,67551,1,0,0:0:0:0:
256,192,67638,1,8,0:0:0:0:
256,192,67813,1,0,0:0:0:0:
256,192,67900,1,0,0:0:0:0:
256,192,67987,1,8,0:0:0:0:
256,192,68162,1,8,0:0:0:0:
256,192,68336,1,0,0:0:0:0:
256,192,68510,1,8,0:0:0:0:
256,192,68859,1,0,0:0:0:0:
256,192,69034,1,8,0:0:0:0:
256,192,69208,1,8,0:0:0:0:
256,192,69383,1,4,0:0:0:0:
256,192,69557,1,0,0:0:0:0:
256,192,69644,1,0,0:0:0:0:
256,192,69731,1,8,0:0:0:0:
256,192,69906,1,0,0:0:0:0:
256,192,69993,1,0,0:0:0:0:
256,192,70080,1,0,0:0:0:0:
256,192,70255,1,0,0:0:0:0:
256,192,70342,1,0,0:0:0:0:
256,192,70429,1,8,0:0:0:0:
256,192,70603,1,0,0:0:0:0:
256,192,70691,1,0,0:0:0:0:
256,192,70778,1,8,0:0:0:0:
256,192,70952,1,8,0:0:0:0:
256,192,71127,1,0,0:0:0:0:
256,192,71301,1,8,0:0:0:0:
256,192,71650,1,4,0:0:0:0:
256,192,71824,1,12,0:0:0:0:
256,192,71999,1,8,0:0:0:0:
256,192,72173,1,4,0:0:0:0:
256,192,72348,1,0,0:0:0:0:
256,192,72435,1,0,0:0:0:0:
256,192,72522,1,8,0:0:0:0:
256,192,72697,1,0,0:0:0:0:
256,192,72784,1,0,0:0:0:0:
256,192,72871,1,0,0:0:0:0:
256,192,73045,1,0,0:0:0:0:
256,192,73133,1,0,0:0:0:0:
256,192,73220,1,8,0:0:0:0:
256,192,73394,1,0,0:0:0:0:
256,192,73481,1,0,0:0:0:0:
256,192,73569,1,8,0:0:0:0:
256,192,73743,1,8,0:0:0:0:
256,192,73917,1,0,0:0:0:0:
256,192,74092,1,8,0:0:0:0:
256,192,74441,1,0,0:0:0:0:
256,192,74615,1,8,0:0:0:0:
256,192,74790,1,8,0:0:0:0:
256,192,74964,1,4,0:0:0:0:
256,192,75138,1,0,0:0:0:0:
256,192,75226,1,0,0:0:0:0:
256,192,75313,1,8,0:0:0:0:
256,192,75487,1,8,0:0:0:0:
256,192,75574,1,8,0:0:0:0:
256,192,75662,1,0,0:0:0:0:
256,192,75749,1,8,0:0:0:0:
256,192,75836,1,0,0:0:0:0:
256,192,75894,1,0,0:0:0:0:
256,192,75952,1,0,0:0:0:0:
256,192,76010,1,8,0:0:0:0:
256,192,76098,1,8,0:0:0:0:
256,192,76185,1,0,0:0:0:0:
256,192,76272,1,0,0:0:0:0:
256,192,76359,1,8,0:0:0:0:
256,192,76534,1,8,0:0:0:0:
256,192,76708,1,0,0:0:0:0:
256,192,76883,1,12,0:0:0:0:
256,192,77231,1,0,0:0:0:0:
256,192,77406,1,8,0:0:0:0:
256,192,77580,1,8,0:0:0:0:
256,192,77755,1,4,0:0:0:0:
256,192,77929,1,0,0:0:0:0:
256,192,78016,1,0,0:0:0:0:
256,192,78103,1,8,0:0:0:0:
256,192,78278,1,0,0:0:0:0:
256,192,78365,1,0,0:0:0:0:
256,192,78452,1,0,0:0:0:0:
256,192,78627,1,8,0:0:0:0:
256,192,78714,1,0,0:0:0:0:
256,192,78801,1,8,0:0:0:0:
256,192,78976,1,0,0:0:0:0:
256,192,79063,1,0,0:0:0:0:
256,192,79150,1,8,0:0:0:0:
256,192,79237,1,8,0:0:0:0:
256,192,79324,1,0,0:0:0:0:
256,192,79499,1,0,0:0:0:0:
256,192,79673,1,8,0:0:0:0:
256,192,79760,1,8,0:0:0:0:
256,192,79848,1,0,0:0:0:0:
256,192,80022,1,0,0:0:0:0:
256,192,80197,1,8,0:0:0:0:
256,192,80284,1,0,0:0:0:0:
256,192,80371,1,8,0:0:0:0:
256,192,80458,1,8,0:0:0:0:
256,192,80545,1,0,0:0:0:0:
256,192,80720,1,0,0:0:0:0:
256,192,80807,1,0,0:0:0:0:
256,192,80894,1,8,0:0:0:0:
256,192,81069,1,0,0:0:0:0:
256,192,81156,1,0,0:0:0:0:
256,192,81243,1,0,0:0:0:0:
256,192,81417,1,8,0:0:0:0:
256,192,81505,1,0,0:0:0:0:
256,192,81592,1,8,0:0:0:0:
256,192,81766,1,0,0:0:0:0:
256,192,81853,1,0,0:0:0:0:
256,192,81941,1,8,0:0:0:0:
256,192,82028,1,8,0:0:0:0:
256,192,82115,1,0,0:0:0:0:
256,192,82290,1,0,0:0:0:0:
256,192,82464,1,8,0:0:0:0:
256,192,82551,1,8,0:0:0:0:
256,192,82638,1,0,0:0:0:0:
256,192,82813,1,4,0:0:0:0:
256,192,82987,1,12,0:0:0:0:
256,192,83162,1,8,0:0:0:0:
256,192,83336,1,4,0:0:0:0:
256,192,83510,1,0,0:0:0:0:
256,192,83598,1,0,0:0:0:0:
256,192,83685,1,8,0:0:0:0:
256,192,83859,1,0,0:0:0:0:
256,192,83947,1,0,0:0:0:0:
256,192,84034,1,0,0:0:0:0:
256,192,84208,1,8,0:0:0:0:
256,192,84295,1,0,0:0:0:0:
256,192,84383,1,8,0:0:0:0:
256,192,84557,1,0,0:0:0:0:
256,192,84644,1,0,0:0:0:0:
256,192,84731,1,8,0:0:0:0:
256,192,84819,1,8,0:0:0:0:
256,192,84906,1,0,0:0:0:0:
256,192,85080,1,0,0:0:0:0:
256,192,85255,1,8,0:0:0:0:
256,192,85342,1,8,0:0:0:0:
256,192,85429,1,0,0:0:0:0:
256,192,85603,1,0,0:0:0:0:
256,192,85778,1,8,0:0:0:0:
256,192,85865,1,0,0:0:0:0:
256,192,85952,1,8,0:0:0:0:
256,192,86040,1,8,0:0:0:0:
256,192,86127,1,0,0:0:0:0:
256,192,86301,1,8,0:0:0:0:
256,192,86388,1,0,0:0:0:0:
256,192,86476,1,8,0:0:0:0:
256,192,86650,1,0,0:0:0:0:
256,192,86737,1,0,0:0:0:0:
256,192,86824,1,8,0:0:0:0:
256,192,86912,1,0,0:0:0:0:
256,192,86999,1,8,0:0:0:0:
256,192,87086,1,8,0:0:0:0:
256,192,87173,1,8,0:0:0:0:
256,192,87260,1,0,0:0:0:0:
256,192,87348,1,0,0:0:0:0:
256,192,87435,1,0,0:0:0:0:
256,192,87522,1,8,0:0:0:0:
256,192,87697,1,0,0:0:0:0:
256,192,87784,1,0,0:0:0:0:
256,192,87871,1,8,0:0:0:0:
256,192,88045,1,8,0:0:0:0:
256,192,88220,1,0,0:0:0:0:
256,192,88307,1,0,0:0:0:0:
256,192,88394,1,8,0:0:0:0:
256,192,88481,1,0,0:0:0:0:
256,192,88569,1,8,0:0:0:0:
256,192,88656,1,8,0:0:0:0:
256,192,88743,1,0,0:0:0:0:
256,192,88830,1,0,0:0:0:0:
256,192,88917,1,8,0:0:0:0:
256,192,89092,1,0,0:0:0:0:
256,192,89266,1,8,0:0:0:0:
256,192,89441,1,8,0:0:0:0:
256,192,89615,1,0,0:0:0:0:
256,192,89790,1,8,0:0:0:0:
256,192,89877,1,0,0:0:0:0:
256,192,89964,1,8,0:0:0:0:
256,192,90138,1,0,0:0:0:0:
256,192,90313,1,8,0:0:0:0:
256,192,90487,1,0,0:0:0:0:
256,192,90574,1,0,0:0:0:0:
256,192,90662,1,8,0:0:0:0:
256,192,90836,1,8,0:0:0:0:
256,192,91010,1,0,0:0:0:0:
256,192,91098,1,8,0:0:0:0:
256,192,91185,1,8,0:0:0:0:
256,192,91272,1,0,0:0:0:0:
256,192,91359,1,8,0:0:0:0:
256,192,91447,1,8,0:0:0:0:
256,192,91534,1,0,0:0:0:0:
256,192,91621,1,0,0:0:0:0:
256,192,91708,1,8,0:0:0:0:
256,192,91883,1,0,0:0:0:0:
256,192,92057,1,8,0:0:0:0:
256,192,92231,1,8,0:0:0:0:
256,192,92406,1,0,0:0:0:0:
256,192,92580,1,8,0:0:0:0:
256,192,92667,1,0,0:0:0:0:
256,192,92755,1,8,0:0:0:0:
256,192,92929,1,0,0:0:0:0:
256,192,93103,1,8,0:0:0:0:
256,192,93278,1,0,0:0:0:0:
256,192,93365,1,0,0:0:0:0:
256,192,93452,1,8,0:0:0:0:
256,192,93627,1,8,0:0:0:0:
256,192,93801,1,0,0:0:0:0:
256,192,93888,1,0,0:0:0:0:
256,192,93976,1,8,0:0:0:0:
256,192,94063,1,0,0:0:0:0:
256,192,94150,1,8,0:0:0:0:
256,192,94237,1,8,0:0:0:0:
256,192,94324,1,0,0:0:0:0:
256,192,94412,1,0,0:0:0:0:
256,192,94499,1,8,0:0:0:0:
256,192,94673,1,0,0:0:0:0:
256,192,94848,1,8,0:0:0:0:
256,192,95022,1,8,0:0:0:0:
256,192,95197,1,0,0:0:0:0:
256,192,95371,1,8,0:0:0:0:
256,192,95458,1,0,0:0:0:0:
256,192,95545,1,8,0:0:0:0:
256,192,95720,1,0,0:0:0:0:
256,192,95894,1,8,0:0:0:0:
256,192,96069,1,0,0:0:0:0:
256,192,96156,1,0,0:0:0:0:
256,192,96243,1,8,0:0:0:0:
256,192,96417,1,8,0:0:0:0:
256,192,96592,1,0,0:0:0:0:
256,192,96679,1,8,0:0:0:0:
256,192,96766,1,8,0:0:0:0:
256,192,96853,1,0,0:0:0:0:
256,192,96941,1,8,0:0:0:0:
256,192,97028,1,8,0:0:0:0:
256,192,97115,1,0,0:0:0:0:
256,192,97202,1,0,0:0:0:0:
256,192,97290,1,8,0:0:0:0:
256,192,97464,1,0,0:0:0:0:
256,192,97638,1,8,0:0:0:0:
256,192,97813,1,8,0:0:0:0:
256,192,97987,1,0,0:0:0:0:
256,192,98162,1,8,0:0:0:0:
256,192,98249,1,0,0:0:0:0:
256,192,98336,1,8,0:0:0:0:
256,192,98510,1,0,0:0:0:0:
256,192,98685,1,8,0:0:0:0:
256,192,98859,1,0,0:0:0:0:
256,192,98947,1,0,0:0:0:0:
256,192,99034,1,8,0:0:0:0:
256,192,99208,1,8,0:0:0:0:
256,192,99383,1,0,0:0:0:0:
256,192,99470,1,0,0:0:0:0:
256,192,99557,1,8,0:0:0:0:
256,192,99644,1,0,0:0:0:0:
256,192,99731,1,8,0:0:0:0:
256,192,99819,1,8,0:0:0:0:
256,192,99906,1,0,0:0:0:0:
256,192,99993,1,0,0:0:0:0:
256,192,100080,1,8,0:0:0:0:
256,192,100255,1,0,0:0:0:0:
256,192,100429,1,8,0:0:0:0:
256,192,100603,1,8,0:0:0:0:
256,192,100778,1,0,0:0:0:0:
256,192,100952,1,8,0:0:0:0:
256,192,101040,1,0,0:0:0:0:
256,192,101127,1,8,0:0:0:0:
256,192,101301,1,0,0:0:0:0:
256,192,101476,1,8,0:0:0:0:
256,192,101650,1,0,0:0:0:0:
256,192,101737,1,0,0:0:0:0:
256,192,101824,1,8,0:0:0:0:
256,192,101999,1,8,0:0:0:0:
256,192,102173,1,0,0:0:0:0:
256,192,102260,1,8,0:0:0:0:
256,192,102348,1,8,0:0:0:0:
256,192,102435,1,0,0:0:0:0:
256,192,102522,1,8,0:0:0:0:
256,192,102609,1,8,0:0:0:0:
256,192,102697,1,0,0:0:0:0:
256,192,102784,1,0,0:0:0:0:
256,192,102871,1,8,0:0:0:0:
256,192,103045,1,0,0:0:0:0:
256,192,103220,1,8,0:0:0:0:
256,192,103394,1,8,0:0:0:0:
256,192,103481,1,8,0:0:0:0:
256,192,103569,1,0,0:0:0:0:
256,192,103656,1,8,0:0:0:0:
256,192,103743,1,0,0:0:0:0:
256,192,103801,1,0,0:0:0:0:
256,192,103859,1,0,0:0:0:0:
256,192,103917,1,8,0:0:0:0:
256,192,104005,1,8,0:0:0:0:
256,192,104092,1,0,0:0:0:0:
256,192,104179,1,0,0:0:0:0:
256,192,104266,1,8,0:0:0:0:
256,192,104463,1,0,0:0:0:0:
256,192,104660,1,8,0:0:0:0:
256,192,104858,1,8,0:0:0:0:
256,192,105055,1,0,0:0:0:0:
256,192,105252,1,8,0:0:0:0:
256,192,105450,1,8,0:0:0:0:
256,192,105647,1,0,0:0:0:0:
256,192,105844,1,8,0:0:0:0:
256,192,106042,1,8,0:0:0:0:
256,192,106239,1,0,0:0:0:0:
256,192,106437,1,8,0:0:0:0:
256,192,106634,1,8,0:0:0:0:
256,192,106831,1,0,0:0:0:0:
256,192,107029,1,0,0:0:0:0:
256,192,107226,1,8,0:0:0:0:
256,192,107423,1,0,0:0:0:0:
256,192,107621,1,8,0:0:0:0:
256,192,107818,1,0,0:0:0:0:
256,192,108016,1,0,0:0:0:0:
256,192,108114,1,0,0:0:0:0:
256,192,108213,1,8,0:0:0:0:
256,192,108410,1,0,0:0:0:0:
256,192,108509,1,8,0:0:0:0:
256,192,108608,1,8,0:0:0:0:
256,192,108805,1,0,0:0:0:0:
256,192,109002,1,8,0:0:0:0:
256,192,109200,1,0,0:0:0:0:
256,192,109397,1,8,0:0:0:0:
256,192,109594,1,8,0:0:0:0:
256,192,109792,1,0,0:0:0:0:
256,192,109989,1,8,0:0:0:0:
256,192,110187,1,8,0:0:0:0:
256,192,110384,1,0,0:0:0:0:
256,192,110581,1,8,0:0:0:0:
256,192,110779,1,8,0:0:0:0:
256,192,110976,1,0,0:0:0:0:
256,192,111173,1,8,0:0:0:0:
256,192,111371,1,8,0:0:0:0:
256,192,111568,1,0,0:0:0:0:
256,192,111766,1,0,0:0:0:0:
256,192,111963,1,8,0:0:0:0:
256,192,112160,1,0,0:0:0:0:
256,192,112358,1,8,0:0:0:0:
256,192,112555,1,0,0:0:0:0:
256,192,112752,1,0,0:0:0:0:
256,192,112851,1,0,0:0:0:0:
256,192,112950,1,8,0:0:0:0:
256,192,113147,1,0,0:0:0:0:
256,192,113246,1,8,0:0:0:0:
256,192,113344,1,8,0:0:0:0:
256,192,113542,1,0,0:0:0:0:
256,192,113739,1,8,0:0:0:0:
256,192,113937,1,0,0:0:0:0:
256,192,114134,1,8,0:0:0:0:
256,192,114331,1,8,0:0:0:0:
256,192,114529,1,0,0:0:0:0:
256,192,114726,1,8,0:0:0:0:
256,192,114923,1,8,0:0:0:0:
256,192,115121,1,0,0:0:0:0:
256,192,115318,1,8,0:0:0:0:
256,192,115516,1,8,0:0:0:0:
256,192,115713,1,0,0:0:0:0:
256,192,115910,1,8,0:0:0:0:
256,192,116108,1,8,0:0:0:0:
256,192,116305,1,0,0:0:0:0:
256,192,116502,1,0,0:0:0:0:
256,192,116700,1,8,0:0:0:0:
256,192,116897,1,0,0:0:0:0:
256,192,117094,1,8,0:0:0:0:
256,192,117292,1,0,0:0:0:0:
256,192,117489,1,8,0:0:0:0:
256,192,117588,1,8,0:0:0:0:
256,192,117687,1,0,0:0:0:0:
256,192,117785,1,0,0:0:0:0:
256,192,117884,1,8,0:0:0:0:
256,192,118081,1,8,0:0:0:0:
256,192,118279,1,0,0:0:0:0:
256,192,118476,1,8,0:0:0:0:
256,192,118673,1,0,0:0:0:0:
256,192,118871,1,8,0:0:0:0:
256,192,119068,1,8,0:0:0:0:
256,192,119266,1,0,0:0:0:0:
256,192,119463,1,8,0:0:0:0:
256,192,119660,1,8,0:0:0:0:
256,192,119858,1,0,0:0:0:0:
256,192,120055,1,8,0:0:0:0:
256,192,120252,1,8,0:0:0:0:
256,192,120450,1,0,0:0:0:0:
256,192,120647,1,8,0:0:0:0:
256,192,120746,1,0,0:0:0:0:
256,192,120844,1,8,0:0:0:0:
256,192,121042,1,0,0:0:0:0:
256,192,121141,1,0,0:0:0:0:
256,192,121239,1,0,0:0:0:0:
256,192,121338,1,0,0:0:0:0:
256,192,121437,1,8,0:0:0:0:
256,192,121634,1,0,0:0:0:0:
256,192,121733,1,0,0:0:0:0:
256,192,121831,1,8,0:0:0:0:
256,192,121930,1,8,0:0:0:0:
256,192,122029,1,0,0:0:0:0:
256,192,122226,1,8,0:0:0:0:
256,192,122325,1,0,0:0:0:0:
256,192,122423,1,8,0:0:0:0:
256,192,122621,1,0,0:0:0:0:
256,192,122818,1,8,0:0:0:0:
256,192,123016,1,8,0:0:0:0:
256,192,123213,1,4,0:0:0:0:
256,192,123805,1,8,0:0:0:0:
256,192,124002,1,0,0:0:0:0:
256,192,124200,1,0,0:0:0:0:
256,192,124397,1,8,0:0:0:0:
256,192,124594,1,0,0:0:0:0:
256,192,124792,1,0,0:0:0:0:
256,192,124989,1,8,0:0:0:0:
256,192,125187,1,8,0:0:0:0:
256,192,125384,1,8,0:0:0:0:
256,192,125581,1,0,0:0:0:0:
256,192,125976,1,8,0:0:0:0:
256,192,126075,1,0,0:0:0:0:
256,192,126173,1,8,0:0:0:0:
256,192,126272,1,0,0:0:0:0:
256,192,126371,1,8,0:0:0:0:
256,192,126469,1,8,0:0:0:0:
256,192,126568,1,0,0:0:0:0:
256,192,126667,1,0,0:0:0:0:
256,192,126766,1,8,0:0:0:0:
256,192,126963,1,0,0:0:0:0:
256,192,127160,1,0,0:0:0:0:
256,192,127259,1,0,0:0:0:0:
256,192,127358,1,8,0:0:0:0:
256,192,127555,1,8,0:0:0:0:
256,192,127752,1,8,0:0:0:0:
256,192,127950,1,4,0:0:0:0:
256,192,128344,1,0,0:0:0:0:
256,192,128542,1,8,0:0:0:0:
256,192,128739,1,8,0:0:0:0:
256,192,128937,1,0,0:0:0:0:
256,192,129134,1,8,0:0:0:0:
256,192,129529,1,0,0:0:0:0:
256,192,129726,1,8,0:0:0:0:
256,192,129923,1,8,0:0:0:0:
256,192,130121,1,8,0:0:0:0:
256,192,130318,1,0,0:0:0:0:
256,192,130515,1,8,0:0:0:0:
256,192,130614,1,0,0:0:0:0:
256,192,130713,1,8,0:0:0:0:
256,192,130812,1,0,0:0:0:0:
256,192,130910,1,8,0:0:0:0:
256,192,131009,1,8,0:0:0:0:
256,192,131108,1,0,0:0:0:0:
256,192,131206,1,0,0:0:0:0:
256,192,131305,1,0,0:0:0:0:
256,192,131404,1,0,0:0:0:0:
256,192,131502,1,8,0:0:0:0:
256,192,131700,1,0,0:0:0:0:
256,192,131897,1,0,0:0:0:0:
256,192,131996,1,0,0:0:0:0:
256,192,132094,1,8,0:0:0:0:
256,192,132292,1,8,0:0:0:0:
256,192,132489,1,8,0:0:0:0:
256,192,132687,1,0,0:0:0:0:
256,192,132983,1,0,0:0:0:0:
256,192,133081,1,8,0:0:0:0:
256,192,133279,1,0,0:0:0:0:
256,192,133476,1,8,0:0:0:0:
256,192,133871,1,0,0:0:0:0:
256,192,134068,1,0,0:0:0:0:
256,192,134167,1,0,0:0:0:0:
256,192,134266,1,8,0:0:0:0:
256,192,134463,1,0,0:0:0:0:
256,192,134660,1,8,0:0:0:0:
256,192,134858,1,8,0:0:0:0:
256,192,135055,1,0,0:0:0:0:
256,192,135252,1,0,0:0:0:0:
256,192,135351,1,0,0:0:0:0:
256,192,135450,1,8,0:0:0:0:
256,192,135647,1,0,0:0:0:0:
256,192,135844,1,8,0:0:0:0:
256,192,136042,1,0,0:0:0:0:
256,192,136239,1,8,0:0:0:0:
256,192,136437,1,0,0:0:0:0:
256,192,136535,1,8,0:0:0:0:
256,192,136634,1,8,0:0:0:0:
256,192,136831,1,0,0:0:0:0:
256,192,137029,1,8,0:0:0:0:
256,192,137226,1,8,0:0:0:0:
256,192,137325,1,8,0:0:0:0:
256,192,137423,1,0,0:0:0:0:
256,192,137719,1,0,0:0:0:0:
256,192,137818,1,8,0:0:0:0:
256,192,138016,1,0,0:0:0:0:
256,192,138213,1,8,0:0:0:0:
256,192,138410,1,8,0:0:0:0:
256,192,138608,1,0,0:0:0:0:
256,192,138805,1,0,0:0:0:0:
256,192,138904,1,0,0:0:0:0:
256,192,139002,1,8,0:0:0:0:
256,192,139200,1,8,0:0:0:0:
256,192,139397,1,0,0:0:0:0:
256,192,139594,1,8,0:0:0:0:
256,192,139792,1,8,0:0:0:0:
256,192,139989,1,8,0:0:0:0:
256,192,140088,1,0,0:0:0:0:
256,192,140187,1,8,0:0:0:0:
256,192,140384,1,0,0:0:0:0:
256,192,140581,1,8,0:0:0:0:
256,192,140779,1,0,0:0:0:0:
256,192,140976,1,8,0:0:0:0:
256,192,141075,1,0,0:0:0:0:
256,192,141173,1,0,0:0:0:0:
256,192,141272,1,8,0:0:0:0:
256,192,141568,1,0,0:0:0:0:
256,192,141766,1,8,0:0:0:0:
256,192,141963,1,8,0:0:0:0:
256,192,142062,1,8,0:0:0:0:
256,192,142160,1,0,0:0:0:0:
256,192,142456,1,0,0:0:0:0:
256,192,142555,1,8,0:0:0:0:
256,192,142752,1,0,0:0:0:0:
256,192,142950,1,8,0:0:0:0:
256,192,143147,1,0,0:0:0:0:
256,192,143344,1,8,0:0:0:0:
256,192,143542,1,8,0:0:0:0:
256,192,143641,1,0,0:0:0:0:
256,192,143739,1,8,0:0:0:0:
256,192,143937,1,0,0:0:0:0:
256,192,144134,1,8,0:0:0:0:
256,192,144331,1,8,0:0:0:0:
256,192,144529,1,8,0:0:0:0:
256,192,144726,1,0,0:0:0:0:
256,192,144825,1,0,0:0:0:0:
256,192,144923,1,8,0:0:0:0:
256,192,145121,1,0,0:0:0:0:
256,192,145318,1,8,0:0:0:0:
256,192,145516,1,0,0:0:0:0:
256,192,145713,1,8,0:0:0:0:
256,192,145910,1,0,0:0:0:0:
256,192,146009,1,0,0:0:0:0:
256,192,146108,1,8,0:0:0:0:
256,192,146305,1,0,0:0:0:0:
256,192,146502,1,8,0:0:0:0:
256,192,146700,1,8,0:0:0:0:
256,192,146798,1,8,0:0:0:0:
256,192,146897,1,0,0:0:0:0:
256,192,147193,1,0,0:0:0:0:
256,192,147292,1,8,0:0:0:0:
256,192,147489,1,0,0:0:0:0:
256,192,147687,1,8,0:0:0:0:
256,192,147884,1,8,0:0:0:0:
256,192,148081,1,8,0:0:0:0:
256,192,148279,1,0,0:0:0:0:
256,192,148377,1,0,0:0:0:0:
256,192,148476,1,8,0:0:0:0:
256,192,148673,1,0,0:0:0:0:
256,192,148871,1,8,0:0:0:0:
256,192,149068,1,0,0:0:0:0:
256,192,149266,1,0,0:0:0:0:
256,192,149463,1,8,0:0:0:0:
256,192,149660,1,0,0:0:0:0:
256,192,149858,1,8,0:0:0:0:
256,192,150055,1,8,0:0:0:0:
256,192,150252,1,0,0:0:0:0:
256,192,150450,1,8,0:0:0:0:
256,192,150647,1,0,0:0:0:0:
256,192,150844,1,0,0:0:0:0:
256,192,150943,1,0,0:0:0:0:
256,192,151042,1,8,0:0:0:0:
256,192,151239,1,8,0:0:0:0:
256,192,151437,1,0,0:0:0:0:
256,192,151634,1,4,0:0:0:0:
256,192,151831,1,0,0:0:0:0:
256,192,151930,1,0,0:0:0:0:
256,192,152029,1,0,0:0:0:0:
256,192,152226,1,8,0:0:0:0:
256,192,152423,1,0,0:0:0:0:
256,192,152621,1,8,0:0:0:0:
256,192,152818,1,0,0:0:0:0:
256,192,153015,1,0,0:0:0:0:
256,192,153114,1,0,0:0:0:0:
256,192,153213,1,0,0:0:0:0:
256,192,153410,1,8,0:0:0:0:
256,192,153608,1,0,0:0:0:0:
256,192,153805,1,8,0:0:0:0:
256,192,154002,1,0,0:0:0:0:
256,192,154200,1,0,0:0:0:0:
256,192,154298,1,0,0:0:0:0:
256,192,154397,1,0,0:0:0:0:
256,192,154594,1,8,0:0:0:0:
256,192,154792,1,0,0:0:0:0:
256,192,154989,1,8,0:0:0:0:
256,192,155187,1,0,0:0:0:0:
256,192,155384,1,0,0:0:0:0:
256,192,155483,1,0,0:0:0:0:
256,192,155581,1,0,0:0:0:0:
256,192,155779,1,8,0:0:0:0:
256,192,155976,1,0,0:0:0:0:
256,192,156173,1,8,0:0:0:0:
256,192,156371,1,0,0:0:0:0:
256,192,156469,1,0,0:0:0:0:
256,192,156568,1,0,0:0:0:0:
256,192,156667,1,0,0:0:0:0:
256,192,156765,1,0,0:0:0:0:
256,192,156864,1,0,0:0:0:0:
256,192,156963,1,8,0:0:0:0:
256,192,157160,1,0,0:0:0:0:
256,192,157358,1,8,0:0:0:0:
256,192,157555,1,0,0:0:0:0:
256,192,157654,1,0,0:0:0:0:
256,192,157752,1,0,0:0:0:0:
256,192,157851,1,0,0:0:0:0:
256,192,157950,1,0,0:0:0:0:
256,192,158048,1,0,0:0:0:0:
256,192,158147,1,8,0:0:0:0:
256,192,158344,1,0,0:0:0:0:
256,192,158542,1,8,0:0:0:0:
256,192,158739,1,0,0:0:0:0:
256,192,158838,1,0,0:0:0:0:
256,192,158937,1,0,0:0:0:0:
256,192,159035,1,0,0:0:0:0:
256,192,159134,1,0,0:0:0:0:
256,192,159233,1,0,0:0:0:0:
256,192,159331,1,8,0:0:0:0:
256,192,159529,1,0,0:0:0:0:
256,192,159627,1,0,0:0:0:0:
256,192,159726,1,8,0:0:0:0:
256,192,159825,1,8,0:0:0:0:
256,192,159923,1,0,0:0:0:0:
256,192,160121,1,8,0:0:0:0:
256,192,160219,1,0,0:0:0:0:
256,192,160318,1,8,0:0:0:0:
256,192,160515,1,0,0:0:0:0:
256,192,160713,1,8,0:0:0:0:
256,192,160910,1,8,0:0:0:0:
256,192,161108,1,4,0:0:0:0:
256,192,161305,1,0,0:0:0:0:
256,192,161404,1,0,0:0:0:0:
256,192,161502,1,0,0:0:0:0:
256,192,161700,1,8,0:0:0:0:
256,192,161897,1,0,0:0:0:0:
256,192,162094,1,8,0:0:0:0:
256,192,162292,1,0,0:0:0:0:
256,192,162489,1,0,0:0:0:0:
256,192,162588,1,0,0:0:0:0:
256,192,162687,1,0,0:0:0:0:
256,192,162884,1,8,0:0:0:0:
256,192,163081,1,0,0:0:0:0:
256,192,163279,1,8,0:0:0:0:
256,192,163476,1,0,0:0:0:0:
256,192,163673,1,0,0:0:0:0:
256,192,163772,1,0,0:0:0:0:
256,192,163871,1,0,0:0:0:0:
256,192,164068,1,8,0:0:0:0:
256,192,164265,1,0,0:0:0:0:
256,192,164463,1,8,0:0:0:0:
256,192,164660,1,0,0:0:0:0:
256,192,164858,1,8,0:0:0:0:
256,192,164956,1,8,0:0:0:0:
256,192,165055,1,0,0:0:0:0:
256,192,165154,1,0,0:0:0:0:
256,192,165252,1,8,0:0:0:0:
256,192,165351,1,0,0:0:0:0:
256,192,165450,1,8,0:0:0:0:
256,192,165548,1,0,0:0:0:0:
256,192,165647,1,8,0:0:0:0:
256,192,165746,1,8,0:0:0:0:
256,192,165844,1,0,0:0:0:0:
256,192,165943,1,0,0:0:0:0:
256,192,166042,1,0,0:0:0:0:
256,192,166140,1,0,0:0:0:0:
256,192,166239,1,0,0:0:0:0:
256,192,166338,1,0,0:0:0:0:
256,192,166437,1,8,0:0:0:0:
256,192,166634,1,0,0:0:0:0:
256,192,166831,1,8,0:0:0:0:
256,192,167029,1,0,0:0:0:0:
256,192,167127,1,0,0:0:0:0:
256,192,167226,1,0,0:0:0:0:
256,192,167325,1,0,0:0:0:0:
256,192,167423,1,0,0:0:0:0:
256,192,167522,1,0,0:0:0:0:
256,192,167621,1,8,0:0:0:0:
256,192,167818,1,0,0:0:0:0:
256,192,168015,1,8,0:0:0:0:
256,192,168213,1,0,0:0:0:0:
256,192,168312,1,0,0:0:0:0:
256,192,168410,1,0,0:0:0:0:
256,192,168509,1,0,0:0:0:0:
256,192,168608,1,0,0:0:0:0:
256,192,168706,1,0,0:0:0:0:
256,192,168805,1,8,0:0:0:0:
256,192,169002,1,0,0:0:0:0:
256,192,169101,1,0,0:0:0:0:
256,192,169200,1,8,0:0:0:0:
256,192,169298,1,8,0:0:0:0:
256,192,169397,1,0,0:0:0:0:
256,192,169594,1,8,0:0:0:0:
256,192,169693,1,0,0:0:0:0:
256,192,169792,1,8,0:0:0:0:
256,192,169989,1,0,0:0:0:0:
256,192,170187,1,8,0:0:0:0:
256,192,170384,1,8,0:0:0:0:
256,192,170581,1,4,0:0:0:0:
256,192,170779,1,0,0:0:0:0:
256,192,170877,1,0,0:0:0:0:
256,192,170976,1,0,0:0:0:0:
256,192,171173,1,8,0:0:0:0:
256,192,171371,1,0,0:0:0:0:
256,192,171568,1,8,0:0:0:0:
256,192,171765,1,0,0:0:0:0:
256,192,171963,1,0,0:0:0:0:
256,192,172062,1,0,0:0:0:0:
256,192,172160,1,0,0:0:0:0:
256,192,172358,1,8,0:0:0:0:
256,192,172456,1,0,0:0:0:0:
256,192,172555,1,8,0:0:0:0:
256,192,172654,1,0,0:0:0:0:
256,192,172752,1,8,0:0:0:0:
256,192,172950,1,0,0:0:0:0:
256,192,173147,1,0,0:0:0:0:
256,192,173246,1,0,0:0:0:0:
256,192,173344,1,0,0:0:0:0:
256,192,173542,1,8,0:0:0:0:
256,192,173739,1,0,0:0:0:0:
256,192,173937,1,8,0:0:0:0:
256,192,174134,1,0,0:0:0:0:
256,192,174331,1,8,0:0:0:0:
256,192,174430,1,8,0:0:0:0:
256,192,174529,1,0,0:0:0:0:
256,192,174627,1,0,0:0:0:0:
256,192,174726,1,8,0:0:0:0:
256,192,174825,1,0,0:0:0:0:
256,192,174923,1,8,0:0:0:0:
256,192,175022,1,8,0:0:0:0:
256,192,175121,1,8,0:0:0:0:
256,192,175219,1,8,0:0:0:0:
256,192,175318,1,0,0:0:0:0:
256,192,175417,1,0,0:0:0:0:
256,192,175515,1,0,0:0:0:0:
256,192,175614,1,0,0:0:0:0:
256,192,175713,1,0,0:0:0:0:
256,192,175812,1,0,0:0:0:0:
256,192,175910,1,8,0:0:0:0:
256,192,176108,1,0,0:0:0:0:
256,192,176305,1,8,0:0:0:0:
256,192,176502,1,0,0:0:0:0:
256,192,176601,1,0,0:0:0:0:
256,192,176700,1,0,0:0:0:0:
256,192,176798,1,0,0:0:0:0:
256,192,176897,1,0,0:0:0:0:
256,192,176996,1,0,0:0:0:0:
256,192,177094,1,8,0:0:0:0:
256,192,177292,1,0,0:0:0:0:
256,192,177489,1,8,0:0:0:0:
256,192,177687,1,0,0:0:0:0:
256,192,177785,1,0,0:0:0:0:
256,192,177884,1,0,0:0:0:0:
256,192,177983,1,0,0:0:0:0:
256,192,178081,1,0,0:0:0:0:
256,192,178180,1,0,0:0:0:0:
256,192,178279,1,8,0:0:0:0:
256,192,178476,1,0,0:0:0:0:
256,192,178575,1,0,0:0:0:0:
256,192,178673,1,8,0:0:0:0:
256,192,178772,1,8,0:0:0:0:
256,192,178871,1,0,0:0:0:0:
256,192,179068,1,8,0:0:0:0:
256,192,179167,1,0,0:0:0:0:
256,192,179265,1,8,0:0:0:0:
256,192,179463,1,0,0:0:0:0:
256,192,179660,1,8,0:0:0:0:
256,192,179858,1,8,0:0:0:0:
256,192,180055,1,4,0:0:0:0:
256,192,180252,1,0,0:0:0:0:
256,192,180351,1,0,0:0:0:0:
256,192,180450,1,0,0:0:0:0:
256,192,180647,1,8,0:0:0:0:
256,192,180844,1,0,0:0:0:0:
256,192,181042,1,8,0:0:0:0:
256,192,181239,1,0,0:0:0:0:
256,192,181437,1,0,0:0:0:0:
256,192,181535,1,0,0:0:0:0:
256,192,181634,1,0,0:0:0:0:
256,192,181831,1,8,0:0:0:0:
256,192,182029,1,0,0:0:0:0:
256,192,182226,1,8,0:0:0:0:
256,192,182423,1,0,0:0:0:0:
256,192,182621,1,0,0:0:0:0:
256,192,182719,1,0,0:0:0:0:
256,192,182818,1,0,0:0:0:0:
256,192,183015,1,8,0:0:0:0:
256,192,183213,1,0,0:0:0:0:
256,192,183410,1,8,0:0:0:0:
256,192,183608,1,0,0:0:0:0:
256,192,183805,1,8,0:0:0:0:
256,192,183904,1,8,0:0:0:0:
256,192,184002,1,0,0:0:0:0:
256,192,184101,1,0,0:0:0:0:
256,192,184200,1,8,0:0:0:0:
256,192,184298,1,0,0:0:0:0:
256,192,184397,1,8,0:0:0:0:
256,192,184496,1,0,0:0:0:0:
256,192,184594,1,8,0:0:0:0:
256,192,184693,1,8,0:0:0:0:
256,192,184792,1,0,0:0:0:0:
256,192,184890,1,0,0:0:0:0:
256,192,184989,1,0,0:0:0:0:
256,192,185088,1,0,0:0:0:0:
256,192,185187,1,0,0:0:0:0:
256,192,185285,1,0,0:0:0:0:
256,192,185384,1,8,0:0:0:0:
256,192,185581,1,0,0:0:0:0:
256,192,185779,1,8,0:0:0:0:
256,192,185976,1,0,0:0:0:0:
256,192,186075,1,0,0:0:0:0:
256,192,186173,1,0,0:0:0:0:
256,192,186272,1,0,0:0:0:0:
256,192,186371,1,0,0:0:0:0:
256,192,186469,1,0,0:0:0:0:
256,192,186568,1,8,0:0:0:0:
256,192,186765,1,0,0:0:0:0:
256,192,186963,1,8,0:0:0:0:
256,192,187160,1,0,0:0:0:0:
256,192,187259,1,0,0:0:0:0:
256,192,187358,1,0,0:0:0:0:
256,192,187456,1,0,0:0:0:0:
256,192,187555,1,0,0:0:0:0:
256,192,187654,1,0,0:0:0:0:
256,192,187752,1,8,0:0:0:0:
256,192,187950,1,0,0:0:0:0:
256,192,188048,1,0,0:0:0:0:
256,192,188147,1,8,0:0:0:0:
256,192,188246,1,8,0:0:0:0:
256,192,188344,1,0,0:0:0:0:
256,192,188542,1,8,0:0:0:0:
256,192,188640,1,0,0:0:0:0:
256,192,188739,1,8,0:0:0:0:
256,192,188937,1,12,0:0:0:0:
256,192,189331,1,8,0:0:0:0:
256,192,189529,1,0,0:0:0:0:
256,192,189726,1,8,0:0:0:0:
256,192,189825,1,0,0:0:0:0:
256,192,189923,1,8,0:0:0:0:
256,192,190121,1,12,0:0:0:0:
256,192,190515,1,8,0:0:0:0:
256,192,190713,1,0,0:0:0:0:
256,192,190910,1,8,0:0:0:0:
256,192,191009,1,0,0:0:0:0:
256,192,191108,1,8,0:0:0:0:
256,192,191305,1,12,0:0:0:0:
256,192,191897,1,0,0:0:0:0:
256,192,192489,1,12,0:0:0:0:
256,192,193081,1,0,0:0:0:0:
256,192,193476,1,0,0:0:0:0:
256,192,193575,1,0,0:0:0:0:
256,192,193673,1,8,0:0:0:0:
256,192,193969,1,0,0:0:0:0:
256,192,194265,1,8,0:0:0:0:
256,192,194562,1,0,0:0:0:0:
256,192,194858,1,8,0:0:0:0:
256,192,195009,1,8,0:0:0:0:
256,192,195161,1,0,0:0:0:0:
256,192,195312,1,0,0:0:0:0:
256,192,195464,1,8,0:0:0:0:
256,192,195810,1,8,0:0:0:0:
256,192,196157,1,0,0:0:0:0:
256,192,196339,1,0,0:0:0:0:
256,192,196431,1,0,0:0:0:0:
256,192,196522,1,8,0:0:0:0:
256,192,196705,1,0,0:0:0:0:
256,192,197071,1,8,0:0:0:0:
256,192,197254,1,0,0:0:0:0:
256,192,197620,1,8,0:0:0:0:
256,192,197894,1,0,0:0:0:0:
256,192,197986,1,8,0:0:0:0:
256,192,198169,1,8,0:0:0:0:
256,192,198352,1,0,0:0:0:0:
256,192,198535,1,8,0:0:0:0:
256,192,198717,1,8,0:0:0:0:
256,192,198900,1,8,0:0:0:0:
256,192,199083,1,0,0:0:0:0:
256,192,199266,1,0,0:0:0:0:
256,192,199358,1,0,0:0:0:0:
256,192,199449,1,8,0:0:0:0:
256,192,199632,1,0,0:0:0:0:
256,192,199998,1,8,0:0:0:0:
256,192,200181,1,0,0:0:0:0:
256,192,200547,1,8,0:0:0:0:
256,192,200730,1,0,0:0:0:0:
256,192,200821,1,0,0:0:0:0:
256,192,200913,1,8,0:0:0:0:
256,192,201096,1,8,0:0:0:0:
256,192,201278,1,0,0:0:0:0:
256,192,201461,1,8,0:0:0:0:
256,192,201644,1,8,0:0:0:0:
256,192,201827,1,8,0:0:0:0:
256,192,201919,1,0,0:0:0:0:
256,192,202010,1,8,0:0:0:0:
256,192,202193,1,0,0:0:0:0:
256,192,202285,1,0,0:0:0:0:
256,192,202376,1,8,0:0:0:0:
256,192,202559,1,0,0:0:0:0:
256,192,202925,1,8,0:0:0:0:
256,192,203108,1,0,0:0:0:0:
256,192,203474,1,8,0:0:0:0:
256,192,203748,1,0,0:0:0:0:
256,192,203839,1,8,0:0:0:0:
256,192,204022,1,8,0:0:0:0:
256,192,204205,1,0,0:0:0:0:
256,192,204388,1,8,0:0:0:0:
256,192,204571,1,8,0:0:0:0:
256,192,204754,1,8,0:0:0:0:
256,192,204937,1,0,0:0:0:0:
256,192,205120,1,0,0:0:0:0:
256,192,205211,1,0,0:0:0:0:
256,192,205303,1,8,0:0:0:0:
256,192,205486,1,0,0:0:0:0:
256,192,205852,1,8,0:0:0:0:
256,192,206035,1,0,0:0:0:0:
256,192,206400,1,8,0:0:0:0:
256,192,206492,1,8,0:0:0:0:
256,192,206583,1,0,0:0:0:0:
256,192,206675,1,0,0:0:0:0:
256,192,206766,1,8,0:0:0:0:
256,192,206858,1,0,0:0:0:0:
256,192,206949,1,8,0:0:0:0:
256,192,207041,1,8,0:0:0:0:
256,192,207132,1,8,0:0:0:0:
256,192,207224,1,0,0:0:0:0:
256,192,207315,1,8,0:0:0:0:
256,192,207407,1,0,0:0:0:0:
256,192,207498,1,8,0:0:0:0:
256,192,207589,1,8,0:0:0:0:
256,192,207681,1,0,0:0:0:0:
256,192,207772,1,0,0:0:0:0:
256,192,207864,1,8,0:0:0:0:
256,192,207955,1,0,0:0:0:0:
256,192,208047,1,0,0:0:0:0:
256,192,208138,1,0,0:0:0:0:
256,192,208230,1,8,0:0:0:0:
256,192,208321,1,8,0:0:0:0:
256,192,208413,1,0,0:0:0:0:
256,192,208504,1,0,0:0:0:0:
256,192,208596,1,0,0:0:0:0:
256,192,208687,1,0,0:0:0:0:
256,192,208778,1,8,0:0:0:0:
256,192,208870,1,8,0:0:0:0:
256,192,208961,1,0,0:0:0:0:
256,192,209053,1,0,0:0:0:0:
256,192,209144,1,0,0:0:0:0:
256,192,209236,1,0,0:0:0:0:
256,192,209327,1,8,0:0:0:0:
256,192,209419,1,8,0:0:0:0:
256,192,209510,1,0,0:0:0:0:
256,192,209602,1,0,0:0:0:0:
256,192,209693,1,0,0:0:0:0:
256,192,209785,1,0,0:0:0:0:
256,192,209876,1,0,0:0:0:0:
256,192,209967,1,0,0:0:0:0:
256,192,210059,1,0,0:0:0:0:
256,192,210150,1,0,0:0:0:0:
256,192,210242,1,8,0:0:0:0:
256,192,210333,1,0,0:0:0:0:
256,192,210425,1,8,0:0:0:0:
256,192,210516,1,0,0:0:0:0:
256,192,210608,1,8,0:0:0:0:
256,192,210699,1,8,0:0:0:0:
256,192,210791,1,0,0:0:0:0:
256,192,210882,1,0,0:0:0:0:
256,192,210974,1,0,0:0:0:0:
256,192,211065,1,0,0:0:0:0:
256,192,211156,1,8,0:0:0:0:
256,192,211248,1,8,0:0:0:0:
256,192,211339,1,0,0:0:0:0:
256,192,211431,1,0,0:0:0:0:
256,192,211522,1,0,0:0:0:0:
256,192,211614,1,0,0:0:0:0:
256,192,211705,1,8,0:0:0:0:
256,192,211797,1,8,0:0:0:0:
256,192,211888,1,0,0:0:0:0:
256,192,211980,1,0,0:0:0:0:
256,192,212071,1,0,0:0:0:0:
256,192,212163,1,0,0:0:0:0:
256,192,212254,1,8,0:0:0:0:
256,192,212346,1,8,0:0:0:0:
256,192,212437,1,0,0:0:0:0:
256,192,212528,1,0,0:0:0:0:
256,192,212620,1,0,0:0:0:0:
256,192,212711,1,0,0:0:0:0:
256,192,212803,1,0,0:0:0:0:
256,192,212894,1,0,0:0:0:0:
256,192,212986,1,8,0:0:0:0:
256,192,213108,1,0,0:0:0:0:
256,192,213230,1,0,0:0:0:0:
256,192,213352,1,8,0:0:0:0:
256,192,213474,1,0,0:0:0:0:
256,192,213596,1,0,0:0:0:0:
256,192,213717,1,8,0:0:0:0:
256,192,213809,1,0,0:0:0:0:
256,192,213900,1,0,0:0:0:0:
256,192,213992,1,0,0:0:0:0:
256,192,214083,1,8,0:0:0:0:
256,192,214175,1,8,0:0:0:0:
256,192,214266,1,0,0:0:0:0:
256,192,214358,1,0,0:0:0:0:
256,192,214449,1,0,0:0:0:0:
256,192,214541,1,0,0:0:0:0:
256,192,214632,1,8,0:0:0:0:
256,192,214724,1,8,0:0:0:0:
256,192,214815,1,0,0:0:0:0:
256,192,214906,1,0,0:0:0:0:
256,192,214998,1,0,0:0:0:0:
256,192,215089,1,0,0:0:0:0:
256,192,215181,1,8,0:0:0:0:
256,192,215272,1,8,0:0:0:0:
256,192,215364,1,0,0:0:0:0:
256,192,215455,1,0,0:0:0:0:
256,192,215547,1,0,0:0:0:0:
256,192,215638,1,0,0:0:0:0:
256,192,215730,1,0,0:0:0:0:
256,192,215821,1,0,0:0:0:0:
256,192,215913,1,8,0:0:0:0:
256,192,216004,1,0,0:0:0:0:
256,192,216096,1,8,0:0:0:0:
256,192,216187,1,8,0:0:0:0:
256,192,216278,1,8,0:0:0:0:
256,192,216370,1,0,0:0:0:0:
256,192,216461,1,8,0:0:0:0:
256,192,216553,1,8,0:0:0:0:
256,192,216644,1,0,0:0:0:0:
256,192,216736,1,0,0:0:0:0:
256,192,216827,1,0,0:0:0:0:
256,192,216919,1,0,0:0:0:0:
256,192,217010,1,8,0:0:0:0:
256,192,217102,1,8,0:0:0:0:
256,192,217193,1,0,0:0:0:0:
256,192,217285,1,0,0:0:0:0:
256,192,217376,1,0,0:0:0:0:
256,192,217467,1,0,0:0:0:0:
256,192,217559,1,8,0:0:0:0:
256,192,217650,1,8,0:0:0:0:
256,192,217742,1,0,0:0:0:0:
256,192,217833,1,0,0:0:0:0:
256,192,217925,1,0,0:0:0:0:
256,192,218016,1,0,0:0:0:0:
256,192,218108,1,8,0:0:0:0:
256,192,218199,1,8,0:0:0:0:
256,192,218291,1,0,0:0:0:0:
256,192,218382,1,0,0:0:0:0:
256,192,218474,1,0,0:0:0:0:
256,192,218565,1,0,0:0:0:0:
256,192,218656,1,8,0:0:0:0:
256,192,218748,1,0,0:0:0:0:
256,192,218839,1,8,0:0:0:0:
256,192,218931,1,0,0:0:0:0:
256,192,219022,1,0,0:0:0:0:
256,192,219114,1,0,0:0:0:0:
256,192,219205,1,8,0:0:0:0:
256,192,219297,1,8,0:0:0:0:
256,192,219388,1,0,0:0:0:0:
256,192,219480,1,0,0:0:0:0:
256,192,219571,1,8,0:0:0:0:
256,192,219663,1,0,0:0:0:0:
256,192,219754,1,0,0:0:0:0:
256,192,219846,1,0,0:0:0:0:
256,192,219937,1,8,0:0:0:0:
256,192,220028,1,8,0:0:0:0:
256,192,220120,1,0,0:0:0:0:
256,192,220211,1,0,0:0:0:0:
256,192,220303,1,8,0:0:0:0:
256,192,220394,1,0,0:0:0:0:
256,192,220486,1,8,0:0:0:0:
256,192,220577,1,8,0:0:0:0:
256,192,220669,1,0,0:0:0:0:
256,192,220760,1,0,0:0:0:0:
256,192,220852,1,8,0:0:0:0:
256,192,220943,1,0,0:0:0:0:
256,192,221035,1,8,0:0:0:0:
256,192,221126,1,8,0:0:0:0:
256,192,221217,1,0,0:0:0:0:
256,192,221309,1,0,0:0:0:0:
256,192,221400,1,8,0:0:0:0:
256,192,221492,1,0,0:0:0:0:
256,192,221583,1,0,0:0:0:0:
256,192,221675,1,0,0:0:0:0:
256,192,221766,1,8,0:0:0:0:
256,192,221858,1,0,0:0:0:0:
256,192,221949,1,8,0:0:0:0:
256,192,222041,1,8,0:0:0:0:
256,192,222132,1,0,0:0:0:0:
256,192,222224,1,0,0:0:0:0:
256,192,222315,1,8,0:0:0:0:
256,192,222406,1,0,0:0:0:0:
256,192,222498,1,8,0:0:0:0:
256,192,222589,1,0,0:0:0:0:
256,192,222681,1,0,0:0:0:0:
256,192,222772,1,0,0:0:0:0:
256,192,222864,1,8,0:0:0:0:
256,192,222955,1,8,0:0:0:0:
256,192,223047,1,0,0:0:0:0:
256,192,223138,1,0,0:0:0:0:
256,192,223230,1,8,0:0:0:0:
256,192,223321,1,0,0:0:0:0:
256,192,223413,1,8,0:0:0:0:
256,192,223504,1,8,0:0:0:0:
256,192,223596,1,0,0:0:0:0:
256,192,223687,1,0,0:0:0:0:
256,192,223778,1,8,0:0:0:0:
256,192,223870,1,0,0:0:0:0:
256,192,223961,1,8,0:0:0:0:
256,192,224053,1,8,0:0:0:0:
256,192,224144,1,0,0:0:0:0:
256,192,224236,1,0,0:0:0:0:
256,192,224327,1,8,0:0:0:0:
256,192,224419,1,0,0:0:0:0:
256,192,224510,1,0,0:0:0:0:
256,192,224602,1,0,0:0:0:0:
256,192,224693,1,8,0:0:0:0:
256,192,224815,1,0,0:0:0:0:
256,192,224937,1,0,0:0:0:0:
256,192,225059,1,8,0:0:0:0:
256,192,225181,1,0,0:0:0:0:
256,192,225303,1,0,0:0:0:0:
256,192,225425,1,8,0:0:0:0:
256,192,225516,1,0,0:0:0:0:
256,192,225608,1,0,0:0:0:0:
256,192,225699,1,0,0:0:0:0:
256,192,225791,1,8,0:0:0:0:
256,192,225882,1,8,0:0:0:0:
256,192,225974,1,0,0:0:0:0:
256,192,226065,1,0,0:0:0:0:
256,192,226156,1,8,0:0:0:0:
256,192,226248,1,0,0:0:0:0:
256,192,226339,1,8,0:0:0:0:
256,192,226431,1,8,0:0:0:0:
256,192,226522,1,0,0:0:0:0:
256,192,226614,1,0,0:0:0:0:
256,192,226705,1,8,0:0:0:0:
256,192,226797,1,0,0:0:0:0:
256,192,226888,1,8,0:0:0:0:
256,192,226980,1,8,0:0:0:0:
256,192,227071,1,0,0:0:0:0:
256,192,227163,1,0,0:0:0:0:
256,192,227254,1,8,0:0:0:0:
256,192,227346,1,0,0:0:0:0:
256,192,227437,1,8,0:0:0:0:
256,192,227528,1,8,0:0:0:0:
256,192,227620,1,8,0:0:0:0:
256,192,227711,1,0,0:0:0:0:
256,192,227803,1,8,0:0:0:0:
256,192,227894,1,0,0:0:0:0:
256,192,227986,1,8,0:0:0:0:
256,192,228077,1,8,0:0:0:0:
256,192,228169,1,0,0:0:0:0:
256,192,228260,1,0,0:0:0:0:
256,192,228352,1,8,0:0:0:0:
256,192,228443,1,0,0:0:0:0:
256,192,228535,1,0,0:0:0:0:
256,192,228626,1,0,0:0:0:0:
256,192,228717,1,8,0:0:0:0:
256,192,228809,1,8,0:0:0:0:
256,192,228900,1,0,0:0:0:0:
256,192,228992,1,0,0:0:0:0:
256,192,229083,1,8,0:0:0:0:
256,192,229175,1,0,0:0:0:0:
256,192,229266,1,8,0:0:0:0:
256,192,229358,1,8,0:0:0:0:
256,192,229449,1,0,0:0:0:0:
256,192,229541,1,0,0:0:0:0:
256,192,229632,1,8,0:0:0:0:
256,192,229724,1,0,0:0:0:0:
256,192,229815,1,8,0:0:0:0:
256,192,229906,1,8,0:0:0:0:
256,192,229998,1,0,0:0:0:0:
256,192,230089,1,0,0:0:0:0:
256,192,230181,1,8,0:0:0:0:
256,192,230272,1,0,0:0:0:0:
256,192,230364,1,8,0:0:0:0:
256,192,230455,1,8,0:0:0:0:
256,192,230547,1,0,0:0:0:0:
256,192,230638,1,0,0:0:0:0:
256,192,230730,1,0,0:0:0:0:
256,192,230821,1,0,0:0:0:0:
256,192,230913,1,8,0:0:0:0:
256,192,231004,1,8,0:0:0:0:
256,192,231096,1,8,0:0:0:0:
256,192,231187,1,8,0:0:0:0:
256,192,231278,1,0,0:0:0:0:
256,192,231460,1,0,0:0:0:0:
256,192,231643,1,8,0:0:0:0:
256,192,231826,1,0,0:0:0:0:
256,192,232009,1,8,0:0:0:0:
256,192,232192,1,8,0:0:0:0:
256,192,232375,1,0,0:0:0:0:
256,192,232558,1,0,0:0:0:0:
256,192,232741,1,8,0:0:0:0:
256,192,232924,1,0,0:0:0:0:
256,192,233107,1,8,0:0:0:0:
256,192,233198,1,8,0:0:0:0:
256,192,233290,1,0,0:0:0:0:
256,192,233473,1,8,0:0:0:0:
256,192,233655,1,0,0:0:0:0:
256,192,233838,1,8,0:0:0:0:
256,192,234021,1,0,0:0:0:0:
256,192,234204,1,8,0:0:0:0:
256,192,234387,1,8,0:0:0:0:
256,192,234570,1,0,0:0:0:0:
256,192,234753,1,0,0:0:0:0:
256,192,234844,1,0,0:0:0:0:
256,192,234936,1,8,0:0:0:0:
256,192,235027,1,8,0:0:0:0:
256,192,235119,1,0,0:0:0:0:
256,192,235302,1,0,0:0:0:0:
256,192,235484,1,0,0:0:0:0:
256,192,235667,1,8,0:0:0:0:
256,192,235850,1,0,0:0:0:0:
256,192,236033,1,8,0:0:0:0:
256,192,236216,1,8,0:0:0:0:
256,192,236399,1,0,0:0:0:0:
256,192,236582,1,0,0:0:0:0:
256,192,236765,1,8,0:0:0:0:
256,192,236948,1,0,0:0:0:0:
256,192,237131,1,8,0:0:0:0:
256,192,237222,1,8,0:0:0:0:
256,192,237314,1,0,0:0:0:0:
256,192,237497,1,8,0:0:0:0:
256,192,237680,1,0,0:0:0:0:
256,192,237862,1,8,0:0:0:0:
256,192,238045,1,0,0:0:0:0:
256,192,238228,1,8,0:0:0:0:
256,192,238411,1,8,0:0:0:0:
256,192,238594,1,0,0:0:0:0:
256,192,238777,1,0,0:0:0:0:
256,192,238869,1,0,0:0:0:0:
256,192,238960,1,8,0:0:0:0:
256,192,239052,1,8,0:0:0:0:
256,192,239143,1,0,0:0:0:0:
256,192,239326,1,8,0:0:0:0:
256,192,239417,1,8,0:0:0:0:
256,192,239509,1,0,0:0:0:0:
256,192,239692,1,0,0:0:0:0:
256,192,239875,1,0,0:0:0:0:
256,192,240058,1,8,0:0:0:0:
256,192,240241,1,0,0:0:0:0:
256,192,240423,1,8,0:0:0:0:
256,192,240606,1,8,0:0:0:0:
256,192,240789,1,0,0:0:0:0:
256,192,240972,1,0,0:0:0:0:
256,192,241155,1,8,0:0:0:0:
256,192,241338,1,0,0:0:0:0:
256,192,241521,1,8,0:0:0:0:
256,192,241612,1,8,0:0:0:0:
256,192,241704,1,0,0:0:0:0:
256,192,241887,1,8,0:0:0:0:
256,192,242069,1,0,0:0:0:0:
256,192,242252,1,8,0:0:0:0:
256,192,242435,1,0,0:0:0:0:
256,192,242618,1,8,0:0:0:0:
256,192,242801,1,8,0:0:0:0:
256,192,242984,1,0,0:0:0:0:
256,192,243167,1,0,0:0:0:0:
256,192,243258,1,0,0:0:0:0:
256,192,243350,1,8,0:0:0:0:
256,192,243441,1,8,0:0:0:0:
256,192,243533,1,0,0:0:0:0:
256,192,243716,1,0,0:0:0:0:
256,192,243898,1,0,0:0:0:0:
256,192,244081,1,8,0:0:0:0:
256,192,244264,1,0,0:0:0:0:
256,192,244447,1,8,0:0:0:0:
256,192,244630,1,8,0:0:0:0:
256,192,244813,1,0,0:0:0:0:
256,192,244996,1,0,0:0:0:0:
256,192,245179,1,8,0:0:0:0:
256,192,245362,1,0,0:0:0:0:
256,192,245545,1,8,0:0:0:0:
256,192,245636,1,8,0:0:0:0:
256,192,245728,1,0,0:0:0:0:
256,192,245911,1,8,0:0:0:0:
256,192,246094,1,0,0:0:0:0:
256,192,246276,1,8,0:0:0:0:
256,192,246459,1,0,0:0:0:0:
256,192,246642,1,8,0:0:0:0:
256,192,246825,1,8,0:0:0:0:
256,192,247008,1,0,0:0:0:0:
256,192,247100,1,8,0:0:0:0:
256,192,247191,1,0,0:0:0:0:
256,192,247252,1,0,0:0:0:0:
256,192,247313,1,0,0:0:0:0:
256,192,247374,1,8,0:0:0:0:
256,192,247466,1,8,0:0:0:0:
256,192,247557,1,0,0:0:0:0:
256,192,247740,1,8,0:0:0:0:
256,192,247831,1,8,0:0:0:0:
256,192,247923,1,0,0:0:0:0:
256,192,248106,1,4,0:0:0:0:
256,192,249203,1,4,0:0:0:0:
256,192,250303,1,12,0:0:0:0:
256,192,252667,1,12,0:0:0:0:
256,192,252963,1,4,0:0:0:0:
256,192,253110,1,12,0:0:0:0:
256,192,253849,1,12,0:0:0:0:
256,192,254145,1,4,0:0:0:0:
256,192,254273,1,12,0:0:0:0:
256,192,254613,1,0,0:0:0:0:
256,192,254663,1,0,0:0:0:0:
256,192,254714,1,8,0:0:0:0:
256,192,255008,1,12,0:0:0:0:
256,192,255155,1,0,0:0:0:0:
256,192,255302,1,8,0:0:0:0:
256,192,255449,1,8,0:0:0:0:
256,192,255596,1,0,0:0:0:0:
256,192,255669,1,0,0:0:0:0:
256,192,255743,1,8,0:0:0:0:
256,192,255816,1,0,0:0:0:0:
256,192,255890,1,8,0:0:0:0:
256,192,255963,1,8,0:0:0:0:
256,192,256037,1,8,0:0:0:0:
256,192,256110,1,8,0:0:0:0:
256,192,256184,1,0,0:0:0:0:
256,192,256331,1,0,0:0:0:0:
256,192,256478,1,8,0:0:0:0:
256,192,256625,1,8,0:0:0:0:
256,192,256772,1,0,0:0:0:0:
256,192,256846,1,0,0:0:0:0:
256,192,256919,1,8,0:0:0:0:
256,192,256993,1,0,0:0:0:0:
256,192,257066,1,8,0:0:0:0:
256,192,257140,1,8,0:0:0:0:
256,192,257213,1,0,0:0:0:0:
256,192,257287,1,0,0:0:0:0:
256,192,257360,1,8,0:0:0:0:
256,192,257508,1,0,0:0:0:0:
256,192,257655,1,8,0:0:0:0:
256,192,257802,1,8,0:0:0:0:
256,192,257949,1,0,0:0:0:0:
256,192,258022,1,0,0:0:0:0:
256,192,258096,1,8,0:0:0:0:
256,192,258169,1,0,0:0:0:0:
256,192,258243,1,8,0:0:0:0:
256,192,258316,1,8,0:0:0:0:
256,192,258390,1,8,0:0:0:0:
256,192,258463,1,8,0:0:0:0:
256,192,258537,1,0,0:0:0:0:
256,192,258684,1,0,0:0:0:0:
256,192,258831,1,8,0:0:0:0:
256,192,258905,1,8,0:0:0:0:
256,192,258978,1,0,0:0:0:0:
256,192,259052,1,0,0:0:0:0:
256,192,259125,1,8,0:0:0:0:
256,192,259199,1,0,0:0:0:0:
256,192,259272,1,8,0:0:0:0:
256,192,259346,1,8,0:0:0:0:
256,192,259419,1,0,0:0:0:0:
256,192,259493,1,0,0:0:0:0:
256,192,259566,1,0,0:0:0:0:
256,192,259640,1,0,0:0:0:0:
256,192,259713,1,8,0:0:0:0:
256,192,259860,1,0,0:0:0:0:
256,192,260008,1,8,0:0:0:0:
256,192,260155,1,8,0:0:0:0:
256,192,260302,1,0,0:0:0:0:
256,192,260375,1,0,0:0:0:0:
256,192,260449,1,8,0:0:0:0:
256,192,260522,1,0,0:0:0:0:
256,192,260596,1,8,0:0:0:0:
256,192,260669,1,8,0:0:0:0:
256,192,260743,1,8,0:0:0:0:
256,192,260816,1,8,0:0:0:0:
256,192,260890,1,0,0:0:0:0:
256,192,261037,1,0,0:0:0:0:
256,192,261184,1,8,0:0:0:0:
256,192,261331,1,8,0:0:0:0:
256,192,261478,1,0,0:0:0:0:
256,192,261552,1,0,0:0:0:0:
256,192,261625,1,8,0:0:0:0:
256,192,261699,1,0,0:0:0:0:
256,192,261772,1,8,0:0:0:0:
256,192,261846,1,8,0:0:0:0:
256,192,261919,1,0,0:0:0:0:
256,192,261993,1,0,0:0:0:0:
256,192,262066,1,8,0:0:0:0:
256,192,262213,1,0,0:0:0:0:
256,192,262360,1,8,0:0:0:0:
256,192,262508,1,8,0:0:0:0:
256,192,262655,1,0,0:0:0:0:
256,192,262728,1,0,0:0:0:0:
256,192,262802,1,8,0:0:0:0:
256,192,262875,1,0,0:0:0:0:
256,192,262949,1,8,0:0:0:0:
256,192,263022,1,8,0:0:0:0:
256,192,263096,1,8,0:0:0:0:
256,192,263169,1,8,0:0:0:0:
256,192,263243,1,0,0:0:0:0:
256,192,263390,1,0,0:0:0:0:
256,192,263537,1,8,0:0:0:0:
256,192,263684,1,8,0:0:0:0:
256,192,263758,1,8,0:0:0:0:
256,192,263831,1,0,0:0:0:0:
256,192,263905,1,0,0:0:0:0:
256,192,263978,1,8,0:0:0:0:
256,192,264052,1,0,0:0:0:0:
256,192,264125,1,8,0:0:0:0:
256,192,264199,1,8,0:0:0:0:
256,192,264272,1,0,0:0:0:0:
256,192,264419,1,12,0:0:0:0:
256,192,264713,1,4,0:0:0:0:
256,192,264860,1,12,0:0:0:0:
256,192,265155,1,0,0:0:0:0:
256,192,265228,1,0,0:0:0:0:
256,192,265302,1,8,0:0:0:0:
256,192,265449,1,0,0:0:0:0:
256,192,265596,1,12,0:0:0:0:
256,192,265890,1,4,0:0:0:0:
256,192,266037,1,12,0:0:0:0:
256,192,266331,1,0,0:0:0:0:
256,192,266405,1,0,0:0:0:0:
256,192,266478,1,8,0:0:0:0:
256,192,266625,1,0,0:0:0:0:
256,192,266772,1,12,0:0:0:0:
256,192,266919,1,0,0:0:0:0:
256,192,267066,1,8,0:0:0:0:
256,192,267213,1,8,0:0:0:0:
256,192,267360,1,0,0:0:0:0:
256,192,267434,1,0,0:0:0:0:
256,192,267508,1,8,0:0:0:0:
256,192,267581,1,0,0:0:0:0:
256,192,267655,1,8,0:0:0:0:
256,192,267728,1,8,0:0:0:0:
256,192,267802,1,8,0:0:0:0:
256,192,267875,1,8,0:0:0:0:
256,192,267949,1,0,0:0:0:0:
256,192,268096,1,0,0:0:0:0:
256,192,268243,1,8,0:0:0:0:
256,192,268390,1,8,0:0:0:0:
256,192,268537,1,0,0:0:0:0:
256,192,268610,1,0,0:0:0:0:
256,192,268684,1,8,0:0:0:0:
256,192,268758,1,0,0:0:0:0:
256,192,268831,1,8,0:0:0:0:
256,192,268905,1,8,0:0:0:0:
256,192,268978,1,0,0:0:0:0:
256,192,269052,1,0,0:0:0:0:
256,192,269125,1,8,0:0:0:0:
256,192,269272,1,0,0:0:0:0:
256,192,269419,1,8,0:0:0:0:
256,192,269566,1,8,0:0:0:0:
256,192,269713,1,0,0:0:0:0:
256,192,269787,1,0,0:0:0:0:
256,192,269860,1,8,0:0:0:0:
256,192,269934,1,0,0:0:0:0:
256,192,270008,1,8,0:0:0:0:
256,192,270081,1,8,0:0:0:0:
256,192,270155,1,8,0:0:0:0:
256,192,270228,1,8,0:0:0:0:
256,192,270302,1,0,0:0:0:0:
256,192,270449,1,0,0:0:0:0:
256,192,270596,1,8,0:0:0:0:
256,192,270743,1,8,0:0:0:0:
256,192,270890,1,0,0:0:0:0:
256,192,270963,1,0,0:0:0:0:
256,192,271037,1,8,0:0:0:0:
256,192,271110,1,0,0:0:0:0:
256,192,271184,1,8,0:0:0:0:
256,192,271258,1,8,0:0:0:0:
256,192,271331,1,0,0:0:0:0:
256,192,271405,1,0,0:0:0:0:
256,192,271478,1,8,0:0:0:0:
256,192,271625,1,0,0:0:0:0:
256,192,271772,1,8,0:0:0:0:
256,192,271919,1,8,0:0:0:0:
256,192,272066,1,0,0:0:0:0:
256,192,272140,1,0,0:0:0:0:
256,192,272213,1,8,0:0:0:0:
256,192,272287,1,0,0:0:0:0:
256,192,272360,1,8,0:0:0:0:
256,192,272434,1,8,0:0:0:0:
256,192,272508,1,0,0:0:0:0:
256,192,272581,1,0,0:0:0:0:
256,192,272655,1,8,0:0:0:0:
256,192,272728,1,8,0:0:0:0:
256,192,272802,1,8,0:0:0:0:
256,192,272875,1,8,0:0:0:0:
256,192,272949,1,0,0:0:0:0:
256,192,273096,1,0,0:0:0:0:
256,192,273244,1,8,0:0:0:0:
256,192,273458,1,0,0:0:0:0:
256,192,273672,1,0,0:0:0:0:
256,192,273886,1,8,0:0:0:0:
256,192,274101,1,0,0:0:0:0:
256,192,274315,1,0,0:0:0:0:
256,192,274529,1,8,0:0:0:0:
256,192,274744,1,0,0:0:0:0:
256,192,274958,1,0,0:0:0:0:
256,192,275172,1,8,0:0:0:0:
256,192,275386,1,0,0:0:0:0:
256,192,275601,1,0,0:0:0:0:
256,192,275815,1,8,0:0:0:0:
256,192,276029,1,0,0:0:0:0:
256,192,276244,1,0,0:0:0:0:
256,192,276458,1,8,0:0:0:0:
256,192,276672,1,0,0:0:0:0:
256,192,276886,1,0,0:0:0:0:
256,192,277101,1,8,0:0:0:0:
256,192,277315,1,0,0:0:0:0:
256,192,277422,1,0,0:0:0:0:
256,192,277529,1,0,0:0:0:0:
256,192,277636,1,0,0:0:0:0:
256,192,277744,1,8,0:0:0:0:
256,192,277958,1,0,0:0:0:0:
256,192,278172,1,8,0:0:0:0:
256,192,278386,1,8,0:0:0:0:
256,192,278601,1,0,0:0:0:0:
256,192,278815,1,0,0:0:0:0:
256,192,279029,1,8,0:0:0:0:
256,192,279244,1,0,0:0:0:0:
256,192,279458,1,0,0:0:0:0:
256,192,279672,1,8,0:0:0:0:
256,192,279886,1,0,0:0:0:0:
256,192,280101,1,0,0:0:0:0:
256,192,280315,1,8,0:0:0:0:
256,192,280529,1,0,0:0:0:0:
256,192,280744,1,0,0:0:0:0:
256,192,280958,1,8,0:0:0:0:
256,192,281172,1,0,0:0:0:0:
256,192,281386,1,0,0:0:0:0:
256,192,281601,1,8,0:0:0:0:
256,192,281815,1,0,0:0:0:0:
256,192,282029,1,0,0:0:0:0:
256,192,282244,1,8,0:0:0:0:
256,192,282458,1,0,0:0:0:0:
256,192,282672,1,0,0:0:0:0:
256,192,282886,1,8,0:0:0:0:
256,192,282994,1,8,0:0:0:0:
256,192,283101,1,0,0:0:0:0:
256,192,283208,1,0,0:0:0:0:
256,192,283315,1,8,0:0:0:0:
256,192,283422,1,0,0:0:0:0:
256,192,283529,1,8,0:0:0:0:
256,192,283744,1,0,0:0:0:0:
256,192,283958,1,8,0:0:0:0:
256,192,284172,1,8,0:0:0:0:
256,192,284386,1,0,0:0:0:0:
256,192,284601,1,8,0:0:0:0:
256,192,284815,1,8,0:0:0:0:
256,192,285029,1,0,0:0:0:0:
256,192,285244,1,0,0:0:0:0:
256,192,285458,1,8,0:0:0:0:
256,192,285672,1,0,0:0:0:0:
256,192,285886,1,0,0:0:0:0:
256,192,286101,1,8,0:0:0:0:
256,192,286315,1,0,0:0:0:0:
256,192,286529,1,8,0:0:0:0:
256,192,286744,1,8,0:0:0:0:
256,192,286958,1,0,0:0:0:0:
256,192,287172,1,8,0:0:0:0:
256,192,287386,1,8,0:0:0:0:
256,192,287601,1,0,0:0:0:0:
256,192,287708,1,0,0:0:0:0:
256,192,287815,1,0,0:0:0:0:
256,192,287922,1,0,0:0:0:0:
256,192,288029,1,8,0:0:0:0:
256,192,288244,1,0,0:0:0:0:
256,192,288458,1,8,0:0:0:0:
256,192,288672,1,8,0:0:0:0:
256,192,288886,1,0,0:0:0:0:
256,192,289101,1,8,0:0:0:0:
256,192,289315,1,8,0:0:0:0:
256,192,289529,1,0,0:0:0:0:
256,192,289744,1,8,0:0:0:0:
256,192,289958,1,8,0:0:0:0:
256,192,290172,1,0,0:0:0:0:
256,192,290386,1,0,0:0:0:0:
256,192,290601,1,8,0:0:0:0:
256,192,290815,1,0,0:0:0:0:
256,192,291029,1,0,0:0:0:0:
256,192,291244,1,8,0:0:0:0:
256,192,291458,1,0,0:0:0:0:
256,192,291672,1,0,0:0:0:0:
256,192,291886,1,8,0:0:0:0:
256,192,292101,1,0,0:0:0:0:
256,192,292315,1,8,0:0:0:0:
256,192,292529,1,8,0:0:0:0:
256,192,292744,1,0,0:0:0:0:
256,192,293029,1,0,0:0:0:0:
256,192,293101,1,0,0:0:0:0:
256,192,293172,1,8,0:0:0:0:
256,192,293386,1,0,0:0:0:0:
256,192,293601,1,8,0:0:0:0:
256,192,293815,1,8,0:0:0:0:
256,192,293887,1,8,0:0:0:0:
256,192,293959,1,0,0:0:0:0:
256,192,294031,1,0,0:0:0:0:
256,192,294103,1,8,0:0:0:0:
256,192,294175,1,0,0:0:0:0:
256,192,294247,1,8,0:0:0:0:
256,192,294319,1,8,0:0:0:0:
256,192,294391,1,0,0:0:0:0:
256,192,294464,1,0,0:0:0:0:
256,192,294536,1,8,0:0:0:0:
256,192,294608,1,0,0:0:0:0:
256,192,294680,1,8,0:0:0:0:
256,192,294752,1,8,0:0:0:0:
256,192,294824,1,0,0:0:0:0:
256,192,294896,1,0,0:0:0:0:
256,192,294968,1,8,0:0:0:0:
256,192,295113,1,0,0:0:0:0:
256,192,295257,1,8,0:0:0:0:
256,192,295401,1,0,0:0:0:0:
256,192,295545,1,8,0:0:0:0:
256,192,295690,1,0,0:0:0:0:
256,192,295834,1,8,0:0:0:0:
256,192,295978,1,8,0:0:0:0:
256,192,296122,1,8,0:0:0:0:
256,192,296194,1,8,0:0:0:0:
256,192,296266,1,0,0:0:0:0:
256,192,296339,1,0,0:0:0:0:
256,192,296411,1,8,0:0:0:0:
256,192,296483,1,0,0:0:0:0:
256,192,296555,1,8,0:0:0:0:
256,192,296627,1,8,0:0:0:0:
256,192,296699,1,8,0:0:0:0:
256,192,296771,1,0,0:0:0:0:
256,192,296843,1,8,0:0:0:0:
256,192,296915,1,0,0:0:0:0:
256,192,296988,1,8,0:0:0:0:
256,192,297060,1,8,0:0:0:0:
256,192,297132,1,0,0:0:0:0:
256,192,297204,1,0,0:0:0:0:
256,192,297276,1,8,0:0:0:0:
256,192,297420,1,0,0:0:0:0:
256,192,297565,1,8,0:0:0:0:
256,192,297709,1,0,0:0:0:0:
256,192,297853,1,8,0:0:0:0:
256,192,297925,1,8,0:0:0:0:
256,192,297997,1,0,0:0:0:0:
256,192,298069,1,0,0:0:0:0:
256,192,298141,1,8,0:0:0:0:
256,192,298286,1,0,0:0:0:0:
256,192,298430,1,8,0:0:0:0:
256,192,298502,1,8,0:0:0:0:
256,192,298574,1,0,0:0:0:0:
256,192,298646,1,0,0:0:0:0:
256,192,298718,1,8,0:0:0:0:
256,192,298790,1,0,0:0:0:0:
256,192,298863,1,8,0:0:0:0:
256,192,298935,1,8,0:0:0:0:
256,192,299007,1,0,0:0:0:0:
256,192,299151,1,8,0:0:0:0:
256,192,299223,1,0,0:0:0:0:
256,192,299295,1,8,0:0:0:0:
256,192,299440,1,0,0:0:0:0:
256,192,299584,1,8,0:0:0:0:
256,192,299656,1,0,0:0:0:0:
256,192,299728,1,0,0:0:0:0:
256,192,299800,1,8,0:0:0:0:
256,192,299872,1,0,0:0:0:0:
256,192,299944,1,0,0:0:0:0:
256,192,300016,1,8,0:0:0:0:
256,192,300089,1,0,0:0:0:0:
256,192,300161,1,8,0:0:0:0:
256,192,300233,1,8,0:0:0:0:
256,192,300305,1,8,0:0:0:0:
256,192,300377,1,8,0:0:0:0:
256,192,300449,1,0,0:0:0:0:
256,192,300593,1,0,0:0:0:0:
256,192,300738,1,8,0:0:0:0:
256,192,300810,1,8,0:0:0:0:
256,192,300882,1,0,0:0:0:0:
256,192,300954,1,0,0:0:0:0:
256,192,301026,1,8,0:0:0:0:
256,192,301098,1,0,0:0:0:0:
256,192,301170,1,8,0:0:0:0:
256,192,301242,1,8,0:0:0:0:
256,192,301315,1,0,0:0:0:0:
256,192,301387,1,0,0:0:0:0:
256,192,301459,1,8,0:0:0:0:
256,192,301531,1,0,0:0:0:0:
256,192,301603,1,8,0:0:0:0:
256,192,301675,1,8,0:0:0:0:
256,192,301747,1,0,0:0:0:0:
256,192,301819,1,0,0:0:0:0:
256,192,301891,1,8,0:0:0:0:
256,192,302036,1,0,0:0:0:0:
256,192,302180,1,8,0:0:0:0:
256,192,302324,1,0,0:0:0:0:
256,192,302468,1,8,0:0:0:0:
256,192,302613,1,0,0:0:0:0:
256,192,302757,1,8,0:0:0:0:
256,192,302901,1,8,0:0:0:0:
256,192,303045,1,8,0:0:0:0:
256,192,303117,1,8,0:0:0:0:
256,192,303190,1,0,0:0:0:0:
256,192,303262,1,0,0:0:0:0:
256,192,303334,1,8,0:0:0:0:
256,192,303406,1,0,0:0:0:0:
256,192,303478,1,8,0:0:0:0:
256,192,303550,1,8,0:0:0:0:
256,192,303622,1,8,0:0:0:0:
256,192,303694,1,0,0:0:0:0:
256,192,303766,1,8,0:0:0:0:
256,192,303839,1,0,0:0:0:0:
256,192,303911,1,8,0:0:0:0:
256,192,303983,1,8,0:0:0:0:
256,192,304055,1,0,0:0:0:0:
256,192,304127,1,0,0:0:0:0:
256,192,304199,1,8,0:0:0:0:
256,192,304343,1,0,0:0:0:0:
256,192,304488,1,8,0:0:0:0:
256,192,304632,1,0,0:0:0:0:
256,192,304776,1,8,0:0:0:0:
256,192,304848,1,8,0:0:0:0:
256,192,304920,1,0,0:0:0:0:
256,192,304992,1,0,0:0:0:0:
256,192,305065,1,8,0:0:0:0:
256,192,305137,1,0,0:0:0:0:
256,192,305209,1,8,0:0:0:0:
256,192,305281,1,8,0:0:0:0:
256,192,305353,1,0,0:0:0:0:
256,192,305425,1,0,0:0:0:0:
256,192,305497,1,8,0:0:0:0:
256,192,305569,1,0,0:0:0:0:
256,192,305641,1,8,0:0:0:0:
256,192,305714,1,8,0:0:0:0:
256,192,305786,1,0,0:0:0:0:
256,192,305858,1,0,0:0:0:0:
256,192,305930,1,8,0:0:0:0:
256,192,306002,1,0,0:0:0:0:
256,192,306074,1,0,0:0:0:0:
256,192,306146,1,0,0:0:0:0:
256,192,306218,1,8,0:0:0:0:
256,192,306290,1,8,0:0:0:0:
256,192,306363,1,0,0:0:0:0:
256,192,306435,1,0,0:0:0:0:
256,192,306507,1,8,0:0:0:0:
256,192,306579,1,0,0:0:0:0:
256,192,306651,1,0,0:0:0:0:
256,192,306723,1,8,0:0:0:0:
256,192,306795,1,0,0:0:0:0:
256,192,306867,1,0,0:0:0:0:
256,192,306940,1,8,0:0:0:0:
256,192,307012,1,0,0:0:0:0:
256,192,307084,1,8,0:0:0:0:
256,192,307156,1,8,0:0:0:0:
256,192,307228,1,8,0:0:0:0:
256,192,307300,1,8,0:0:0:0:
256,192,307372,1,0,0:0:0:0:
256,192,307444,1,0,0:0:0:0:
256,192,307516,1,0,0:0:0:0:
256,192,307589,1,0,0:0:0:0:
256,192,307661,1,8,0:0:0:0:
256,192,307805,1,0,0:0:0:0:
256,192,307877,1,0,0:0:0:0:
256,192,307949,1,0,0:0:0:0:
256,192,308021,1,0,0:0:0:0:
256,192,308093,1,8,0:0:0:0:
256,192,308238,1,0,0:0:0:0:
256,192,308310,1,0,0:0:0:0:
256,192,308382,1,8,0:0:0:0:
256,192,308454,1,8,0:0:0:0:
256,192,308526,1,0,0:0:0:0:
256,192,308670,1,0,0:0:0:0:
256,192,308815,1,8,0:0:0:0:
256,192,308959,1,0,0:0:0:0:
256,192,309031,1,0,0:0:0:0:
256,192,309103,1,0,0:0:0:0:
256,192,309175,1,0,0:0:0:0:
256,192,309247,1,8,0:0:0:0:
256,192,309391,1,0,0:0:0:0:
256,192,309464,1,0,0:0:0:0:
256,192,309536,1,8,0:0:0:0:
256,192,309608,1,8,0:0:0:0:
256,192,309680,1,0,0:0:0:0:
256,192,309824,1,0,0:0:0:0:
256,192,309968,1,8,0:0:0:0:
256,192,310040,1,8,0:0:0:0:
256,192,310113,1,0,0:0:0:0:
256,192,310185,1,0,0:0:0:0:
256,192,310257,1,8,0:0:0:0:
256,192,310329,1,0,0:0:0:0:
256,192,310401,1,8,0:0:0:0:
256,192,310473,1,8,0:0:0:0:
256,192,310545,1,0,0:0:0:0:
256,192,310617,1,0,0:0:0:0:
256,192,310690,1,8,0:0:0:0:
256,192,310762,1,0,0:0:0:0:
256,192,310834,1,8,0:0:0:0:
256,192,310906,1,8,0:0:0:0:
256,192,310978,1,8,0:0:0:0:
256,192,311050,1,8,0:0:0:0:
256,192,311122,1,0,0:0:0:0:
256,192,311266,1,8,0:0:0:0:
256,192,311339,1,8,0:0:0:0:
256,192,311411,1,0,0:0:0:0:
256,192,311483,1,0,0:0:0:0:
256,192,311555,1,8,0:0:0:0:
256,192,311699,1,0,0:0:0:0:
256,192,311771,1,0,0:0:0:0:
256,192,311843,1,8,0:0:0:0:
256,192,311915,1,0,0:0:0:0:
256,192,311988,1,8,0:0:0:0:
256,192,312060,1,8,0:0:0:0:
256,192,312132,1,0,0:0:0:0:
256,192,312204,1,0,0:0:0:0:
256,192,312276,1,8,0:0:0:0:
256,192,312420,1,0,0:0:0:0:
256,192,312492,1,0,0:0:0:0:
256,192,312565,1,0,0:0:0:0:
256,192,312637,1,0,0:0:0:0:
256,192,312709,1,8,0:0:0:0:
256,192,312853,1,0,0:0:0:0:
256,192,312925,1,0,0:0:0:0:
256,192,312997,1,8,0:0:0:0:
256,192,313069,1,8,0:0:0:0:
256,192,313141,1,0,0:0:0:0:
256,192,313286,1,0,0:0:0:0:
256,192,313430,1,8,0:0:0:0:
256,192,313574,1,0,0:0:0:0:
256,192,313646,1,0,0:0:0:0:
256,192,313718,1,0,0:0:0:0:
256,192,313790,1,0,0:0:0:0:
256,192,313863,1,8,0:0:0:0:
256,192,314007,1,0,0:0:0:0:
256,192,314079,1,0,0:0:0:0:
256,192,314151,1,8,0:0:0:0:
256,192,314223,1,8,0:0:0:0:
256,192,314295,1,0,0:0:0:0:
256,192,314439,1,0,0:0:0:0:
256,192,314584,1,8,0:0:0:0:
256,192,314656,1,8,0:0:0:0:
256,192,314728,1,0,0:0:0:0:
256,192,314800,1,0,0:0:0:0:
256,192,314872,1,0,0:0:0:0:
256,192,314944,1,0,0:0:0:0:
256,192,315016,1,8,0:0:0:0:
256,192,315089,1,8,0:0:0:0:
256,192,315161,1,0,0:0:0:0:
256,192,315233,1,0,0:0:0:0:
256,192,315305,1,8,0:0:0:0:
256,192,315377,1,0,0:0:0:0:
256,192,315449,1,8,0:0:0:0:
256,192,315521,1,8,0:0:0:0:
256,192,315593,1,8,0:0:0:0:
256,192,315665,1,8,0:0:0:0:
256,192,315738,1,0,0:0:0:0:
256,192,316026,1,0,0:0:0:0:
256,192,316170,1,8,0:0:0:0:
256,192,316459,1,0,0:0:0:0:
256,192,316531,1,0,0:0:0:0:
256,192,316603,1,8,0:0:0:0:
256,192,316747,1,0,0:0:0:0:
256,192,316819,1,0,0:0:0:0:
256,192,316891,1,8,0:0:0:0:
256,192,316964,1,8,0:0:0:0:
256,192,317036,1,0,0:0:0:0:
256,192,317108,1,0,0:0:0:0:
256,192,317180,1,8,0:0:0:0:
256,192,317252,1,8,0:0:0:0:
256,192,317324,1,8,0:0:0:0:
256,192,317396,1,0,0:0:0:0:
256,192,317468,1,8,0:0:0:0:
256,192,317540,1,0,0:0:0:0:
256,192,317613,1,8,0:0:0:0:
256,192,317685,1,8,0:0:0:0:
256,192,317757,1,0,0:0:0:0:
256,192,317829,1,0,0:0:0:0:
256,192,317901,1,8,0:0:0:0:
256,192,317973,1,0,0:0:0:0:
256,192,318045,1,8,0:0:0:0:
256,192,318117,1,8,0:0:0:0:
256,192,318189,1,0,0:0:0:0:
256,192,318262,1,0,0:0:0:0:
256,192,318334,1,8,0:0:0:0:
256,192,318406,1,8,0:0:0:0:
256,192,318478,1,8,0:0:0:0:
256,192,318550,1,0,0:0:0:0:
256,192,318622,1,8,0:0:0:0:
256,192,318694,1,0,0:0:0:0:
256,192,318766,1,8,0:0:0:0:
256,192,318839,1,8,0:0:0:0:
256,192,318911,1,0,0:0:0:0:
256,192,318983,1,0,0:0:0:0:
256,192,319055,1,8,0:0:0:0:
256,192,319127,1,0,0:0:0:0:
256,192,319199,1,8,0:0:0:0:
256,192,319271,1,8,0:0:0:0:
256,192,319343,1,0,0:0:0:0:
256,192,319415,1,0,0:0:0:0:
256,192,319488,1,8,0:0:0:0:
256,192,319560,1,8,0:0:0:0:
256,192,319632,1,8,0:0:0:0:
256,192,319704,1,0,0:0:0:0:
256,192,319776,1,8,0:0:0:0:
256,192,319848,1,0,0:0:0:0:
256,192,319920,1,8,0:0:0:0:
256,192,319992,1,8,0:0:0:0:
256,192,320065,1,0,0:0:0:0:
256,192,320137,1,0,0:0:0:0:
256,192,320209,1,8,0:0:0:0:
256,192,320281,1,0,0:0:0:0:
256,192,320353,1,8,0:0:0:0:
256,192,320425,1,8,0:0:0:0:
256,192,320497,1,0,0:0:0:0:
256,192,320569,1,0,0:0:0:0:
256,192,320641,1,8,0:0:0:0:
256,192,320714,1,0,0:0:0:0:
256,192,320786,1,8,0:0:0:0:
256,192,320858,1,8,0:0:0:0:
256,192,320930,1,0,0:0:0:0:
256,192,321002,1,0,0:0:0:0:
256,192,321074,1,8,0:0:0:0:
256,192,321146,1,8,0:0:0:0:
256,192,321218,1,8,0:0:0:0:
256,192,321290,1,0,0:0:0:0:
256,192,321363,1,8,0:0:0:0:
256,192,321435,1,0,0:0:0:0:
256,192,321507,1,8,0:0:0:0:
256,192,321579,1,8,0:0:0:0:
256,192,321651,1,0,0:0:0:0:
256,192,321723,1,0,0:0:0:0:
256,192,321795,1,8,0:0:0:0:
256,192,321867,1,8,0:0:0:0:
256,192,321939,1,8,0:0:0:0:
256,192,322012,1,0,0:0:0:0:
256,192,322084,1,8,0:0:0:0:
256,192,322156,1,0,0:0:0:0:
256,192,322228,1,8,0:0:0:0:
256,192,322300,1,8,0:0:0:0:
256,192,322372,1,0,0:0:0:0:
256,192,322444,1,0,0:0:0:0:
256,192,322516,1,8,0:0:0:0:
256,192,322589,1,0,0:0:0:0:
256,192,322661,1,8,0:0:0:0:
256,192,322733,1,8,0:0:0:0:
256,192,322805,1,0,0:0:0:0:
256,192,322877,1,0,0:0:0:0:
256,192,322949,1,8,0:0:0:0:
256,192,323021,1,8,0:0:0:0:
256,192,323093,1,8,0:0:0:0:
256,192,323165,1,0,0:0:0:0:
256,192,323238,1,8,0:0:0:0:
256,192,323310,1,0,0:0:0:0:
256,192,323382,1,8,0:0:0:0:
256,192,323454,1,8,0:0:0:0:
256,192,323526,1,0,0:0:0:0:
256,192,323598,1,0,0:0:0:0:
256,192,323670,1,8,0:0:0:0:
256,192,323742,1,0,0:0:0:0:
256,192,323814,1,8,0:0:0:0:
256,192,323887,1,8,0:0:0:0:
256,192,323959,1,0,0:0:0:0:
256,192,324031,1,0,0:0:0:0:
256,192,324103,1,8,0:0:0:0:
256,192,324175,1,8,0:0:0:0:
256,192,324247,1,8,0:0:0:0:
256,192,324319,1,0,0:0:0:0:
256,192,324391,1,8,0:0:0:0:
256,192,324464,1,0,0:0:0:0:
256,192,324536,1,8,0:0:0:0:
256,192,324608,1,8,0:0:0:0:
256,192,324680,1,0,0:0:0:0:
256,192,324752,1,0,0:0:0:0:
256,192,324824,1,8,0:0:0:0:
256,192,324896,1,0,0:0:0:0:
256,192,324968,1,8,0:0:0:0:
256,192,325040,1,8,0:0:0:0:
256,192,325113,1,0,0:0:0:0:
256,192,325185,1,0,0:0:0:0:
256,192,325257,1,8,0:0:0:0:
256,192,325329,1,0,0:0:0:0:
256,192,325401,1,8,0:0:0:0:
256,192,325473,1,8,0:0:0:0:
256,192,325545,1,0,0:0:0:0:
256,192,325617,1,0,0:0:0:0:
256,192,325689,1,8,0:0:0:0:
256,192,325762,1,8,0:0:0:0:
256,192,325834,1,8,0:0:0:0:
256,192,325906,1,0,0:0:0:0:
256,192,325978,1,8,0:0:0:0:
256,192,326050,1,0,0:0:0:0:
256,192,326122,1,8,0:0:0:0:
256,192,326194,1,8,0:0:0:0:
256,192,326266,1,0,0:0:0:0:
256,192,326339,1,0,0:0:0:0:
256,192,326411,1,8,0:0:0:0:
256,192,326483,1,0,0:0:0:0:
256,192,326555,1,8,0:0:0:0:
256,192,326627,1,8,0:0:0:0:
256,192,326699,1,0,0:0:0:0:
256,192,326771,1,0,0:0:0:0:
256,192,326843,1,8,0:0:0:0:
256,192,326915,1,0,0:0:0:0:
256,192,326988,1,8,0:0:0:0:
256,192,327060,1,8,0:0:0:0:
256,192,327132,1,0,0:0:0:0:
256,192,327204,1,0,0:0:0:0:
256,192,327276,1,8,0:0:0:0:
256,192,327348,1,0,0:0:0:0:
256,192,327420,1,0,0:0:0:0:
256,192,327492,1,0,0:0:0:0:
256,192,327564,1,8,0:0:0:0:
256,192,327637,1,0,0:0:0:0:
256,192,327709,1,8,0:0:0:0:
256,192,327781,1,8,0:0:0:0:
256,192,327853,1,0,0:0:0:0:
256,192,327925,1,0,0:0:0:0:
256,192,327997,1,8,0:0:0:0:
256,192,328069,1,8,0:0:0:0:
256,192,328141,1,8,0:0:0:0:
256,192,328214,1,0,0:0:0:0:
256,192,328286,1,8,0:0:0:0:
256,192,328358,1,0,0:0:0:0:
256,192,328430,1,8,0:0:0:0:
256,192,328502,1,8,0:0:0:0:
256,192,328574,1,0,0:0:0:0:
256,192,328646,1,0,0:0:0:0:
256,192,328718,1,8,0:0:0:0:
256,192,328790,1,0,0:0:0:0:
256,192,328863,1,8,0:0:0:0:
256,192,328935,1,8,0:0:0:0:
256,192,329007,1,0,0:0:0:0:
256,192,329079,1,0,0:0:0:0:
256,192,329151,1,8,0:0:0:0:
256,192,329223,1,0,0:0:0:0:
256,192,329295,1,8,0:0:0:0:
256,192,329367,1,8,0:0:0:0:
256,192,329439,1,0,0:0:0:0:
256,192,329512,1,0,0:0:0:0:
256,192,329584,1,8,0:0:0:0:
256,192,329656,1,0,0:0:0:0:
256,192,329728,1,0,0:0:0:0:
256,192,329800,1,0,0:0:0:0:
256,192,329872,1,8,0:0:0:0:
256,192,329944,1,0,0:0:0:0:
256,192,330016,1,8,0:0:0:0:
256,192,330089,1,8,0:0:0:0:
256,192,330161,1,0,0:0:0:0:
256,192,330233,1,0,0:0:0:0:
256,192,330305,1,8,0:0:0:0:
256,192,330377,1,8,0:0:0:0:
256,192,330449,1,8,0:0:0:0:
256,192,330521,1,0,0:0:0:0:
256,192,330593,1,8,0:0:0:0:
256,192,330665,1,0,0:0:0:0:
256,192,330738,1,8,0:0:0:0:
256,192,330810,1,8,0:0:0:0:
256,192,330882,1,0,0:0:0:0:
256,192,330954,1,0,0:0:0:0:
256,192,331026,1,8,0:0:0:0:
256,192,331098,1,0,0:0:0:0:
256,192,331170,1,8,0:0:0:0:
256,192,331242,1,8,0:0:0:0:
256,192,331314,1,0,0:0:0:0:
256,192,331387,1,0,0:0:0:0:
256,192,331459,1,8,0:0:0:0:
256,192,331531,1,0,0:0:0:0:
256,192,331603,1,8,0:0:0:0:
256,192,331675,1,8,0:0:0:0:
256,192,331747,1,0,0:0:0:0:
256,192,331819,1,0,0:0:0:0:
256,192,331891,1,8,0:0:0:0:
256,192,331964,1,0,0:0:0:0:
256,192,332036,1,0,0:0:0:0:
256,192,332108,1,0,0:0:0:0:
256,192,332180,1,8,0:0:0:0:
256,192,332252,1,0,0:0:0:0:
256,192,332324,1,8,0:0:0:0:
256,192,332396,1,8,0:0:0:0:
256,192,332468,1,0,0:0:0:0:
256,192,332540,1,0,0:0:0:0:
256,192,332613,1,8,0:0:0:0:
256,192,332685,1,8,0:0:0:0:
256,192,332757,1,8,0:0:0:0:
256,192,332829,1,0,0:0:0:0:
256,192,332901,1,8,0:0:0:0:
256,192,332973,1,0,0:0:0:0:
256,192,333045,1,8,0:0:0:0:
256,192,333117,1,8,0:0:0:0:
256,192,333189,1,0,0:0:0:0:
256,192,333262,1,0,0:0:0:0:
256,192,333334,1,8,0:0:0:0:
256,192,333406,1,0,0:0:0:0:
256,192,333478,1,8,0:0:0:0:
256,192,333550,1,8,0:0:0:0:
256,192,333622,1,0,0:0:0:0:
256,192,333694,1,0,0:0:0:0:
256,192,333766,1,8,0:0:0:0:
256,192,333839,1,0,0:0:0:0:
256,192,333911,1,8,0:0:0:0:
256,192,333983,1,8,0:0:0:0:
256,192,334055,1,0,0:0:0:0:
256,192,334127,1,0,0:0:0:0:
256,192,334199,1,8,0:0:0:0:
256,192,334271,1,0,0:0:0:0:
256,192,334343,1,0,0:0:0:0:
256,192,334415,1,0,0:0:0:0:
256,192,334488,1,8,0:0:0:0:
256,192,334560,1,0,0:0:0:0:
256,192,334632,1,8,0:0:0:0:
256,192,334704,1,8,0:0:0:0:
256,192,334776,1,0,0:0:0:0:
256,192,334848,1,0,0:0:0:0:
256,192,334920,1,8,0:0:0:0:
256,192,334992,1,8,0:0:0:0:
256,192,335064,1,8,0:0:0:0:
256,192,335137,1,0,0:0:0:0:
256,192,335209,1,8,0:0:0:0:
256,192,335281,1,0,0:0:0:0:
256,192,335353,1,8,0:0:0:0:
256,192,335425,1,8,0:0:0:0:
256,192,335497,1,0,0:0:0:0:
256,192,335569,1,0,0:0:0:0:
256,192,335641,1,8,0:0:0:0:
256,192,335714,1,0,0:0:0:0:
256,192,335786,1,8,0:0:0:0:
256,192,335858,1,8,0:0:0:0:
256,192,335930,1,0,0:0:0:0:
256,192,336002,1,0,0:0:0:0:
256,192,336074,1,8,0:0:0:0:
256,192,336146,1,0,0:0:0:0:
256,192,336218,1,8,0:0:0:0:
256,192,336290,1,8,0:0:0:0:
256,192,336363,1,0,0:0:0:0:
256,192,336435,1,0,0:0:0:0:
256,192,336507,1,8,0:0:0:0:
256,192,336579,1,0,0:0:0:0:
256,192,336651,1,8,0:0:0:0:
256,192,336723,1,8,0:0:0:0:
256,192,336795,1,8,0:0:0:0:
256,192,336867,1,8,0:0:0:0:
256,192,336939,1,0,0:0:0:0:
256,192,337084,1,0,0:0:0:0:
256,192,337156,1,8,0:0:0:0:
256,192,337228,1,8,0:0:0:0:
256,192,337300,1,8,0:0:0:0:
256,192,337372,1,0,0:0:0:0:
256,192,337444,1,0,0:0:0:0:
256,192,337516,1,8,0:0:0:0:
256,192,337589,1,0,0:0:0:0:
256,192,337661,1,8,0:0:0:0:
256,192,337733,1,8,0:0:0:0:
256,192,337805,1,0,0:0:0:0:
256,192,337877,1,0,0:0:0:0:
256,192,337949,1,8,0:0:0:0:
256,192,338021,1,0,0:0:0:0:
256,192,338093,1,8,0:0:0:0:
256,192,338165,1,8,0:0:0:0:
256,192,338238,1,0,0:0:0:0:
256,192,338310,1,0,0:0:0:0:
256,192,338382,1,8,0:0:0:0:
256,192,338454,1,0,0:0:0:0:
256,192,338526,1,8,0:0:0:0:
256,192,338598,1,8,0:0:0:0:
256,192,338670,1,0,0:0:0:0:
256,192,338742,1,0,0:0:0:0:
256,192,338814,1,8,0:0:0:0:
256,192,338887,1,0,0:0:0:0:
256,192,338959,1,8,0:0:0:0:
256,192,339031,1,8,0:0:0:0:
256,192,339103,1,8,0:0:0:0:
256,192,339175,1,8,0:0:0:0:
256,192,339247,1,0,0:0:0:0:
256,192,339391,1,8,0:0:0:0:
256,192,339464,1,8,0:0:0:0:
256,192,339536,1,8,0:0:0:0:
256,192,339608,1,8,0:0:0:0:
256,192,339680,1,0,0:0:0:0:
256,192,339752,1,0,0:0:0:0:
256,192,339824,1,0,0:0:0:0:
256,192,339896,1,0,0:0:0:0:
256,192,339968,1,8,0:0:0:0:
256,192,340040,1,8,0:0:0:0:
256,192,340113,1,0,0:0:0:0:
256,192,340185,1,8,0:0:0:0:
256,192,340257,1,0,0:0:0:0:
256,192,340329,1,0,0:0:0:0:
256,192,340401,1,8,0:0:0:0:
256,192,340473,1,0,0:0:0:0:
256,192,340545,1,8,0:0:0:0:
256,192,340617,1,8,0:0:0:0:
256,192,340689,1,0,0:0:0:0:
256,192,340762,1,8,0:0:0:0:
256,192,340834,1,0,0:0:0:0:
256,192,340906,1,0,0:0:0:0:
256,192,340978,1,8,0:0:0:0:
256,192,341050,1,0,0:0:0:0:
256,192,341122,1,8,0:0:0:0:
256,192,341194,1,8,0:0:0:0:
256,192,341266,1,0,0:0:0:0:
256,192,341339,1,0,0:0:0:0:
256,192,341411,1,0,0:0:0:0:
256,192,341483,1,0,0:0:0:0:
256,192,341555,1,8,0:0:0:0:
256,192,341627,1,8,0:0:0:0:
256,192,341699,1,0,0:0:0:0:
256,192,341771,1,0,0:0:0:0:
256,192,341843,1,0,0:0:0:0:
256,192,341915,1,0,0:0:0:0:
256,192,341988,1,8,0:0:0:0:
256,192,342060,1,8,0:0:0:0:
256,192,342132,1,0,0:0:0:0:
256,192,342204,1,0,0:0:0:0:
256,192,342276,1,8,0:0:0:0:
256,192,342420,1,8,0:0:0:0:
256,192,342564,1,0,0:0:0:0:
256,192,342709,1,0,0:0:0:0:
256,192,342853,1,8,0:0:0:0:
256,192,342997,1,0,0:0:0:0:
256,192,343141,1,8,0:0:0:0:
256,192,343286,1,8,0:0:0:0:
256,192,343430,1,4,0:0:0:0:
256,192,343574,1,8,0:0:0:0:
256,192,343718,1,8,0:0:0:0:
256,192,343863,1,8,0:0:0:0:
256,192,344007,1,4,0:0:0:0:
256,192,344295,1,12,0:0:0:0:
256,192,344584,1,8,0:0:0:0:
256,192,344656,1,8,0:0:0:0:
256,192,344728,1,0,0:0:0:0:
256,192,344800,1,0,0:0:0:0:
256,192,344872,1,8,0:0:0:0:
256,192,344944,1,0,0:0:0:0:
256,192,345016,1,8,0:0:0:0:
256,192,345089,1,8,0:0:0:0:
256,192,345161,1,0,0:0:0:0:
256,192,345233,1,0,0:0:0:0:
256,192,345305,1,8,0:0:0:0:
256,192,345377,1,0,0:0:0:0:
256,192,345449,1,8,0:0:0:0:
256,192,345521,1,8,0:0:0:0:
256,192,345593,1,8,0:0:0:0:
256,192,345665,1,0,0:0:0:0:
256,192,345738,1,8,0:0:0:0:
256,192,345810,1,8,0:0:0:0:
256,192,345882,1,0,0:0:0:0:
256,192,345954,1,0,0:0:0:0:
256,192,346026,1,8,0:0:0:0:
256,192,346098,1,0,0:0:0:0:
256,192,346170,1,8,0:0:0:0:
256,192,346242,1,8,0:0:0:0:
256,192,346314,1,0,0:0:0:0:
256,192,346387,1,0,0:0:0:0:
256,192,346459,1,8,0:0:0:0:
256,192,346531,1,0,0:0:0:0:
256,192,346603,1,8,0:0:0:0:
256,192,346675,1,8,0:0:0:0:
256,192,346747,1,8,0:0:0:0:
256,192,346819,1,8,0:0:0:0:
256,192,346891,1,0,0:0:0:0:
256,192,347036,1,8,0:0:0:0:
256,192,347108,1,0,0:0:0:0:
256,192,347252,1,0,0:0:0:0:
256,192,347324,1,8,0:0:0:0:
256,192,347468,1,0,0:0:0:0:
256,192,347540,1,0,0:0:0:0:
256,192,347613,1,0,0:0:0:0:
256,192,347685,1,0,0:0:0:0:
256,192,347757,1,8,0:0:0:0:
256,192,347901,1,0,0:0:0:0:
256,192,348045,1,12,0:0:0:0:
256,192,348238,1,4,0:0:0:0:
256,192,348430,1,4,0:0:0:0:
256,192,348622,1,12,0:0:0:0:
256,192,348814,1,12,0:0:0:0:
256,192,349007,1,4,0:0:0:0:
256,192,349199,1,12,0:0:0:0:
256,192,351038,1,0,0:0:0:0:
256,192,351109,1,0,0:0:0:0:
256,192,351180,1,8,0:0:0:0:
256,192,351250,1,8,0:0:0:0:
256,192,351321,1,8,0:0:0:0:
256,192,351392,1,8,0:0:0:0:
256,192,351463,1,0,0:0:0:0:
256,192,351604,1,0,0:0:0:0:
256,192,351675,1,0,0:0:0:0:
256,192,351746,1,0,0:0:0:0:
256,192,351816,1,0,0:0:0:0:
256,192,351887,1,8,0:0:0:0:
256,192,352029,1,0,0:0:0:0:
256,192,352099,1,0,0:0:0:0:
256,192,352170,1,8,0:0:0:0:
256,192,352241,1,8,0:0:0:0:
256,192,352312,1,0,0:0:0:0:
256,192,352453,1,0,0:0:0:0:
256,192,352595,1,8,0:0:0:0:
256,192,352736,1,0,0:0:0:0:
256,192,352807,1,0,0:0:0:0:
256,192,352878,1,0,0:0:0:0:
256,192,352949,1,0,0:0:0:0:
256,192,353019,1,8,0:0:0:0:
256,192,353161,1,0,0:0:0:0:
256,192,353232,1,0,0:0:0:0:
256,192,353302,1,8,0:0:0:0:
256,192,353373,1,0,0:0:0:0:
256,192,353444,1,8,0:0:0:0:
256,192,353515,1,8,0:0:0:0:
256,192,353585,1,0,0:0:0:0:
256,192,353656,1,0,0:0:0:0:
256,192,353727,1,8,0:0:0:0:
256,192,353868,1,0,0:0:0:0:
256,192,353939,1,0,0:0:0:0:
256,192,354010,1,0,0:0:0:0:
256,192,354081,1,0,0:0:0:0:
256,192,354151,1,8,0:0:0:0:
256,192,354293,1,0,0:0:0:0:
256,192,354364,1,0,0:0:0:0:
256,192,354434,1,8,0:0:0:0:
256,192,354505,1,8,0:0:0:0:
256,192,354576,1,0,0:0:0:0:
256,192,354717,1,0,0:0:0:0:
256,192,354859,1,8,0:0:0:0:
256,192,355000,1,0,0:0:0:0:
256,192,355071,1,0,0:0:0:0:
256,192,355142,1,8,0:0:0:0:
256,192,355213,1,0,0:0:0:0:
256,192,355283,1,0,0:0:0:0:
256,192,355354,1,0,0:0:0:0:
256,192,355425,1,8,0:0:0:0:
256,192,355496,1,8,0:0:0:0:
256,192,355566,1,8,0:0:0:0:
256,192,355637,1,8,0:0:0:0:
256,192,355708,1,0,0:0:0:0:
256,192,355849,1,0,0:0:0:0:
256,192,355991,1,8,0:0:0:0:
256,192,356062,1,8,0:0:0:0:
256,192,356132,1,0,0:0:0:0:
256,192,356203,1,0,0:0:0:0:
256,192,356274,1,8,0:0:0:0:
256,192,356345,1,0,0:0:0:0:
256,192,356415,1,8,0:0:0:0:
256,192,356486,1,8,0:0:0:0:
256,192,356557,1,0,0:0:0:0:
256,192,356628,1,0,0:0:0:0:
256,192,356699,1,8,0:0:0:0:
256,192,356769,1,0,0:0:0:0:
256,192,356840,1,8,0:0:0:0:
256,192,356911,1,8,0:0:0:0:
256,192,356982,1,0,0:0:0:0:
256,192,357052,1,0,0:0:0:0:
256,192,357123,1,8,0:0:0:0:
256,192,357194,1,0,0:0:0:0:
256,192,357265,1,0,0:0:0:0:
256,192,357335,1,0,0:0:0:0:
256,192,357406,1,8,0:0:0:0:
256,192,357477,1,0,0:0:0:0:
256,192,357548,1,8,0:0:0:0:
256,192,357618,1,8,0:0:0:0:
256,192,357689,1,0,0:0:0:0:
256,192,357760,1,0,0:0:0:0:
256,192,357831,1,8,0:0:0:0:
256,192,357901,1,0,0:0:0:0:
256,192,357972,1,8,0:0:0:0:
256,192,358043,1,8,0:0:0:0:
256,192,358114,1,0,0:0:0:0:
256,192,358184,1,0,0:0:0:0:
256,192,358255,1,8,0:0:0:0:
256,192,358326,1,8,0:0:0:0:
256,192,358397,1,0,0:0:0:0:
256,192,358467,1,0,0:0:0:0:
256,192,358538,1,0,0:0:0:0:
256,192,358609,1,0,0:0:0:0:
256,192,358680,1,8,0:0:0:0:
256,192,358750,1,8,0:0:0:0:
256,192,358821,1,0,0:0:0:0:
256,192,358892,1,0,0:0:0:0:
256,192,358963,1,8,0:0:0:0:
256,192,359033,1,0,0:0:0:0:
256,192,359104,1,8,0:0:0:0:
256,192,359175,1,8,0:0:0:0:
256,192,359246,1,8,0:0:0:0:
256,192,359316,1,0,0:0:0:0:
256,192,359387,1,8,0:0:0:0:
256,192,359458,1,8,0:0:0:0:
256,192,359529,1,0,0:0:0:0:
256,192,359599,1,0,0:0:0:0:
256,192,359670,1,0,0:0:0:0:
256,192,359741,1,0,0:0:0:0:
256,192,359812,1,8,0:0:0:0:
256,192,359882,1,8,0:0:0:0:
256,192,359953,1,0,0:0:0:0:
256,192,360024,1,0,0:0:0:0:
256,192,360095,1,8,0:0:0:0:
256,192,360165,1,0,0:0:0:0:
256,192,360236,1,8,0:0:0:0:
256,192,360307,1,8,0:0:0:0:
256,192,360378,1,8,0:0:0:0:
256,192,360449,1,0,0:0:0:0:
256,192,360519,1,8,0:0:0:0:
256,192,360661,1,0,0:0:0:0:
256,192,360732,1,0,0:0:0:0:
256,192,360802,1,8,0:0:0:0:
256,192,360873,1,0,0:0:0:0:
256,192,360944,1,0,0:0:0:0:
256,192,361015,1,0,0:0:0:0:
256,192,361085,1,8,0:0:0:0:
256,192,361156,1,8,0:0:0:0:
256,192,361227,1,0,0:0:0:0:
256,192,361298,1,0,0:0:0:0:
256,192,361368,1,8,0:0:0:0:
256,192,361439,1,0,0:0:0:0:
256,192,361510,1,8,0:0:0:0:
256,192,361581,1,8,0:0:0:0:
256,192,361651,1,8,0:0:0:0:
256,192,361722,1,0,0:0:0:0:
256,192,361793,1,0,0:0:0:0:
256,192,361864,1,0,0:0:0:0:
256,192,361934,1,8,0:0:0:0:
256,192,362005,1,0,0:0:0:0:
256,192,362076,1,8,0:0:0:0:
256,192,362147,1,8,0:0:0:0:
256,192,362217,1,0,0:0:0:0:
256,192,362288,1,0,0:0:0:0:
256,192,362359,1,8,0:0:0:0:
256,192,362430,1,0,0:0:0:0:
256,192,362500,1,8,0:0:0:0:
256,192,362571,1,8,0:0:0:0:
256,192,362642,1,0,0:0:0:0:
256,192,362713,1,0,0:0:0:0:
256,192,362783,1,8,0:0:0:0:
256,192,362925,1,0,0:0:0:0:
256,192,362996,1,0,0:0:0:0:
256,192,363066,1,8,0:0:0:0:
256,192,363208,1,0,0:0:0:0:
256,192,363279,1,0,0:0:0:0:
256,192,363349,1,8,0:0:0:0:
256,192,363491,1,0,0:0:0:0:
256,192,363562,1,0,0:0:0:0:
256,192,363632,1,8,0:0:0:0:
256,192,363774,1,0,0:0:0:0:
256,192,363845,1,0,0:0:0:0:
256,192,363915,1,8,0:0:0:0:
256,192,364057,1,0,0:0:0:0:
256,192,364128,1,0,0:0:0:0:
256,192,364199,1,8,0:0:0:0:
256,192,364340,1,0,0:0:0:0:
256,192,364411,1,0,0:0:0:0:
256,192,364482,1,8,0:0:0:0:
256,192,364623,1,0,0:0:0:0:
256,192,364694,1,0,0:0:0:0:
256,192,364765,1,8,0:0:0:0:
256,192,364835,1,8,0:0:0:0:
256,192,364906,1,8,0:0:0:0:
256,192,364977,1,0,0:0:0:0:
256,192,365048,1,8,0:0:0:0:
256,192,365118,1,8,0:0:0:0:
256,192,365189,1,0,0:0:0:0:
256,192,365260,1,0,0:0:0:0:
256,192,365331,1,8,0:0:0:0:
256,192,365401,1,0,0:0:0:0:
256,192,365472,1,8,0:0:0:0:
256,192,365543,1,8,0:0:0:0:
256,192,365614,1,0,0:0:0:0:
256,192,365684,1,0,0:0:0:0:
256,192,365755,1,8,0:0:0:0:
256,192,365826,1,0,0:0:0:0:
256,192,365897,1,8,0:0:0:0:
256,192,365967,1,8,0:0:0:0:
256,192,366038,1,0,0:0:0:0:
256,192,366109,1,0,0:0:0:0:
256,192,366180,1,8,0:0:0:0:
256,192,366250,1,0,0:0:0:0:
256,192,366321,1,0,0:0:0:0:
256,192,366392,1,0,0:0:0:0:
256,192,366463,1,8,0:0:0:0:
256,192,366533,1,0,0:0:0:0:
256,192,366604,1,8,0:0:0:0:
256,192,366675,1,8,0:0:0:0:
256,192,366746,1,0,0:0:0:0:
256,192,366816,1,0,0:0:0:0:
256,192,366887,1,8,0:0:0:0:
256,192,366958,1,0,0:0:0:0:
256,192,367029,1,8,0:0:0:0:
256,192,367099,1,8,0:0:0:0:
256,192,367170,1,0,0:0:0:0:
256,192,367241,1,0,0:0:0:0:
256,192,367312,1,8,0:0:0:0:
256,192,367382,1,8,0:0:0:0:
256,192,367453,1,0,0:0:0:0:
256,192,367524,1,0,0:0:0:0:
256,192,367595,1,0,0:0:0:0:
256,192,367665,1,0,0:0:0:0:
256,192,367736,1,8,0:0:0:0:
256,192,367807,1,8,0:0:0:0:
256,192,367878,1,0,0:0:0:0:
256,192,367949,1,0,0:0:0:0:
256,192,368019,1,8,0:0:0:0:
256,192,368090,1,0,0:0:0:0:
256,192,368161,1,8,0:0:0:0:
256,192,368232,1,8,0:0:0:0:
256,192,368302,1,8,0:0:0:0:
256,192,368373,1,0,0:0:0:0:
256,192,368444,1,8,0:0:0:0:
256,192,368515,1,8,0:0:0:0:
256,192,368585,1,0,0:0:0:0:
256,192,368656,1,0,0:0:0:0:
256,192,368727,1,8,0:0:0:0:
256,192,368798,1,8,0:0:0:0:
256,192,368868,1,8,0:0:0:0:
256,192,368939,1,8,0:0:0:0:
256,192,369010,1,0,0:0:0:0:
256,192,369151,1,0,0:0:0:0:
256,192,369293,1,8,0:0:0:0:
256,192,369364,1,8,0:0:0:0:
256,192,369434,1,0,0:0:0:0:
256,192,369505,1,0,0:0:0:0:
256,192,369576,1,8,0:0:0:0:
256,192,369717,1,0,0:0:0:0:
256,192,369788,1,0,0:0:0:0:
256,192,369859,1,8,0:0:0:0:
256,192,369930,1,8,0:0:0:0:
256,192,370000,1,0,0:0:0:0:
256,192,370071,1,0,0:0:0:0:
256,192,370142,1,8,0:0:0:0:
256,192,370213,1,0,0:0:0:0:
256,192,370283,1,0,0:0:0:0:
256,192,370354,1,0,0:0:0:0:
256,192,370425,1,8,0:0:0:0:
256,192,370496,1,0,0:0:0:0:
256,192,370566,1,8,0:0:0:0:
256,192,370637,1,8,0:0:0:0:
256,192,370708,1,8,0:0:0:0:
256,192,370779,1,0,0:0:0:0:
256,192,370849,1,0,0:0:0:0:
256,192,370920,1,0,0:0:0:0:
256,192,370991,1,8,0:0:0:0:
256,192,371062,1,0,0:0:0:0:
256,192,371132,1,8,0:0:0:0:
256,192,371203,1,8,0:0:0:0:
256,192,371274,1,0,0:0:0:0:
256,192,371345,1,0,0:0:0:0:
256,192,371415,1,8,0:0:0:0:
256,192,371486,1,0,0:0:0:0:
256,192,371557,1,8,0:0:0:0:
256,192,371628,1,0,0:0:0:0:
256,192,371699,1,0,0:0:0:0:
256,192,371769,1,0,0:0:0:0:
256,192,371840,1,8,0:0:0:0:
256,192,371911,1,8,0:0:0:0:
256,192,371982,1,0,0:0:0:0:
256,192,372052,1,0,0:0:0:0:
256,192,372123,1,8,0:0:0:0:
256,192,372194,1,0,0:0:0:0:
256,192,372265,1,8,0:0:0:0:
256,192,372335,1,8,0:0:0:0:
256,192,372406,1,0,0:0:0:0:
256,192,372548,1,8,0:0:0:0:
256,192,372618,1,0,0:0:0:0:
256,192,372689,1,8,0:0:0:0:
256,192,372831,1,0,0:0:0:0:
256,192,372972,1,8,0:0:0:0:
256,192,373066,1,8,0:0:0:0:
256,192,373161,1,0,0:0:0:0:
256,192,373255,1,8,0:0:0:0:
256,192,373349,1,0,0:0:0:0:
256,192,373444,1,0,0:0:0:0:
256,192,373538,1,8,0:0:0:0:
256,192,373632,1,8,0:0:0:0:
256,192,373727,1,0,0:0:0:0:
256,192,373821,1,8,0:0:0:0:
256,192,373915,1,0,0:0:0:0:
256,192,374010,1,0,0:0:0:0:
256,192,374104,1,8,0:0:0:0:
256,192,374203,1,8,0:0:0:0:
256,192,374302,1,8,0:0:0:0:
256,192,374401,1,8,0:0:0:0:
256,192,374500,1,8,0:0:0:0:
256,192,374599,1,8,0:0:0:0:
256,192,374698,1,8,0:0:0:0:
256,192,374797,1,8,0:0:0:0:
256,192,374896,1,8,0:0:0:0:
256,192,374995,1,8,0:0:0:0:
256,192,375094,1,8,0:0:0:0:
256,192,375193,1,8,0:0:0:0:
256,192,375292,1,8,0:0:0:0:
256,192,375391,1,8,0:0:0:0:
256,192,375490,1,8,0:0:0:0:
256,192,375589,1,8,0:0:0:0:
256,192,375688,1,0,0:0:0:0:
256,192,375787,1,0,0:0:0:0:
256,192,375886,1,0,0:0:0:0:
256,192,375985,1,0,0:0:0:0:
256,192,376084,1,0,0:0:0:0:
256,192,376183,1,0,0:0:0:0:
256,192,376282,1,0,0:0:0:0:
256,192,376381,1,0,0:0:0:0:
256,192,376480,1,0,0:0:0:0:
256,192,376576,1,8,0:0:0:0:
256,192,376672,1,8,0:0:0:0:
256,192,376768,1,0,0:0:0:0:
256,192,376864,1,12,0:0:0:0:
