osu file format v14

[General]
AudioFilename: audio.mp3
AudioLeadIn: 0
PreviewTime: 325834
Countdown: 0
SampleSet: None
StackLeniency: 0.7
Mode: 1
LetterboxInBreaks: 0
WidescreenStoryboard: 0

[Editor]
DistanceSpacing: 0.6
BeatDivisor: 4
GridSize: 32
TimelineZoom: 1.900002

[Metadata]
Title:Fast Paced Society
TitleUnicode:Fast Paced Society
Artist:Vektor
ArtistUnicode:Vektor
Creator:3san
Version:Robotic Torment
Source:
Tags:outer isolation blackened progressive technical thrash metal english marathon
BeatmapID:2344690
BeatmapSetID:1118123

[Difficulty]
HPDrainRate:5
CircleSize:5
OverallDifficulty:7
ApproachRate:5
SliderMultiplier:1.4
SliderTickRate:1

[Events]
//Background and Video events
0,0,"bg1.jpg",0,0
//Break Periods
//Storyboard Layer 0 (Background)
//Storyboard Layer 1 (Fail)
//Storyboard Layer 2 (Pass)
//Storyboard Layer 3 (Foreground)
//Storyboard Layer 4 (Overlay)
//Storyboard Sound Samples

[TimingPoints]
200,454.545454545455,4,1,0,80,1,0
9063,-100,4,1,0,80,0,0
9290,-98.3680736580135,4,1,0,80,0,0
9442,-97.3093952221087,4,1,0,80,0,0
9593,-96.2732620269373,4,1,0,80,0,0
9745,-95.2589614868019,4,1,0,80,0,0
9859,-94.5121518999305,4,1,0,80,0,0
9972,-93.7770488175183,4,1,0,80,0,0
10086,-93.053205962105,4,1,0,80,0,0
10200,-92.3404518587671,4,1,0,80,0,0
10275,-91.8713176827481,4,1,0,80,0,0
10351,-91.4069262684311,4,1,0,80,0,0
10427,-90.9472060563563,4,1,0,80,0,0
10503,-90.4920869194593,4,1,0,80,0,0
10578,-90.0415001274087,4,1,0,80,0,0
10654,-89.5953783120052,4,1,0,80,0,0
10730,-89.1536554336033,4,1,0,80,0,0
10806,-88.7162667485222,4,1,0,80,0,0
10881,-88.2831487774108,4,1,0,80,0,0
10957,-87.8542392745348,4,1,0,80,0,0
11033,-87.4294771979552,4,1,0,80,0,0
11109,-87.0088026805672,4,1,0,80,0,0
23381,-86.9565217391304,4,1,0,80,0,0
23609,-84.2572136813493,4,1,0,80,0,0
23722,-82.9694431837699,4,1,0,80,0,0
23836,-81.7204441669581,4,1,0,80,0,0
23912,-80.9084399639148,4,1,0,80,0,0
23987,-80.1124137389585,4,1,0,80,0,0
24063,-79.3319614192805,4,1,0,80,0,0
24177,-78.1893229351959,4,1,0,80,0,0
24290,-77.079132520611,4,1,0,80,0,0
24404,-76.0000273600098,4,1,0,80,0,0
24518,-74.9506637256026,4,1,0,80,0,0
24593,-74.2671135566446,4,1,0,80,0,0
24669,-73.595864501182,4,1,0,80,0,0
24745,-72.9366406696167,4,1,0,80,0,0
24859,-71.9696806129514,4,1,0,80,0,0
24972,-71.0280241069114,4,1,0,80,0,0
25086,-70.1106907585696,4,1,0,80,0,0
25200,-69.2167501766758,4,1,0,80,0,0
25313,-68.3453188240778,4,1,0,80,0,0
25427,-67.4955571049536,4,1,0,80,0,0
25540,-66.6666666666667,4,1,0,80,0,0
25654,283.018867924528,4,1,0,80,1,0
25654,-80,4,1,0,80,0,0
25795,-80.5031122503196,4,1,0,80,0,0
25937,-81.0126582278481,4,1,0,80,0,0
26007,-81.2698247578769,4,1,0,80,0,0
26078,-81.5286956550097,4,1,0,80,0,0
26220,-82.0512820512821,4,1,0,80,0,0
26361,-82.5806110634896,4,1,0,80,0,0
26432,-82.8479135995679,4,1,0,80,0,0
26503,-83.1168831168831,4,1,0,80,0,0
26573,-83.3876047661019,4,1,0,80,0,0
26644,-83.6601657140562,4,1,0,80,0,0
26786,-84.2105263157895,4,1,0,80,0,0
26927,-84.7681759922963,4,1,0,80,0,0
27069,-85.3333333333333,4,1,0,80,0,0
27139,-85.618710770577,4,1,0,80,0,0
27210,-85.906077167711,4,1,0,80,0,0
27352,-86.4864864864865,4,1,0,80,0,0
27493,-87.0747920218593,4,1,0,80,0,0
27564,-87.3720327365532,4,1,0,80,0,0
27635,-87.6712328767123,4,1,0,80,0,0
27705,-87.9724892431639,4,1,0,80,0,0
27776,-88.2759010321218,4,1,0,80,0,0
27918,-88.8888888888889,4,1,0,80,0,0
28059,-89.5104494498688,4,1,0,80,0,0
28201,-90.1408450704225,4,1,0,80,0,0
28271,-90.4593435003605,4,1,0,80,0,0
28342,-90.7801830491611,4,1,0,80,0,0
28484,-91.4285714285714,4,1,0,80,0,0
28625,-92.0862885358096,4,1,0,80,0,0
28696,-92.4187939162556,4,1,0,80,0,0
28767,-92.7536231884058,4,1,0,80,0,0
28837,-93.0908874261207,4,1,0,80,0,0
28908,-93.4307005807652,4,1,0,80,0,0
28979,-93.7729157562879,4,1,0,80,0,0
29050,-94.1176470588235,4,1,0,80,0,0
29120,-94.4649223403873,4,1,0,80,0,0
29191,-94.8147698655906,4,1,0,80,0,0
29262,-95.1673088873895,4,1,0,80,0,0
29333,-95.5223880597015,4,1,0,80,0,0
29403,-95.8801268302318,4,1,0,80,0,0
29474,-96.2406478150486,4,1,0,80,0,0
29545,-96.603796915634,4,1,0,80,0,0
29616,-96.969696969697,4,1,0,80,0,0
29757,-97.7098759279995,4,1,0,80,0,0
29828,-98.0843152390658,4,1,0,80,0,0
29899,-98.4615384615385,4,1,0,80,0,0
30040,-99.2248554293856,4,1,0,80,0,0
30182,-100,4,1,0,80,0,0
34003,-100,4,1,0,80,0,0
34144,-103.896103896104,4,1,0,80,0,0
34215,-105.960264900662,4,1,0,80,0,0
34356,-110.344827586207,4,1,0,80,0,0
34427,-112.676056338028,4,1,0,80,0,0
34569,-117.647058823529,4,1,0,80,0,0
34710,-100,4,1,0,80,0,0
41503,-100,4,1,0,80,0,0
41644,-98.159509202454,4,1,0,80,0,0
41715,-97.2644376899696,4,1,0,80,0,0
41786,-96.3855421686747,4,1,0,80,0,0
41856,-95.5223880597015,4,1,0,80,0,0
41927,-94.6745562130178,4,1,0,80,0,0
42069,-93.0232558139535,4,1,0,80,0,0
42139,-92.2190201729107,4,1,0,80,0,0
42210,-91.4285714285714,4,1,0,80,0,0
42281,-90.6515580736544,4,1,0,80,0,0
42352,-89.8876404494382,4,1,0,80,0,0
42493,-88.3977900552486,4,1,0,80,0,0
42635,-86.9565217391304,4,1,0,80,0,0
42729,-87.9120879120879,4,1,0,80,0,0
42823,-88.8888888888889,4,1,0,80,0,0
42918,-89.8876404494382,4,1,0,80,0,0
43012,-90.9090909090909,4,1,0,80,0,0
43106,-91.9540229885058,4,1,0,80,0,0
43201,-93.0232558139535,4,1,0,80,0,0
43295,-94.1176470588235,4,1,0,80,0,0
43389,-95.2380952380952,4,1,0,80,0,0
43484,-96.3855421686747,4,1,0,80,0,0
43578,-97.5609756097561,4,1,0,80,0,0
43672,-98.7654320987654,4,1,0,80,0,0
43767,303.030303030303,4,1,0,80,1,0
43767,-93.4579439252336,4,1,0,80,0,0
43868,-91.283602635175,4,1,0,80,0,0
43969,-89.2082146492378,4,1,0,80,0,0
44070,-87.2250231146311,4,1,0,80,0,0
44171,-85.3280907754361,4,1,0,80,0,0
44272,-83.5119096334328,4,1,0,80,0,0
44373,-81.7714977267524,4,1,0,80,0,0
44475,258.620689655172,4,1,0,80,1,8
44475,-80,4,1,0,80,0,8
44733,-72.7272727272727,4,1,0,80,0,8
44992,-66.6666666666667,4,1,0,80,0,8
45181,283.018867924528,4,1,0,80,1,0
45181,-80,4,1,0,80,0,0
46313,-100,4,1,0,80,0,0
47141,283.018867924528,4,1,0,80,1,8
47141,-117.647058823529,4,1,0,80,0,8
47211,-112.676056338028,4,1,0,80,0,8
47282,-108.108108108108,4,1,0,80,0,8
47353,-103.896103896104,4,1,0,80,0,8
47424,283.018867924528,4,1,0,80,1,0
47424,-99.9999999999999,4,1,0,80,0,8
51386,-100,4,1,0,80,0,8
51527,-96.3855421686747,4,1,0,80,0,8
51598,-94.6745562130178,4,1,0,80,0,8
51669,-93.0232558139535,4,1,0,80,0,8
51810,-89.8876404494382,4,1,0,80,0,8
51952,-86.9565217391304,4,1,0,80,0,8
52235,-100,4,1,0,80,0,0
55914,-100,4,1,0,80,0,0
56056,-96.3855421686747,4,1,0,80,0,0
56197,-93.0232558139535,4,1,0,80,0,0
56339,-89.8876404494382,4,1,0,80,0,0
56480,-86.9565217391304,4,1,0,80,0,0
56763,-100,4,1,0,80,0,0
58744,-100,4,1,0,80,0,0
58886,-98.159509202454,4,1,0,80,0,0
58957,-97.2644376899696,4,1,0,80,0,0
59027,-96.3855421686747,4,1,0,80,0,0
59098,-95.5223880597015,4,1,0,80,0,0
59169,-94.6745562130178,4,1,0,80,0,0
59240,-93.841642228739,4,1,0,80,0,0
59310,-93.0232558139535,4,1,0,80,0,0
59452,-91.4285714285714,4,1,0,80,0,0
59523,-90.6515580736544,4,1,0,80,0,0
59593,-89.8876404494382,4,1,0,80,0,0
59735,-88.3977900552486,4,1,0,80,0,0
59876,-86.9565217391304,4,1,0,80,0,0
59971,-87.9120879120879,4,1,0,80,0,0
60065,-88.8888888888889,4,1,0,80,0,0
60159,-89.8876404494382,4,1,0,80,0,0
60254,-90.9090909090909,4,1,0,80,0,0
60348,-91.9540229885058,4,1,0,80,0,0
60442,-93.0232558139535,4,1,0,80,0,0
60537,-94.1176470588235,4,1,0,80,0,0
60631,-95.2380952380952,4,1,0,80,0,0
60725,-96.3855421686747,4,1,0,80,0,0
60820,-97.5609756097561,4,1,0,80,0,0
60914,-98.7654320987654,4,1,0,80,0,0
61008,303.030303030303,4,1,0,80,1,0
61008,-93.4579439252336,4,1,0,80,0,0
61109,-88.3838049051244,4,1,0,80,0,0
61210,-83.8323453691432,4,1,0,80,0,0
61311,-79.7266333196735,4,1,0,80,0,0
61412,-76.0043596100672,4,1,0,80,0,0
61513,-72.6141003512344,4,1,0,80,0,0
61614,-69.5134268659663,4,1,0,80,0,0
61715,-66.6666666666667,4,1,0,80,0,0
62220,-80,4,1,0,80,0,0
62579,472.44094488189,4,1,0,80,1,8
64151,348.837209302326,4,1,0,80,1,0
64151,-86.9565217391304,4,1,0,80,0,0
64209,-88.2353200692118,4,1,0,80,0,0
64267,-89.5522120739665,4,1,0,80,0,0
64325,-90.9090909090909,4,1,0,80,0,0
64383,-92.3077207100679,4,1,0,80,0,0
64441,-93.7499707031342,4,1,0,80,0,0
64499,-95.2380952380952,4,1,0,80,0,0
64587,-97.5609756097561,4,1,0,80,0,0
64674,-100,4,1,0,80,0,0
64848,-95.9999692800098,4,1,0,80,0,0
65023,-92.3077207100679,4,1,0,80,0,0
65110,-90.5660103951667,4,1,0,80,0,0
65197,348.837209302326,4,1,0,80,1,0
65197,-88.888888888889,4,1,0,80,0,0
65371,-85.7142612244969,4,1,0,80,0,0
65545,-82.7586435196259,4,1,0,80,0,0
65720,-80,4,1,0,80,0,0
66069,-86.9565217391304,4,1,0,80,0,0
66243,-90.9090909090909,4,1,0,80,0,0
66417,-95.2380952380952,4,1,0,80,0,0
66592,-100,4,1,0,80,0,0
66766,-97.6095423088561,4,1,0,80,0,0
66853,-96.4566644320873,4,1,0,80,0,0
66941,-95.2380952380952,4,1,0,80,0,0
67115,-97.5124572164094,4,1,0,80,0,0
67202,-98.6908656669282,4,1,0,80,0,0
67290,-99.8981039339873,4,1,0,80,0,0
67464,-97.5609756097561,4,1,0,80,0,0
67551,-96.3855421686747,4,1,0,80,0,0
67638,-95.2380952380952,4,1,0,80,0,0
67813,-97.5124572164094,4,1,0,80,0,0
67900,-98.6908656669282,4,1,0,80,0,0
67987,-99.8981039339873,4,1,0,80,0,0
68162,-96.4215085530699,4,1,0,80,0,0
68336,-93.090194158218,4,1,0,80,0,0
68510,-89.9814638184534,4,1,0,80,0,0
68685,-86.9565217391304,4,1,0,80,0,0
68772,-88.3827112810809,4,1,0,80,0,0
68859,-89.8563825437803,4,1,0,80,0,0
68947,-91.3801138596219,4,1,0,80,0,0
69034,-92.9564136671956,4,1,0,80,0,0
69208,-96.2778965205168,4,1,0,80,0,0
69295,-98.0293166474366,4,1,0,80,0,0
69383,-100,4,1,0,80,0,0
69557,-97.5609756097561,4,1,0,80,0,0
69644,-96.3855421686747,4,1,0,80,0,0
69731,-95.2380952380952,4,1,0,80,0,0
69906,-97.5124572164094,4,1,0,80,0,0
69993,-98.6908656669282,4,1,0,80,0,0
70080,-99.8981039339873,4,1,0,80,0,0
70255,-97.6095423088561,4,1,0,80,0,0
70342,-96.4566644320873,4,1,0,80,0,0
70429,-95.2380952380952,4,1,0,80,0,0
70603,-97.5124572164094,4,1,0,80,0,0
70691,-98.6908656669282,4,1,0,80,0,0
70778,-99.8981039339873,4,1,0,80,0,0
70952,-97.0873786407767,4,1,0,80,0,0
71127,-94.3396226415094,4,1,0,80,0,0
71301,-91.743119266055,4,1,0,80,0,0
71476,-89.2857142857143,4,1,0,80,0,0
71650,-86.9565217391304,4,1,0,80,0,0
71824,-90.9090909090909,4,1,0,80,0,0
71999,-95.2380952380952,4,1,0,80,0,0
72173,-100,4,1,0,80,0,0
72348,-97.6095423088561,4,1,0,80,0,0
72435,-96.4566644320873,4,1,0,80,0,0
72522,-95.2380952380952,4,1,0,80,0,0
72697,-97.5124572164094,4,1,0,80,0,0
72784,-98.6908656669282,4,1,0,80,0,0
72871,-99.8981039339873,4,1,0,80,0,0
73045,-97.6095423088561,4,1,0,80,0,0
73133,-96.4566644320873,4,1,0,80,0,0
73220,-95.2380952380952,4,1,0,80,0,0
73394,-97.5124572164094,4,1,0,80,0,0
73481,-98.6908656669282,4,1,0,80,0,0
73569,-100,4,1,0,80,0,0
73743,-96.3855421686747,4,1,0,80,0,0
73917,-93.0232558139535,4,1,0,80,0,0
74092,-89.8876404494382,4,1,0,80,0,0
74266,-86.9565217391304,4,1,0,80,0,0
74353,-88.3827112810809,4,1,0,80,0,0
74441,-89.8563825437803,4,1,0,80,0,0
74528,-91.3801138596219,4,1,0,80,0,0
74615,-92.9564136671956,4,1,0,80,0,0
74790,-96.2778965205168,4,1,0,80,0,0
74964,-99.8456386426584,4,1,0,80,0,0
75138,-97.6095423088561,4,1,0,80,0,0
75226,-96.4566644320873,4,1,0,80,0,0
75313,-95.2380952380952,4,1,0,80,0,0
75487,-97.5124572164094,4,1,0,80,0,0
75574,-98.6908656669282,4,1,0,80,0,0
75662,-100,4,1,0,80,0,0
75836,-97.5609756097561,4,1,0,80,0,0
75894,-96.774224765879,4,1,0,80,0,0
75952,-95.9999692800098,4,1,0,80,0,0
76010,-95.2380952380952,4,1,0,80,0,0
76127,-92.8982968026264,4,1,0,80,0,0
76243,-90.670627159661,4,1,0,80,0,0
76359,-88.5473715155502,4,1,0,80,0,0
76534,-85.5426139085447,4,1,0,80,0,0
76708,-82.73502123808,4,1,0,80,0,0
76883,-80.1059320845887,4,1,0,80,0,0
77231,-86.9565217391304,4,1,0,80,0,0
77406,-90.852514570472,4,1,0,80,0,0
77580,-95.1139941219552,4,1,0,80,0,0
77755,-99.7949214364481,4,1,0,80,0,0
86127,-100,4,1,0,80,0,0
86301,-98.6547439120158,4,1,0,80,0,0
86388,-97.9955020064579,4,1,0,80,0,0
86476,-97.3451068995291,4,1,0,80,0,0
86563,-96.7032882019087,4,1,0,80,0,0
86650,-96.0698773860155,4,1,0,80,0,0
86737,-95.4447103109875,4,1,0,80,0,0
86824,-94.8276270808737,4,1,0,80,0,0
86912,-94.2183831371707,4,1,0,80,0,0
86999,-93.6170053417863,4,1,0,80,0,0
87086,-93.0232558139535,4,1,0,80,0,0
87173,-92.4369903255446,4,1,0,80,0,0
87260,-91.8580682615677,4,1,0,80,0,0
87348,-91.2862691758219,4,1,0,80,0,0
87435,-90.7216270379479,4,1,0,80,0,0
87522,-90.1639270357437,4,1,0,80,0,0
87697,-89.0688475470885,4,1,0,80,0,0
87755,-88.7096559573413,4,1,0,80,0,0
87813,-88.3534278479402,4,1,0,80,0,0
87871,-87.999971840009,4,1,0,80,0,0
87958,-87.4751351928214,4,1,0,80,0,0
88045,-86.9565217391304,4,1,0,80,0,0
88220,-86.9565217391304,4,1,0,80,0,0
88307,-88.8888888888889,4,1,0,80,0,0
88394,-90.9090909090909,4,1,0,80,0,0
88481,-93.0232558139535,4,1,0,80,0,0
88569,-95.2380952380952,4,1,0,80,0,0
88656,-97.5609756097561,4,1,0,80,0,0
88743,-100,4,1,0,80,0,0
88917,-100,4,1,0,80,0,0
89092,-98.5281859581571,4,1,0,80,0,0
89266,-97.0990682373412,4,1,0,80,0,0
89441,-95.7109071192644,4,1,0,80,0,0
89615,-94.3617887598124,4,1,0,80,0,0
89790,-93.0501754461058,4,1,0,80,0,0
89877,-92.4079478227764,4,1,0,80,0,0
89964,-91.7745246767931,4,1,0,80,0,0
90138,-90.5334593559087,4,1,0,80,0,0
90313,-89.3254322011037,4,1,0,80,0,0
90487,-88.1492189979197,4,1,0,80,0,0
90574,-87.5726524617986,4,1,0,80,0,0
90662,-87.0035793272535,4,1,0,80,0,0
90836,-86.9565217391304,4,1,0,80,0,0
90923,-88.1057268722467,4,1,0,80,0,0
91010,-89.2857142857143,4,1,0,80,0,0
91098,-90.4977375565611,4,1,0,80,0,0
91185,-91.743119266055,4,1,0,80,0,0
91272,-93.0232558139535,4,1,0,80,0,0
91359,-94.3396226415094,4,1,0,80,0,0
91447,-95.6937799043062,4,1,0,80,0,0
91534,-97.0873786407767,4,1,0,80,0,0
91621,-98.5221674876847,4,1,0,80,0,0
91708,-100,4,1,0,80,0,0
91883,-98.659707868605,4,1,0,80,0,0
92057,-97.3548682301859,4,1,0,80,0,0
92231,-96.0840927980168,4,1,0,80,0,0
92406,-94.8460648367699,4,1,0,80,0,0
92580,-93.639534611513,4,1,0,80,0,0
92667,-93.0477511754257,4,1,0,80,0,0
92755,-92.463400674428,4,1,0,80,0,0
92929,-91.3163618830895,4,1,0,80,0,0
93103,-90.1974331614471,4,1,0,80,0,0
93278,-89.1055936927497,4,1,0,80,0,0
93365,-88.569487634371,4,1,0,80,0,0
93452,-88.0398714970036,4,1,0,80,0,0
93627,-86.9993405449987,4,1,0,80,0,0
93801,-86.9565217391304,4,1,0,80,0,0
93888,-88.3827112810809,4,1,0,80,0,0
93976,-89.8563825437803,4,1,0,80,0,0
94063,-91.3801138596219,4,1,0,80,0,0
94150,-92.9564136671956,4,1,0,80,0,0
94237,-94.5880501240995,4,1,0,80,0,0
94324,-96.2778965205168,4,1,0,80,0,0
94412,-98.0293166474366,4,1,0,80,0,0
94499,-100,4,1,0,80,0,0
94673,-98.6547439120158,4,1,0,80,0,0
94848,-97.3451068995291,4,1,0,80,0,0
95022,-96.0698773860155,4,1,0,80,0,0
95109,-95.4447103109875,4,1,0,80,0,0
95197,-94.8276270808737,4,1,0,80,0,0
95371,-93.6170053417863,4,1,0,80,0,0
95429,-93.2203626831431,4,1,0,80,0,0
95487,-92.8269807189078,4,1,0,80,0,0
95545,-92.4369903255446,4,1,0,80,0,0
95720,-91.2862691758219,4,1,0,80,0,0
95894,-90.1639270357437,4,1,0,80,0,0
96069,-89.0688475470885,4,1,0,80,0,0
96156,-88.531222748983,4,1,0,80,0,0
96243,-87.999971840009,4,1,0,80,0,0
96417,-86.9565217391304,4,1,0,80,0,0
96592,-86.9565217391304,4,1,0,80,0,0
96679,-88.3827112810809,4,1,0,80,0,0
96766,-89.8563825437803,4,1,0,80,0,0
96853,-91.3801138596219,4,1,0,80,0,0
96941,-92.9564136671956,4,1,0,80,0,0
97028,-94.5880501240995,4,1,0,80,0,0
97115,-96.2778965205168,4,1,0,80,0,0
97202,-98.0293166474366,4,1,0,80,0,0
97290,-100,4,1,0,80,0,0
97464,-98.5221674876847,4,1,0,80,0,0
97638,-97.0873786407767,4,1,0,80,0,0
97813,-95.6937799043062,4,1,0,80,0,0
97987,-94.3396226415094,4,1,0,80,0,0
98162,-93.0232558139535,4,1,0,80,0,0
98249,-92.378752886836,4,1,0,80,0,0
98336,-91.743119266055,4,1,0,80,0,0
98510,-90.4977375565611,4,1,0,80,0,0
98685,-89.2857142857143,4,1,0,80,0,0
98859,-88.1057268722467,4,1,0,80,0,0
98947,-87.527352297593,4,1,0,80,0,0
99034,-86.9565217391304,4,1,0,80,0,0
99208,-86.9565217391304,4,1,0,80,0,0
99295,-88.1057268722467,4,1,0,80,0,0
99383,-89.2857142857143,4,1,0,80,0,0
99470,-90.4977375565611,4,1,0,80,0,0
99557,-91.743119266055,4,1,0,80,0,0
99644,-93.0232558139535,4,1,0,80,0,0
99731,-94.3396226415094,4,1,0,80,0,0
99819,-95.6937799043062,4,1,0,80,0,0
99906,-97.0873786407767,4,1,0,80,0,0
99993,-98.5221674876847,4,1,0,80,0,0
100080,-100,4,1,0,80,0,0
100255,-98.5221674876847,4,1,0,80,0,0
100429,-97.0873786407767,4,1,0,80,0,0
100603,-95.6937799043062,4,1,0,80,0,0
100778,-94.3396226415094,4,1,0,80,0,0
100952,-93.0232558139535,4,1,0,80,0,0
101040,-92.378752886836,4,1,0,80,0,0
101127,-91.743119266055,4,1,0,80,0,0
101301,-90.4977375565611,4,1,0,80,0,0
101476,-89.2857142857143,4,1,0,80,0,0
101650,-88.1057268722467,4,1,0,80,0,0
101737,-87.527352297593,4,1,0,80,0,0
101824,-86.9565217391304,4,1,0,80,0,0
101999,-86.9565217391304,4,1,0,80,0,0
102086,-88.1057268722467,4,1,0,80,0,0
102173,-89.2857142857143,4,1,0,80,0,0
102260,-90.4977375565611,4,1,0,80,0,0
102348,-91.743119266055,4,1,0,80,0,0
102435,-93.0232558139535,4,1,0,80,0,0
102522,-94.3396226415094,4,1,0,80,0,0
102609,-95.6937799043062,4,1,0,80,0,0
102697,-97.0873786407767,4,1,0,80,0,0
102784,-98.5221674876847,4,1,0,80,0,0
102871,-100,4,1,0,80,0,0
103045,-98.159509202454,4,1,0,80,0,0
103220,-96.3855421686747,4,1,0,80,0,0
103394,-94.6745562130178,4,1,0,80,0,0
103481,-93.841642228739,4,1,0,80,0,0
103569,-93.0232558139535,4,1,0,80,0,0
103627,-92.485549132948,4,1,0,80,0,0
103685,-91.9540229885058,4,1,0,80,0,0
103743,-91.4285714285714,4,1,0,80,0,0
103801,-90.9090909090909,4,1,0,80,0,0
103859,-90.3954802259887,4,1,0,80,0,0
103917,-89.8876404494382,4,1,0,80,0,0
104092,-88.3977900552486,4,1,0,80,0,0
104266,394.736842105263,3,1,0,80,1,0
104266,-76.9230769230769,3,1,0,80,0,0
104660,-80,3,1,0,80,0,0
104858,-81.6326530612245,3,1,0,80,0,0
105055,-83.3333333333333,3,1,0,80,0,0
105252,-85.1063829787234,3,1,0,80,0,0
105450,-86.9565217391304,3,1,0,80,0,0
105844,-90.9090909090909,3,1,0,80,0,0
106042,-93.0232558139535,3,1,0,80,0,0
106239,-95.2380952380952,3,1,0,80,0,0
106437,-97.5609756097561,3,1,0,80,0,0
106634,-100,3,1,0,80,0,0
107029,-105.263157894737,3,1,0,80,0,0
107226,-108.108108108108,3,1,0,80,0,0
107423,-111.111111111111,3,1,0,80,0,0
107621,-114.285714285714,3,1,0,80,0,0
107818,-117.647058823529,3,1,0,80,0,0
108016,-109.090869421502,3,1,0,80,0,0
108114,-105.263157894737,3,1,0,80,0,0
108213,-101.694949727102,3,1,0,80,0,0
108410,-95.2380952380952,3,1,0,80,0,0
108509,-92.3077207100679,3,1,0,80,0,0
108608,-89.5522120739665,3,1,0,80,0,0
108706,-86.9565217391304,3,1,0,80,0,0
108805,-84.5070660583285,3,1,0,80,0,0
109002,-80,3,1,0,80,0,0
109397,-82.9422605747235,3,1,0,80,0,0
109594,-84.4960696653195,3,1,0,80,0,0
109792,-86.1092071408643,3,1,0,80,0,0
109989,-87.7851370984379,3,1,0,80,0,0
110187,-89.5275185210054,3,1,0,80,0,0
110581,-93.2285320328575,3,1,0,80,0,0
110779,-95.1962089061765,3,1,0,80,0,0
110976,-97.2487360095537,3,1,0,80,0,0
111173,-99.3917226573371,3,1,0,80,0,0
111371,-101.631283735234,3,1,0,80,0,0
111766,-106.427474465388,3,1,0,80,0,0
111963,-108.999428842993,3,1,0,80,0,0
112160,-111.698645989013,3,1,0,80,0,0
112358,-114.535073502883,3,1,0,80,0,0
112555,-117.647058823529,3,1,0,80,0,0
112752,-109.090869421502,3,1,0,80,0,0
112851,-105.263157894737,3,1,0,80,0,0
112950,-101.694949727102,3,1,0,80,0,0
113147,-95.2380952380952,3,1,0,80,0,0
113246,-92.3077207100679,3,1,0,80,0,0
113344,-89.5522120739665,3,1,0,80,0,0
113443,-86.9565217391304,3,1,0,80,0,0
113542,-84.5070660583285,3,1,0,80,0,0
113739,-80,3,1,0,80,0,0
114134,-82.9422605747235,3,1,0,80,0,0
114331,-84.4960696653195,3,1,0,80,0,0
114726,-87.7851370984379,3,1,0,80,0,0
114923,-89.5275185210054,3,1,0,80,0,0
115318,-93.2285320328575,3,1,0,80,0,0
115516,-95.1962089061765,3,1,0,80,0,0
115910,-99.3917226573371,3,1,0,80,0,0
116108,-101.631283735234,3,1,0,80,0,0
116502,-106.427474465388,3,1,0,80,0,0
116700,-108.999428842993,3,1,0,80,0,0
117094,-114.535073502883,3,1,0,80,0,0
117292,-117.647058823529,3,1,0,80,0,0
117489,-109.090869421502,3,1,0,80,0,0
117588,-105.263157894737,3,1,0,80,0,0
117687,-101.694949727102,3,1,0,80,0,0
117785,-98.3606234883202,3,1,0,80,0,0
117884,-95.2380952380952,3,1,0,80,0,0
118081,-89.5522120739665,3,1,0,80,0,0
118279,-84.5070660583285,3,1,0,80,0,0
118476,-80,3,1,0,80,0,0
118871,-84.5070660583285,3,1,0,80,0,0
119068,-86.9565217391304,3,1,0,80,0,0
119463,-92.3077207100679,3,1,0,80,0,0
119660,-95.2380952380952,3,1,0,80,0,0
120055,-101.694949727102,3,1,0,80,0,0
120252,-105.263157894737,3,1,0,80,0,0
120647,-113.207589889657,3,1,0,80,0,0
120746,-115.384571005934,3,1,0,80,0,0
120844,-117.647058823529,3,1,0,80,0,0
121042,-109.145640668539,3,1,0,80,0,0
121239,-101.790080353089,3,1,0,80,0,0
121437,-95.3633390901002,3,1,0,80,0,0
121634,-89.699935774846,3,1,0,80,0,0
121831,-84.6715674569911,3,1,0,80,0,0
122029,-80,3,1,0,80,0,0
122226,-82.7586435196258,3,1,0,80,0,0
122325,-84.2105263157895,3,1,0,80,0,0
122423,-85.7142612244968,3,1,0,80,0,0
122621,-88.8888888888889,3,1,0,80,0,0
122818,-92.3077207100679,3,1,0,80,0,0
123016,-95.9999692800098,3,1,0,80,0,0
123213,-100,3,1,0,80,0,0
124397,-133.333333333333,3,1,0,80,0,0
125581,-133.333333333333,3,1,0,40,0,0
125976,-126.338876240964,3,1,0,41,0,0
126075,-124.703361877933,3,1,0,42,0,0
126173,-123.109651304224,3,1,0,43,0,0
126272,-121.556309744926,3,1,0,44,0,0
126371,-120.041534370892,3,1,0,46,0,0
126469,-118.56404711261,3,1,0,47,0,0
126568,-117.122625045971,3,1,0,48,0,0
126667,-115.715695792693,3,1,0,49,0,0
126765,-114.342297388308,3,1,0,50,0,0
126963,-111.690786291966,3,1,0,51,0,0
127160,-109.159580390573,3,1,0,52,0,0
127259,-107.936459964748,3,1,0,53,0,0
127358,-106.740559598058,3,1,0,54,0,0
127555,-104.426427404836,3,1,0,56,0,0
127654,-103.306532175336,3,1,0,57,0,0
127752,-102.210402157048,3,1,0,58,0,0
127851,-101.137391100314,3,1,0,59,0,0
127950,-100.086574887277,3,1,0,60,0,0
128542,-133.333333333333,3,1,0,60,0,0
130318,-133.333333333333,3,1,0,60,0,0
130515,-129.741904429518,3,1,0,60,0,0
130614,-128.017697166456,3,1,0,60,0,0
130713,-126.338876240964,3,1,0,60,0,0
130910,-123.109651304224,3,1,0,60,0,0
131108,-120.041534370892,3,1,0,60,0,0
131305,-117.122625045971,3,1,0,60,0,0
131502,-114.342297388308,3,1,0,60,0,0
131700,-111.690786291966,3,1,0,60,0,0
131798,-110.410738990117,3,1,0,60,0,0
131897,-109.159580390573,3,1,0,60,0,0
131996,-107.936459964748,3,1,0,60,0,0
132094,-106.740559598058,3,1,0,60,0,0
132292,-104.426427404836,3,1,0,60,0,0
132489,-102.210402157048,3,1,0,60,0,0
132687,-100.086574887277,3,1,0,60,0,0
149266,-100,3,1,0,60,0,0
149463,-97.959215660152,3,1,0,60,0,0
149660,-95.9999692800098,3,1,0,60,0,0
149858,-94.1176470588235,3,1,0,60,0,0
150055,-92.3077207100679,3,1,0,60,0,0
150252,-90.5660103951667,3,1,0,60,0,0
150450,-88.8888888888889,3,1,0,60,0,0
150647,-87.2727526611644,3,1,0,60,0,0
150746,-86.4864864864865,3,1,0,60,0,0
150844,-85.7142612244968,3,1,0,60,0,0
151042,-84.2105263157895,3,1,0,60,0,0
151239,-82.7586435196258,3,1,0,60,0,0
151437,-81.3559101407701,3,1,0,60,0,0
151634,-80,3,1,0,80,0,1
151831,-80.7017827023799,3,1,0,80,0,1
151930,-81.0572458693228,3,1,0,80,0,1
152029,-81.4159205576014,3,1,0,80,0,1
152226,-82.1428776785766,3,1,0,80,0,1
152423,-82.8828649622634,3,1,0,80,0,1
152621,-83.6363758016547,3,1,0,80,0,1
152818,-84.4036418483385,3,1,0,80,0,1
153015,-85.1851883401922,3,1,0,80,0,1
153114,-85.5814144553856,3,1,0,80,0,1
153213,-85.9813437680292,3,1,0,80,0,1
153410,-86.7924462798154,3,1,0,80,0,1
153608,-87.6190743220036,3,1,0,80,0,1
153805,-88.4615214497074,3,1,0,80,0,1
154002,-89.3204056932827,3,1,0,80,0,1
154200,-90.1960501345725,3,1,0,80,0,1
154298,-90.6403833725655,3,1,0,80,0,1
154397,-91.0891161258706,3,1,0,80,0,1
154594,-91.9999595200178,3,1,0,80,0,1
154792,-92.9292891745742,3,1,0,80,0,1
154989,-93.8775855060518,3,1,0,80,0,1
155187,-94.8453451801492,3,1,0,80,0,1
155384,-95.8333572916727,3,1,0,80,0,1
155483,-96.3351229188001,3,1,0,80,0,1
155581,-96.84207672023,3,1,0,80,0,1
155779,-97.8723529198748,3,1,0,80,0,1
155976,-98.9246886345425,3,1,0,80,0,1
156173,-100,3,1,0,80,0,1
156371,-96.4215085530699,3,1,0,80,0,1
156469,-94.7265717506418,3,1,0,80,0,1
156568,-93.090194158218,3,1,0,80,0,1
156667,-91.5093925240487,3,1,0,80,0,1
156765,-89.9814638184534,3,1,0,80,0,1
156864,-88.5036423674016,3,1,0,80,0,1
156963,-87.0735789156553,3,1,0,80,0,1
157358,-100,3,1,0,80,0,1
157555,-96.3855421686747,3,1,0,80,0,1
157654,-94.6745562130178,3,1,0,80,0,1
157752,-93.0232558139535,3,1,0,80,0,1
157851,-91.4285714285714,3,1,0,80,0,1
157950,-89.8876404494382,3,1,0,80,0,1
158048,-88.3977900552486,3,1,0,80,0,1
158147,-86.9565217391304,3,1,0,80,0,1
158542,-100,3,1,0,80,0,1
158739,-96.3855421686747,3,1,0,80,0,1
158838,-94.6745562130178,3,1,0,80,0,1
158937,-93.0232558139535,3,1,0,80,0,1
159035,-91.4285714285714,3,1,0,80,0,1
159134,-89.8876404494382,3,1,0,80,0,1
159233,-88.3977900552486,3,1,0,80,0,1
159331,-86.9565217391304,3,1,0,80,0,1
159529,-86.128193202763,3,1,0,80,0,1
159627,-85.719918737517,3,1,0,80,0,1
159726,-85.3154967068218,3,1,0,80,0,1
159825,-84.9148728399779,3,1,0,80,0,1
159923,-84.5179938808973,3,1,0,80,0,1
160121,-83.7352625937835,3,1,0,80,0,1
160219,-83.349308617485,3,1,0,80,0,1
160318,-82.9668962084128,3,1,0,80,0,1
160515,-82.2125704664495,3,1,0,80,0,1
160713,-81.4717712533373,3,1,0,80,0,1
160910,-80.7442031717938,3,1,0,80,0,1
161108,-80,3,1,0,80,0,1
161305,-80.7692463017781,3,1,0,80,0,1
161404,-81.1594108800683,3,1,0,80,0,1
161502,-81.5534297294873,3,1,0,80,0,1
161700,-82.3529217993125,3,1,0,80,0,1
161897,-83.1683135378886,3,1,0,80,0,1
162094,-84.0000134400021,3,1,0,80,0,1
162292,-84.8485157024906,3,1,0,80,0,1
162489,-85.7142612244968,3,1,0,80,0,1
162588,-86.153867360952,3,1,0,80,0,1
162687,-86.5979310022325,3,1,0,80,0,1
162884,-87.5000109375014,3,1,0,80,0,1
163081,-88.4210824155225,3,1,0,80,0,1
163279,-89.361671706665,3,1,0,80,0,1
163476,-90.3225689906363,3,1,0,80,0,1
163673,-91.3043557655962,3,1,0,80,0,1
163772,-91.8032546089824,3,1,0,80,0,1
163871,-92.3077207100679,3,1,0,80,0,1
164068,-93.3332960000149,3,1,0,80,0,1
164265,-94.3820055043586,3,1,0,80,0,1
164463,-95.4545497933886,3,1,0,80,0,1
164660,-96.5517507728968,3,1,0,80,0,1
164858,-97.6743731747101,3,1,0,80,0,1
164956,-98.2456278239478,3,1,0,80,0,1
165055,-98.823506159175,3,1,0,80,0,1
165154,-99.4083216694236,3,1,0,80,0,1
165252,-100,3,1,0,80,0,1
165450,-97.5773495650002,3,1,0,80,0,1
165548,-96.4096097242589,3,1,0,80,0,1
165647,-95.2693980403085,3,1,0,80,0,1
165746,-94.1558410988363,3,1,0,80,0,1
165844,-93.0680150360685,3,1,0,80,0,1
165943,-92.0050381958916,3,1,0,80,0,1
166042,-90.9661514950287,3,1,0,80,0,1
166140,-89.9503833685339,3,1,0,80,0,1
166239,-88.9570497572362,3,1,0,80,0,1
166338,-87.9854155375205,3,1,0,80,0,1
166437,-87.0347773563361,3,1,0,80,0,1
166831,-100,3,1,0,80,0,1
167029,-96.4215085530699,3,1,0,80,0,1
167127,-94.7265717506418,3,1,0,80,0,1
167226,-93.090194158218,3,1,0,80,0,1
167325,-91.5093925240487,3,1,0,80,0,1
167423,-89.9814638184534,3,1,0,80,0,1
167522,-88.5036423674016,3,1,0,80,0,1
167621,-87.0735789156553,3,1,0,80,0,1
168015,-100,3,1,0,80,0,1
168213,-96.4215085530699,3,1,0,80,0,1
168312,-94.7265717506418,3,1,0,80,0,1
168410,-93.090194158218,3,1,0,80,0,1
168509,-91.5093925240487,3,1,0,80,0,1
168608,-89.9814638184534,3,1,0,80,0,1
168706,-88.5036423674016,3,1,0,80,0,1
168805,-87.0735789156553,3,1,0,80,0,1
169002,-86.1244101554459,3,1,0,80,0,1
169101,-85.7142612244968,3,1,0,80,0,1
169200,-85.3080730441845,3,1,0,80,0,1
169298,-84.9056443574256,3,1,0,80,0,1
169397,-84.5070660583285,3,1,0,80,0,1
169594,-83.7209613845438,3,1,0,80,0,1
169693,-83.3333333333333,3,1,0,80,0,1
169792,-82.9492781753813,3,1,0,80,0,1
169989,-82.1917583036279,3,1,0,80,0,1
170187,-81.4479490591947,3,1,0,80,0,1
170384,-80.7174815500017,3,1,0,80,0,1
170581,-80,3,1,0,80,0,1
170779,-80.733968655844,3,1,0,80,0,1
170877,-81.1059608825951,3,1,0,80,0,1
170976,-81.4814633744896,3,1,0,80,0,1
171173,-82.2429968032147,3,1,0,80,0,1
171371,-83.0188992524148,3,1,0,80,0,1
171568,-83.8095110385507,3,1,0,80,0,1
171765,-84.6153976331381,3,1,0,80,0,1
171963,-85.4368600245204,3,1,0,80,0,1
172062,-85.85363843427,3,1,0,80,0,1
172160,-86.2745030372939,3,1,0,80,0,1
172358,-87.1287335751446,3,1,0,80,0,1
172423,-87.4172486469995,3,1,0,80,0,1
172489,-87.7076038984276,3,1,0,80,0,1
172555,-87.999971840009,3,1,0,80,0,1
172621,-88.2942954821575,3,1,0,80,0,1
172687,-88.5905945137617,3,1,0,80,0,1
172752,-88.8888888888889,3,1,0,80,0,1
172950,-89.7959476884727,3,1,0,80,0,1
173147,-90.7216270379479,3,1,0,80,0,1
173246,-91.1917022846257,3,1,0,80,0,1
173344,-91.6666743055562,3,1,0,80,0,1
173542,-92.6316179501549,3,1,0,80,0,1
173739,-93.6170053417863,3,1,0,80,0,1
173937,-94.6236721933199,3,1,0,80,0,1
174134,-95.6521323251599,3,1,0,80,0,1
174331,-96.7032882019087,3,1,0,80,0,1
174430,-97.2375776563605,3,1,0,80,0,1
174529,-97.7778038518588,3,1,0,80,0,1
174627,-98.3240662900855,3,1,0,80,0,1
174726,-98.876368943328,3,1,0,80,0,1
174825,-99.4350102716366,3,1,0,80,0,1
174923,-100,3,1,0,80,0,1
175121,-97.110760649166,3,1,0,80,0,1
175219,-95.7278571893535,3,1,0,80,0,1
175318,-94.3837871305819,3,1,0,80,0,1
175417,-93.0769373964519,3,1,0,80,0,1
175515,-91.8057830298846,3,1,0,80,0,1
175614,-90.5688812569512,3,1,0,80,0,1
175713,-89.3648660241929,3,1,0,80,0,1
175812,-88.1924429659471,3,1,0,80,0,1
175910,-87.0503847627006,3,1,0,80,0,1
176305,-100,3,1,0,80,0,1
176502,-96.3855421686747,3,1,0,80,0,1
176601,-94.6745562130178,3,1,0,80,0,1
176700,-93.0232558139535,3,1,0,80,0,1
176798,-91.4285714285714,3,1,0,80,0,1
176897,-89.8876404494382,3,1,0,80,0,1
176996,-88.3977900552486,3,1,0,80,0,1
177094,-86.9565217391304,3,1,0,80,0,1
177489,-100,3,1,0,80,0,1
177687,-96.4215085530699,3,1,0,80,0,1
177785,-94.7265717506418,3,1,0,80,0,1
177884,-93.090194158218,3,1,0,80,0,1
177983,-91.5093925240487,3,1,0,80,0,1
178081,-89.9814638184534,3,1,0,80,0,1
178180,-88.5036423674016,3,1,0,80,0,1
178279,-87.0735789156553,3,1,0,80,0,1
178476,-86.1244101554459,3,1,0,80,0,1
178575,-85.7142612244968,3,1,0,80,0,1
178673,-85.3080730441845,3,1,0,80,0,1
178772,-84.9056443574256,3,1,0,80,0,1
178871,-84.5070660583285,3,1,0,80,0,1
179068,-83.7209613845438,3,1,0,80,0,1
179167,-83.3333333333333,3,1,0,80,0,1
179265,-82.9492781753813,3,1,0,80,0,1
179463,-82.1917583036279,3,1,0,80,0,1
179660,-81.4479490591947,3,1,0,80,0,1
179858,-80.7174815500017,3,1,0,80,0,1
180055,-80,3,1,0,80,0,1
180252,-80.7676806510521,3,1,0,80,0,1
180351,-81.157105548062,3,1,0,80,0,1
180450,-81.5502373927411,3,1,0,80,0,1
180647,-82.3481746703603,3,1,0,80,0,1
180844,-83.1618120958856,3,1,0,80,0,1
181042,-83.9916881825375,3,1,0,80,0,1
181239,-84.8382939697789,3,1,0,80,0,1
181437,-85.702140496661,3,1,0,80,0,1
181535,-86.1407315587768,3,1,0,80,0,1
181634,-86.5838347980432,3,1,0,80,0,1
181831,-87.4837826937832,3,1,0,80,0,1
182029,-88.4026351057472,3,1,0,80,0,1
182226,-89.3409940257677,3,1,0,80,0,1
182423,-90.2994872795112,3,1,0,80,0,1
182621,-91.2787699272965,3,1,0,80,0,1
182719,-91.7764619072617,3,1,0,80,0,1
182818,-92.2796109122485,3,1,0,80,0,1
183015,-93.3025559302172,3,1,0,80,0,1
183213,-94.3484344292533,3,1,0,80,0,1
183410,-95.4180263735425,3,1,0,80,0,1
183608,-96.5121475014453,3,1,0,80,0,1
183805,-97.6317467198174,3,1,0,80,0,1
183904,-98.2012477450539,3,1,0,80,0,1
184002,-98.7775292974152,3,1,0,80,0,1
184101,-99.3605157208208,3,1,0,80,0,1
184200,-100,3,1,0,80,0,1
184397,-97.5609756097561,3,1,0,80,0,1
184496,-96.3855421686747,3,1,0,80,0,1
184594,-95.2380952380952,3,1,0,80,0,1
184693,-94.1176470588235,3,1,0,80,0,1
184792,-93.0232558139535,3,1,0,80,0,1
184890,-91.9540229885058,3,1,0,80,0,1
184989,-90.9090909090909,3,1,0,80,0,1
185088,-89.8876404494382,3,1,0,80,0,1
185187,-88.8888888888889,3,1,0,80,0,1
185285,-87.9120879120879,3,1,0,80,0,1
185384,-86.9565217391304,3,1,0,80,0,1
185779,-100,3,1,0,80,0,1
185976,-96.3855421686747,3,1,0,80,0,1
186075,-94.6745562130178,3,1,0,80,0,1
186173,-93.0232558139535,3,1,0,80,0,1
186272,-91.4285714285714,3,1,0,80,0,1
186371,-89.8876404494382,3,1,0,80,0,1
186469,-88.3977900552486,3,1,0,80,0,1
186568,-86.9565217391304,3,1,0,80,0,1
186963,-100,3,1,0,80,0,1
187160,-96.3855421686747,3,1,0,80,0,1
187259,-94.6745562130178,3,1,0,80,0,1
187358,-93.0232558139535,3,1,0,80,0,1
187456,-91.4285714285714,3,1,0,80,0,1
187555,-89.8876404494382,3,1,0,80,0,1
187654,-88.3977900552486,3,1,0,80,0,1
187752,-86.9565217391304,3,1,0,80,0,1
187950,-85.72271103217,3,1,0,80,0,1
188048,-85.1188429284968,3,1,0,80,0,1
188147,-84.523494573169,3,1,0,80,0,1
188246,-83.9363460326227,3,1,0,80,0,1
188344,-83.3572985566684,3,1,0,80,0,0
188542,-82.2228452886721,3,1,0,80,0,0
188640,-81.6671199191822,3,1,0,80,0,0
188739,-81.1188561592331,3,1,0,80,0,0
188937,-80.0441843897832,3,1,0,80,0,0
189331,-86.9565217391304,3,1,0,80,0,0
189529,-85.1250742716273,3,1,0,80,0,0
189726,-83.3691125774812,3,1,0,80,0,0
189825,-82.5180549504231,3,1,0,80,0,0
189923,-81.6841974568442,3,1,0,80,0,0
190121,-80.0660384685288,3,1,0,80,0,0
190515,-86.9565217391304,3,1,0,80,0,0
190713,-85.1250742716273,3,1,0,80,0,0
190910,-83.3691125774812,3,1,0,80,0,0
191009,-82.5180549504231,3,1,0,80,0,0
191108,-81.6841974568442,3,1,0,80,0,0
191305,-80,3,1,0,80,0,0
191897,-86.9565217391304,3,1,0,80,0,0
192489,-95.2380952380952,3,1,0,80,0,0
193081,-105.263157894737,3,1,0,80,0,0
193476,-113.207589889657,3,1,0,80,0,0
193575,-115.384571005934,3,1,0,80,0,0
193673,-117.647058823529,3,1,0,80,0,0
193969,-112.708948301533,3,1,0,80,0,0
194265,-108.168565565835,3,1,0,80,0,0
194562,-103.979936031543,3,1,0,80,0,0
194858,303.030303030303,4,1,0,80,1,8
194858,-129.87012987013,3,1,0,80,0,0
195464,346.820809248555,4,1,0,80,1,8
195464,-113.636363636364,4,1,0,80,0,8
195810,-122.699386503067,4,1,0,80,0,8
196157,365.853658536585,4,1,0,80,1,0
196157,-126.582278481013,4,1,0,80,0,0
196522,-113.636363636364,4,1,0,80,0,0
196705,-108.108108108108,4,1,0,80,0,0
196888,-103.092783505155,4,1,0,80,0,0
197254,-94.3396226415094,4,1,0,80,0,0
197620,-86.9565217391304,4,1,0,80,0,0
197803,-88.3977900552486,4,1,0,80,0,0
197894,-89.1364902506964,4,1,0,80,0,0
197986,-89.8876404494382,4,1,0,80,0,0
198169,-91.4285714285714,4,1,0,80,0,0
198352,-93.0232558139535,4,1,0,80,0,0
198535,-94.6745562130178,4,1,0,80,0,0
198717,-96.3855421686747,4,1,0,80,0,0
198900,-98.159509202454,4,1,0,80,0,0
198992,-99.0712074303406,4,1,0,80,0,0
199083,-100,4,1,0,80,0,0
199449,-96.4035684744906,4,1,0,80,0,0
199632,-94.7006465213138,4,1,0,80,0,0
199815,-93.0569294377221,4,1,0,80,0,0
200181,-89.9347703110934,4,1,0,80,0,0
200547,-86.9565217391304,4,1,0,80,0,0
200730,-88.3977900552486,4,1,0,80,0,0
200821,-89.1364902506964,4,1,0,80,0,0
200913,-89.8876404494382,4,1,0,80,0,0
201096,-91.4285714285714,4,1,0,80,0,0
201278,-93.0232558139535,4,1,0,80,0,0
201461,-94.6745562130178,4,1,0,80,0,0
201644,-96.3855421686747,4,1,0,80,0,0
201827,-98.159509202454,4,1,0,80,0,0
201919,-99.0712074303406,4,1,0,80,0,0
202010,-100,4,1,0,80,0,0
202376,-96.4035684744906,4,1,0,80,0,0
202559,-94.7006465213138,4,1,0,80,0,0
202742,-93.0569294377221,4,1,0,80,0,0
203108,-89.9347703110934,4,1,0,80,0,0
203474,-86.9565217391304,4,1,0,80,0,0
203657,-88.3977900552486,4,1,0,80,0,0
203748,-89.1364902506964,4,1,0,80,0,0
203839,-89.8876404494382,4,1,0,80,0,0
204022,-91.4285714285714,4,1,0,80,0,0
204205,-93.0232558139535,4,1,0,80,0,0
204388,-94.6745562130178,4,1,0,80,0,0
204571,-96.3855421686747,4,1,0,80,0,0
204754,-98.159509202454,4,1,0,80,0,0
204846,-99.0712074303406,4,1,0,80,0,0
204937,-100,4,1,0,80,0,0
205303,-96.3855421686747,4,1,0,80,0,0
205486,-94.6745562130178,4,1,0,80,0,0
205669,-93.0232558139535,4,1,0,80,0,0
206035,-89.8876404494382,4,1,0,80,0,0
206400,-86.9565217391304,4,1,0,80,0,0
206492,-87.6674667784135,4,1,0,80,0,0
206583,-88.3902109609165,4,1,0,80,0,0
206675,-89.1248916018506,4,1,0,80,0,0
206766,-89.8719683938262,4,1,0,80,0,0
206858,-90.6315934484234,4,1,0,80,0,0
206949,-91.4042526742599,4,1,0,80,0,0
207041,-92.1901144540271,4,1,0,80,0,0
207132,-92.9896065516757,4,1,0,80,0,0
207224,-93.8031746746437,4,1,0,80,0,0
207315,-94.6310147472973,4,1,0,80,0,0
207407,-95.4736879289752,4,1,0,80,0,0
207498,-96.3314108794769,4,1,0,80,0,0
207589,-97.2047793645918,4,1,0,80,0,0
207681,-98.0940329399763,4,1,0,80,0,0
207772,-98.9997069608674,4,1,0,80,0,0
207864,-99.9223603260267,4,1,0,80,0,0
212986,-100,4,1,0,80,0,0
213108,-99.173586503665,4,1,0,80,0,0
213230,-98.3606234883202,4,1,0,80,0,0
213352,-97.5609756097561,4,1,0,80,0,0
213474,-96.774224765879,4,1,0,80,0,0
213596,-95.9999692800098,4,1,0,80,0,0
213717,-95.2380952380952,4,1,0,80,0,0
213809,-95.3796204272625,4,1,0,80,0,0
213900,-95.52165810315,4,1,0,80,0,0
213992,-95.6640279338962,4,1,0,80,0,0
214083,-95.8069145766388,4,1,0,80,0,0
214175,-95.9501366329946,4,1,0,80,0,0
214266,-96.0938798768845,4,1,0,80,0,0
214358,-96.2379618339491,4,1,0,80,0,0
214449,-96.3825694050882,4,1,0,80,0,0
214541,-96.5275190304004,4,1,0,80,0,0
214632,-96.6729052914881,4,1,0,80,0,0
214724,-96.8188239030185,4,1,0,80,0,0
214815,-96.9650896587702,4,1,0,80,0,0
214906,-97.1118923223338,4,1,0,80,0,0
214998,-97.2590455775339,4,1,0,80,0,0
215089,-97.4067403516189,4,1,0,80,0,0
215181,-97.5547892084892,4,1,0,80,0,0
215272,-97.7033842498236,4,1,0,80,0,0
215364,-97.8523369095101,4,1,0,80,0,0
215455,-98.0017444310509,4,1,0,80,0,0
215547,-98.151705238651,4,1,0,80,0,0
215638,-98.3020290521817,4,1,0,80,0,0
215730,-98.4529109572183,4,1,0,80,0,0
215821,-98.6041595178651,4,1,0,80,0,0
215913,-98.7559710328986,4,1,0,80,0,0
216004,-98.9081529001354,4,1,0,80,0,0
216096,-99.0608045124178,4,1,0,80,0,0
216187,-99.214026482208,4,1,0,80,0,0
216278,-99.3676244380761,4,1,0,80,0,0
216370,-99.5217977617548,4,1,0,80,0,0
216461,-99.6763508886645,4,1,0,80,0,0
216553,-99.8314844542412,4,1,0,80,0,0
216644,-99.9870016897803,4,1,0,80,0,0
224693,-100,4,1,0,80,0,0
224815,-99.1820456693648,4,1,0,80,0,0
224937,-98.377266981146,4,1,0,80,0,0
225059,-97.5855386038632,4,1,0,80,0,0
225181,-96.8063582416093,4,1,0,80,0,0
225303,-96.039614420156,4,1,0,80,0,0
225425,-95.2380952380952,4,1,0,80,0,0
225516,-95.3796204272625,4,1,0,80,0,0
225608,-95.52165810315,4,1,0,80,0,0
225699,-95.6640279338962,4,1,0,80,0,0
225791,-95.8069145766388,4,1,0,80,0,0
225882,-95.9501366329946,4,1,0,80,0,0
225974,-96.0938798768845,4,1,0,80,0,0
226065,-96.2379618339491,4,1,0,80,0,0
226156,-96.3825694050882,4,1,0,80,0,0
226248,-96.5275190304004,4,1,0,80,0,0
226339,-96.6729052914881,4,1,0,80,0,0
226431,-96.8188239030185,4,1,0,80,0,0
226522,-96.9650896587702,4,1,0,80,0,0
226614,-97.1118923223338,4,1,0,80,0,0
226705,-97.2590455775339,4,1,0,80,0,0
226797,-97.4067403516189,4,1,0,80,0,0
226888,-97.5547892084892,4,1,0,80,0,0
226980,-97.7033842498236,4,1,0,80,0,0
227071,-97.8523369095101,4,1,0,80,0,0
227163,-98.0017444310509,4,1,0,80,0,0
227254,-98.151705238651,4,1,0,80,0,0
227346,-98.3020290521817,4,1,0,80,0,0
227437,-98.4529109572183,4,1,0,80,0,0
227528,-98.6041595178651,4,1,0,80,0,0
227620,-98.7559710328986,4,1,0,80,0,0
227681,-98.8574061002928,4,1,0,80,0,0
227742,-98.9590497556206,4,1,0,80,0,0
227803,-99.0608045124178,4,1,0,80,0,0
227894,-99.214026482208,4,1,0,80,0,0
227986,-99.3676244380761,4,1,0,80,0,0
228047,-99.4703205431079,4,1,0,80,0,0
228108,-99.5732291399064,4,1,0,80,0,0
228169,-99.6763508886645,4,1,0,80,0,0
228260,-99.8314844542412,4,1,0,80,0,0
228352,-99.9870016897803,4,1,0,80,0,0
229724,-100,4,1,0,80,0,0
229815,-99.1253181922714,4,1,0,80,0,0
229906,-98.2659016338671,4,1,0,80,0,0
229998,-97.4211643582722,4,1,0,80,0,0
230089,-96.59092006715,4,1,0,80,0,0
230181,-95.774615512806,4,1,0,80,0,0
230272,-94.972082956215,4,1,0,80,0,0
230364,-94.1827993953464,4,1,0,80,0,0
230455,-93.4066139355195,4,1,0,80,0,0
230547,-92.6430315764509,4,1,0,80,0,0
230638,-91.8919167275451,4,1,0,80,0,0
230730,-91.152800350756,4,1,0,80,0,0
230821,-90.4255607741151,4,1,0,80,0,0
230913,-89.7097530649337,4,1,0,80,0,0
231004,-89.005268221826,4,1,0,80,0,0
231096,-88.3116837240684,4,1,0,80,0,0
231187,-87.6289021150112,4,1,0,80,0,0
231278,365.853658536585,6,1,0,80,1,0
231278,-86.9565217391304,6,1,0,80,0,0
231643,-89.5522120739665,6,1,0,80,0,0
232009,-92.3077207100679,6,1,0,80,0,0
232192,-93.7499707031342,6,1,0,80,0,0
232375,-95.2380952380952,6,1,0,80,0,0
232741,-98.3606234883202,6,1,0,80,0,0
233107,-101.694949727102,6,1,0,80,0,0
233198,-102.564102564103,6,1,0,80,0,0
233290,-103.448240190262,6,1,0,80,0,0
233473,365.853658536585,5,1,0,80,1,0
233473,-105.263157894737,6,1,0,80,0,0
233655,-107.142895408177,6,1,0,80,0,0
233838,-109.090869421502,6,1,0,80,0,0
234204,-113.207589889656,6,1,0,80,0,0
234387,-115.384571005934,6,1,0,80,0,0
234570,-117.647058823529,6,1,0,80,0,0
234753,-108.198526985254,6,1,0,80,0,0
234844,-104.021470031414,6,1,0,80,0,0
234936,-100.154839381684,6,1,0,80,0,0
235027,-96.5654564118015,6,1,0,80,0,0
235119,-93.2244471790282,6,1,0,80,0,0
235302,365.853658536585,6,1,0,80,1,0
235302,-86.9565217391304,6,1,0,80,0,0
235667,-89.5522120739665,6,1,0,80,0,0
236033,-92.3077207100679,6,1,0,80,0,0
236216,-93.7499707031342,6,1,0,80,0,0
236399,-95.2380952380952,6,1,0,80,0,0
236765,-98.3606234883202,6,1,0,80,0,0
237131,-101.694949727102,6,1,0,80,0,0
237222,-102.564102564103,6,1,0,80,0,0
237314,-103.448240190262,6,1,0,80,0,0
237497,-105.263157894737,6,1,0,80,0,0
237680,-107.142895408177,6,1,0,80,0,0
237862,-109.090869421502,6,1,0,80,0,0
238228,-113.207589889657,6,1,0,80,0,0
238411,-115.384571005934,6,1,0,80,0,0
238594,-117.647058823529,6,1,0,80,0,0
238777,-111.153720037125,6,1,0,80,0,0
238869,-108.168565565835,6,1,0,80,0,0
238960,-105.339667758688,6,1,0,80,0,0
239052,-102.654859989036,6,1,0,80,0,0
239143,-100.103507026265,6,1,0,80,0,0
239326,-95.3633390901002,6,1,0,80,0,0
239417,-93.1577496068743,6,1,0,80,0,0
239509,-91.0517939024435,6,1,0,80,0,0
239692,-87.1132498381871,6,1,0,80,0,0
240058,-89.5522120739665,6,1,0,80,0,0
240423,-92.3077207100679,6,1,0,80,0,0
240606,-93.7499707031342,6,1,0,80,0,0
240789,-95.2380952380952,6,1,0,80,0,0
241155,-98.3606234883202,6,1,0,80,0,0
241521,-101.694949727102,6,1,0,80,0,0
241612,-102.564102564103,6,1,0,80,0,0
241704,-103.448240190262,6,1,0,80,0,0
241887,365.853658536585,5,1,0,80,1,0
241887,-105.263157894737,6,1,0,80,0,0
242069,-107.142895408177,6,1,0,80,0,0
242252,-109.090869421502,6,1,0,80,0,0
242618,-113.207589889656,6,1,0,80,0,0
242801,-115.384571005934,6,1,0,80,0,0
242984,-117.647058823529,6,1,0,80,0,0
243167,-108.198526985254,6,1,0,80,0,0
243258,-104.021470031414,6,1,0,80,0,0
243350,-100.154839381684,6,1,0,80,0,0
243441,-96.5654564118015,6,1,0,80,0,0
243533,-93.2244471790282,6,1,0,80,0,0
243716,365.853658536585,6,1,0,80,1,0
243716,-87.1910276944861,6,1,0,80,0,0
244081,-89.5522120739665,6,1,0,80,0,0
244447,-92.3077207100679,6,1,0,80,0,0
244630,-93.7499707031342,6,1,0,80,0,0
244813,-95.2380952380952,6,1,0,80,0,0
245179,-98.3606234883202,6,1,0,80,0,0
245545,-101.694949727102,6,1,0,80,0,0
245636,-102.564102564103,6,1,0,80,0,0
245728,-103.448240190262,6,1,0,80,0,0
245911,-105.263157894737,6,1,0,80,0,0
246094,-107.142895408177,6,1,0,80,0,0
246276,-109.090869421502,6,1,0,80,0,0
246642,-113.207589889657,6,1,0,80,0,0
246825,-115.384571005934,6,1,0,80,0,0
247008,-117.647058823529,6,1,0,80,0,0
247191,-111.153720037125,6,1,0,80,0,0
247252,-109.145640668539,6,1,0,80,0,0
247313,-107.208828861474,6,1,0,80,0,0
247374,-105.339667758688,6,1,0,80,0,0
247466,-102.654859989036,6,1,0,80,0,0
247557,-100.103507026265,6,1,0,80,0,0
247740,-95.3633390901002,6,1,0,80,0,0
247831,-93.1577496068743,6,1,0,80,0,0
247923,-91.0517939024435,6,1,0,80,0,0
248106,365.853658536585,3,1,0,80,1,0
248106,-86.9565217391304,3,1,0,80,0,0
248288,-89.2857142857143,3,1,0,80,0,0
248471,-91.743119266055,3,1,0,80,0,0
248654,-94.3396226415094,3,1,0,80,0,0
248837,-97.0873786407767,3,1,0,80,0,0
249020,-100,3,1,0,80,0,0
249203,-86.9565217391304,3,1,0,80,0,0
249386,-89.2659482543151,3,1,0,80,0,0
249569,-91.7013909266976,3,1,0,80,0,0
249752,-94.2734533497243,3,1,0,80,0,0
249935,-96.9939630957369,3,1,0,80,0,0
250118,-99.8761535695737,3,1,0,80,0,0
250301,365.853658536585,3,1,0,80,1,8
250303,295.566502463054,4,1,0,80,1,0
250303,-80,4,1,0,80,0,0
254273,292.117216901902,4,1,0,80,1,8
254273,-80.944630541872,4,1,0,80,0,0
254613,303.030303030303,4,1,0,80,1,8
254714,293.999470800953,4,1,0,80,1,8
254714,-103.071717171717,4,1,0,80,0,0
255008,294.117647058824,4,1,0,80,1,0
258978,-100,4,1,0,80,0,0
259125,-103.896103896104,4,1,0,80,0,0
259199,-105.960264900662,4,1,0,80,0,0
259272,-108.108108108108,4,1,0,80,0,0
259346,-110.344827586207,4,1,0,80,0,0
259419,-112.676056338028,4,1,0,80,0,0
259493,-115.107913669065,4,1,0,80,0,0
259566,-117.647058823529,4,1,0,80,0,0
259713,-100,4,1,0,80,0,0
263684,-100,4,1,0,80,0,0
263831,-103.896103896104,4,1,0,80,0,0
263905,-105.960264900662,4,1,0,80,0,0
263978,-108.108108108108,4,1,0,80,0,0
264052,-110.344827586207,4,1,0,80,0,0
264125,-112.676056338028,4,1,0,80,0,0
264272,-117.647058823529,4,1,0,80,0,0
264419,-80,4,1,0,80,0,0
264713,-100,4,1,0,80,0,0
264860,-80,4,1,0,80,0,0
265155,-100,4,1,0,80,0,0
265596,-80,4,1,0,80,0,0
265890,-100,4,1,0,80,0,0
266037,-80,4,1,0,80,0,0
266331,-100,4,1,0,80,0,0
268390,-100,4,1,0,80,0,0
268537,-103.896103896104,4,1,0,80,0,0
268610,-105.960264900662,4,1,0,80,0,0
268684,-108.108108108108,4,1,0,80,0,0
268758,-110.344827586207,4,1,0,80,0,0
268831,-112.676056338028,4,1,0,80,0,0
268905,-115.107913669065,4,1,0,80,0,0
268978,-117.647058823529,4,1,0,80,0,0
269125,-100,4,1,0,80,0,0
272655,294.117647058824,4,1,0,80,1,8
272655,-100,4,1,0,80,0,8
272802,-96.3855421686747,4,1,0,80,0,8
272875,-94.6745562130178,4,1,0,80,0,8
272949,-93.0232558139535,4,1,0,80,0,8
273096,-89.8876404494382,4,1,0,80,0,8
273169,-88.3977900552486,4,1,0,80,0,8
273244,428.571428571429,3,1,0,80,1,1
273244,-59.5238095238095,3,1,0,80,0,1
273458,-60.6936433726487,3,1,0,80,0,1
273672,-61.9103810088668,3,1,0,80,0,1
273886,-63.1769010087456,3,1,0,80,0,1
274101,-64.4963224196956,3,1,0,80,0,1
274208,-65.176896615103,3,1,0,80,0,1
274315,-65.8720304065292,3,1,0,80,0,1
274529,-67.3077052514818,3,1,0,80,0,1
274744,-68.8073552310448,3,1,0,80,0,1
274958,-70.3753539880306,3,1,0,80,0,1
275172,-72.0164831326594,3,1,0,80,0,1
275279,-72.8660627041616,3,1,0,80,0,1
275386,-73.7359809466225,3,1,0,80,0,1
275494,-74.6268656716418,3,1,0,80,0,1
275601,-75.5395411728269,3,1,0,80,0,1
275815,-77.4336026215921,3,1,0,80,0,1
276029,-79.4250894326507,3,1,0,80,0,1
276244,-81.5217169777943,3,1,0,80,0,1
276458,-83.7320373846801,3,1,0,80,0,1
276672,-86.0655561341074,3,1,0,80,0,1
276779,-87.2818172772612,3,1,0,80,0,1
276886,-88.5328687128383,3,1,0,80,0,1
277101,-91.1458214653878,3,1,0,80,0,1
277315,-93.91770179627,3,1,0,80,0,1
277422,-95.3678863901443,3,1,0,80,0,1
277529,-96.8634641668144,3,1,0,80,0,1
277636,-98.4067940050581,3,1,0,80,0,1
277744,-100,3,1,0,80,0,1
277958,-85.7142612244968,3,1,0,80,0,1
278172,-75.0000187500047,3,1,0,80,0,1
278386,-66.6666666666667,3,1,0,80,0,1
278815,-68.5680119253486,3,1,0,80,0,1
278922,-69.0604396249466,3,1,0,80,0,1
279029,-69.5599913189131,3,1,0,80,0,1
279244,-70.5810443312481,3,1,0,80,0,1
279458,-71.6325194446474,3,1,0,80,0,1
279672,-72.715796852424,3,1,0,80,0,1
279886,-73.8323960310657,3,1,0,80,0,1
280101,-74.9837660146578,3,1,0,80,0,1
280208,-75.5729944438735,3,1,0,80,0,1
280315,-76.1716146478015,3,1,0,80,0,1
280422,-76.7797940151686,3,1,0,80,0,1
280529,-77.3977034553431,3,1,0,80,0,1
280744,-78.663909234435,3,1,0,80,0,1
280958,-79.9722975961127,3,1,0,80,0,1
281172,-81.3248798831524,3,1,0,80,0,1
281386,-82.7240021210434,3,1,0,80,0,1
281494,-83.4418076833217,3,1,0,80,0,1
281601,-84.1721083934743,3,1,0,80,0,1
281815,-85.6718903673953,3,1,0,80,0,1
282029,-87.226012192452,3,1,0,80,0,1
282243,-88.8375605205881,3,1,0,80,0,1
282458,-90.5097782238904,3,1,0,80,0,1
282672,-92.2462421187117,3,1,0,80,0,1
282779,-93.1396153520165,3,1,0,80,0,1
282886,-94.0505502897697,3,1,0,80,0,1
282994,-94.9793894724845,3,1,0,80,0,1
283101,-95.9268500212478,3,1,0,80,0,1
283208,-96.8934036908635,3,1,0,80,0,1
283315,-97.8795376953676,3,1,0,80,0,1
283422,-98.8860486618245,3,1,0,80,0,1
283529,-100,3,1,0,80,0,1
283744,-97.5773495650002,3,1,0,80,0,1
283958,-95.2693980403085,3,1,0,80,0,1
284065,-94.1558410988363,3,1,0,80,0,1
284172,-93.0680150360685,3,1,0,80,0,1
284279,-92.0050381958916,3,1,0,80,0,1
284386,-90.9661514950287,3,1,0,80,0,1
284601,-88.9570497572362,3,1,0,80,0,1
284815,-86.9565217391304,3,1,0,80,0,1
285029,-88.8753008428934,3,1,0,80,0,1
285136,-89.8667186695412,3,1,0,80,0,1
285244,-90.8805874521173,3,1,0,80,0,1
285351,-91.9175940385925,3,1,0,80,0,1
285458,-92.9785396232696,3,1,0,80,0,1
285565,-94.0642628230755,3,1,0,80,0,1
285672,-95.1755513043809,3,1,0,80,0,1
285886,-97.4789981498486,3,1,0,80,0,1
286101,-100,3,1,0,80,0,1
286315,-97.5609756097561,3,1,0,80,0,1
286529,-95.2380952380952,3,1,0,80,0,1
286636,-94.1176470588235,3,1,0,80,0,1
286744,-93.0232558139535,3,1,0,80,0,1
286851,-91.9540229885058,3,1,0,80,0,1
286958,-90.9090909090909,3,1,0,80,0,1
287172,-88.8888888888889,3,1,0,80,0,1
287386,-86.9565217391304,3,1,0,80,0,1
287601,-88.8753008428934,3,1,0,80,0,1
287708,-89.8667186695412,3,1,0,80,0,1
287815,-90.8805874521173,3,1,0,80,0,1
287922,-91.9175940385925,3,1,0,80,0,1
288029,-92.9785396232696,3,1,0,80,0,1
288136,-94.0642628230755,3,1,0,80,0,1
288244,-95.1755513043809,3,1,0,80,0,1
288458,-97.4789981498486,3,1,0,80,0,1
288672,-100,3,1,0,80,0,1
288886,-97.5773495650002,3,1,0,80,0,1
289101,-95.2693980403085,3,1,0,80,0,1
289208,-94.1558410988363,3,1,0,80,0,1
289315,-93.0680150360685,3,1,0,80,0,1
289422,-92.0050381958916,3,1,0,80,0,1
289529,-90.9661514950287,3,1,0,80,0,1
289744,-88.9570497572362,3,1,0,80,0,1
289958,-86.9565217391304,3,1,0,80,0,1
290172,-88.8753008428934,3,1,0,80,0,1
290279,-89.8667186695412,3,1,0,80,0,1
290386,-90.8805874521173,3,1,0,80,0,1
290494,-91.9175940385925,3,1,0,80,0,1
290601,-92.9785396232696,3,1,0,80,0,1
290708,-94.0642628230755,3,1,0,80,0,1
290815,-95.1755513043809,3,1,0,80,0,1
291029,-97.4789981498486,3,1,0,80,0,1
291243,-100,3,1,0,80,0,1
291458,-97.5609756097561,3,1,0,80,0,1
291672,-95.2380952380952,3,1,0,80,0,1
291779,-94.1176470588235,3,1,0,80,0,1
291886,-93.0232558139535,3,1,0,80,0,1
291994,-91.9540229885058,3,1,0,80,0,1
292101,-90.9090909090909,3,1,0,80,0,1
292315,-88.8888888888889,3,1,0,80,0,1
292529,-86.9565217391304,3,1,0,80,0,1
292744,-89.2659482543151,3,1,0,80,0,1
292851,-90.4672816029355,3,1,0,80,0,1
292958,-91.7013909266976,3,1,0,80,0,1
293065,-92.9696361168442,3,1,0,80,0,1
293172,-94.2734533497243,3,1,0,80,0,1
293279,-95.614360512034,3,1,0,80,0,1
293386,-96.9939630957369,3,1,0,80,0,1
293601,-99.8761535695737,3,1,0,80,0,1
293815,288.461538461538,4,1,0,80,1,0
293815,-100,4,1,0,80,0,0
293887,-99.0712074303406,4,1,0,80,0,0
293959,-98.159509202454,4,1,0,80,0,0
294031,-97.2644376899696,4,1,0,80,0,0
294103,-96.3855421686747,4,1,0,80,0,0
294175,-95.5223880597015,4,1,0,80,0,0
294247,-94.6745562130178,4,1,0,80,0,0
294319,-93.841642228739,4,1,0,80,0,0
294391,-93.0232558139535,4,1,0,80,0,0
294464,-92.2190201729107,4,1,0,80,0,0
294536,-91.4285714285714,4,1,0,80,0,0
294608,-90.6515580736544,4,1,0,80,0,0
294680,-89.8876404494382,4,1,0,80,0,0
294752,-89.1364902506964,4,1,0,80,0,0
294824,-88.3977900552486,4,1,0,80,0,0
294896,-87.6712328767123,4,1,0,80,0,0
294968,-86.9565217391304,4,1,0,80,0,0
295113,-88.5976585410801,4,1,0,80,0,0
295257,-90.3019335450011,4,1,0,80,0,0
295401,-92.0729770416032,4,1,0,80,0,0
295545,-93.914967510117,4,1,0,80,0,0
295690,-95.8321633823387,4,1,0,80,0,0
295834,-97.82926640768,4,1,0,80,0,0
295978,-99.9112787844394,4,1,0,80,0,0
296122,-100,4,1,0,80,0,0
296194,-99.0760170648532,4,1,0,80,0,0
296266,-98.1688563230069,4,1,0,80,0,0
296339,-97.2782517930814,4,1,0,80,0,0
296411,-96.4035684744906,4,1,0,80,0,0
296483,-95.5445658072751,4,1,0,80,0,0
296555,-94.7006465213138,4,1,0,80,0,0
296627,-93.8715930478698,4,1,0,80,0,0
296699,-93.0569294377221,4,1,0,80,0,0
296771,-92.2561991553022,4,1,0,80,0,0
296843,-91.4692151209589,4,1,0,80,0,0
296915,-90.6954618711743,4,1,0,80,0,0
296988,-89.9347703110934,4,1,0,80,0,0
297060,-89.1866533956926,4,1,0,80,0,0
297132,-88.4509583661339,4,1,0,80,0,0
297204,-87.7273014380259,4,1,0,80,0,0
297276,-86.9565217391304,4,1,0,80,0,0
297420,-88.5976585410801,4,1,0,80,0,0
297565,-90.3019335450011,4,1,0,80,0,0
297709,-92.0729770416032,4,1,0,80,0,0
297853,-93.914967510117,4,1,0,80,0,0
297925,-94.8638798188479,4,1,0,80,0,0
297997,-95.8321633823387,4,1,0,80,0,0
298069,-96.8204174896402,4,1,0,80,0,0
298141,-97.82926640768,4,1,0,80,0,0
298286,-99.9112787844394,4,1,0,80,0,0
298430,-100,4,1,0,80,0,0
298502,-99.0760170648532,4,1,0,80,0,0
298574,-98.1688563230069,4,1,0,80,0,0
298646,-97.2782517930814,4,1,0,80,0,0
298718,-96.4035684744906,4,1,0,80,0,0
298790,-95.5445658072751,4,1,0,80,0,0
298863,-94.7006465213138,4,1,0,80,0,0
298935,-93.8715930478698,4,1,0,80,0,0
299007,-93.0569294377221,4,1,0,80,0,0
299079,-92.2561991553022,4,1,0,80,0,0
299151,-91.4692151209589,4,1,0,80,0,0
299223,-90.6954618711743,4,1,0,80,0,0
299295,-89.9347703110934,4,1,0,80,0,0
299367,-89.1866533956926,4,1,0,80,0,0
299440,-88.4509583661339,4,1,0,80,0,0
299512,-87.7273014380259,4,1,0,80,0,0
299584,-86.9565217391304,4,1,0,80,0,0
299728,-85.7142612244968,4,1,0,80,0,0
299800,-85.1063829787234,4,1,0,80,0,0
299872,-84.5070660583285,4,1,0,80,0,0
300016,-83.3333333333333,4,1,0,80,0,0
300161,-82.1917583036279,4,1,0,80,0,0
300233,-81.6326530612245,4,1,0,80,0,0
300305,-81.0811029948927,4,1,0,80,0,0
300377,-80.5368911310359,4,1,0,80,0,0
300449,-80,4,1,0,80,0,0
300738,-100,4,1,0,80,0,0
300810,-99.0712074303406,4,1,0,80,0,0
300882,-98.159509202454,4,1,0,80,0,0
300954,-97.2644376899696,4,1,0,80,0,0
301026,-96.3855421686747,4,1,0,80,0,0
301098,-95.5223880597015,4,1,0,80,0,0
301170,-94.6745562130178,4,1,0,80,0,0
301242,-93.841642228739,4,1,0,80,0,0
301314,-93.0232558139535,4,1,0,80,0,0
301387,-92.2190201729107,4,1,0,80,0,0
301459,-91.4285714285714,4,1,0,80,0,0
301531,-90.6515580736544,4,1,0,80,0,0
301603,-89.8876404494382,4,1,0,80,0,0
301675,-89.1364902506964,4,1,0,80,0,0
301747,-88.3977900552486,4,1,0,80,0,0
301819,-87.6712328767123,4,1,0,80,0,0
301891,-86.9565217391304,4,1,0,80,0,0
302036,-88.5976585410801,4,1,0,80,0,0
302180,-90.3019335450011,4,1,0,80,0,0
302324,-92.0729770416032,4,1,0,80,0,0
302468,-93.914967510117,4,1,0,80,0,0
302613,-95.8321633823387,4,1,0,80,0,0
302757,-97.82926640768,4,1,0,80,0,0
302901,-99.9112787844394,4,1,0,80,0,0
303045,-100,4,1,0,80,0,0
303117,-99.0760170648532,4,1,0,80,0,0
303189,-98.1688563230069,4,1,0,80,0,0
303262,-97.2782517930814,4,1,0,80,0,0
303334,-96.4035684744906,4,1,0,80,0,0
303406,-95.5445658072751,4,1,0,80,0,0
303478,-94.7006465213138,4,1,0,80,0,0
303550,-93.8715930478698,4,1,0,80,0,0
303622,-93.0569294377221,4,1,0,80,0,0
303694,-92.2561991553022,4,1,0,80,0,0
303766,-91.4692151209589,4,1,0,80,0,0
303838,-90.6954618711743,4,1,0,80,0,0
303911,-89.9347703110934,4,1,0,80,0,0
303983,-89.1866533956926,4,1,0,80,0,0
304055,-88.4509583661339,4,1,0,80,0,0
304127,-87.7273014380259,4,1,0,80,0,0
304199,-86.9565217391304,4,1,0,80,0,0
304343,-88.5976585410801,4,1,0,80,0,0
304488,-90.3019335450011,4,1,0,80,0,0
304632,-92.0729770416032,4,1,0,80,0,0
304776,-93.914967510117,4,1,0,80,0,0
304848,-94.8638798188479,4,1,0,80,0,0
304920,-95.8321633823387,4,1,0,80,0,0
304992,-96.8204174896402,4,1,0,80,0,0
305064,-97.82926640768,4,1,0,80,0,0
305209,-99.9112787844394,4,1,0,80,0,0
305353,-100,4,1,0,80,0,0
305425,-99.0760170648532,4,1,0,80,0,0
305497,-98.1688563230069,4,1,0,80,0,0
305569,-97.2782517930814,4,1,0,80,0,0
305641,-96.4035684744906,4,1,0,80,0,0
305713,-95.5445658072751,4,1,0,80,0,0
305786,-94.7006465213138,4,1,0,80,0,0
305858,-93.8715930478698,4,1,0,80,0,0
305930,-93.0569294377221,4,1,0,80,0,0
306002,-92.2561991553022,4,1,0,80,0,0
306074,-91.4692151209589,4,1,0,80,0,0
306146,-90.6954618711743,4,1,0,80,0,0
306218,-89.9347703110934,4,1,0,80,0,0
306290,-89.1866533956926,4,1,0,80,0,0
306363,-88.4509583661339,4,1,0,80,0,0
306435,-87.7273014380259,4,1,0,80,0,0
306507,-86.9565217391304,4,1,0,80,0,0
306651,-86.0263154498961,4,1,0,80,0,0
306723,-85.5685990623393,4,1,0,80,0,0
306795,-85.1158000459625,4,1,0,80,0,0
306867,-84.6676962258528,4,1,0,80,0,0
306940,-84.224285904392,4,1,0,80,0,0
307012,-83.7855659254158,4,1,0,80,0,0
307084,-83.3513233272848,4,1,0,80,0,0
307228,-82.4962711685432,4,1,0,80,0,0
307300,-82.0752564441388,4,1,0,80,0,0
307372,-81.6585838278441,4,1,0,80,0,0
307516,-80.8376722953938,4,1,0,80,0,0
307589,-80.4334397199629,4,1,0,80,0,0
307661,-80,4,1,0,80,0,0
307805,-80.5031122503196,4,1,0,80,0,0
307949,-81.0126582278481,4,1,0,80,0,0
308021,-81.2698247578769,4,1,0,80,0,0
308093,-81.5286956550097,4,1,0,80,0,0
308238,-82.0512820512821,4,1,0,80,0,0
308382,-82.5806110634896,4,1,0,80,0,0
308454,-82.8479135995679,4,1,0,80,0,0
308526,-83.1168831168831,4,1,0,80,0,0
308598,-83.3876047661019,4,1,0,80,0,0
308670,-83.6601657140562,4,1,0,80,0,0
308815,-84.2105263157895,4,1,0,80,0,0
308959,-84.7681759922963,4,1,0,80,0,0
309103,-85.3333333333333,4,1,0,80,0,0
309175,-85.618710770577,4,1,0,80,0,0
309247,-85.906077167711,4,1,0,80,0,0
309391,-86.4864864864865,4,1,0,80,0,0
309536,-87.0747920218593,4,1,0,80,0,0
309608,-87.3720327365532,4,1,0,80,0,0
309680,-87.6712328767123,4,1,0,80,0,0
309752,-87.9724892431639,4,1,0,80,0,0
309824,-88.2759010321218,4,1,0,80,0,0
309968,-88.8888888888889,4,1,0,80,0,0
310113,-89.5104494498688,4,1,0,80,0,0
310185,-89.8245815746429,4,1,0,80,0,0
310257,-90.1408450704225,4,1,0,80,0,0
310329,-90.4593435003605,4,1,0,80,0,0
310401,-90.7801830491611,4,1,0,80,0,0
310545,-91.4285714285714,4,1,0,80,0,0
310690,-92.0862885358096,4,1,0,80,0,0
310762,-92.4187939162556,4,1,0,80,0,0
310834,-92.7536231884058,4,1,0,80,0,0
310906,-93.0908874261207,4,1,0,80,0,0
310978,-93.4307005807652,4,1,0,80,0,0
311122,-94.1176470588235,4,1,0,80,0,0
311266,-94.8147698655906,4,1,0,80,0,0
311411,-95.5223880597015,4,1,0,80,0,0
311483,-95.8801268302318,4,1,0,80,0,0
311555,-96.2406478150486,4,1,0,80,0,0
311699,-96.969696969697,4,1,0,80,0,0
311843,-97.7099714002914,4,1,0,80,0,0
311915,-98.0843152390658,4,1,0,80,0,0
311988,-98.4615384615385,4,1,0,80,0,0
312060,-98.8416744175013,4,1,0,80,0,0
312132,-99.2248554293856,4,1,0,80,0,0
312204,-99.6109197474664,4,1,0,80,0,0
312276,-100,4,1,0,80,0,0
314439,-100,4,1,0,80,0,0
314584,-97.3093952221087,4,1,0,80,0,0
314656,-96.0176672507742,4,1,0,80,0,0
314728,-94.7597839476926,4,1,0,80,0,0
314800,-93.5345198498958,4,1,0,80,0,0
314872,-92.3404518587671,4,1,0,80,0,0
314944,-91.1764866782035,4,1,0,80,0,0
315016,-90.0415001274087,4,1,0,80,0,0
315089,-88.9344233136255,4,1,0,80,0,0
315161,-87.8542392745348,4,1,0,80,0,0
315233,-86.7999798624047,4,1,0,80,0,0
315305,-85.770722849921,4,1,0,80,0,0
315377,-84.765589239517,4,1,0,80,0,0
315449,-83.7838109569117,4,1,0,80,0,0
315521,-82.8244461322226,4,1,0,80,0,0
315593,-81.8868029590615,4,1,0,80,0,0
315665,-80.9701519728782,4,1,0,80,0,0
315738,-80,4,1,0,80,0,0
316026,-81.6326530612245,4,1,0,80,0,0
316170,-82.4742268041237,4,1,0,80,0,0
316459,-84.2105263157895,4,1,0,80,0,0
316531,-84.6560846560847,4,1,0,80,0,0
316603,-85.1063829787234,4,1,0,80,0,0
316747,-86.0215053763441,4,1,0,80,0,0
316891,-86.9565217391304,4,1,0,80,0,1
316964,-88.3827112810809,4,1,0,80,0,1
317036,-89.8563825437803,4,1,0,80,0,1
317108,-91.3801138596219,4,1,0,80,0,1
317180,-92.9564136671956,4,1,0,80,0,1
317252,-94.5880501240995,4,1,0,80,0,1
317324,-96.2778965205168,4,1,0,80,0,1
317396,-98.0293166474366,4,1,0,80,0,1
317468,-99.8456386426584,4,1,0,80,0,1
317540,-98.1781088343608,4,1,0,80,0,1
317613,-96.4215085530699,4,1,0,80,0,1
317685,-94.7265717506418,4,1,0,80,0,1
317757,-93.090194158218,4,1,0,80,0,1
317829,-91.5093925240487,4,1,0,80,0,1
317901,-89.9814638184534,4,1,0,80,0,1
317973,-88.5036423674016,4,1,0,80,0,1
318045,-86.9565217391304,4,1,0,80,0,1
318117,-88.3827112810809,4,1,0,80,0,1
318189,-89.8563825437803,4,1,0,80,0,1
318262,-91.3801138596219,4,1,0,80,0,1
318334,-92.9564136671956,4,1,0,80,0,1
318406,-94.5880501240995,4,1,0,80,0,1
318478,-96.2778965205168,4,1,0,80,0,1
318550,-98.0293166474366,4,1,0,80,0,1
318622,-100,4,1,0,80,0,1
318694,-98.1781088343608,4,1,0,80,0,1
318766,-96.4215085530699,4,1,0,80,0,1
318839,-94.7265717506418,4,1,0,80,0,1
318911,-93.090194158218,4,1,0,80,0,1
318983,-91.5093925240487,4,1,0,80,0,1
319055,-89.9814638184534,4,1,0,80,0,1
319127,-88.5036423674016,4,1,0,80,0,1
319199,-86.9565217391304,4,1,0,80,0,1
319271,-87.6674667784135,4,1,0,80,0,1
319343,-88.3902109609165,4,1,0,80,0,1
319415,-89.1248916018506,4,1,0,80,0,1
319488,-89.8719683938262,4,1,0,80,0,1
319560,-90.6315934484234,4,1,0,80,0,1
319632,-91.4042526742599,4,1,0,80,0,1
319704,-92.1901144540271,4,1,0,80,0,1
319776,-92.9896065516757,4,1,0,80,0,1
319848,-93.8031746746437,4,1,0,80,0,1
319920,-94.6310147472973,4,1,0,80,0,1
319992,-95.4736879289752,4,1,0,80,0,1
320064,-96.3314108794769,4,1,0,80,0,1
320137,-97.2047793645918,4,1,0,80,0,1
320209,-98.0940329399763,4,1,0,80,0,1
320281,-98.9997069608674,4,1,0,80,0,1
320353,-100,4,1,0,80,0,1
320425,-99.0760170648532,4,1,0,80,0,1
320497,-98.1688563230069,4,1,0,80,0,1
320569,-97.2782517930814,4,1,0,80,0,1
320641,-96.4035684744906,4,1,0,80,0,1
320714,-95.5445658072751,4,1,0,80,0,1
320786,-94.7006465213138,4,1,0,80,0,1
320858,-93.8715930478698,4,1,0,80,0,1
320930,-93.0569294377221,4,1,0,80,0,1
321002,-92.2561991553022,4,1,0,80,0,1
321074,-91.4692151209589,4,1,0,80,0,1
321146,-90.6954618711743,4,1,0,80,0,1
321218,-89.9347703110934,4,1,0,80,0,1
321290,-89.1866533956926,4,1,0,80,0,1
321363,-88.4509583661339,4,1,0,80,0,1
321435,-87.7273014380259,4,1,0,80,0,1
321507,-86.9565217391304,4,1,0,80,0,1
321579,-88.3827112810809,4,1,0,80,0,1
321651,-89.8563825437803,4,1,0,80,0,1
321723,-91.3801138596219,4,1,0,80,0,1
321795,-92.9564136671956,4,1,0,80,0,1
321867,-94.5880501240995,4,1,0,80,0,1
321939,-96.2778965205168,4,1,0,80,0,1
322012,-98.0293166474366,4,1,0,80,0,1
322084,-100,4,1,0,80,0,1
322156,-98.1781088343608,4,1,0,80,0,1
322228,-96.4215085530699,4,1,0,80,0,1
322300,-94.7265717506418,4,1,0,80,0,1
322372,-93.090194158218,4,1,0,80,0,1
322444,-91.5093925240487,4,1,0,80,0,1
322516,-89.9814638184534,4,1,0,80,0,1
322589,-88.5036423674016,4,1,0,80,0,1
322661,-87.0735789156553,4,1,0,80,0,1
322733,-88.3827112810809,4,1,0,80,0,1
322805,-89.8563825437803,4,1,0,80,0,1
322877,-91.3801138596219,4,1,0,80,0,1
322949,-92.9564136671956,4,1,0,80,0,1
323021,-94.5880501240995,4,1,0,80,0,1
323093,-96.2778965205168,4,1,0,80,0,1
323165,-98.0293166474366,4,1,0,80,0,1
323238,-100,4,1,0,80,0,1
323310,-98.159509202454,4,1,0,80,0,1
323382,-96.3855421686747,4,1,0,80,0,1
323454,-94.6745562130178,4,1,0,80,0,1
323526,-93.0232558139535,4,1,0,80,0,1
323598,-91.4285714285714,4,1,0,80,0,1
323670,-89.8876404494382,4,1,0,80,0,1
323742,-88.3977900552486,4,1,0,80,0,1
323814,-86.9565217391304,4,1,0,80,0,1
323887,-87.6674667784135,4,1,0,80,0,1
323959,-88.3902109609165,4,1,0,80,0,1
324031,-89.1248916018506,4,1,0,80,0,1
324103,-89.8719683938262,4,1,0,80,0,1
324175,-90.6315934484234,4,1,0,80,0,1
324247,-91.4042526742599,4,1,0,80,0,1
324319,-92.1901144540271,4,1,0,80,0,1
324391,-92.9896065516757,4,1,0,80,0,1
324464,-93.8031746746437,4,1,0,80,0,1
324536,-94.6310147472973,4,1,0,80,0,1
324608,-95.4736879289752,4,1,0,80,0,1
324680,-96.3314108794769,4,1,0,80,0,1
324752,-97.2047793645918,4,1,0,80,0,1
324824,-98.0940329399763,4,1,0,80,0,1
324896,-98.9997069608674,4,1,0,80,0,1
324968,-100,4,1,0,80,0,1
325040,-99.0760170648532,4,1,0,80,0,1
325113,-98.1688563230069,4,1,0,80,0,1
325185,-97.2782517930814,4,1,0,80,0,1
325257,-96.4035684744906,4,1,0,80,0,1
325329,-95.5445658072751,4,1,0,80,0,1
325401,-94.7006465213138,4,1,0,80,0,1
325473,-93.8715930478698,4,1,0,80,0,1
325545,-93.0569294377221,4,1,0,80,0,1
325617,-92.2561991553022,4,1,0,80,0,1
325689,-91.4692151209589,4,1,0,80,0,1
325762,-90.6954618711743,4,1,0,80,0,1
325834,-89.9347703110934,4,1,0,80,0,1
325906,-89.1866533956926,4,1,0,80,0,1
325978,-88.4509583661339,4,1,0,80,0,1
326050,-87.7273014380259,4,1,0,80,0,1
326122,-86.9565217391304,4,1,0,80,0,1
326194,-87.6674667784135,4,1,0,80,0,1
326266,-88.3902109609165,4,1,0,80,0,1
326339,-89.1248916018506,4,1,0,80,0,1
326411,-89.8719683938262,4,1,0,80,0,1
326483,-90.6315934484234,4,1,0,80,0,1
326555,-91.4042526742599,4,1,0,80,0,1
326627,-92.1901144540271,4,1,0,80,0,1
326699,-92.9896065516757,4,1,0,80,0,1
326771,-93.8031746746437,4,1,0,80,0,1
326843,-94.6310147472973,4,1,0,80,0,1
326915,-95.4736879289752,4,1,0,80,0,1
326988,-96.3314108794769,4,1,0,80,0,1
327060,-97.2047793645918,4,1,0,80,0,1
327132,-98.0940329399763,4,1,0,80,0,1
327204,-98.9997069608674,4,1,0,80,0,1
327276,-100,4,1,0,80,0,1
327348,-99.0760170648532,4,1,0,80,0,1
327420,-98.1688563230069,4,1,0,80,0,1
327492,-97.2782517930814,4,1,0,80,0,1
327564,-96.4035684744906,4,1,0,80,0,1
327637,-95.5445658072751,4,1,0,80,0,1
327709,-94.7006465213138,4,1,0,80,0,1
327781,-93.8715930478698,4,1,0,80,0,1
327853,-93.0569294377221,4,1,0,80,0,1
327925,-92.2561991553022,4,1,0,80,0,1
327997,-91.4692151209589,4,1,0,80,0,1
328069,-90.6954618711743,4,1,0,80,0,1
328141,-89.9347703110934,4,1,0,80,0,1
328214,-89.1866533956926,4,1,0,80,0,1
328286,-88.4509583661339,4,1,0,80,0,1
328358,-87.7273014380259,4,1,0,80,0,1
328430,-87.0153138250801,4,1,0,80,0,1
328502,-87.6674667784135,4,1,0,80,0,1
328574,-88.3902109609165,4,1,0,80,0,1
328646,-89.1248916018506,4,1,0,80,0,1
328718,-89.8719683938262,4,1,0,80,0,1
328790,-90.6315934484234,4,1,0,80,0,1
328862,-91.4042526742599,4,1,0,80,0,1
328935,-92.1901144540271,4,1,0,80,0,1
329007,-92.9896065516757,4,1,0,80,0,1
329079,-93.8031746746437,4,1,0,80,0,1
329151,-94.6310147472973,4,1,0,80,0,1
329223,-95.4736879289752,4,1,0,80,0,1
329295,-96.3314108794769,4,1,0,80,0,1
329367,-97.2047793645918,4,1,0,80,0,1
329439,-98.0940329399763,4,1,0,80,0,1
329512,-98.9997069608674,4,1,0,80,0,1
329584,-100,4,1,0,80,0,1
329656,-99.0760170648532,4,1,0,80,0,1
329728,-98.1688563230069,4,1,0,80,0,1
329800,-97.2782517930814,4,1,0,80,0,1
329872,-96.4035684744906,4,1,0,80,0,1
329944,-95.5445658072751,4,1,0,80,0,1
330016,-94.7006465213138,4,1,0,80,0,1
330089,-93.8715930478698,4,1,0,80,0,1
330161,-93.0569294377221,4,1,0,80,0,1
330233,-92.2561991553022,4,1,0,80,0,1
330305,-91.4692151209589,4,1,0,80,0,1
330377,-90.6954618711743,4,1,0,80,0,1
330449,-89.9347703110934,4,1,0,80,0,1
330521,-89.1866533956926,4,1,0,80,0,1
330593,-88.4509583661339,4,1,0,80,0,1
330665,-87.7273014380259,4,1,0,80,0,1
330738,-87.0153138250801,4,1,0,80,0,1
330810,-87.6712328767123,4,1,0,80,0,1
330882,-88.3977900552486,4,1,0,80,0,1
330954,-89.1364902506964,4,1,0,80,0,1
331026,-89.8876404494382,4,1,0,80,0,1
331098,-90.6515580736544,4,1,0,80,0,1
331170,-91.4285714285714,4,1,0,80,0,1
331242,-92.2190201729107,4,1,0,80,0,1
331314,-93.0232558139535,4,1,0,80,0,1
331387,-93.841642228739,4,1,0,80,0,1
331459,-94.6745562130178,4,1,0,80,0,1
331531,-95.5223880597015,4,1,0,80,0,1
331603,-96.3855421686747,4,1,0,80,0,1
331675,-97.2644376899696,4,1,0,80,0,1
331747,-98.159509202454,4,1,0,80,0,1
331819,-99.0712074303406,4,1,0,80,0,1
331891,-100,4,1,0,80,0,1
331964,-99.0760170648532,4,1,0,80,0,1
332036,-98.1688563230069,4,1,0,80,0,1
332108,-97.2782517930814,4,1,0,80,0,1
332180,-96.4035684744906,4,1,0,80,0,1
332252,-95.5445658072751,4,1,0,80,0,1
332324,-94.7006465213138,4,1,0,80,0,1
332396,-93.8715930478698,4,1,0,80,0,1
332468,-93.0569294377221,4,1,0,80,0,1
332540,-92.2561991553022,4,1,0,80,0,1
332613,-91.4692151209589,4,1,0,80,0,1
332685,-90.6954618711743,4,1,0,80,0,1
332757,-89.9347703110934,4,1,0,80,0,1
332829,-89.1866533956926,4,1,0,80,0,1
332901,-88.4509583661339,4,1,0,80,0,1
332973,-87.7273014380259,4,1,0,80,0,1
333045,-87.0153138250801,4,1,0,80,0,1
333117,-87.6674667784135,4,1,0,80,0,1
333189,-88.3902109609165,4,1,0,80,0,1
333262,-89.1248916018506,4,1,0,80,0,1
333334,-89.8719683938262,4,1,0,80,0,1
333406,-90.6315934484234,4,1,0,80,0,1
333478,-91.4042526742599,4,1,0,80,0,1
333550,-92.1901144540271,4,1,0,80,0,1
333622,-92.9896065516757,4,1,0,80,0,1
333694,-93.8031746746437,4,1,0,80,0,1
333766,-94.6310147472973,4,1,0,80,0,1
333839,-95.4736879289752,4,1,0,80,0,1
333911,-96.3314108794769,4,1,0,80,0,1
333983,-97.2047793645918,4,1,0,80,0,1
334055,-98.0940329399763,4,1,0,80,0,1
334127,-98.9997069608674,4,1,0,80,0,1
334199,-100,4,1,0,80,0,1
334271,-98.4693917742609,4,1,0,80,0,1
334343,-96.9849324208991,4,1,0,80,0,1
334415,-95.5445658072751,4,1,0,80,0,1
334488,-94.1463561594312,4,1,0,80,0,1
334560,-92.7884793823999,4,1,0,80,0,1
334632,-91.4692151209589,4,1,0,80,0,1
334704,-90.1869394881711,4,1,0,80,0,1
334776,-88.9401183970856,4,1,0,80,0,1
334848,-87.7273014380259,4,1,0,80,0,1
334920,-86.5471162500865,4,1,0,80,0,1
334992,-85.3982633409167,4,1,0,80,0,1
335064,-84.2795113136816,4,1,0,80,0,1
335209,-82.1276312666462,4,1,0,80,0,1
335353,-80,4,1,0,80,0,1
335425,-80.2974216497908,4,1,0,80,0,1
335497,-80.5969980842093,4,1,0,80,0,1
335569,-80.8988836763042,4,1,0,80,0,1
335641,-81.2030392673537,4,1,0,80,0,1
335786,-81.8181966942176,4,1,0,80,0,1
335930,-82.4427455742673,4,1,0,80,0,1
336002,-82.7586435196258,4,1,0,80,0,1
336074,-83.076902627224,4,1,0,80,0,1
336146,-83.3976885496642,4,1,0,80,0,1
336218,-83.7209613845438,4,1,0,80,0,1
336290,-84.0466795258086,4,1,0,80,0,1
336363,-84.3750131835958,4,1,0,80,0,1
336435,-84.7058504636798,4,1,0,80,0,1
336507,-85.0393647219298,4,1,0,80,0,1
336651,-85.7142612244968,4,1,0,80,0,1
336723,-86.055779635244,4,1,0,80,0,1
336795,-86.4000304128107,4,1,0,80,0,1
336939,-87.0967854318433,4,1,0,80,0,1
337084,-87.8048694824518,4,1,0,80,0,1
337156,-88.1632854577306,4,1,0,80,0,1
337228,-88.5245611394882,4,1,0,80,0,1
337300,-88.8888888888889,4,1,0,80,0,1
337372,-89.2562278532985,4,1,0,80,0,1
337444,-89.6265351905146,4,1,0,80,0,1
337516,-90.0000090000009,4,1,0,80,0,1
337661,-90.756290318482,4,1,0,80,0,1
337733,-91.1392589649132,4,1,0,80,0,1
337805,-91.5253896007022,4,1,0,80,0,1
337877,-91.9148904880037,4,1,0,80,0,1
337949,-92.3077207100679,4,1,0,80,0,1
338021,-92.7038371972293,4,1,0,80,0,1
338093,-93.10345469679,4,1,0,80,0,1
338165,-93.5065323663511,4,1,0,80,0,1
338238,-93.9130271455605,4,1,0,80,0,1
338310,-94.3231605804647,4,1,0,80,0,1
338382,-94.7368022160833,4,1,0,80,0,1
338454,-95.154178315124,4,1,0,80,0,1
338526,-95.5752483044951,4,1,0,80,0,1
338598,-95.9999692800098,4,1,0,80,0,1
338670,-96.4285748724491,4,1,0,80,0,1
338742,-96.8610247702699,4,1,0,80,0,1
338814,-97.2972762600484,4,1,0,80,0,1
338887,-97.7375707131324,4,1,0,80,0,1
338959,-98.181771768617,4,1,0,80,0,1
339031,-98.6301261775204,4,1,0,80,0,1
339103,-99.082594259749,4,1,0,80,0,1
339175,-99.5391338104576,4,1,0,80,0,1
339247,-100,4,1,0,80,0,1
340834,-100,4,1,0,80,0,1
340978,-98.5221674876847,4,1,0,80,0,1
341050,-97.799511002445,4,1,0,80,0,1
341122,-97.0873786407767,4,1,0,80,0,1
341194,-96.3855421686747,4,1,0,80,0,1
341266,-95.6937799043062,4,1,0,80,0,1
341339,-95.0118764845606,4,1,0,80,0,1
341411,-94.3396226415094,4,1,0,80,0,1
341483,-93.6768149882904,4,1,0,80,0,1
341555,-93.0232558139535,4,1,0,80,0,1
341627,-92.378752886836,4,1,0,80,0,1
341699,-91.743119266055,4,1,0,80,0,1
341771,-91.1161731207289,4,1,0,80,0,1
341843,-90.4977375565611,4,1,0,80,0,1
341915,-89.8876404494382,4,1,0,80,0,1
341988,-89.2857142857143,4,1,0,80,0,1
342060,-88.6917960088692,4,1,0,80,0,1
342132,-88.1057268722467,4,1,0,80,0,1
342204,-87.527352297593,4,1,0,80,0,1
342276,-86.9565217391304,4,1,0,80,0,1
342420,-88.5976585410801,4,1,0,80,0,1
342564,-90.3019335450011,4,1,0,80,0,1
342709,-92.0729770416032,4,1,0,80,0,1
342781,-92.9848509080901,4,1,0,80,0,1
342853,-93.914967510117,4,1,0,80,0,1
342997,-95.8321633823387,4,1,0,80,0,1
343141,-97.82926640768,4,1,0,80,0,1
343286,-99.9112787844394,4,1,0,80,0,1
343430,-86.9565217391304,4,1,0,80,0,1
343574,-90.852514570472,4,1,0,80,0,1
343718,-95.1139941219552,4,1,0,80,0,1
343863,-99.7949214364481,4,1,0,80,0,1
344007,-86.9565217391304,4,1,0,80,0,1
344295,-80,4,1,0,80,0,1
344584,-86.9565217391304,4,1,0,80,0,1
344656,-87.3124528512755,4,1,0,80,0,1
344728,-87.6712328767123,4,1,0,80,0,1
344800,-88.0330511287158,4,1,0,80,0,1
344872,-88.3977900552486,4,1,0,80,0,1
345016,-89.1364902506964,4,1,0,80,0,1
345089,-89.5104494498688,4,1,0,80,0,1
345161,-89.8876404494382,4,1,0,80,0,1
345233,-90.2680238163154,4,1,0,80,0,1
345305,-90.6515580736544,4,1,0,80,0,1
345377,-91.0383653879418,4,1,0,80,0,1
345449,-91.4285714285714,4,1,0,80,0,1
345521,-91.8221368480399,4,1,0,80,0,1
345593,-92.2190201729107,4,1,0,80,0,1
345665,-92.6193492934996,4,1,0,80,0,1
345738,-93.0232558139535,4,1,0,80,0,1
345810,-93.4307005807652,4,1,0,80,0,1
345882,-93.841642228739,4,1,0,80,0,1
345954,-94.2563036259457,4,1,0,80,0,1
346026,-94.6745562130178,4,1,0,80,0,1
346098,-95.0966276833891,4,1,0,80,0,1
346170,-95.5223880597015,4,1,0,80,0,1
346242,-95.9520700219826,4,1,0,80,0,1
346314,-96.3855421686747,4,1,0,80,0,1
346387,-96.823042334907,4,1,0,80,0,1
346459,-97.2644376899696,4,1,0,80,0,1
346531,-97.7098759279995,4,1,0,80,0,1
346603,-98.159509202454,4,1,0,80,0,1
346675,-98.6132997785145,4,1,0,80,0,1
346747,-99.0712074303406,4,1,0,80,0,1
346819,-99.5333874794961,4,1,0,80,0,1
346891,-100,4,1,0,80,0,1
348045,-100,4,1,0,80,0,1
348238,-92.3444596094568,4,1,0,80,0,1
348430,-85.7777857837045,4,1,0,80,0,1
348622,-80.082965952727,4,1,0,80,0,1
348814,-75.0972885373001,4,1,0,80,0,1
349007,-70.6959593017502,4,1,0,80,0,1
349199,283.018867924528,4,1,0,80,1,0
349199,-68.9655172413793,4,1,0,80,0,0
350331,-117.647058823529,4,1,0,80,0,0
351109,-114.330401139645,4,1,0,80,0,0
351180,-111.195743426942,4,1,0,80,0,0
351250,-108.228270739513,4,1,0,80,0,0
351321,-105.415177677282,4,1,0,80,0,0
351392,-102.744511388202,4,1,0,80,0,0
351463,-100.205923172119,4,1,0,80,0,0
355283,-100,4,1,0,80,0,0
355425,-103.896103896104,4,1,0,80,0,0
355496,-105.960264900662,4,1,0,80,0,0
355637,-110.344827586207,4,1,0,80,0,0
355708,-112.676056338028,4,1,0,80,0,0
355849,-117.647058823529,4,1,0,80,0,0
355991,-100,4,1,0,80,0,0
362783,-100,4,1,0,80,0,0
362925,-99.0735631113458,4,1,0,80,0,0
362996,-98.6168007526434,4,1,0,80,0,0
363066,-98.1642307212813,4,1,0,80,0,0
363208,-97.271344251069,4,1,0,80,0,0
363279,-96.8310114870629,4,1,0,80,0,0
363349,-96.3945544788284,4,1,0,80,0,0
363491,-95.5335212796142,4,1,0,80,0,0
363562,-95.1086568850583,4,1,0,80,0,0
363632,-94.6876443986577,4,1,0,80,0,0
363703,-94.2703428329558,4,1,0,80,0,0
363774,-93.8566152488843,4,1,0,80,0,0
363845,-93.4465906011419,4,1,0,80,0,0
363915,-93.0401328613097,4,1,0,80,0,0
364057,-92.2376484564952,4,1,0,80,0,0
364128,-91.8416172941439,4,1,0,80,0,0
364199,-91.4489723878973,4,1,0,80,0,0
364340,-90.6735868748169,4,1,0,80,0,0
364411,-90.2908448694936,4,1,0,80,0,0
364482,-89.9112396242429,4,1,0,80,0,0
364552,-89.5348930908609,4,1,0,80,0,0
364623,-89.1616840145583,4,1,0,80,0,0
364694,-88.7914944851603,4,1,0,80,0,0
364765,-88.4244444071097,4,1,0,80,0,0
364835,-88.0604164905458,4,1,0,80,0,0
364906,-87.6992966516409,4,1,0,80,0,0
364977,-87.3412027757034,4,1,0,80,0,0
365048,-86.9860213463696,4,1,0,80,0,0
365331,-100,4,1,0,80,0,0
369010,-100,4,1,0,80,0,0
369151,-96.3855421686747,4,1,0,80,0,0
369293,-93.0232558139535,4,1,0,80,0,0
369576,-86.9565217391304,4,1,0,80,0,0
369859,-100,4,1,0,80,0,0
371840,-100,4,1,0,80,0,0
371982,-98.159509202454,4,1,0,80,0,0
372052,-97.2644376899696,4,1,0,80,0,0
372123,-96.3855421686747,4,1,0,80,0,0
372194,-95.5223880597015,4,1,0,80,0,0
372265,-94.6745562130178,4,1,0,80,0,0
372335,-93.841642228739,4,1,0,80,0,0
372406,-93.0232558139535,4,1,0,80,0,0
372548,-91.4285714285714,4,1,0,80,0,0
372618,-90.6515580736544,4,1,0,80,0,0
372689,-89.8876404494382,4,1,0,80,0,0
372831,-88.3977900552486,4,1,0,80,0,0
372972,-86.9565217391304,4,1,0,80,0,0
373066,-87.9120879120879,4,1,0,80,0,0
373161,-88.8888888888889,4,1,0,80,0,0
373255,-89.8876404494382,4,1,0,80,0,0
373349,-90.9090909090909,4,1,0,80,0,0
373444,-91.9540229885058,4,1,0,80,0,0
373538,-93.0232558139535,4,1,0,80,0,0
373632,-94.1176470588235,4,1,0,80,0,0
373727,-95.2380952380952,4,1,0,80,0,0
373821,-96.3855421686747,4,1,0,80,0,0
373915,-97.5609756097561,4,1,0,80,0,0
374010,-98.7654320987654,4,1,0,80,0,0
374104,297.029702970297,4,1,0,80,1,0
374104,-95.2380952380952,4,1,0,80,0,0
374203,-94.1176470588235,4,1,0,80,0,0
374302,-93.0232558139535,4,1,0,80,0,0
374401,-91.9540229885058,4,1,0,80,0,0
374500,-90.9090909090909,4,1,0,80,0,0
374599,-89.8876404494382,4,1,0,80,0,0
374698,-88.8888888888889,4,1,0,80,0,0
374797,-87.9120879120879,4,1,0,80,0,0
374896,-86.9565217391304,4,1,0,80,0,0
374995,-86.0215053763441,4,1,0,80,0,0
375094,-85.1063829787234,4,1,0,80,0,0
375193,-84.2105263157895,4,1,0,80,0,0
375292,-83.3333333333333,4,1,0,80,0,0
375465,-81.8414322250639,4,1,0,80,0,0
375539,-81.2182741116751,4,1,0,80,0,0
375613,-80.6045340050378,4,1,0,80,0,0
375688,-80,4,1,0,80,0,0
375787,-77.4193348595265,4,1,0,80,0,0
375886,-75.0000187500047,4,1,0,80,0,0
375985,-72.7272727272727,4,1,0,80,0,0
376084,-70.588218685125,4,1,0,80,0,0
376183,-68.5714442449015,4,1,0,80,0,0
376282,-66.6666666666667,4,1,0,80,0,0
376381,-64.8648508400323,4,1,0,80,0,0
376480,288.461538461538,4,1,0,80,1,0
376480,-65.0338854995778,4,1,0,80,0,0
376576,-63.3663366336634,4,1,0,80,0,0
376672,-61.7821658613886,4,1,0,80,0,0
376768,-60.2753075833008,4,1,0,80,0,0
376864,-58.8401697312588,4,1,0,80,0,0
376912,-20,4,1,0,5,0,0

[HitObjects]
347,329,200,5,12,0:0:0:0:
453,269,427,1,8,0:0:0:0:
453,269,503,1,8,0:0:0:0:
453,269,578,1,0,0:0:0:0:
453,269,654,1,0,0:0:0:0:
454,299,881,1,12,0:0:0:0:
402,343,1109,1,0,0:0:0:0:
402,343,1336,1,8,0:0:0:0:
402,343,1563,1,8,0:0:0:0:
402,343,1790,1,0,0:0:0:0:
411,283,2018,1,12,0:0:0:0:
455,282,2245,1,8,0:0:0:0:
455,282,2321,1,8,0:0:0:0:
455,282,2396,1,0,0:0:0:0:
455,282,2472,1,0,0:0:0:0:
422,325,2700,1,12,0:0:0:0:
386,320,2927,1,0,0:0:0:0:
386,320,3154,1,8,0:0:0:0:
386,320,3381,1,0,0:0:0:0:
386,320,3609,1,8,0:0:0:0:
347,329,3836,1,12,0:0:0:0:
453,269,4063,1,8,0:0:0:0:
453,269,4139,1,8,0:0:0:0:
453,269,4215,1,0,0:0:0:0:
453,269,4290,1,0,0:0:0:0:
454,299,4518,1,12,0:0:0:0:
402,343,4745,1,0,0:0:0:0:
402,343,4972,1,8,0:0:0:0:
402,343,5200,1,8,0:0:0:0:
402,343,5427,1,0,0:0:0:0:
411,283,5654,1,12,0:0:0:0:
455,282,5881,1,8,0:0:0:0:
455,282,5957,1,8,0:0:0:0:
455,282,6033,1,0,0:0:0:0:
455,282,6109,1,0,0:0:0:0:
422,325,6336,1,12,0:0:0:0:
386,320,6563,1,0,0:0:0:0:
386,320,6790,1,8,0:0:0:0:
386,320,7018,1,0,0:0:0:0:
386,320,7245,1,8,0:0:0:0:
347,329,7472,1,12,0:0:0:0:
453,269,7700,1,8,0:0:0:0:
453,269,7775,1,8,0:0:0:0:
453,269,7851,1,0,0:0:0:0:
453,269,7927,1,0,0:0:0:0:
454,299,8154,1,12,0:0:0:0:
402,343,8381,1,0,0:0:0:0:
402,343,8609,1,8,0:0:0:0:
402,343,8836,1,8,0:0:0:0:
402,343,9063,1,0,0:0:0:0:
418,296,9290,1,8,0:0:0:0:
451,337,9442,1,0,0:0:0:0:
414,322,9593,1,0,0:0:0:0:
414,322,9745,1,8,0:0:0:0:
446,296,9859,1,0,0:0:0:0:
446,296,9972,1,0,0:0:0:0:
446,296,10086,1,0,0:0:0:0:
419,320,10200,1,8,0:0:0:0:
419,320,10275,1,0,0:0:0:0:
419,320,10351,1,0,0:0:0:0:
419,320,10427,1,8,0:0:0:0:
419,320,10503,1,0,0:0:0:0:
419,320,10578,1,0,0:0:0:0:
431,320,10654,1,8,0:0:0:0:
431,320,10730,1,0,0:0:0:0:
431,320,10806,1,0,0:0:0:0:
431,320,10881,1,8,0:0:0:0:
431,320,10957,1,0,0:0:0:0:
431,320,11033,1,0,0:0:0:0:
431,320,11109,1,12,0:0:0:0:
402,325,11336,1,8,0:0:0:0:
426,307,11450,1,0,0:0:0:0:
426,307,11563,1,8,0:0:0:0:
460,314,11790,1,8,0:0:0:0:
460,314,11904,1,8,0:0:0:0:
460,314,12018,1,0,0:0:0:0:
460,314,12131,1,0,0:0:0:0:
460,314,12245,1,8,0:0:0:0:
409,313,12359,1,0,0:0:0:0:
426,276,12472,1,8,0:0:0:0:
416,331,12700,1,8,0:0:0:0:
489,333,12927,1,12,0:0:0:0:
439,302,13154,1,8,0:0:0:0:
439,302,13268,1,0,0:0:0:0:
439,302,13381,1,8,0:0:0:0:
423,323,13609,1,8,0:0:0:0:
423,323,13722,1,8,0:0:0:0:
423,323,13836,1,0,0:0:0:0:
423,323,13950,1,0,0:0:0:0:
423,323,14063,1,8,0:0:0:0:
461,333,14177,1,0,0:0:0:0:
451,313,14290,1,8,0:0:0:0:
435,294,14404,1,8,0:0:0:0:
435,294,14518,1,0,0:0:0:0:
431,320,14745,1,12,0:0:0:0:
402,325,14972,1,8,0:0:0:0:
426,307,15086,1,0,0:0:0:0:
426,307,15200,1,8,0:0:0:0:
460,314,15427,1,8,0:0:0:0:
460,314,15540,1,8,0:0:0:0:
460,314,15654,1,0,0:0:0:0:
460,314,15768,1,0,0:0:0:0:
460,314,15881,1,8,0:0:0:0:
439,353,15995,1,0,0:0:0:0:
426,276,16109,1,8,0:0:0:0:
416,331,16336,1,8,0:0:0:0:
489,333,16563,1,12,0:0:0:0:
439,302,16790,1,8,0:0:0:0:
439,302,16904,1,0,0:0:0:0:
439,302,17018,1,8,0:0:0:0:
423,323,17245,1,8,0:0:0:0:
423,323,17359,1,8,0:0:0:0:
423,323,17472,1,0,0:0:0:0:
423,323,17586,1,0,0:0:0:0:
423,323,17700,1,8,0:0:0:0:
375,320,17813,1,0,0:0:0:0:
451,313,17927,1,8,0:0:0:0:
435,294,18040,1,8,0:0:0:0:
435,294,18154,1,0,0:0:0:0:
443,321,18268,1,0,0:0:0:0:
431,320,18381,1,12,0:0:0:0:
402,325,18609,1,8,0:0:0:0:
426,307,18722,1,0,0:0:0:0:
426,307,18836,1,8,0:0:0:0:
460,314,19063,1,8,0:0:0:0:
460,314,19177,1,8,0:0:0:0:
460,314,19290,1,0,0:0:0:0:
460,314,19404,1,0,0:0:0:0:
460,314,19518,1,8,0:0:0:0:
366,305,19631,1,0,0:0:0:0:
426,276,19745,1,8,0:0:0:0:
416,331,19972,1,8,0:0:0:0:
489,333,20200,1,12,0:0:0:0:
439,302,20427,1,8,0:0:0:0:
439,302,20540,1,0,0:0:0:0:
439,302,20654,1,8,0:0:0:0:
423,323,20881,1,8,0:0:0:0:
423,323,20995,1,8,0:0:0:0:
423,323,21109,1,0,0:0:0:0:
423,323,21222,1,0,0:0:0:0:
423,323,21336,1,8,0:0:0:0:
372,309,21450,1,0,0:0:0:0:
451,313,21563,1,8,0:0:0:0:
435,294,21677,1,8,0:0:0:0:
435,294,21790,1,0,0:0:0:0:
431,320,22018,1,12,0:0:0:0:
402,325,22245,1,8,0:0:0:0:
426,307,22359,1,0,0:0:0:0:
426,307,22472,1,8,0:0:0:0:
460,314,22700,1,8,0:0:0:0:
460,314,22813,1,8,0:0:0:0:
460,314,22927,1,0,0:0:0:0:
460,314,23040,1,0,0:0:0:0:
460,314,23154,1,8,0:0:0:0:
425,351,23268,1,0,0:0:0:0:
426,276,23381,1,8,0:0:0:0:
416,331,23609,1,8,0:0:0:0:
392,290,23722,1,0,0:0:0:0:
487,355,23836,1,8,0:0:0:0:
423,284,23912,1,0,0:0:0:0:
423,284,23987,1,0,0:0:0:0:
423,284,24063,1,8,0:0:0:0:
431,271,24177,1,0,0:0:0:0:
431,271,24290,1,8,0:0:0:0:
431,271,24404,1,0,0:0:0:0:
432,320,24518,1,8,0:0:0:0:
432,320,24593,1,0,0:0:0:0:
432,320,24669,1,0,0:0:0:0:
432,320,24745,1,8,0:0:0:0:
406,274,24859,1,0,0:0:0:0:
406,274,24972,1,8,0:0:0:0:
406,274,25086,1,8,0:0:0:0:
364,258,25200,1,0,0:0:0:0:
364,258,25313,1,8,0:0:0:0:
364,258,25427,1,0,0:0:0:0:
364,258,25540,1,0,0:0:0:0:
364,258,25654,1,12,0:0:0:0:
477,296,25795,1,0,0:0:0:0:
477,296,25937,1,0,0:0:0:0:
477,296,26007,1,0,0:0:0:0:
477,296,26078,1,8,0:0:0:0:
433,316,26220,1,0,0:0:0:0:
473,317,26361,1,8,0:0:0:0:
473,317,26432,1,0,0:0:0:0:
473,317,26503,1,8,0:0:0:0:
473,317,26573,1,8,0:0:0:0:
473,317,26644,1,0,0:0:0:0:
473,317,26786,1,8,0:0:0:0:
464,333,26927,1,0,0:0:0:0:
464,333,27069,1,0,0:0:0:0:
464,333,27139,1,0,0:0:0:0:
464,333,27210,1,8,0:0:0:0:
483,332,27352,1,0,0:0:0:0:
429,323,27493,1,0,0:0:0:0:
483,332,27564,1,0,0:0:0:0:
483,332,27635,1,8,0:0:0:0:
483,332,27705,1,8,0:0:0:0:
483,332,27776,1,0,0:0:0:0:
483,332,27918,1,8,0:0:0:0:
465,333,28059,1,0,0:0:0:0:
465,333,28201,1,0,0:0:0:0:
465,333,28271,1,0,0:0:0:0:
465,333,28342,1,8,0:0:0:0:
465,333,28484,1,0,0:0:0:0:
465,333,28625,1,8,0:0:0:0:
465,333,28696,1,0,0:0:0:0:
465,333,28767,1,8,0:0:0:0:
465,333,28837,1,8,0:0:0:0:
465,333,28908,1,0,0:0:0:0:
465,333,28979,1,0,0:0:0:0:
465,333,29050,1,8,0:0:0:0:
465,333,29120,1,0,0:0:0:0:
465,333,29191,1,0,0:0:0:0:
465,333,29262,1,0,0:0:0:0:
408,337,29333,1,8,0:0:0:0:
408,337,29403,1,0,0:0:0:0:
408,337,29474,1,0,0:0:0:0:
408,337,29545,1,0,0:0:0:0:
408,337,29616,1,8,0:0:0:0:
451,323,29757,1,0,0:0:0:0:
451,323,29828,1,0,0:0:0:0:
451,323,29899,1,8,0:0:0:0:
493,345,30040,1,0,0:0:0:0:
493,345,30182,1,12,0:0:0:0:
438,340,30323,1,0,0:0:0:0:
431,348,30465,1,0,0:0:0:0:
431,348,30536,1,0,0:0:0:0:
431,348,30606,1,8,0:0:0:0:
431,323,30748,1,0,0:0:0:0:
431,323,30889,1,8,0:0:0:0:
431,323,30960,1,0,0:0:0:0:
431,323,31031,1,8,0:0:0:0:
431,323,31102,1,8,0:0:0:0:
431,323,31172,1,0,0:0:0:0:
431,323,31243,1,0,0:0:0:0:
431,323,31314,1,8,0:0:0:0:
431,323,31455,1,0,0:0:0:0:
431,323,31597,1,0,0:0:0:0:
431,323,31668,1,0,0:0:0:0:
431,323,31738,1,8,0:0:0:0:
459,350,31880,1,0,0:0:0:0:
459,350,32021,1,0,0:0:0:0:
459,350,32092,1,0,0:0:0:0:
459,350,32163,1,8,0:0:0:0:
459,350,32234,1,8,0:0:0:0:
459,350,32304,1,0,0:0:0:0:
459,350,32375,1,0,0:0:0:0:
459,350,32446,1,8,0:0:0:0:
429,326,32587,1,0,0:0:0:0:
429,326,32729,1,0,0:0:0:0:
429,326,32800,1,0,0:0:0:0:
429,326,32870,1,8,0:0:0:0:
429,326,33012,1,0,0:0:0:0:
399,294,33153,1,8,0:0:0:0:
399,294,33224,1,0,0:0:0:0:
399,294,33295,1,8,0:0:0:0:
399,294,33366,1,8,0:0:0:0:
399,294,33437,1,0,0:0:0:0:
399,294,33507,1,0,0:0:0:0:
399,294,33578,1,8,0:0:0:0:
421,304,33720,1,0,0:0:0:0:
421,304,33861,1,0,0:0:0:0:
421,304,33932,1,0,0:0:0:0:
421,304,34003,1,8,0:0:0:0:
414,274,34144,1,0,0:0:0:0:
463,308,34215,1,8,0:0:0:0:
463,308,34356,1,8,0:0:0:0:
463,308,34427,1,0,0:0:0:0:
463,308,34569,1,0,0:0:0:0:
463,308,34710,1,12,0:0:0:0:
438,329,34852,1,0,0:0:0:0:
438,329,34993,1,0,0:0:0:0:
438,329,35064,1,0,0:0:0:0:
438,329,35135,1,8,0:0:0:0:
452,326,35205,1,0,0:0:0:0:
452,326,35276,1,8,0:0:0:0:
452,326,35347,1,8,0:0:0:0:
452,326,35418,1,0,0:0:0:0:
358,305,35488,1,0,0:0:0:0:
358,305,35559,1,8,0:0:0:0:
358,305,35630,1,8,0:0:0:0:
358,305,35701,1,0,0:0:0:0:
420,277,35771,1,0,0:0:0:0:
420,277,35842,1,8,0:0:0:0:
402,323,35984,1,0,0:0:0:0:
381,308,36125,1,0,0:0:0:0:
431,341,36196,1,0,0:0:0:0:
431,341,36267,1,8,0:0:0:0:
431,341,36337,1,8,0:0:0:0:
452,323,36408,1,0,0:0:0:0:
452,323,36479,1,8,0:0:0:0:
452,323,36550,1,0,0:0:0:0:
452,323,36620,1,0,0:0:0:0:
452,323,36691,1,8,0:0:0:0:
452,323,36762,1,8,0:0:0:0:
452,323,36833,1,0,0:0:0:0:
452,323,36903,1,0,0:0:0:0:
452,323,36974,1,8,0:0:0:0:
349,318,37116,1,0,0:0:0:0:
349,318,37257,1,0,0:0:0:0:
349,318,37328,1,0,0:0:0:0:
349,318,37399,1,8,0:0:0:0:
349,318,37540,1,0,0:0:0:0:
349,318,37682,1,8,0:0:0:0:
349,318,37753,1,0,0:0:0:0:
349,318,37823,1,8,0:0:0:0:
349,318,37894,1,8,0:0:0:0:
349,318,37965,1,0,0:0:0:0:
349,318,38106,1,8,0:0:0:0:
349,318,38248,1,0,0:0:0:0:
349,318,38389,1,0,0:0:0:0:
349,318,38460,1,0,0:0:0:0:
349,318,38531,1,8,0:0:0:0:
405,316,38672,1,0,0:0:0:0:
439,332,38814,1,0,0:0:0:0:
439,332,38955,1,12,0:0:0:0:
439,332,39097,1,12,0:0:0:0:
439,332,39238,1,12,0:0:0:0:
455,318,39380,1,0,0:0:0:0:
455,318,39451,1,0,0:0:0:0:
455,318,39521,1,8,0:0:0:0:
420,322,39663,1,8,0:0:0:0:
433,320,39804,1,8,0:0:0:0:
430,344,39875,1,8,0:0:0:0:
430,344,39946,1,0,0:0:0:0:
430,344,40017,1,0,0:0:0:0:
430,344,40087,1,8,0:0:0:0:
441,318,40229,1,0,0:0:0:0:
407,307,40370,1,8,0:0:0:0:
407,307,40512,1,0,0:0:0:0:
407,307,40583,1,0,0:0:0:0:
407,307,40653,1,8,0:0:0:0:
435,323,40724,1,0,0:0:0:0:
435,323,40795,1,8,0:0:0:0:
402,302,40866,1,8,0:0:0:0:
423,315,40937,1,0,0:0:0:0:
423,315,41007,1,8,0:0:0:0:
423,315,41078,1,0,0:0:0:0:
423,315,41149,1,0,0:0:0:0:
413,312,41220,1,8,0:0:0:0:
412,311,41290,1,0,0:0:0:0:
412,311,41361,1,8,0:0:0:0:
413,312,41432,1,8,0:0:0:0:
413,312,41503,1,0,0:0:0:0:
394,347,41644,1,0,0:0:0:0:
394,347,41715,1,0,0:0:0:0:
394,347,41786,1,8,0:0:0:0:
424,339,41856,1,8,0:0:0:0:
424,339,41927,1,0,0:0:0:0:
424,339,42069,1,8,0:0:0:0:
424,339,42139,1,0,0:0:0:0:
424,339,42210,1,0,0:0:0:0:
424,339,42281,1,0,0:0:0:0:
424,339,42352,1,8,0:0:0:0:
424,339,42493,1,8,0:0:0:0:
412,313,42635,1,8,0:0:0:0:
412,313,42729,1,8,0:0:0:0:
412,313,42823,1,0,0:0:0:0:
412,313,42918,1,8,0:0:0:0:
412,313,43012,1,0,0:0:0:0:
412,313,43106,1,0,0:0:0:0:
412,313,43201,1,8,0:0:0:0:
412,313,43295,1,0,0:0:0:0:
412,313,43389,1,8,0:0:0:0:
412,313,43484,1,8,0:0:0:0:
412,313,43578,1,0,0:0:0:0:
412,313,43672,1,8,0:0:0:0:
446,354,43767,1,0,0:0:0:0:
446,354,43868,1,8,0:0:0:0:
446,354,43969,1,8,0:0:0:0:
434,315,44070,1,0,0:0:0:0:
434,315,44171,1,8,0:0:0:0:
464,330,44272,1,8,0:0:0:0:
386,320,44373,1,0,0:0:0:0:
469,336,44475,1,12,0:0:0:0:
469,336,44733,1,12,0:0:0:0:
469,336,44992,1,12,0:0:0:0:
398,304,47141,1,0,0:0:0:0:
398,304,47211,1,0,0:0:0:0:
398,304,47282,1,0,0:0:0:0:
462,312,47353,1,0,0:0:0:0:
493,345,47424,1,12,0:0:0:0:
438,340,47565,1,0,0:0:0:0:
431,348,47707,1,0,0:0:0:0:
431,348,47777,1,0,0:0:0:0:
431,348,47848,1,8,0:0:0:0:
431,323,47990,1,0,0:0:0:0:
431,323,48131,1,8,0:0:0:0:
431,323,48202,1,0,0:0:0:0:
431,323,48273,1,8,0:0:0:0:
431,323,48343,1,8,0:0:0:0:
431,323,48414,1,0,0:0:0:0:
431,323,48485,1,0,0:0:0:0:
431,323,48556,1,8,0:0:0:0:
431,323,48697,1,0,0:0:0:0:
431,323,48839,1,0,0:0:0:0:
431,323,48909,1,0,0:0:0:0:
431,323,48980,1,8,0:0:0:0:
459,350,49122,1,0,0:0:0:0:
459,350,49263,1,0,0:0:0:0:
459,350,49334,1,0,0:0:0:0:
459,350,49405,1,8,0:0:0:0:
459,350,49475,1,8,0:0:0:0:
459,350,49546,1,0,0:0:0:0:
459,350,49617,1,0,0:0:0:0:
459,350,49688,1,8,0:0:0:0:
429,326,49829,1,0,0:0:0:0:
429,326,49971,1,0,0:0:0:0:
429,326,50041,1,0,0:0:0:0:
429,326,50112,1,8,0:0:0:0:
429,326,50254,1,0,0:0:0:0:
399,294,50395,1,8,0:0:0:0:
399,294,50466,1,0,0:0:0:0:
399,294,50537,1,8,0:0:0:0:
399,294,50607,1,8,0:0:0:0:
399,294,50678,1,0,0:0:0:0:
399,294,50749,1,0,0:0:0:0:
399,294,50820,1,8,0:0:0:0:
421,304,50961,1,0,0:0:0:0:
421,304,51103,1,0,0:0:0:0:
421,304,51174,1,0,0:0:0:0:
421,304,51244,1,8,0:0:0:0:
414,274,51386,1,0,0:0:0:0:
401,318,51527,1,0,0:0:0:0:
438,303,51598,1,0,0:0:0:0:
438,303,51669,1,12,0:0:0:0:
454,312,51810,1,0,0:0:0:0:
463,308,51952,1,12,0:0:0:0:
431,319,52235,1,8,0:0:0:0:
431,319,52306,1,0,0:0:0:0:
431,319,52376,1,8,0:0:0:0:
431,319,52447,1,8,0:0:0:0:
431,319,52518,1,0,0:0:0:0:
431,319,52589,1,8,0:0:0:0:
431,319,52659,1,8,0:0:0:0:
431,319,52730,1,0,0:0:0:0:
431,319,52801,1,8,0:0:0:0:
431,319,52872,1,8,0:0:0:0:
431,319,52942,1,0,0:0:0:0:
431,319,53013,1,0,0:0:0:0:
431,319,53084,1,8,0:0:0:0:
454,302,53155,1,0,0:0:0:0:
454,302,53225,1,8,0:0:0:0:
454,302,53296,1,8,0:0:0:0:
454,302,53367,1,0,0:0:0:0:
459,305,53438,1,0,0:0:0:0:
454,302,53508,1,8,0:0:0:0:
459,305,53579,1,8,0:0:0:0:
459,305,53650,1,0,0:0:0:0:
460,305,53721,1,0,0:0:0:0:
459,305,53791,1,8,0:0:0:0:
459,305,53862,1,0,0:0:0:0:
460,305,53933,1,8,0:0:0:0:
436,307,54004,1,8,0:0:0:0:
436,307,54074,1,0,0:0:0:0:
436,307,54145,1,0,0:0:0:0:
436,307,54216,1,8,0:0:0:0:
453,321,54287,1,0,0:0:0:0:
453,321,54357,1,0,0:0:0:0:
453,322,54428,1,0,0:0:0:0:
400,316,54499,1,8,0:0:0:0:
400,316,54570,1,0,0:0:0:0:
400,316,54640,1,8,0:0:0:0:
400,316,54711,1,8,0:0:0:0:
400,316,54782,1,0,0:0:0:0:
400,316,54853,1,0,0:0:0:0:
378,257,54923,1,8,0:0:0:0:
378,257,54994,1,0,0:0:0:0:
378,257,55065,1,8,0:0:0:0:
378,257,55136,1,8,0:0:0:0:
398,333,55207,1,8,0:0:0:0:
398,333,55277,1,0,0:0:0:0:
398,333,55348,1,8,0:0:0:0:
422,322,55419,1,0,0:0:0:0:
422,322,55490,1,0,0:0:0:0:
422,322,55560,1,0,0:0:0:0:
422,322,55631,1,8,0:0:0:0:
422,322,55702,1,0,0:0:0:0:
422,322,55773,1,8,0:0:0:0:
422,322,55843,1,8,0:0:0:0:
422,322,55914,1,0,0:0:0:0:
422,322,56056,1,0,0:0:0:0:
475,336,56197,1,12,0:0:0:0:
406,330,56339,1,0,0:0:0:0:
475,336,56480,1,12,0:0:0:0:
378,321,56763,1,8,0:0:0:0:
378,321,56834,1,0,0:0:0:0:
378,321,56905,1,8,0:0:0:0:
378,321,56975,1,8,0:0:0:0:
378,321,57046,1,0,0:0:0:0:
378,321,57117,1,8,0:0:0:0:
445,328,57188,1,0,0:0:0:0:
489,348,57258,1,8,0:0:0:0:
455,349,57329,1,8,0:0:0:0:
466,351,57400,1,0,0:0:0:0:
466,351,57471,1,8,0:0:0:0:
466,351,57541,1,0,0:0:0:0:
466,351,57612,1,8,0:0:0:0:
466,351,57683,1,8,0:0:0:0:
472,331,57754,1,0,0:0:0:0:
472,331,57824,1,0,0:0:0:0:
475,334,57895,1,8,0:0:0:0:
475,334,57966,1,0,0:0:0:0:
475,334,58037,1,8,0:0:0:0:
475,334,58107,1,8,0:0:0:0:
475,334,58178,1,0,0:0:0:0:
455,309,58249,1,0,0:0:0:0:
455,309,58320,1,8,0:0:0:0:
475,334,58390,1,0,0:0:0:0:
475,334,58461,1,8,0:0:0:0:
465,323,58532,1,8,0:0:0:0:
474,314,58603,1,0,0:0:0:0:
502,343,58673,1,8,0:0:0:0:
502,343,58744,1,0,0:0:0:0:
509,351,58886,1,0,0:0:0:0:
509,351,58957,1,0,0:0:0:0:
509,351,59027,1,8,0:0:0:0:
480,329,59098,1,8,0:0:0:0:
470,335,59169,1,0,0:0:0:0:
470,335,59240,1,0,0:0:0:0:
470,335,59310,1,8,0:0:0:0:
475,336,59452,1,0,0:0:0:0:
475,336,59523,1,0,0:0:0:0:
475,336,59593,1,8,0:0:0:0:
475,336,59735,1,0,0:0:0:0:
429,292,59876,1,8,0:0:0:0:
429,292,59971,1,8,0:0:0:0:
456,283,60065,1,0,0:0:0:0:
456,283,60159,1,8,0:0:0:0:
456,283,60254,1,0,0:0:0:0:
456,283,60348,1,0,0:0:0:0:
456,283,60442,1,8,0:0:0:0:
456,283,60537,1,0,0:0:0:0:
456,283,60631,1,8,0:0:0:0:
456,283,60725,1,8,0:0:0:0:
456,283,60820,1,0,0:0:0:0:
456,283,60914,1,8,0:0:0:0:
463,268,61008,1,0,0:0:0:0:
463,268,61109,1,8,0:0:0:0:
463,268,61210,1,8,0:0:0:0:
463,268,61311,1,0,0:0:0:0:
463,268,61412,1,8,0:0:0:0:
463,268,61513,1,8,0:0:0:0:
463,268,61614,1,0,0:0:0:0:
463,268,61715,1,12,0:0:0:0:
408,300,64151,1,0,0:0:0:0:
408,300,64209,1,8,0:0:0:0:
408,300,64267,1,8,0:0:0:0:
408,300,64325,1,0,0:0:0:0:
408,300,64383,1,8,0:0:0:0:
408,300,64441,1,8,0:0:0:0:
408,300,64499,1,0,0:0:0:0:
465,293,64587,1,0,0:0:0:0:
465,293,64674,1,8,0:0:0:0:
455,288,64848,1,8,0:0:0:0:
405,329,65023,1,8,0:0:0:0:
405,329,65110,1,8,0:0:0:0:
405,329,65197,1,4,0:0:0:0:
409,283,65371,1,12,0:0:0:0:
409,283,65545,1,4,0:0:0:0:
409,283,65720,1,12,0:0:0:0:
424,290,66069,1,0,0:0:0:0:
457,296,66243,1,12,0:0:0:0:
472,299,66417,1,0,0:0:0:0:
472,299,66592,1,0,0:0:0:0:
476,361,66766,1,0,0:0:0:0:
476,361,66853,1,0,0:0:0:0:
476,361,66941,1,8,0:0:0:0:
472,308,67115,1,0,0:0:0:0:
436,296,67202,1,0,0:0:0:0:
472,308,67290,1,0,0:0:0:0:
489,325,67464,1,0,0:0:0:0:
489,325,67551,1,0,0:0:0:0:
489,325,67638,1,8,0:0:0:0:
399,333,67813,1,0,0:0:0:0:
399,333,67900,1,0,0:0:0:0:
480,306,67987,1,0,0:0:0:0:
430,311,68162,1,0,0:0:0:0:
480,306,68336,1,8,0:0:0:0:
480,306,68510,1,0,0:0:0:0:
472,303,68685,1,8,0:0:0:0:
472,303,68772,1,8,0:0:0:0:
472,303,68859,1,0,0:0:0:0:
472,303,68947,1,0,0:0:0:0:
472,303,69034,1,8,0:0:0:0:
375,328,69208,1,8,0:0:0:0:
380,328,69295,1,8,0:0:0:0:
382,329,69383,1,4,0:0:0:0:
398,301,69557,1,0,0:0:0:0:
398,301,69644,1,0,0:0:0:0:
398,301,69731,1,8,0:0:0:0:
398,301,69906,1,0,0:0:0:0:
398,301,69993,1,0,0:0:0:0:
398,301,70080,1,0,0:0:0:0:
398,301,70255,1,0,0:0:0:0:
398,301,70342,1,0,0:0:0:0:
398,301,70429,1,8,0:0:0:0:
404,331,70603,1,0,0:0:0:0:
404,331,70691,1,0,0:0:0:0:
469,308,70778,1,0,0:0:0:0:
424,326,70952,1,0,0:0:0:0:
424,326,71127,1,8,0:0:0:0:
381,275,71301,1,0,0:0:0:0:
381,275,71476,1,8,0:0:0:0:
381,275,71650,1,4,0:0:0:0:
381,275,71824,1,12,0:0:0:0:
381,275,71999,1,12,0:0:0:0:
381,275,72173,1,4,0:0:0:0:
425,339,72348,1,0,0:0:0:0:
425,339,72435,1,0,0:0:0:0:
425,339,72522,1,8,0:0:0:0:
417,313,72697,1,0,0:0:0:0:
417,313,72784,1,0,0:0:0:0:
417,313,72871,1,0,0:0:0:0:
417,313,73045,1,0,0:0:0:0:
417,313,73133,1,0,0:0:0:0:
417,313,73220,1,8,0:0:0:0:
417,313,73394,1,0,0:0:0:0:
417,313,73481,1,0,0:0:0:0:
417,313,73569,1,0,0:0:0:0:
417,313,73743,1,0,0:0:0:0:
417,313,73917,1,8,0:0:0:0:
417,313,74092,1,0,0:0:0:0:
429,313,74266,1,8,0:0:0:0:
429,313,74353,1,8,0:0:0:0:
429,313,74441,1,0,0:0:0:0:
429,313,74528,1,0,0:0:0:0:
429,313,74615,1,8,0:0:0:0:
412,340,74790,1,8,0:0:0:0:
412,340,74964,1,4,0:0:0:0:
415,303,75138,1,0,0:0:0:0:
415,303,75226,1,0,0:0:0:0:
415,303,75313,1,8,0:0:0:0:
415,308,75487,1,0,0:0:0:0:
415,308,75574,1,0,0:0:0:0:
415,308,75662,1,0,0:0:0:0:
424,275,75836,1,0,0:0:0:0:
424,275,75894,1,0,0:0:0:0:
424,275,75952,1,0,0:0:0:0:
424,275,76010,1,8,0:0:0:0:
376,327,76127,1,8,0:0:0:0:
376,327,76243,1,8,0:0:0:0:
441,322,76359,1,4,0:0:0:0:
441,322,76534,1,12,0:0:0:0:
441,322,76708,1,4,0:0:0:0:
441,322,76883,1,12,0:0:0:0:
427,318,77231,1,0,0:0:0:0:
427,318,77406,1,12,0:0:0:0:
427,318,77580,1,0,0:0:0:0:
455,340,77755,1,0,0:0:0:0:
455,340,77842,1,8,0:0:0:0:
455,340,77929,1,8,0:0:0:0:
455,340,78016,1,0,0:0:0:0:
455,340,78103,1,8,0:0:0:0:
455,340,78191,1,8,0:0:0:0:
455,340,78278,1,0,0:0:0:0:
455,340,78365,1,0,0:0:0:0:
455,340,78452,1,8,0:0:0:0:
455,340,78540,1,0,0:0:0:0:
455,340,78627,1,0,0:0:0:0:
455,340,78714,1,0,0:0:0:0:
455,340,78801,1,8,0:0:0:0:
455,340,78888,1,8,0:0:0:0:
419,297,78976,1,0,0:0:0:0:
419,297,79063,1,0,0:0:0:0:
444,302,79150,1,8,0:0:0:0:
444,302,79237,1,0,0:0:0:0:
444,302,79324,1,8,0:0:0:0:
444,302,79412,1,8,0:0:0:0:
444,302,79499,1,0,0:0:0:0:
444,302,79586,1,0,0:0:0:0:
444,302,79673,1,8,0:0:0:0:
454,316,79760,1,8,0:0:0:0:
454,316,79848,1,0,0:0:0:0:
454,316,79935,1,8,0:0:0:0:
454,316,80022,1,0,0:0:0:0:
454,316,80109,1,0,0:0:0:0:
454,316,80197,1,8,0:0:0:0:
442,333,80284,1,8,0:0:0:0:
442,333,80371,1,8,0:0:0:0:
442,333,80458,1,8,0:0:0:0:
442,333,80545,1,0,0:0:0:0:
455,308,80633,1,8,0:0:0:0:
455,308,80720,1,0,0:0:0:0:
455,308,80807,1,0,0:0:0:0:
346,269,80894,1,8,0:0:0:0:
346,269,80981,1,8,0:0:0:0:
346,269,81069,1,0,0:0:0:0:
346,269,81156,1,0,0:0:0:0:
403,301,81243,1,8,0:0:0:0:
403,301,81330,1,0,0:0:0:0:
403,301,81417,1,0,0:0:0:0:
403,301,81505,1,0,0:0:0:0:
403,301,81592,1,8,0:0:0:0:
403,301,81679,1,8,0:0:0:0:
403,301,81766,1,0,0:0:0:0:
403,301,81853,1,0,0:0:0:0:
403,301,81941,1,8,0:0:0:0:
403,301,82028,1,0,0:0:0:0:
403,301,82115,1,8,0:0:0:0:
403,301,82202,1,8,0:0:0:0:
403,301,82290,1,0,0:0:0:0:
403,301,82377,1,0,0:0:0:0:
403,301,82464,1,8,0:0:0:0:
462,326,82551,1,8,0:0:0:0:
462,326,82638,1,0,0:0:0:0:
462,326,82726,1,8,0:0:0:0:
462,326,82813,1,0,0:0:0:0:
462,326,82900,1,0,0:0:0:0:
465,329,82987,1,8,0:0:0:0:
462,326,83074,1,8,0:0:0:0:
465,329,83162,1,8,0:0:0:0:
462,326,83249,1,8,0:0:0:0:
465,329,83336,1,4,0:0:0:0:
472,331,83510,1,0,0:0:0:0:
472,331,83598,1,0,0:0:0:0:
472,331,83685,1,8,0:0:0:0:
472,331,83772,1,8,0:0:0:0:
472,331,83859,1,0,0:0:0:0:
472,331,83947,1,0,0:0:0:0:
472,331,84034,1,8,0:0:0:0:
472,331,84121,1,0,0:0:0:0:
472,331,84208,1,0,0:0:0:0:
472,331,84295,1,0,0:0:0:0:
472,331,84383,1,8,0:0:0:0:
388,317,84470,1,8,0:0:0:0:
388,317,84557,1,0,0:0:0:0:
388,317,84644,1,0,0:0:0:0:
388,317,84731,1,8,0:0:0:0:
388,317,84819,1,0,0:0:0:0:
388,317,84906,1,8,0:0:0:0:
388,317,84993,1,8,0:0:0:0:
388,317,85080,1,0,0:0:0:0:
388,317,85167,1,0,0:0:0:0:
388,317,85255,1,8,0:0:0:0:
388,317,85342,1,8,0:0:0:0:
388,317,85429,1,0,0:0:0:0:
388,317,85516,1,8,0:0:0:0:
388,317,85603,1,0,0:0:0:0:
388,317,85691,1,0,0:0:0:0:
388,317,85778,1,8,0:0:0:0:
388,317,85865,1,8,0:0:0:0:
394,310,85952,1,0,0:0:0:0:
388,317,86040,1,0,0:0:0:0:
388,317,86127,1,12,0:0:0:0:
418,309,86301,1,0,0:0:0:0:
418,309,86388,1,0,0:0:0:0:
418,309,86476,1,8,0:0:0:0:
456,298,86563,1,8,0:0:0:0:
456,298,86650,1,0,0:0:0:0:
456,298,86737,1,0,0:0:0:0:
456,298,86824,1,8,0:0:0:0:
456,298,86912,1,8,0:0:0:0:
456,298,86999,1,0,0:0:0:0:
456,298,87086,1,0,0:0:0:0:
456,298,87173,1,8,0:0:0:0:
456,298,87260,1,8,0:0:0:0:
477,297,87348,1,0,0:0:0:0:
477,297,87435,1,0,0:0:0:0:
477,297,87522,1,8,0:0:0:0:
416,256,87697,1,0,0:0:0:0:
416,256,87755,1,0,0:0:0:0:
416,256,87813,1,0,0:0:0:0:
415,263,87871,1,8,0:0:0:0:
455,326,87958,1,0,0:0:0:0:
434,304,88045,1,8,0:0:0:0:
421,246,88220,1,0,0:0:0:0:
421,246,88307,1,8,0:0:0:0:
429,248,88394,1,8,0:0:0:0:
436,247,88481,1,0,0:0:0:0:
436,247,88569,1,0,0:0:0:0:
436,247,88656,1,0,0:0:0:0:
436,247,88743,1,8,0:0:0:0:
337,296,88917,1,0,0:0:0:0:
378,295,89092,1,0,0:0:0:0:
378,295,89266,1,8,0:0:0:0:
378,295,89441,1,8,0:0:0:0:
378,295,89615,1,0,0:0:0:0:
378,295,89790,1,0,0:0:0:0:
378,295,89877,1,0,0:0:0:0:
378,295,89964,1,8,0:0:0:0:
396,288,90138,1,8,0:0:0:0:
396,288,90313,1,0,0:0:0:0:
396,288,90487,1,0,0:0:0:0:
396,288,90574,1,0,0:0:0:0:
396,288,90662,1,8,0:0:0:0:
432,275,90836,1,8,0:0:0:0:
432,275,90923,1,0,0:0:0:0:
432,275,91010,1,8,0:0:0:0:
432,275,91098,1,8,0:0:0:0:
432,275,91185,1,0,0:0:0:0:
432,275,91272,1,8,0:0:0:0:
432,275,91359,1,0,0:0:0:0:
432,275,91447,1,0,0:0:0:0:
432,275,91534,1,8,0:0:0:0:
432,275,91621,1,0,0:0:0:0:
432,275,91708,1,8,0:0:0:0:
411,298,91883,1,0,0:0:0:0:
411,298,92057,1,8,0:0:0:0:
411,298,92231,1,8,0:0:0:0:
411,298,92406,1,0,0:0:0:0:
411,298,92580,1,0,0:0:0:0:
411,298,92667,1,0,0:0:0:0:
411,298,92755,1,8,0:0:0:0:
411,298,92929,1,8,0:0:0:0:
411,298,93103,1,0,0:0:0:0:
411,298,93278,1,0,0:0:0:0:
411,298,93365,1,0,0:0:0:0:
411,298,93452,1,8,0:0:0:0:
411,298,93627,1,8,0:0:0:0:
456,281,93801,1,8,0:0:0:0:
456,281,93888,1,0,0:0:0:0:
456,281,93976,1,0,0:0:0:0:
456,281,94063,1,8,0:0:0:0:
455,287,94150,1,0,0:0:0:0:
455,291,94237,1,0,0:0:0:0:
484,310,94324,1,8,0:0:0:0:
484,310,94412,1,8,0:0:0:0:
484,310,94499,1,0,0:0:0:0:
326,298,94673,1,0,0:0:0:0:
326,298,94848,1,8,0:0:0:0:
423,335,95022,1,8,0:0:0:0:
423,335,95109,1,8,0:0:0:0:
423,335,95197,1,0,0:0:0:0:
397,330,95371,1,0,0:0:0:0:
397,330,95429,1,0,0:0:0:0:
397,330,95487,1,0,0:0:0:0:
397,330,95545,1,8,0:0:0:0:
451,347,95720,1,8,0:0:0:0:
451,347,95894,1,0,0:0:0:0:
451,347,96069,1,0,0:0:0:0:
451,347,96156,1,0,0:0:0:0:
451,347,96243,1,8,0:0:0:0:
451,347,96417,1,8,0:0:0:0:
396,272,96592,1,8,0:0:0:0:
396,272,96679,1,8,0:0:0:0:
396,272,96766,1,0,0:0:0:0:
396,272,96853,1,8,0:0:0:0:
396,272,96941,1,0,0:0:0:0:
396,272,97028,1,0,0:0:0:0:
396,272,97115,1,8,0:0:0:0:
396,272,97202,1,0,0:0:0:0:
396,272,97290,1,8,0:0:0:0:
439,332,97464,1,0,0:0:0:0:
439,332,97638,1,8,0:0:0:0:
401,325,97813,1,8,0:0:0:0:
401,325,97987,1,0,0:0:0:0:
413,308,98162,1,0,0:0:0:0:
413,308,98249,1,0,0:0:0:0:
413,308,98336,1,8,0:0:0:0:
413,308,98510,1,8,0:0:0:0:
425,311,98685,1,0,0:0:0:0:
425,311,98859,1,0,0:0:0:0:
425,311,98947,1,0,0:0:0:0:
425,311,99034,1,8,0:0:0:0:
461,318,99208,1,8,0:0:0:0:
472,340,99295,1,0,0:0:0:0:
472,340,99383,1,8,0:0:0:0:
407,314,99470,1,8,0:0:0:0:
407,314,99557,1,0,0:0:0:0:
407,314,99644,1,0,0:0:0:0:
407,314,99731,1,8,0:0:0:0:
437,315,99819,1,0,0:0:0:0:
437,319,99906,1,8,0:0:0:0:
437,323,99993,1,8,0:0:0:0:
437,324,100080,1,0,0:0:0:0:
468,315,100255,1,0,0:0:0:0:
468,315,100429,1,8,0:0:0:0:
468,315,100603,1,8,0:0:0:0:
468,315,100778,1,0,0:0:0:0:
468,315,100952,1,0,0:0:0:0:
468,315,101040,1,0,0:0:0:0:
468,315,101127,1,8,0:0:0:0:
468,315,101301,1,8,0:0:0:0:
468,315,101476,1,0,0:0:0:0:
468,315,101650,1,0,0:0:0:0:
468,315,101737,1,0,0:0:0:0:
468,315,101824,1,8,0:0:0:0:
417,333,101999,1,8,0:0:0:0:
417,333,102086,1,0,0:0:0:0:
402,325,102173,1,8,0:0:0:0:
402,325,102260,1,8,0:0:0:0:
402,325,102348,1,0,0:0:0:0:
394,328,102435,1,8,0:0:0:0:
394,328,102522,1,0,0:0:0:0:
394,306,102609,1,0,0:0:0:0:
395,308,102697,1,8,0:0:0:0:
394,306,102784,1,0,0:0:0:0:
395,308,102871,1,8,0:0:0:0:
476,334,103045,1,0,0:0:0:0:
433,304,103220,1,8,0:0:0:0:
423,309,103394,1,8,0:0:0:0:
423,309,103481,1,8,0:0:0:0:
439,293,103569,1,0,0:0:0:0:
439,293,103627,1,0,0:0:0:0:
439,293,103685,1,8,0:0:0:0:
439,293,103743,1,8,0:0:0:0:
439,293,103801,1,0,0:0:0:0:
439,293,103859,1,0,0:0:0:0:
439,293,103917,1,8,0:0:0:0:
446,323,104092,1,0,0:0:0:0:
450,291,104266,1,12,0:0:0:0:
470,353,104660,1,8,0:0:0:0:
470,353,104858,1,0,0:0:0:0:
470,353,105055,1,8,0:0:0:0:
470,353,105252,1,0,0:0:0:0:
470,353,105450,1,0,0:0:0:0:
467,353,105844,1,8,0:0:0:0:
467,353,106042,1,0,0:0:0:0:
467,353,106239,1,8,0:0:0:0:
467,353,106437,1,8,0:0:0:0:
467,353,106634,1,0,0:0:0:0:
416,335,107029,1,8,0:0:0:0:
416,335,107226,1,0,0:0:0:0:
416,335,107423,1,8,0:0:0:0:
416,335,107621,1,0,0:0:0:0:
416,335,107818,1,0,0:0:0:0:
416,335,108016,1,0,0:0:0:0:
416,335,108114,1,0,0:0:0:0:
416,335,108213,1,8,0:0:0:0:
439,331,108410,1,0,0:0:0:0:
439,331,108509,1,0,0:0:0:0:
439,331,108608,1,8,0:0:0:0:
472,334,108706,1,8,0:0:0:0:
439,331,108805,1,0,0:0:0:0:
439,331,109002,1,12,0:0:0:0:
375,334,109397,1,8,0:0:0:0:
375,334,109594,1,0,0:0:0:0:
375,334,109792,1,8,0:0:0:0:
375,334,109989,1,0,0:0:0:0:
375,334,110187,1,0,0:0:0:0:
375,333,110581,1,8,0:0:0:0:
375,333,110779,1,0,0:0:0:0:
375,333,110976,1,8,0:0:0:0:
375,333,111173,1,8,0:0:0:0:
375,333,111371,1,0,0:0:0:0:
375,333,111766,1,8,0:0:0:0:
375,333,111963,1,0,0:0:0:0:
375,333,112160,1,8,0:0:0:0:
375,333,112358,1,0,0:0:0:0:
375,333,112555,1,0,0:0:0:0:
375,333,112752,1,0,0:0:0:0:
375,333,112851,1,0,0:0:0:0:
375,333,112950,1,8,0:0:0:0:
466,332,113147,1,0,0:0:0:0:
466,332,113246,1,0,0:0:0:0:
466,332,113344,1,8,0:0:0:0:
466,332,113443,1,8,0:0:0:0:
466,332,113542,1,0,0:0:0:0:
466,332,113739,1,12,0:0:0:0:
492,349,114134,1,0,0:0:0:0:
492,349,114331,1,8,0:0:0:0:
476,353,114726,1,0,0:0:0:0:
492,349,114923,1,0,0:0:0:0:
492,350,115318,1,0,0:0:0:0:
492,350,115516,1,8,0:0:0:0:
492,350,115910,1,8,0:0:0:0:
492,350,116108,1,0,0:0:0:0:
496,357,116502,1,0,0:0:0:0:
496,357,116700,1,8,0:0:0:0:
476,353,117094,1,0,0:0:0:0:
496,357,117292,1,0,0:0:0:0:
427,310,117489,1,0,0:0:0:0:
427,310,117588,1,0,0:0:0:0:
427,310,117687,1,8,0:0:0:0:
486,342,117785,1,8,0:0:0:0:
486,342,117884,1,4,0:0:0:0:
486,342,118081,1,12,0:0:0:0:
486,342,118279,1,4,0:0:0:0:
486,342,118476,1,12,0:0:0:0:
466,321,118871,1,0,0:0:0:0:
466,321,119068,1,8,0:0:0:0:
466,321,119463,1,0,0:0:0:0:
466,321,119660,1,0,0:0:0:0:
466,321,120055,1,0,0:0:0:0:
466,321,120252,1,8,0:0:0:0:
466,321,120647,1,0,0:0:0:0:
466,321,120746,1,0,0:0:0:0:
466,321,120844,1,8,0:0:0:0:
466,321,121042,1,0,0:0:0:0:
466,321,121239,1,0,0:0:0:0:
466,321,121437,1,8,0:0:0:0:
466,321,121634,1,0,0:0:0:0:
466,321,121831,1,8,0:0:0:0:
466,321,122029,1,0,0:0:0:0:
466,321,122226,1,0,0:0:0:0:
466,321,122325,1,0,0:0:0:0:
466,321,122423,1,8,0:0:0:0:
466,321,122621,1,8,0:0:0:0:
466,321,122818,1,0,0:0:0:0:
466,321,123016,1,0,0:0:0:0:
466,321,123213,1,12,0:0:0:0:
419,358,125581,1,0,0:0:0:0:
457,358,125976,1,0,0:0:0:0:
457,358,126075,1,0,0:0:0:0:
457,358,126173,1,8,0:0:0:0:
457,358,126272,1,8,0:0:0:0:
457,358,126371,1,0,0:0:0:0:
457,358,126469,1,0,0:0:0:0:
457,358,126568,1,8,0:0:0:0:
457,358,126667,1,0,0:0:0:0:
457,358,126766,1,8,0:0:0:0:
457,358,126963,1,8,0:0:0:0:
457,358,127160,1,0,0:0:0:0:
457,358,127259,1,0,0:0:0:0:
457,358,127358,1,8,0:0:0:0:
457,358,127555,1,8,0:0:0:0:
457,358,127654,1,0,0:0:0:0:
457,358,127752,1,0,0:0:0:0:
457,358,127851,1,0,0:0:0:0:
457,358,127950,1,12,0:0:0:0:
481,306,128542,1,8,0:0:0:0:
463,258,128591,1,8,0:0:0:0:
459,321,128739,1,0,0:0:0:0:
459,321,128937,1,0,0:0:0:0:
459,321,129134,1,8,0:0:0:0:
426,333,130318,1,8,0:0:0:0:
426,333,130515,1,0,0:0:0:0:
426,333,130614,1,0,0:0:0:0:
426,333,130713,1,8,0:0:0:0:
426,333,130910,1,8,0:0:0:0:
429,337,131108,1,0,0:0:0:0:
429,337,131305,1,0,0:0:0:0:
429,337,131502,1,8,0:0:0:0:
429,337,131700,1,0,0:0:0:0:
429,337,131798,1,0,0:0:0:0:
429,337,131897,1,0,0:0:0:0:
429,337,131996,1,0,0:0:0:0:
429,337,132094,1,8,0:0:0:0:
429,337,132292,1,8,0:0:0:0:
429,337,132489,1,0,0:0:0:0:
429,337,132687,1,8,0:0:0:0:
472,303,132983,1,0,0:0:0:0:
472,303,133081,1,8,0:0:0:0:
488,320,133279,1,0,0:0:0:0:
488,320,133476,1,8,0:0:0:0:
488,320,133673,1,8,0:0:0:0:
488,320,133871,1,0,0:0:0:0:
493,319,134068,1,0,0:0:0:0:
493,319,134167,1,0,0:0:0:0:
493,319,134266,1,8,0:0:0:0:
493,319,134463,1,0,0:0:0:0:
493,319,134660,1,8,0:0:0:0:
493,319,134858,1,8,0:0:0:0:
493,319,135055,1,0,0:0:0:0:
451,334,135252,1,0,0:0:0:0:
451,334,135351,1,0,0:0:0:0:
451,334,135450,1,8,0:0:0:0:
451,334,135647,1,0,0:0:0:0:
451,334,135844,1,8,0:0:0:0:
451,334,136042,1,0,0:0:0:0:
451,334,136239,1,0,0:0:0:0:
451,334,136437,1,0,0:0:0:0:
451,335,136535,1,0,0:0:0:0:
451,334,136634,1,8,0:0:0:0:
458,349,136831,1,0,0:0:0:0:
458,349,137029,1,8,0:0:0:0:
423,321,137226,1,8,0:0:0:0:
423,321,137325,1,8,0:0:0:0:
423,321,137423,1,4,0:0:0:0:
409,320,137719,1,0,0:0:0:0:
409,320,137818,1,8,0:0:0:0:
409,320,138016,1,0,0:0:0:0:
409,320,138213,1,8,0:0:0:0:
409,320,138410,1,8,0:0:0:0:
409,320,138608,1,0,0:0:0:0:
409,320,138805,1,0,0:0:0:0:
409,320,138904,1,0,0:0:0:0:
409,320,139002,1,8,0:0:0:0:
409,320,139200,1,0,0:0:0:0:
409,320,139397,1,8,0:0:0:0:
409,320,139594,1,8,0:0:0:0:
409,320,139792,1,0,0:0:0:0:
409,320,139989,1,0,0:0:0:0:
409,320,140088,1,0,0:0:0:0:
409,320,140187,1,8,0:0:0:0:
409,320,140384,1,0,0:0:0:0:
409,320,140581,1,8,0:0:0:0:
409,320,140779,1,0,0:0:0:0:
409,320,140976,1,8,0:0:0:0:
409,320,141075,1,0,0:0:0:0:
409,320,141173,1,0,0:0:0:0:
409,320,141272,1,8,0:0:0:0:
409,320,141469,1,8,0:0:0:0:
409,320,141568,1,0,0:0:0:0:
409,320,141766,1,8,0:0:0:0:
403,300,141963,1,0,0:0:0:0:
403,300,142062,1,0,0:0:0:0:
403,300,142160,1,12,0:0:0:0:
384,302,142456,1,0,0:0:0:0:
384,302,142555,1,8,0:0:0:0:
384,302,142752,1,0,0:0:0:0:
384,302,142950,1,8,0:0:0:0:
384,302,143147,1,8,0:0:0:0:
384,302,143344,1,0,0:0:0:0:
384,302,143542,1,0,0:0:0:0:
384,302,143641,1,0,0:0:0:0:
384,302,143739,1,8,0:0:0:0:
384,302,143937,1,0,0:0:0:0:
384,302,144134,1,8,0:0:0:0:
384,302,144331,1,8,0:0:0:0:
384,302,144529,1,0,0:0:0:0:
384,302,144726,1,0,0:0:0:0:
384,302,144825,1,0,0:0:0:0:
384,302,144923,1,8,0:0:0:0:
384,302,145121,1,0,0:0:0:0:
384,302,145318,1,8,0:0:0:0:
384,302,145516,1,0,0:0:0:0:
384,302,145713,1,0,0:0:0:0:
384,302,145910,1,0,0:0:0:0:
384,302,146009,1,0,0:0:0:0:
384,302,146108,1,8,0:0:0:0:
384,302,146305,1,0,0:0:0:0:
384,302,146502,1,8,0:0:0:0:
384,302,146700,1,8,0:0:0:0:
384,302,146798,1,8,0:0:0:0:
384,302,146897,1,4,0:0:0:0:
383,319,147193,1,0,0:0:0:0:
383,319,147292,1,8,0:0:0:0:
383,319,147489,1,0,0:0:0:0:
383,319,147687,1,8,0:0:0:0:
383,319,147884,1,8,0:0:0:0:
383,319,148081,1,0,0:0:0:0:
385,313,148279,1,0,0:0:0:0:
385,313,148377,1,0,0:0:0:0:
385,313,148476,1,8,0:0:0:0:
385,313,148673,1,0,0:0:0:0:
385,313,148871,1,8,0:0:0:0:
385,313,149068,1,8,0:0:0:0:
385,313,149266,1,0,0:0:0:0:
385,313,149463,1,8,0:0:0:0:
385,313,149660,1,0,0:0:0:0:
385,313,149858,1,0,0:0:0:0:
385,313,150055,1,8,0:0:0:0:
385,313,150252,1,0,0:0:0:0:
385,313,150450,1,8,0:0:0:0:
385,313,150647,1,8,0:0:0:0:
447,339,150746,1,8,0:0:0:0:
385,313,150844,1,0,0:0:0:0:
385,313,151042,1,8,0:0:0:0:
385,313,151239,1,0,0:0:0:0:
385,313,151437,1,0,0:0:0:0:
408,325,151634,1,12,0:0:0:0:
411,316,151831,1,0,0:0:0:0:
411,316,151930,1,0,0:0:0:0:
411,316,152029,1,0,0:0:0:0:
436,325,152226,1,12,0:0:0:0:
436,325,152423,1,0,0:0:0:0:
436,325,152621,1,8,0:0:0:0:
436,325,152818,1,4,0:0:0:0:
420,324,153015,1,0,0:0:0:0:
420,324,153114,1,0,0:0:0:0:
420,324,153213,1,0,0:0:0:0:
465,313,153410,1,12,0:0:0:0:
465,313,153608,1,0,0:0:0:0:
465,313,153805,1,8,0:0:0:0:
465,313,154002,1,4,0:0:0:0:
466,332,154200,1,0,0:0:0:0:
466,332,154298,1,0,0:0:0:0:
466,332,154397,1,0,0:0:0:0:
466,332,154594,1,12,0:0:0:0:
466,332,154792,1,0,0:0:0:0:
466,332,154989,1,8,0:0:0:0:
456,332,155187,1,4,0:0:0:0:
456,332,155384,1,0,0:0:0:0:
456,332,155483,1,0,0:0:0:0:
456,332,155581,1,0,0:0:0:0:
474,338,155779,1,12,0:0:0:0:
474,338,155976,1,0,0:0:0:0:
474,338,156173,1,8,0:0:0:0:
474,338,156371,1,0,0:0:0:0:
472,354,156469,1,0,0:0:0:0:
472,354,156568,1,0,0:0:0:0:
472,354,156667,1,0,0:0:0:0:
430,346,156765,1,0,0:0:0:0:
430,346,156864,1,0,0:0:0:0:
430,346,156963,1,12,0:0:0:0:
507,345,157358,1,8,0:0:0:0:
467,307,157555,1,8,0:0:0:0:
467,307,157654,1,8,0:0:0:0:
467,307,157752,1,0,0:0:0:0:
467,307,157851,1,0,0:0:0:0:
467,307,157950,1,0,0:0:0:0:
467,307,158048,1,0,0:0:0:0:
467,307,158147,1,12,0:0:0:0:
486,338,158542,1,8,0:0:0:0:
465,311,158739,1,0,0:0:0:0:
466,302,158838,1,0,0:0:0:0:
466,302,158937,1,0,0:0:0:0:
466,302,159035,1,0,0:0:0:0:
466,302,159134,1,0,0:0:0:0:
466,302,159233,1,0,0:0:0:0:
466,302,159331,1,12,0:0:0:0:
456,333,159529,1,0,0:0:0:0:
456,333,159627,1,0,0:0:0:0:
456,333,159726,1,8,0:0:0:0:
456,333,159825,1,8,0:0:0:0:
456,333,159923,1,4,0:0:0:0:
396,283,160121,1,0,0:0:0:0:
396,283,160219,1,0,0:0:0:0:
396,283,160318,1,8,0:0:0:0:
422,307,160515,1,12,0:0:0:0:
422,307,160713,1,0,0:0:0:0:
422,307,160910,1,0,0:0:0:0:
422,307,161108,1,12,0:0:0:0:
422,307,161305,1,0,0:0:0:0:
422,307,161404,1,0,0:0:0:0:
422,307,161502,1,0,0:0:0:0:
431,325,161700,1,12,0:0:0:0:
431,325,161897,1,0,0:0:0:0:
431,325,162094,1,8,0:0:0:0:
443,318,162292,1,4,0:0:0:0:
443,318,162489,1,0,0:0:0:0:
445,323,162588,1,0,0:0:0:0:
446,324,162687,1,0,0:0:0:0:
443,318,162884,1,12,0:0:0:0:
443,318,163081,1,0,0:0:0:0:
443,318,163279,1,8,0:0:0:0:
443,318,163476,1,4,0:0:0:0:
443,318,163673,1,0,0:0:0:0:
443,318,163772,1,0,0:0:0:0:
443,318,163871,1,0,0:0:0:0:
443,318,164068,1,12,0:0:0:0:
443,318,164265,1,0,0:0:0:0:
443,318,164463,1,8,0:0:0:0:
443,318,164660,1,4,0:0:0:0:
384,283,164858,1,0,0:0:0:0:
384,283,164956,1,0,0:0:0:0:
384,283,165055,1,8,0:0:0:0:
384,283,165154,1,0,0:0:0:0:
357,277,165252,1,12,0:0:0:0:
393,324,165450,1,0,0:0:0:0:
393,324,165548,1,0,0:0:0:0:
393,324,165647,1,8,0:0:0:0:
393,324,165746,1,8,0:0:0:0:
393,324,165844,1,0,0:0:0:0:
393,324,165943,1,0,0:0:0:0:
393,324,166042,1,0,0:0:0:0:
393,324,166140,1,0,0:0:0:0:
393,324,166239,1,0,0:0:0:0:
393,324,166338,1,0,0:0:0:0:
393,324,166437,1,12,0:0:0:0:
451,340,166831,1,8,0:0:0:0:
420,336,167029,1,8,0:0:0:0:
420,336,167127,1,8,0:0:0:0:
420,336,167226,1,0,0:0:0:0:
420,336,167325,1,0,0:0:0:0:
420,336,167423,1,0,0:0:0:0:
420,336,167522,1,0,0:0:0:0:
420,336,167621,1,12,0:0:0:0:
434,336,168015,1,8,0:0:0:0:
421,336,168213,1,0,0:0:0:0:
421,336,168312,1,0,0:0:0:0:
421,336,168410,1,0,0:0:0:0:
421,336,168509,1,0,0:0:0:0:
421,336,168608,1,0,0:0:0:0:
421,336,168706,1,0,0:0:0:0:
421,336,168805,1,12,0:0:0:0:
455,338,169002,1,0,0:0:0:0:
455,338,169101,1,0,0:0:0:0:
455,338,169200,1,8,0:0:0:0:
455,338,169298,1,8,0:0:0:0:
455,338,169397,1,4,0:0:0:0:
446,341,169594,1,0,0:0:0:0:
446,341,169693,1,0,0:0:0:0:
446,341,169792,1,8,0:0:0:0:
447,346,169989,1,12,0:0:0:0:
455,309,170187,1,0,0:0:0:0:
455,309,170384,1,0,0:0:0:0:
456,314,170581,1,12,0:0:0:0:
422,307,170779,1,0,0:0:0:0:
422,307,170877,1,0,0:0:0:0:
422,307,170976,1,0,0:0:0:0:
431,325,171173,1,12,0:0:0:0:
431,325,171371,1,0,0:0:0:0:
431,325,171568,1,8,0:0:0:0:
443,318,171765,1,4,0:0:0:0:
443,318,171963,1,0,0:0:0:0:
445,323,172062,1,0,0:0:0:0:
446,324,172160,1,0,0:0:0:0:
374,308,172358,1,8,0:0:0:0:
374,308,172423,1,0,0:0:0:0:
374,308,172489,1,0,0:0:0:0:
374,308,172555,1,8,0:0:0:0:
374,308,172621,1,0,0:0:0:0:
374,308,172687,1,0,0:0:0:0:
374,308,172752,1,8,0:0:0:0:
443,318,172950,1,4,0:0:0:0:
443,318,173147,1,0,0:0:0:0:
443,318,173246,1,0,0:0:0:0:
443,318,173344,1,0,0:0:0:0:
443,318,173542,1,12,0:0:0:0:
443,318,173739,1,0,0:0:0:0:
443,318,173937,1,8,0:0:0:0:
443,318,174134,1,4,0:0:0:0:
481,352,174331,1,8,0:0:0:0:
481,352,174430,1,8,0:0:0:0:
481,352,174529,1,0,0:0:0:0:
384,283,174627,1,0,0:0:0:0:
350,304,174726,1,8,0:0:0:0:
405,333,174825,1,8,0:0:0:0:
405,333,174923,1,0,0:0:0:0:
477,350,175121,1,0,0:0:0:0:
477,350,175219,1,0,0:0:0:0:
477,350,175318,1,8,0:0:0:0:
430,345,175417,1,0,0:0:0:0:
430,345,175515,1,8,0:0:0:0:
430,345,175614,1,8,0:0:0:0:
430,345,175713,1,0,0:0:0:0:
430,345,175812,1,0,0:0:0:0:
430,345,175910,1,12,0:0:0:0:
467,327,176305,1,8,0:0:0:0:
420,336,176502,1,8,0:0:0:0:
420,336,176601,1,8,0:0:0:0:
420,336,176700,1,0,0:0:0:0:
420,336,176798,1,0,0:0:0:0:
420,336,176897,1,0,0:0:0:0:
420,336,176996,1,0,0:0:0:0:
420,336,177094,1,12,0:0:0:0:
467,327,177489,1,8,0:0:0:0:
421,336,177687,1,0,0:0:0:0:
421,336,177785,1,0,0:0:0:0:
421,336,177884,1,0,0:0:0:0:
421,336,177983,1,0,0:0:0:0:
421,336,178081,1,0,0:0:0:0:
421,336,178180,1,0,0:0:0:0:
421,336,178279,1,12,0:0:0:0:
455,338,178476,1,0,0:0:0:0:
455,338,178575,1,0,0:0:0:0:
455,338,178673,1,8,0:0:0:0:
455,338,178772,1,8,0:0:0:0:
455,338,178871,1,4,0:0:0:0:
446,341,179068,1,0,0:0:0:0:
446,341,179167,1,0,0:0:0:0:
446,341,179265,1,8,0:0:0:0:
447,346,179463,1,12,0:0:0:0:
455,309,179660,1,0,0:0:0:0:
455,309,179858,1,0,0:0:0:0:
456,314,180055,1,12,0:0:0:0:
422,307,180252,1,0,0:0:0:0:
422,307,180351,1,0,0:0:0:0:
422,307,180450,1,0,0:0:0:0:
431,325,180647,1,12,0:0:0:0:
431,325,180844,1,0,0:0:0:0:
431,325,181042,1,8,0:0:0:0:
443,318,181239,1,4,0:0:0:0:
443,318,181437,1,0,0:0:0:0:
445,323,181535,1,0,0:0:0:0:
446,324,181634,1,0,0:0:0:0:
443,318,181831,1,12,0:0:0:0:
443,318,182029,1,0,0:0:0:0:
443,318,182226,1,8,0:0:0:0:
443,318,182423,1,4,0:0:0:0:
443,318,182621,1,0,0:0:0:0:
443,318,182719,1,0,0:0:0:0:
443,318,182818,1,0,0:0:0:0:
443,318,183015,1,12,0:0:0:0:
443,318,183213,1,0,0:0:0:0:
443,318,183410,1,8,0:0:0:0:
443,318,183608,1,4,0:0:0:0:
384,283,183805,1,0,0:0:0:0:
384,283,183904,1,0,0:0:0:0:
384,283,184002,1,8,0:0:0:0:
384,283,184101,1,0,0:0:0:0:
357,277,184200,1,12,0:0:0:0:
393,324,184397,1,0,0:0:0:0:
393,324,184496,1,0,0:0:0:0:
393,324,184594,1,8,0:0:0:0:
393,324,184693,1,8,0:0:0:0:
393,324,184792,1,0,0:0:0:0:
393,324,184890,1,0,0:0:0:0:
393,324,184989,1,0,0:0:0:0:
393,324,185088,1,0,0:0:0:0:
393,324,185187,1,0,0:0:0:0:
393,324,185285,1,0,0:0:0:0:
393,324,185384,1,12,0:0:0:0:
421,326,185779,1,8,0:0:0:0:
420,336,185976,1,8,0:0:0:0:
420,336,186075,1,8,0:0:0:0:
420,336,186173,1,0,0:0:0:0:
420,336,186272,1,0,0:0:0:0:
420,336,186371,1,0,0:0:0:0:
420,336,186469,1,0,0:0:0:0:
420,336,186568,1,12,0:0:0:0:
421,326,186963,1,8,0:0:0:0:
421,336,187160,1,0,0:0:0:0:
421,336,187259,1,0,0:0:0:0:
421,336,187358,1,0,0:0:0:0:
421,336,187456,1,0,0:0:0:0:
421,336,187555,1,0,0:0:0:0:
421,336,187654,1,0,0:0:0:0:
421,336,187752,1,12,0:0:0:0:
455,338,187950,1,0,0:0:0:0:
455,338,188048,1,0,0:0:0:0:
455,338,188147,1,8,0:0:0:0:
455,338,188246,1,8,0:0:0:0:
455,338,188344,1,4,0:0:0:0:
444,323,188542,1,0,0:0:0:0:
444,323,188640,1,0,0:0:0:0:
477,353,188739,1,8,0:0:0:0:
443,335,188937,1,12,0:0:0:0:
443,334,189331,1,8,0:0:0:0:
443,334,189529,1,0,0:0:0:0:
443,334,189726,1,0,0:0:0:0:
443,334,189825,1,0,0:0:0:0:
443,334,189923,1,8,0:0:0:0:
421,313,190121,1,12,0:0:0:0:
422,313,190515,1,8,0:0:0:0:
422,313,190713,1,0,0:0:0:0:
422,313,190910,1,0,0:0:0:0:
422,313,191009,1,0,0:0:0:0:
422,313,191108,1,8,0:0:0:0:
431,328,191305,1,12,0:0:0:0:
431,328,191897,1,0,0:0:0:0:
431,328,192489,1,12,0:0:0:0:
431,328,193081,1,0,0:0:0:0:
431,328,193476,1,0,0:0:0:0:
431,328,193575,1,0,0:0:0:0:
431,328,193673,1,12,0:0:0:0:
433,328,193969,1,0,0:0:0:0:
433,328,194265,1,8,0:0:0:0:
436,324,194562,1,0,0:0:0:0:
436,324,194858,1,8,0:0:0:0:
422,324,195009,1,8,0:0:0:0:
422,324,195161,1,0,0:0:0:0:
422,324,195312,1,0,0:0:0:0:
422,324,195464,1,12,0:0:0:0:
435,343,195810,1,12,0:0:0:0:
435,343,196157,1,0,0:0:0:0:
396,320,196522,1,8,0:0:0:0:
396,320,196705,1,0,0:0:0:0:
396,320,196888,1,8,0:0:0:0:
396,321,197254,1,8,0:0:0:0:
407,350,197620,1,0,0:0:0:0:
470,354,197803,1,0,0:0:0:0:
470,354,197894,1,0,0:0:0:0:
470,354,197986,1,8,0:0:0:0:
441,333,198169,1,8,0:0:0:0:
441,333,198352,1,0,0:0:0:0:
441,333,198535,1,0,0:0:0:0:
441,333,198717,1,8,0:0:0:0:
493,355,198900,1,0,0:0:0:0:
493,355,198992,1,0,0:0:0:0:
493,355,199083,1,12,0:0:0:0:
494,348,199449,1,8,0:0:0:0:
494,348,199632,1,0,0:0:0:0:
494,348,199815,1,8,0:0:0:0:
494,348,200181,1,8,0:0:0:0:
494,348,200547,1,0,0:0:0:0:
494,348,200730,1,8,0:0:0:0:
494,348,200821,1,0,0:0:0:0:
494,348,200913,1,8,0:0:0:0:
494,348,201096,1,0,0:0:0:0:
494,348,201278,1,8,0:0:0:0:
494,348,201461,1,0,0:0:0:0:
494,348,201644,1,8,0:0:0:0:
494,348,201827,1,0,0:0:0:0:
494,348,201919,1,0,0:0:0:0:
494,348,202010,1,12,0:0:0:0:
443,333,202376,1,8,0:0:0:0:
443,333,202559,1,0,0:0:0:0:
443,333,202742,1,8,0:0:0:0:
443,333,203108,1,8,0:0:0:0:
443,333,203474,1,0,0:0:0:0:
443,333,203657,1,0,0:0:0:0:
443,333,203748,1,0,0:0:0:0:
443,333,203839,1,8,0:0:0:0:
470,329,204022,1,8,0:0:0:0:
470,329,204205,1,0,0:0:0:0:
470,329,204388,1,0,0:0:0:0:
470,329,204571,1,8,0:0:0:0:
470,329,204754,1,0,0:0:0:0:
470,329,204846,1,0,0:0:0:0:
470,329,204937,1,12,0:0:0:0:
470,329,205303,1,8,0:0:0:0:
470,329,205486,1,0,0:0:0:0:
470,329,205669,1,8,0:0:0:0:
470,330,206035,1,8,0:0:0:0:
478,339,206400,1,8,0:0:0:0:
478,339,206492,1,8,0:0:0:0:
456,325,206583,1,0,0:0:0:0:
483,343,206675,1,0,0:0:0:0:
470,338,206766,1,8,0:0:0:0:
470,338,206858,1,8,0:0:0:0:
470,338,206949,1,0,0:0:0:0:
470,338,207041,1,0,0:0:0:0:
465,339,207132,1,8,0:0:0:0:
465,339,207224,1,8,0:0:0:0:
465,339,207315,1,0,0:0:0:0:
465,339,207407,1,0,0:0:0:0:
465,339,207498,1,8,0:0:0:0:
465,339,207589,1,0,0:0:0:0:
465,339,207681,1,8,0:0:0:0:
465,339,207772,1,8,0:0:0:0:
454,339,207864,1,0,0:0:0:0:
405,300,207955,1,8,0:0:0:0:
405,300,208047,1,0,0:0:0:0:
405,300,208138,1,0,0:0:0:0:
405,300,208230,1,8,0:0:0:0:
405,300,208321,1,8,0:0:0:0:
405,300,208413,1,0,0:0:0:0:
405,300,208504,1,0,0:0:0:0:
431,307,208596,1,0,0:0:0:0:
431,307,208687,1,0,0:0:0:0:
431,307,208778,1,8,0:0:0:0:
431,307,208870,1,8,0:0:0:0:
431,307,208961,1,0,0:0:0:0:
431,307,209053,1,0,0:0:0:0:
431,307,209144,1,8,0:0:0:0:
431,307,209236,1,0,0:0:0:0:
431,307,209327,1,8,0:0:0:0:
431,307,209419,1,8,0:0:0:0:
492,343,209510,1,0,0:0:0:0:
492,343,209602,1,0,0:0:0:0:
492,343,209693,1,8,0:0:0:0:
492,343,209785,1,0,0:0:0:0:
492,343,209876,1,0,0:0:0:0:
492,343,209967,1,0,0:0:0:0:
427,263,210059,1,8,0:0:0:0:
460,314,210150,1,0,0:0:0:0:
460,314,210242,1,8,0:0:0:0:
460,314,210333,1,8,0:0:0:0:
460,314,210425,1,0,0:0:0:0:
460,314,210516,1,0,0:0:0:0:
460,314,210608,1,8,0:0:0:0:
460,314,210699,1,8,0:0:0:0:
460,314,210791,1,0,0:0:0:0:
456,329,210882,1,8,0:0:0:0:
456,329,210974,1,0,0:0:0:0:
456,329,211065,1,0,0:0:0:0:
456,329,211156,1,8,0:0:0:0:
456,329,211248,1,8,0:0:0:0:
456,329,211339,1,0,0:0:0:0:
456,329,211431,1,0,0:0:0:0:
456,329,211522,1,0,0:0:0:0:
456,329,211614,1,0,0:0:0:0:
456,329,211705,1,8,0:0:0:0:
456,329,211797,1,8,0:0:0:0:
456,329,211888,1,0,0:0:0:0:
456,329,211980,1,8,0:0:0:0:
456,329,212071,1,0,0:0:0:0:
456,329,212163,1,0,0:0:0:0:
456,329,212254,1,8,0:0:0:0:
461,339,212346,1,8,0:0:0:0:
461,339,212437,1,0,0:0:0:0:
461,339,212528,1,0,0:0:0:0:
461,339,212620,1,8,0:0:0:0:
461,339,212711,1,0,0:0:0:0:
465,343,212803,1,8,0:0:0:0:
465,343,212894,1,8,0:0:0:0:
452,308,212986,1,0,0:0:0:0:
453,313,213108,1,0,0:0:0:0:
453,313,213230,1,8,0:0:0:0:
453,313,213352,1,0,0:0:0:0:
453,313,213474,1,8,0:0:0:0:
453,313,213596,1,8,0:0:0:0:
453,313,213717,1,0,0:0:0:0:
465,331,213809,1,8,0:0:0:0:
465,332,213900,1,0,0:0:0:0:
465,331,213992,1,0,0:0:0:0:
465,332,214083,1,8,0:0:0:0:
479,330,214175,1,8,0:0:0:0:
479,330,214266,1,0,0:0:0:0:
479,330,214358,1,0,0:0:0:0:
479,330,214449,1,0,0:0:0:0:
479,330,214541,1,0,0:0:0:0:
479,330,214632,1,8,0:0:0:0:
479,330,214724,1,8,0:0:0:0:
491,337,214815,1,0,0:0:0:0:
491,337,214906,1,0,0:0:0:0:
491,337,214998,1,8,0:0:0:0:
491,337,215089,1,0,0:0:0:0:
491,337,215181,1,8,0:0:0:0:
491,337,215272,1,8,0:0:0:0:
491,337,215364,1,0,0:0:0:0:
491,337,215455,1,0,0:0:0:0:
491,337,215547,1,8,0:0:0:0:
491,337,215638,1,0,0:0:0:0:
491,337,215730,1,0,0:0:0:0:
491,337,215821,1,0,0:0:0:0:
487,347,215913,1,8,0:0:0:0:
487,347,216004,1,8,0:0:0:0:
487,347,216096,1,0,0:0:0:0:
487,347,216187,1,8,0:0:0:0:
487,347,216278,1,0,0:0:0:0:
469,326,216370,1,0,0:0:0:0:
469,326,216461,1,8,0:0:0:0:
469,326,216553,1,8,0:0:0:0:
494,343,216644,1,0,0:0:0:0:
420,310,216736,1,8,0:0:0:0:
420,310,216827,1,0,0:0:0:0:
420,310,216919,1,0,0:0:0:0:
404,304,217010,1,8,0:0:0:0:
404,304,217102,1,8,0:0:0:0:
404,304,217193,1,0,0:0:0:0:
404,304,217285,1,0,0:0:0:0:
404,304,217376,1,0,0:0:0:0:
404,304,217467,1,0,0:0:0:0:
404,304,217559,1,8,0:0:0:0:
404,304,217650,1,8,0:0:0:0:
484,323,217742,1,0,0:0:0:0:
484,323,217833,1,0,0:0:0:0:
484,323,217925,1,8,0:0:0:0:
484,323,218016,1,0,0:0:0:0:
484,323,218108,1,8,0:0:0:0:
450,313,218199,1,8,0:0:0:0:
403,327,218291,1,0,0:0:0:0:
403,327,218382,1,8,0:0:0:0:
403,327,218474,1,8,0:0:0:0:
430,328,218565,1,0,0:0:0:0:
430,328,218656,1,8,0:0:0:0:
430,328,218748,1,8,0:0:0:0:
474,328,218839,1,0,0:0:0:0:
474,328,218931,1,0,0:0:0:0:
474,328,219022,1,8,0:0:0:0:
445,317,219114,1,8,0:0:0:0:
445,317,219205,1,0,0:0:0:0:
445,317,219297,1,0,0:0:0:0:
445,317,219388,1,8,0:0:0:0:
445,317,219480,1,8,0:0:0:0:
445,317,219571,1,0,0:0:0:0:
445,317,219663,1,8,0:0:0:0:
445,317,219754,1,0,0:0:0:0:
449,322,219846,1,0,0:0:0:0:
412,325,219937,1,8,0:0:0:0:
412,325,220028,1,8,0:0:0:0:
412,325,220120,1,8,0:0:0:0:
412,325,220211,1,0,0:0:0:0:
412,325,220303,1,8,0:0:0:0:
412,325,220394,1,0,0:0:0:0:
412,325,220486,1,8,0:0:0:0:
412,325,220577,1,8,0:0:0:0:
412,325,220669,1,0,0:0:0:0:
428,333,220760,1,8,0:0:0:0:
428,333,220852,1,0,0:0:0:0:
430,316,220943,1,0,0:0:0:0:
430,315,221035,1,8,0:0:0:0:
463,358,221126,1,8,0:0:0:0:
445,348,221217,1,0,0:0:0:0:
445,348,221309,1,0,0:0:0:0:
445,348,221400,1,8,0:0:0:0:
463,358,221492,1,0,0:0:0:0:
463,358,221583,1,0,0:0:0:0:
463,358,221675,1,0,0:0:0:0:
463,358,221766,1,8,0:0:0:0:
463,358,221858,1,8,0:0:0:0:
463,358,221949,1,0,0:0:0:0:
463,358,222041,1,0,0:0:0:0:
463,358,222132,1,8,0:0:0:0:
463,358,222224,1,0,0:0:0:0:
463,358,222315,1,8,0:0:0:0:
463,358,222406,1,8,0:0:0:0:
463,358,222498,1,0,0:0:0:0:
463,358,222589,1,8,0:0:0:0:
463,358,222681,1,0,0:0:0:0:
463,358,222772,1,0,0:0:0:0:
463,358,222864,1,8,0:0:0:0:
463,358,222955,1,8,0:0:0:0:
463,358,223047,1,0,0:0:0:0:
463,358,223138,1,0,0:0:0:0:
463,358,223230,1,0,0:0:0:0:
463,358,223321,1,0,0:0:0:0:
463,358,223413,1,8,0:0:0:0:
463,358,223504,1,8,0:0:0:0:
472,358,223596,1,0,0:0:0:0:
472,358,223687,1,8,0:0:0:0:
472,358,223778,1,0,0:0:0:0:
472,358,223870,1,0,0:0:0:0:
472,358,223961,1,8,0:0:0:0:
472,358,224053,1,8,0:0:0:0:
472,358,224144,1,0,0:0:0:0:
472,358,224236,1,0,0:0:0:0:
472,358,224327,1,8,0:0:0:0:
472,358,224419,1,0,0:0:0:0:
459,330,224510,1,8,0:0:0:0:
459,330,224602,1,8,0:0:0:0:
459,330,224693,1,0,0:0:0:0:
392,350,224815,1,0,0:0:0:0:
392,350,224937,1,8,0:0:0:0:
392,350,225059,1,0,0:0:0:0:
392,350,225181,1,8,0:0:0:0:
392,350,225303,1,8,0:0:0:0:
445,333,225425,1,0,0:0:0:0:
445,333,225516,1,8,0:0:0:0:
445,333,225608,1,0,0:0:0:0:
445,333,225699,1,0,0:0:0:0:
445,333,225791,1,8,0:0:0:0:
445,333,225882,1,8,0:0:0:0:
445,333,225974,1,0,0:0:0:0:
445,333,226065,1,0,0:0:0:0:
445,333,226156,1,0,0:0:0:0:
445,333,226248,1,0,0:0:0:0:
447,338,226339,1,8,0:0:0:0:
447,338,226431,1,8,0:0:0:0:
447,338,226522,1,0,0:0:0:0:
445,331,226614,1,0,0:0:0:0:
445,331,226705,1,8,0:0:0:0:
445,331,226797,1,0,0:0:0:0:
445,331,226888,1,8,0:0:0:0:
445,331,226980,1,8,0:0:0:0:
445,331,227071,1,0,0:0:0:0:
445,331,227163,1,0,0:0:0:0:
445,331,227254,1,8,0:0:0:0:
445,331,227346,1,0,0:0:0:0:
412,312,227437,1,8,0:0:0:0:
412,312,227528,1,0,0:0:0:0:
455,298,227620,1,8,0:0:0:0:
455,298,227681,1,8,0:0:0:0:
455,298,227742,1,8,0:0:0:0:
455,298,227803,1,0,0:0:0:0:
455,331,227894,1,0,0:0:0:0:
467,295,227986,1,8,0:0:0:0:
435,327,228047,1,0,0:0:0:0:
435,327,228108,1,0,0:0:0:0:
435,327,228169,1,8,0:0:0:0:
408,294,228260,1,8,0:0:0:0:
435,317,228352,1,0,0:0:0:0:
435,317,228443,1,8,0:0:0:0:
435,317,228535,1,0,0:0:0:0:
437,321,228626,1,0,0:0:0:0:
414,338,228717,1,8,0:0:0:0:
414,338,228809,1,8,0:0:0:0:
414,338,228900,1,0,0:0:0:0:
414,338,228992,1,0,0:0:0:0:
414,338,229083,1,0,0:0:0:0:
418,342,229175,1,0,0:0:0:0:
419,342,229266,1,8,0:0:0:0:
418,342,229358,1,8,0:0:0:0:
500,357,229449,1,0,0:0:0:0:
500,357,229541,1,8,0:0:0:0:
500,357,229632,1,0,0:0:0:0:
500,357,229724,1,0,0:0:0:0:
500,357,229815,1,8,0:0:0:0:
480,309,229906,1,8,0:0:0:0:
464,321,229998,1,0,0:0:0:0:
464,321,230089,1,0,0:0:0:0:
464,321,230181,1,8,0:0:0:0:
464,321,230272,1,8,0:0:0:0:
464,321,230364,1,0,0:0:0:0:
464,321,230455,1,8,0:0:0:0:
464,321,230547,1,0,0:0:0:0:
464,321,230638,1,0,0:0:0:0:
464,321,230730,1,8,0:0:0:0:
464,321,230821,1,0,0:0:0:0:
464,321,230913,1,8,0:0:0:0:
464,321,231004,1,8,0:0:0:0:
464,321,231096,1,8,0:0:0:0:
464,321,231187,1,8,0:0:0:0:
464,321,231278,1,4,0:0:0:0:
439,319,231643,1,8,0:0:0:0:
439,319,232009,1,0,0:0:0:0:
439,319,232192,1,8,0:0:0:0:
439,319,232375,1,0,0:0:0:0:
398,322,232741,1,8,0:0:0:0:
400,323,233107,1,8,0:0:0:0:
400,323,233198,1,8,0:0:0:0:
400,323,233290,1,0,0:0:0:0:
400,323,233473,1,0,0:0:0:0:
454,328,233655,1,0,0:0:0:0:
454,328,233838,1,8,0:0:0:0:
391,343,234204,1,0,0:0:0:0:
391,343,234387,1,8,0:0:0:0:
391,343,234570,1,0,0:0:0:0:
405,339,234753,1,0,0:0:0:0:
405,339,234844,1,0,0:0:0:0:
405,339,234936,1,8,0:0:0:0:
405,339,235027,1,8,0:0:0:0:
405,339,235119,1,0,0:0:0:0:
431,344,235302,1,4,0:0:0:0:
431,344,235667,1,8,0:0:0:0:
431,344,236033,1,0,0:0:0:0:
431,344,236216,1,8,0:0:0:0:
431,344,236399,1,0,0:0:0:0:
431,344,236765,1,8,0:0:0:0:
431,344,237131,1,8,0:0:0:0:
431,344,237222,1,8,0:0:0:0:
431,344,237314,1,0,0:0:0:0:
431,344,237497,1,0,0:0:0:0:
431,344,237680,1,0,0:0:0:0:
431,344,237862,1,8,0:0:0:0:
431,344,238228,1,0,0:0:0:0:
431,344,238411,1,8,0:0:0:0:
431,344,238594,1,0,0:0:0:0:
431,344,238777,1,0,0:0:0:0:
431,344,238869,1,0,0:0:0:0:
431,344,238960,1,8,0:0:0:0:
431,344,239052,1,8,0:0:0:0:
431,344,239143,1,0,0:0:0:0:
431,344,239326,1,8,0:0:0:0:
431,344,239417,1,8,0:0:0:0:
431,344,239509,1,0,0:0:0:0:
431,344,239692,1,4,0:0:0:0:
467,317,240058,1,8,0:0:0:0:
467,317,240423,1,0,0:0:0:0:
467,317,240606,1,8,0:0:0:0:
467,317,240789,1,0,0:0:0:0:
467,317,241155,1,8,0:0:0:0:
467,317,241521,1,8,0:0:0:0:
467,317,241612,1,8,0:0:0:0:
467,317,241704,1,0,0:0:0:0:
467,317,241887,1,0,0:0:0:0:
467,317,242069,1,0,0:0:0:0:
467,317,242252,1,8,0:0:0:0:
467,318,242618,1,0,0:0:0:0:
467,318,242801,1,8,0:0:0:0:
467,318,242984,1,0,0:0:0:0:
467,318,243167,1,0,0:0:0:0:
467,318,243258,1,0,0:0:0:0:
467,318,243350,1,8,0:0:0:0:
467,318,243441,1,8,0:0:0:0:
467,318,243533,1,0,0:0:0:0:
467,318,243716,1,4,0:0:0:0:
381,331,244081,1,8,0:0:0:0:
381,331,244447,1,0,0:0:0:0:
381,331,244630,1,8,0:0:0:0:
381,331,244813,1,0,0:0:0:0:
380,331,245179,1,8,0:0:0:0:
380,331,245545,1,8,0:0:0:0:
380,331,245636,1,8,0:0:0:0:
380,331,245728,1,0,0:0:0:0:
380,331,245911,1,0,0:0:0:0:
380,331,246094,1,0,0:0:0:0:
380,331,246276,1,8,0:0:0:0:
380,331,246642,1,0,0:0:0:0:
380,331,246825,1,8,0:0:0:0:
380,331,247008,1,0,0:0:0:0:
437,342,247191,1,0,0:0:0:0:
437,342,247252,1,0,0:0:0:0:
437,342,247313,1,0,0:0:0:0:
437,342,247374,1,8,0:0:0:0:
420,323,247466,1,8,0:0:0:0:
420,323,247557,1,0,0:0:0:0:
420,323,247740,1,8,0:0:0:0:
420,323,247831,1,8,0:0:0:0:
420,323,247923,1,0,0:0:0:0:
420,323,248106,1,12,0:0:0:0:
481,354,248288,1,0,0:0:0:0:
481,354,248471,1,8,0:0:0:0:
481,354,248654,1,0,0:0:0:0:
481,354,248837,1,0,0:0:0:0:
481,354,249020,1,8,0:0:0:0:
481,354,249203,1,4,0:0:0:0:
481,354,249386,1,8,0:0:0:0:
481,354,249569,1,8,0:0:0:0:
481,354,249752,1,0,0:0:0:0:
481,354,249935,1,8,0:0:0:0:
481,354,250118,1,0,0:0:0:0:
420,323,250303,1,12,0:0:0:0:
487,326,252667,1,12,0:0:0:0:
487,326,252963,1,4,0:0:0:0:
487,326,253110,1,12,0:0:0:0:
487,326,253849,1,12,0:0:0:0:
487,326,254145,1,4,0:0:0:0:
487,326,254273,1,12,0:0:0:0:
491,311,254613,1,0,0:0:0:0:
491,311,254663,1,0,0:0:0:0:
491,311,254714,1,8,0:0:0:0:
403,343,255008,1,12,0:0:0:0:
403,343,255155,1,0,0:0:0:0:
403,343,255302,1,0,0:0:0:0:
403,343,255375,1,0,0:0:0:0:
403,343,255449,1,8,0:0:0:0:
403,343,255596,1,0,0:0:0:0:
447,328,255743,1,8,0:0:0:0:
447,328,255816,1,0,0:0:0:0:
447,328,255890,1,8,0:0:0:0:
447,328,255963,1,8,0:0:0:0:
447,328,256037,1,0,0:0:0:0:
447,328,256110,1,0,0:0:0:0:
447,328,256184,1,8,0:0:0:0:
447,328,256331,1,0,0:0:0:0:
447,328,256478,1,0,0:0:0:0:
447,328,256552,1,0,0:0:0:0:
447,328,256625,1,8,0:0:0:0:
445,340,256772,1,0,0:0:0:0:
445,340,256919,1,0,0:0:0:0:
445,340,256993,1,0,0:0:0:0:
445,340,257066,1,8,0:0:0:0:
445,340,257140,1,8,0:0:0:0:
445,340,257213,1,0,0:0:0:0:
445,340,257287,1,0,0:0:0:0:
445,340,257360,1,8,0:0:0:0:
478,351,257508,1,0,0:0:0:0:
478,351,257655,1,0,0:0:0:0:
478,351,257728,1,0,0:0:0:0:
478,351,257802,1,8,0:0:0:0:
462,329,257949,1,0,0:0:0:0:
468,338,258096,1,8,0:0:0:0:
468,338,258169,1,0,0:0:0:0:
468,338,258243,1,8,0:0:0:0:
468,338,258316,1,8,0:0:0:0:
468,338,258390,1,0,0:0:0:0:
468,338,258463,1,0,0:0:0:0:
468,338,258537,1,8,0:0:0:0:
468,338,258684,1,0,0:0:0:0:
490,360,258831,1,0,0:0:0:0:
490,360,258905,1,0,0:0:0:0:
490,360,258978,1,8,0:0:0:0:
479,342,259125,1,0,0:0:0:0:
479,342,259199,1,8,0:0:0:0:
479,342,259272,1,8,0:0:0:0:
479,342,259346,1,0,0:0:0:0:
479,342,259419,1,8,0:0:0:0:
470,346,259493,1,8,0:0:0:0:
470,346,259566,1,0,0:0:0:0:
479,342,259713,1,12,0:0:0:0:
443,356,259860,1,0,0:0:0:0:
443,356,260008,1,0,0:0:0:0:
443,356,260081,1,0,0:0:0:0:
443,356,260155,1,8,0:0:0:0:
431,344,260302,1,0,0:0:0:0:
431,344,260449,1,8,0:0:0:0:
431,344,260522,1,0,0:0:0:0:
431,344,260596,1,8,0:0:0:0:
431,344,260669,1,8,0:0:0:0:
431,344,260743,1,0,0:0:0:0:
431,344,260816,1,0,0:0:0:0:
431,344,260890,1,8,0:0:0:0:
431,344,261037,1,0,0:0:0:0:
431,344,261184,1,0,0:0:0:0:
431,344,261258,1,0,0:0:0:0:
431,344,261331,1,8,0:0:0:0:
431,344,261478,1,0,0:0:0:0:
431,344,261625,1,0,0:0:0:0:
431,344,261699,1,0,0:0:0:0:
431,344,261772,1,8,0:0:0:0:
431,344,261846,1,8,0:0:0:0:
431,344,261919,1,0,0:0:0:0:
431,344,261993,1,0,0:0:0:0:
431,344,262066,1,8,0:0:0:0:
431,344,262213,1,0,0:0:0:0:
431,344,262360,1,0,0:0:0:0:
431,344,262434,1,0,0:0:0:0:
431,344,262508,1,8,0:0:0:0:
431,344,262655,1,0,0:0:0:0:
431,344,262802,1,8,0:0:0:0:
431,344,262875,1,0,0:0:0:0:
431,344,262949,1,8,0:0:0:0:
425,341,263022,1,8,0:0:0:0:
425,341,263096,1,0,0:0:0:0:
425,341,263169,1,0,0:0:0:0:
425,341,263243,1,8,0:0:0:0:
425,341,263390,1,0,0:0:0:0:
425,341,263537,1,0,0:0:0:0:
425,341,263610,1,0,0:0:0:0:
425,341,263684,1,8,0:0:0:0:
381,318,263831,1,8,0:0:0:0:
381,318,263905,1,8,0:0:0:0:
381,318,263978,1,0,0:0:0:0:
381,318,264052,1,0,0:0:0:0:
381,318,264125,1,8,0:0:0:0:
505,348,264272,1,0,0:0:0:0:
505,348,264419,1,12,0:0:0:0:
504,334,264713,1,0,0:0:0:0:
504,334,264860,1,12,0:0:0:0:
469,332,265155,1,0,0:0:0:0:
469,332,265228,1,0,0:0:0:0:
469,332,265302,1,8,0:0:0:0:
469,332,265375,1,8,0:0:0:0:
469,332,265449,1,0,0:0:0:0:
426,306,265596,1,12,0:0:0:0:
426,307,265890,1,0,0:0:0:0:
426,307,266037,1,12,0:0:0:0:
442,321,266331,1,0,0:0:0:0:
442,321,266405,1,0,0:0:0:0:
442,321,266478,1,8,0:0:0:0:
460,342,266552,1,8,0:0:0:0:
437,328,266625,1,0,0:0:0:0:
437,328,266772,1,12,0:0:0:0:
458,358,266919,1,0,0:0:0:0:
460,351,267066,1,0,0:0:0:0:
460,351,267140,1,0,0:0:0:0:
460,351,267213,1,8,0:0:0:0:
460,351,267360,1,0,0:0:0:0:
460,351,267508,1,8,0:0:0:0:
460,351,267581,1,0,0:0:0:0:
460,351,267655,1,8,0:0:0:0:
460,351,267728,1,8,0:0:0:0:
460,351,267802,1,0,0:0:0:0:
460,351,267875,1,0,0:0:0:0:
460,351,267949,1,8,0:0:0:0:
460,351,268096,1,0,0:0:0:0:
460,351,268243,1,0,0:0:0:0:
460,351,268316,1,0,0:0:0:0:
460,351,268390,1,8,0:0:0:0:
450,350,268537,1,0,0:0:0:0:
450,350,268610,1,0,0:0:0:0:
450,350,268684,1,8,0:0:0:0:
450,350,268758,1,8,0:0:0:0:
450,350,268831,1,0,0:0:0:0:
450,350,268905,1,0,0:0:0:0:
450,350,268978,1,8,0:0:0:0:
450,350,269125,1,12,0:0:0:0:
462,334,269272,1,0,0:0:0:0:
462,334,269419,1,0,0:0:0:0:
462,334,269493,1,0,0:0:0:0:
462,334,269566,1,8,0:0:0:0:
462,334,269713,1,0,0:0:0:0:
462,334,269860,1,8,0:0:0:0:
462,334,269934,1,0,0:0:0:0:
462,334,270008,1,8,0:0:0:0:
462,334,270081,1,8,0:0:0:0:
462,334,270155,1,0,0:0:0:0:
464,338,270228,1,0,0:0:0:0:
465,339,270302,1,8,0:0:0:0:
456,347,270449,1,0,0:0:0:0:
456,347,270596,1,0,0:0:0:0:
456,347,270669,1,0,0:0:0:0:
456,347,270743,1,8,0:0:0:0:
459,350,270890,1,0,0:0:0:0:
459,350,271037,1,0,0:0:0:0:
459,350,271110,1,0,0:0:0:0:
459,350,271184,1,8,0:0:0:0:
459,350,271258,1,8,0:0:0:0:
459,350,271331,1,0,0:0:0:0:
459,350,271405,1,0,0:0:0:0:
459,350,271478,1,8,0:0:0:0:
459,350,271625,1,0,0:0:0:0:
459,350,271772,1,0,0:0:0:0:
461,354,271846,1,0,0:0:0:0:
461,355,271919,1,8,0:0:0:0:
461,354,272066,1,8,0:0:0:0:
461,354,272213,1,8,0:0:0:0:
461,354,272287,1,0,0:0:0:0:
461,354,272360,1,8,0:0:0:0:
461,354,272434,1,8,0:0:0:0:
461,354,272508,1,0,0:0:0:0:
461,354,272581,1,0,0:0:0:0:
461,354,272655,1,8,0:0:0:0:
418,324,272802,1,8,0:0:0:0:
418,324,272875,1,8,0:0:0:0:
418,324,272949,1,0,0:0:0:0:
461,330,273096,1,0,0:0:0:0:
461,330,273169,1,0,0:0:0:0:
461,330,273244,1,12,0:0:0:0:
444,338,273458,1,0,0:0:0:0:
444,338,273672,1,0,0:0:0:0:
444,338,273886,1,8,0:0:0:0:
444,338,274101,1,8,0:0:0:0:
444,338,274208,1,8,0:0:0:0:
444,338,274315,1,0,0:0:0:0:
444,338,274529,1,8,0:0:0:0:
447,333,274744,1,0,0:0:0:0:
447,333,274958,1,0,0:0:0:0:
447,333,275172,1,8,0:0:0:0:
447,333,275279,1,0,0:0:0:0:
447,333,275386,1,8,0:0:0:0:
447,333,275494,1,8,0:0:0:0:
447,333,275601,1,0,0:0:0:0:
447,333,275815,1,8,0:0:0:0:
447,333,276029,1,0,0:0:0:0:
447,333,276244,1,0,0:0:0:0:
447,333,276458,1,8,0:0:0:0:
447,333,276672,1,8,0:0:0:0:
447,333,276779,1,8,0:0:0:0:
447,333,276886,1,0,0:0:0:0:
447,333,277101,1,8,0:0:0:0:
424,324,277315,1,8,0:0:0:0:
424,324,277422,1,8,0:0:0:0:
424,324,277529,1,0,0:0:0:0:
424,324,277636,1,0,0:0:0:0:
424,324,277744,1,12,0:0:0:0:
424,324,277958,1,4,0:0:0:0:
424,324,278172,1,12,0:0:0:0:
424,324,278386,1,4,0:0:0:0:
377,333,278815,1,0,0:0:0:0:
416,348,278922,1,0,0:0:0:0:
377,333,279029,1,8,0:0:0:0:
430,330,279244,1,8,0:0:0:0:
377,333,279458,1,0,0:0:0:0:
377,333,279672,1,8,0:0:0:0:
370,327,279886,1,0,0:0:0:0:
370,327,280101,1,0,0:0:0:0:
367,308,280208,1,0,0:0:0:0:
370,327,280315,1,8,0:0:0:0:
381,302,280422,1,0,0:0:0:0:
370,327,280529,1,8,0:0:0:0:
370,327,280744,1,0,0:0:0:0:
370,327,280958,1,8,0:0:0:0:
430,330,281172,1,0,0:0:0:0:
430,330,281386,1,0,0:0:0:0:
430,330,281494,1,0,0:0:0:0:
430,330,281601,1,8,0:0:0:0:
430,330,281815,1,8,0:0:0:0:
430,330,282029,1,0,0:0:0:0:
430,330,282244,1,8,0:0:0:0:
430,330,282458,1,0,0:0:0:0:
379,318,282672,1,0,0:0:0:0:
379,318,282779,1,0,0:0:0:0:
399,283,282886,1,8,0:0:0:0:
399,283,282994,1,8,0:0:0:0:
399,283,283101,1,0,0:0:0:0:
399,283,283208,1,0,0:0:0:0:
399,283,283315,1,8,0:0:0:0:
399,283,283422,1,0,0:0:0:0:
399,283,283529,1,8,0:0:0:0:
389,292,283744,1,0,0:0:0:0:
389,292,283958,1,8,0:0:0:0:
389,292,284065,1,0,0:0:0:0:
389,292,284172,1,8,0:0:0:0:
389,292,284279,1,8,0:0:0:0:
389,292,284386,1,0,0:0:0:0:
389,292,284601,1,0,0:0:0:0:
389,292,284815,1,8,0:0:0:0:
389,292,285029,1,0,0:0:0:0:
389,292,285136,1,0,0:0:0:0:
389,292,285244,1,8,0:0:0:0:
389,292,285351,1,0,0:0:0:0:
389,292,285458,1,8,0:0:0:0:
389,292,285565,1,8,0:0:0:0:
389,292,285672,1,0,0:0:0:0:
389,292,285886,1,0,0:0:0:0:
389,292,286101,1,8,0:0:0:0:
391,283,286315,1,0,0:0:0:0:
391,283,286529,1,8,0:0:0:0:
391,283,286636,1,0,0:0:0:0:
391,283,286744,1,8,0:0:0:0:
391,283,286851,1,8,0:0:0:0:
391,283,286958,1,0,0:0:0:0:
391,283,287172,1,0,0:0:0:0:
391,283,287386,1,8,0:0:0:0:
391,283,287601,1,0,0:0:0:0:
391,283,287708,1,0,0:0:0:0:
391,283,287815,1,8,0:0:0:0:
391,283,287922,1,0,0:0:0:0:
391,283,288029,1,8,0:0:0:0:
391,283,288136,1,8,0:0:0:0:
391,283,288244,1,0,0:0:0:0:
391,283,288458,1,0,0:0:0:0:
403,284,288672,1,12,0:0:0:0:
427,314,288886,1,0,0:0:0:0:
427,314,289101,1,0,0:0:0:0:
427,314,289208,1,0,0:0:0:0:
427,314,289315,1,8,0:0:0:0:
427,314,289422,1,8,0:0:0:0:
427,314,289529,1,0,0:0:0:0:
427,314,289744,1,0,0:0:0:0:
427,314,289958,1,12,0:0:0:0:
436,313,290172,1,8,0:0:0:0:
436,313,290279,1,8,0:0:0:0:
436,313,290386,1,0,0:0:0:0:
436,313,290494,1,0,0:0:0:0:
436,313,290601,1,8,0:0:0:0:
436,313,290708,1,8,0:0:0:0:
436,313,290815,1,0,0:0:0:0:
436,313,291029,1,0,0:0:0:0:
436,313,291244,1,12,0:0:0:0:
446,312,291458,1,0,0:0:0:0:
446,312,291672,1,0,0:0:0:0:
446,312,291779,1,0,0:0:0:0:
446,312,291886,1,8,0:0:0:0:
446,312,291994,1,8,0:0:0:0:
446,312,292101,1,0,0:0:0:0:
463,255,292315,1,0,0:0:0:0:
463,255,292529,1,12,0:0:0:0:
483,322,292744,1,8,0:0:0:0:
483,322,292851,1,8,0:0:0:0:
483,322,292958,1,0,0:0:0:0:
483,322,293065,1,0,0:0:0:0:
483,322,293172,1,8,0:0:0:0:
483,322,293279,1,8,0:0:0:0:
483,322,293386,1,0,0:0:0:0:
466,306,293601,1,0,0:0:0:0:
454,306,293815,1,0,0:0:0:0:
454,306,293887,1,0,0:0:0:0:
454,306,293959,1,8,0:0:0:0:
454,306,294031,1,0,0:0:0:0:
459,308,294103,1,8,0:0:0:0:
464,310,294175,1,8,0:0:0:0:
466,310,294247,1,0,0:0:0:0:
468,312,294319,1,8,0:0:0:0:
469,313,294391,1,0,0:0:0:0:
470,314,294464,1,0,0:0:0:0:
473,315,294536,1,8,0:0:0:0:
473,315,294608,1,0,0:0:0:0:
476,316,294680,1,8,0:0:0:0:
480,318,294752,1,8,0:0:0:0:
482,308,294824,1,0,0:0:0:0:
482,308,294896,1,0,0:0:0:0:
482,308,294968,1,8,0:0:0:0:
459,312,295113,1,0,0:0:0:0:
459,312,295257,1,8,0:0:0:0:
499,317,295401,1,8,0:0:0:0:
499,317,295545,1,0,0:0:0:0:
499,317,295690,1,0,0:0:0:0:
499,317,295834,1,8,0:0:0:0:
501,323,295978,1,0,0:0:0:0:
438,318,296122,1,0,0:0:0:0:
438,318,296194,1,0,0:0:0:0:
438,318,296266,1,8,0:0:0:0:
438,318,296339,1,0,0:0:0:0:
440,323,296411,1,8,0:0:0:0:
441,323,296483,1,8,0:0:0:0:
441,323,296555,1,0,0:0:0:0:
440,323,296627,1,8,0:0:0:0:
441,323,296699,1,0,0:0:0:0:
441,323,296771,1,0,0:0:0:0:
440,323,296843,1,8,0:0:0:0:
441,323,296915,1,0,0:0:0:0:
441,323,296988,1,8,0:0:0:0:
440,323,297060,1,8,0:0:0:0:
457,347,297132,1,0,0:0:0:0:
457,347,297204,1,0,0:0:0:0:
457,347,297276,1,8,0:0:0:0:
457,347,297420,1,0,0:0:0:0:
457,347,297565,1,8,0:0:0:0:
457,347,297709,1,8,0:0:0:0:
457,347,297853,1,0,0:0:0:0:
465,346,297925,1,8,0:0:0:0:
465,346,297997,1,0,0:0:0:0:
465,346,298069,1,0,0:0:0:0:
471,348,298141,1,8,0:0:0:0:
474,345,298286,1,0,0:0:0:0:
446,303,298430,1,0,0:0:0:0:
446,303,298502,1,0,0:0:0:0:
446,303,298574,1,8,0:0:0:0:
446,303,298646,1,0,0:0:0:0:
446,303,298718,1,8,0:0:0:0:
446,303,298790,1,8,0:0:0:0:
446,303,298863,1,0,0:0:0:0:
430,315,298935,1,0,0:0:0:0:
436,320,299007,1,8,0:0:0:0:
448,332,299079,1,8,0:0:0:0:
448,332,299151,1,0,0:0:0:0:
448,332,299223,1,0,0:0:0:0:
448,332,299295,1,8,0:0:0:0:
455,328,299367,1,0,0:0:0:0:
455,328,299440,1,8,0:0:0:0:
455,329,299512,1,8,0:0:0:0:
455,328,299584,1,0,0:0:0:0:
428,306,299728,1,0,0:0:0:0:
428,306,299800,1,0,0:0:0:0:
428,306,299872,1,8,0:0:0:0:
428,306,300016,1,0,0:0:0:0:
428,306,300161,1,8,0:0:0:0:
428,306,300233,1,0,0:0:0:0:
428,306,300305,1,0,0:0:0:0:
431,309,300377,1,0,0:0:0:0:
428,306,300449,1,12,0:0:0:0:
454,306,300738,1,0,0:0:0:0:
454,306,300810,1,0,0:0:0:0:
454,306,300882,1,8,0:0:0:0:
454,306,300954,1,0,0:0:0:0:
459,308,301026,1,8,0:0:0:0:
464,310,301098,1,8,0:0:0:0:
466,310,301170,1,0,0:0:0:0:
468,312,301242,1,8,0:0:0:0:
469,313,301315,1,0,0:0:0:0:
470,314,301387,1,0,0:0:0:0:
473,315,301459,1,8,0:0:0:0:
473,315,301531,1,0,0:0:0:0:
476,316,301603,1,8,0:0:0:0:
480,318,301675,1,8,0:0:0:0:
482,308,301747,1,0,0:0:0:0:
482,308,301819,1,0,0:0:0:0:
482,308,301891,1,8,0:0:0:0:
459,312,302036,1,0,0:0:0:0:
459,312,302180,1,8,0:0:0:0:
499,317,302324,1,8,0:0:0:0:
499,317,302468,1,0,0:0:0:0:
499,317,302613,1,0,0:0:0:0:
499,317,302757,1,8,0:0:0:0:
501,323,302901,1,0,0:0:0:0:
438,318,303045,1,0,0:0:0:0:
438,318,303117,1,0,0:0:0:0:
438,318,303190,1,8,0:0:0:0:
438,318,303262,1,0,0:0:0:0:
440,323,303334,1,8,0:0:0:0:
441,323,303406,1,8,0:0:0:0:
441,323,303478,1,0,0:0:0:0:
440,323,303550,1,8,0:0:0:0:
441,323,303622,1,0,0:0:0:0:
441,323,303694,1,0,0:0:0:0:
440,323,303766,1,8,0:0:0:0:
441,323,303839,1,0,0:0:0:0:
441,323,303911,1,8,0:0:0:0:
440,323,303983,1,8,0:0:0:0:
457,347,304055,1,0,0:0:0:0:
457,347,304127,1,0,0:0:0:0:
457,347,304199,1,8,0:0:0:0:
457,347,304343,1,0,0:0:0:0:
457,347,304488,1,8,0:0:0:0:
457,347,304632,1,8,0:0:0:0:
457,347,304776,1,0,0:0:0:0:
465,346,304848,1,8,0:0:0:0:
465,346,304920,1,0,0:0:0:0:
465,346,304992,1,0,0:0:0:0:
471,348,305065,1,8,0:0:0:0:
474,345,305209,1,0,0:0:0:0:
446,303,305353,1,0,0:0:0:0:
446,303,305425,1,0,0:0:0:0:
446,303,305497,1,8,0:0:0:0:
446,303,305569,1,0,0:0:0:0:
446,303,305641,1,8,0:0:0:0:
446,303,305714,1,8,0:0:0:0:
446,303,305786,1,0,0:0:0:0:
430,315,305858,1,0,0:0:0:0:
436,320,305930,1,8,0:0:0:0:
448,332,306002,1,8,0:0:0:0:
448,332,306074,1,0,0:0:0:0:
448,332,306146,1,0,0:0:0:0:
448,332,306218,1,8,0:0:0:0:
455,328,306290,1,0,0:0:0:0:
455,328,306363,1,8,0:0:0:0:
455,329,306435,1,8,0:0:0:0:
455,328,306507,1,0,0:0:0:0:
403,324,306651,1,0,0:0:0:0:
366,251,306723,1,8,0:0:0:0:
366,251,306795,1,0,0:0:0:0:
366,251,306867,1,0,0:0:0:0:
366,251,306940,1,8,0:0:0:0:
370,256,307012,1,0,0:0:0:0:
372,258,307084,1,8,0:0:0:0:
463,280,307228,1,0,0:0:0:0:
463,280,307300,1,0,0:0:0:0:
463,280,307372,1,8,0:0:0:0:
463,280,307516,1,0,0:0:0:0:
463,280,307589,1,0,0:0:0:0:
463,280,307661,1,12,0:0:0:0:
448,344,307805,1,0,0:0:0:0:
448,344,307949,1,0,0:0:0:0:
448,344,308021,1,0,0:0:0:0:
448,344,308093,1,8,0:0:0:0:
455,347,308238,1,0,0:0:0:0:
455,347,308382,1,8,0:0:0:0:
455,347,308454,1,0,0:0:0:0:
455,347,308526,1,8,0:0:0:0:
455,347,308598,1,8,0:0:0:0:
455,347,308670,1,0,0:0:0:0:
455,347,308815,1,8,0:0:0:0:
455,347,308959,1,0,0:0:0:0:
455,347,309103,1,0,0:0:0:0:
455,347,309175,1,0,0:0:0:0:
455,347,309247,1,8,0:0:0:0:
459,345,309391,1,0,0:0:0:0:
459,345,309536,1,0,0:0:0:0:
459,345,309608,1,0,0:0:0:0:
459,345,309680,1,8,0:0:0:0:
459,345,309752,1,8,0:0:0:0:
459,345,309824,1,0,0:0:0:0:
469,349,309968,1,8,0:0:0:0:
469,349,310113,1,0,0:0:0:0:
471,343,310185,1,0,0:0:0:0:
488,347,310257,1,0,0:0:0:0:
488,347,310329,1,0,0:0:0:0:
488,347,310401,1,8,0:0:0:0:
471,343,310545,1,0,0:0:0:0:
434,343,310690,1,8,0:0:0:0:
434,343,310762,1,0,0:0:0:0:
434,343,310834,1,8,0:0:0:0:
434,343,310906,1,8,0:0:0:0:
434,343,310978,1,0,0:0:0:0:
447,351,311122,1,0,0:0:0:0:
447,351,311266,1,8,0:0:0:0:
447,351,311411,1,0,0:0:0:0:
451,351,311483,1,0,0:0:0:0:
452,351,311555,1,8,0:0:0:0:
415,285,311699,1,8,0:0:0:0:
415,285,311843,1,0,0:0:0:0:
423,343,311915,1,0,0:0:0:0:
415,285,311988,1,8,0:0:0:0:
415,285,312060,1,8,0:0:0:0:
415,285,312132,1,0,0:0:0:0:
415,285,312204,1,0,0:0:0:0:
415,285,312276,1,8,0:0:0:0:
439,298,312420,1,0,0:0:0:0:
439,298,312565,1,0,0:0:0:0:
439,298,312637,1,0,0:0:0:0:
439,298,312709,1,8,0:0:0:0:
439,298,312853,1,0,0:0:0:0:
439,298,312997,1,8,0:0:0:0:
439,298,313069,1,0,0:0:0:0:
439,298,313141,1,8,0:0:0:0:
439,298,313214,1,8,0:0:0:0:
439,298,313286,1,0,0:0:0:0:
456,324,313430,1,8,0:0:0:0:
456,324,313574,1,0,0:0:0:0:
456,324,313718,1,0,0:0:0:0:
456,324,313790,1,0,0:0:0:0:
456,324,313863,1,8,0:0:0:0:
456,324,314007,1,0,0:0:0:0:
456,324,314151,1,0,0:0:0:0:
456,324,314223,1,0,0:0:0:0:
456,324,314295,1,8,0:0:0:0:
458,329,314367,1,8,0:0:0:0:
459,331,314439,1,0,0:0:0:0:
427,316,314584,1,8,0:0:0:0:
427,316,314656,1,0,0:0:0:0:
427,316,314728,1,8,0:0:0:0:
402,324,314800,1,8,0:0:0:0:
431,316,314872,1,0,0:0:0:0:
431,316,314944,1,0,0:0:0:0:
431,316,315016,1,8,0:0:0:0:
431,316,315089,1,0,0:0:0:0:
428,309,315161,1,0,0:0:0:0:
428,309,315233,1,8,0:0:0:0:
442,299,315305,1,0,0:0:0:0:
442,300,315377,1,0,0:0:0:0:
442,304,315449,1,8,0:0:0:0:
443,304,315521,1,0,0:0:0:0:
443,305,315593,1,8,0:0:0:0:
442,304,315665,1,8,0:0:0:0:
443,304,315738,1,4,0:0:0:0:
466,323,316026,1,4,0:0:0:0:
466,323,316170,1,12,0:0:0:0:
453,326,316459,1,0,0:0:0:0:
453,326,316531,1,0,0:0:0:0:
453,326,316603,1,8,0:0:0:0:
448,312,316747,1,0,0:0:0:0:
390,256,316891,1,8,0:0:0:0:
390,256,316964,1,0,0:0:0:0:
390,256,317036,1,8,0:0:0:0:
390,256,317108,1,8,0:0:0:0:
390,256,317180,1,0,0:0:0:0:
390,256,317252,1,8,0:0:0:0:
390,256,317324,1,0,0:0:0:0:
390,256,317396,1,0,0:0:0:0:
390,256,317468,1,8,0:0:0:0:
390,256,317540,1,0,0:0:0:0:
390,256,317613,1,8,0:0:0:0:
384,284,317685,1,8,0:0:0:0:
390,256,317757,1,0,0:0:0:0:
434,338,317829,1,8,0:0:0:0:
434,338,317901,1,0,0:0:0:0:
435,341,317973,1,0,0:0:0:0:
411,306,318045,1,8,0:0:0:0:
411,306,318117,1,0,0:0:0:0:
411,306,318189,1,8,0:0:0:0:
411,306,318262,1,8,0:0:0:0:
411,306,318334,1,0,0:0:0:0:
442,328,318406,1,8,0:0:0:0:
411,306,318478,1,0,0:0:0:0:
412,288,318550,1,0,0:0:0:0:
411,292,318622,1,8,0:0:0:0:
316,293,318694,1,0,0:0:0:0:
411,293,318766,1,8,0:0:0:0:
316,293,318839,1,8,0:0:0:0:
316,293,318911,1,0,0:0:0:0:
316,293,318983,1,8,0:0:0:0:
316,293,319055,1,0,0:0:0:0:
316,293,319127,1,0,0:0:0:0:
396,318,319199,1,8,0:0:0:0:
396,318,319271,1,0,0:0:0:0:
396,318,319343,1,8,0:0:0:0:
396,318,319415,1,8,0:0:0:0:
396,318,319488,1,0,0:0:0:0:
396,318,319560,1,8,0:0:0:0:
416,298,319632,1,0,0:0:0:0:
416,298,319704,1,0,0:0:0:0:
416,298,319776,1,8,0:0:0:0:
416,298,319848,1,0,0:0:0:0:
416,298,319920,1,8,0:0:0:0:
416,298,319992,1,8,0:0:0:0:
416,298,320064,1,0,0:0:0:0:
416,298,320137,1,8,0:0:0:0:
416,298,320209,1,0,0:0:0:0:
416,298,320281,1,0,0:0:0:0:
444,316,320353,1,8,0:0:0:0:
444,316,320425,1,8,0:0:0:0:
444,316,320497,1,0,0:0:0:0:
444,316,320569,1,8,0:0:0:0:
444,316,320641,1,0,0:0:0:0:
444,316,320714,1,0,0:0:0:0:
444,316,320786,1,8,0:0:0:0:
444,316,320858,1,0,0:0:0:0:
444,316,320930,1,8,0:0:0:0:
444,316,321002,1,8,0:0:0:0:
444,316,321074,1,0,0:0:0:0:
411,299,321146,1,0,0:0:0:0:
411,299,321218,1,8,0:0:0:0:
411,299,321290,1,8,0:0:0:0:
411,299,321363,1,0,0:0:0:0:
417,316,321435,1,0,0:0:0:0:
390,256,321507,1,8,0:0:0:0:
390,256,321579,1,0,0:0:0:0:
390,256,321651,1,8,0:0:0:0:
390,256,321723,1,8,0:0:0:0:
390,256,321795,1,0,0:0:0:0:
390,256,321867,1,8,0:0:0:0:
390,256,321939,1,0,0:0:0:0:
390,256,322012,1,0,0:0:0:0:
390,256,322084,1,8,0:0:0:0:
390,256,322156,1,0,0:0:0:0:
390,256,322228,1,8,0:0:0:0:
384,284,322300,1,8,0:0:0:0:
390,256,322372,1,0,0:0:0:0:
434,338,322444,1,8,0:0:0:0:
434,338,322516,1,0,0:0:0:0:
435,341,322589,1,0,0:0:0:0:
411,306,322661,1,8,0:0:0:0:
411,306,322733,1,0,0:0:0:0:
411,306,322805,1,8,0:0:0:0:
411,306,322877,1,8,0:0:0:0:
411,306,322949,1,0,0:0:0:0:
411,306,323021,1,8,0:0:0:0:
442,328,323093,1,0,0:0:0:0:
412,288,323165,1,0,0:0:0:0:
411,292,323238,1,8,0:0:0:0:
411,293,323310,1,0,0:0:0:0:
316,293,323382,1,8,0:0:0:0:
316,293,323454,1,8,0:0:0:0:
316,293,323526,1,0,0:0:0:0:
316,293,323598,1,8,0:0:0:0:
316,293,323670,1,0,0:0:0:0:
316,293,323742,1,0,0:0:0:0:
396,318,323814,1,8,0:0:0:0:
396,318,323887,1,0,0:0:0:0:
396,318,323959,1,8,0:0:0:0:
396,318,324031,1,8,0:0:0:0:
396,318,324103,1,0,0:0:0:0:
396,318,324175,1,8,0:0:0:0:
416,298,324247,1,0,0:0:0:0:
416,298,324319,1,0,0:0:0:0:
416,298,324391,1,8,0:0:0:0:
416,298,324464,1,0,0:0:0:0:
416,298,324536,1,8,0:0:0:0:
416,298,324608,1,8,0:0:0:0:
416,298,324680,1,0,0:0:0:0:
416,298,324752,1,8,0:0:0:0:
416,298,324824,1,0,0:0:0:0:
416,298,324896,1,0,0:0:0:0:
444,316,324968,1,8,0:0:0:0:
444,316,325040,1,8,0:0:0:0:
444,316,325113,1,0,0:0:0:0:
444,316,325185,1,8,0:0:0:0:
444,316,325257,1,0,0:0:0:0:
444,316,325329,1,0,0:0:0:0:
444,316,325401,1,8,0:0:0:0:
444,316,325473,1,0,0:0:0:0:
444,316,325545,1,8,0:0:0:0:
444,316,325617,1,8,0:0:0:0:
444,316,325689,1,0,0:0:0:0:
411,299,325762,1,0,0:0:0:0:
411,299,325834,1,8,0:0:0:0:
411,299,325906,1,8,0:0:0:0:
411,299,325978,1,0,0:0:0:0:
417,316,326050,1,0,0:0:0:0:
430,323,326122,1,8,0:0:0:0:
427,345,326194,1,0,0:0:0:0:
427,345,326266,1,8,0:0:0:0:
427,346,326339,1,8,0:0:0:0:
427,345,326411,1,0,0:0:0:0:
427,345,326483,1,8,0:0:0:0:
427,346,326555,1,0,0:0:0:0:
427,345,326627,1,0,0:0:0:0:
427,345,326699,1,8,0:0:0:0:
427,346,326771,1,0,0:0:0:0:
427,345,326843,1,8,0:0:0:0:
427,345,326915,1,8,0:0:0:0:
427,346,326988,1,0,0:0:0:0:
427,345,327060,1,8,0:0:0:0:
427,345,327132,1,0,0:0:0:0:
427,346,327204,1,0,0:0:0:0:
448,354,327276,1,8,0:0:0:0:
448,354,327348,1,8,0:0:0:0:
436,325,327420,1,0,0:0:0:0:
436,325,327492,1,8,0:0:0:0:
436,325,327564,1,0,0:0:0:0:
436,325,327637,1,0,0:0:0:0:
441,329,327709,1,8,0:0:0:0:
461,341,327781,1,0,0:0:0:0:
461,341,327853,1,8,0:0:0:0:
461,341,327925,1,8,0:0:0:0:
461,341,327997,1,0,0:0:0:0:
441,329,328069,1,0,0:0:0:0:
441,329,328141,1,8,0:0:0:0:
441,329,328214,1,8,0:0:0:0:
441,329,328286,1,0,0:0:0:0:
441,329,328358,1,0,0:0:0:0:
430,323,328430,1,8,0:0:0:0:
427,345,328502,1,0,0:0:0:0:
427,345,328574,1,8,0:0:0:0:
427,346,328646,1,8,0:0:0:0:
427,345,328718,1,0,0:0:0:0:
427,345,328790,1,8,0:0:0:0:
427,346,328863,1,0,0:0:0:0:
427,345,328935,1,0,0:0:0:0:
427,345,329007,1,8,0:0:0:0:
427,346,329079,1,0,0:0:0:0:
427,345,329151,1,8,0:0:0:0:
427,345,329223,1,8,0:0:0:0:
427,346,329295,1,0,0:0:0:0:
427,345,329367,1,8,0:0:0:0:
427,345,329439,1,0,0:0:0:0:
427,346,329512,1,0,0:0:0:0:
448,354,329584,1,8,0:0:0:0:
448,354,329656,1,8,0:0:0:0:
436,325,329728,1,0,0:0:0:0:
436,325,329800,1,8,0:0:0:0:
436,325,329872,1,0,0:0:0:0:
436,325,329944,1,0,0:0:0:0:
441,329,330016,1,8,0:0:0:0:
461,341,330089,1,0,0:0:0:0:
461,341,330161,1,8,0:0:0:0:
461,341,330233,1,8,0:0:0:0:
461,341,330305,1,0,0:0:0:0:
441,329,330377,1,0,0:0:0:0:
441,329,330449,1,8,0:0:0:0:
441,329,330521,1,8,0:0:0:0:
441,329,330593,1,0,0:0:0:0:
441,329,330665,1,0,0:0:0:0:
430,323,330738,1,8,0:0:0:0:
427,345,330810,1,0,0:0:0:0:
427,345,330882,1,8,0:0:0:0:
427,346,330954,1,8,0:0:0:0:
427,345,331026,1,0,0:0:0:0:
427,345,331098,1,8,0:0:0:0:
427,346,331170,1,0,0:0:0:0:
427,345,331242,1,0,0:0:0:0:
427,345,331314,1,8,0:0:0:0:
427,346,331387,1,0,0:0:0:0:
427,345,331459,1,8,0:0:0:0:
427,345,331531,1,8,0:0:0:0:
427,346,331603,1,0,0:0:0:0:
427,345,331675,1,8,0:0:0:0:
427,345,331747,1,0,0:0:0:0:
427,346,331819,1,0,0:0:0:0:
448,354,331891,1,8,0:0:0:0:
448,354,331964,1,8,0:0:0:0:
436,325,332036,1,0,0:0:0:0:
436,325,332108,1,8,0:0:0:0:
436,325,332180,1,0,0:0:0:0:
436,325,332252,1,0,0:0:0:0:
441,329,332324,1,8,0:0:0:0:
461,341,332396,1,0,0:0:0:0:
461,341,332468,1,8,0:0:0:0:
461,341,332540,1,8,0:0:0:0:
461,341,332613,1,0,0:0:0:0:
441,329,332685,1,0,0:0:0:0:
441,329,332757,1,8,0:0:0:0:
441,329,332829,1,8,0:0:0:0:
441,329,332901,1,0,0:0:0:0:
441,329,332973,1,0,0:0:0:0:
430,323,333045,1,8,0:0:0:0:
427,345,333117,1,0,0:0:0:0:
427,345,333189,1,8,0:0:0:0:
427,346,333262,1,8,0:0:0:0:
427,345,333334,1,0,0:0:0:0:
427,346,333406,1,8,0:0:0:0:
427,345,333478,1,0,0:0:0:0:
427,345,333550,1,0,0:0:0:0:
427,345,333622,1,8,0:0:0:0:
427,345,333694,1,0,0:0:0:0:
427,346,333766,1,8,0:0:0:0:
427,345,333839,1,8,0:0:0:0:
427,346,333911,1,0,0:0:0:0:
427,345,333983,1,8,0:0:0:0:
427,345,334055,1,0,0:0:0:0:
427,346,334127,1,0,0:0:0:0:
448,354,334199,1,8,0:0:0:0:
448,354,334271,1,8,0:0:0:0:
436,325,334343,1,0,0:0:0:0:
436,325,334415,1,8,0:0:0:0:
436,325,334488,1,0,0:0:0:0:
436,325,334560,1,0,0:0:0:0:
441,329,334632,1,8,0:0:0:0:
461,341,334704,1,0,0:0:0:0:
430,306,334776,1,8,0:0:0:0:
430,306,334848,1,8,0:0:0:0:
430,306,334920,1,8,0:0:0:0:
430,306,334992,1,8,0:0:0:0:
430,306,335064,1,0,0:0:0:0:
430,306,335209,1,0,0:0:0:0:
442,352,335353,1,8,0:0:0:0:
442,352,335425,1,8,0:0:0:0:
442,352,335497,1,0,0:0:0:0:
442,352,335569,1,0,0:0:0:0:
442,352,335641,1,8,0:0:0:0:
442,352,335786,1,8,0:0:0:0:
450,345,335930,1,0,0:0:0:0:
450,345,336002,1,0,0:0:0:0:
425,331,336074,1,8,0:0:0:0:
425,331,336146,1,0,0:0:0:0:
425,331,336218,1,8,0:0:0:0:
425,331,336290,1,8,0:0:0:0:
425,331,336363,1,0,0:0:0:0:
425,331,336435,1,0,0:0:0:0:
425,331,336507,1,8,0:0:0:0:
396,308,336651,1,8,0:0:0:0:
396,308,336723,1,8,0:0:0:0:
396,308,336795,1,0,0:0:0:0:
432,291,336939,1,0,0:0:0:0:
411,285,337084,1,0,0:0:0:0:
411,285,337156,1,0,0:0:0:0:
411,285,337228,1,8,0:0:0:0:
445,323,337300,1,8,0:0:0:0:
456,334,337372,1,0,0:0:0:0:
456,334,337444,1,0,0:0:0:0:
456,334,337516,1,8,0:0:0:0:
432,288,337661,1,8,0:0:0:0:
428,271,337733,1,0,0:0:0:0:
428,271,337805,1,8,0:0:0:0:
428,271,337877,1,8,0:0:0:0:
428,271,337949,1,0,0:0:0:0:
451,266,338021,1,0,0:0:0:0:
451,266,338093,1,8,0:0:0:0:
451,266,338165,1,8,0:0:0:0:
451,266,338238,1,0,0:0:0:0:
451,266,338310,1,8,0:0:0:0:
451,266,338382,1,0,0:0:0:0:
451,266,338454,1,0,0:0:0:0:
451,266,338526,1,8,0:0:0:0:
390,273,338598,1,0,0:0:0:0:
390,273,338670,1,0,0:0:0:0:
390,273,338742,1,0,0:0:0:0:
390,273,338814,1,8,0:0:0:0:
461,308,338887,1,8,0:0:0:0:
461,308,338959,1,0,0:0:0:0:
461,308,339031,1,8,0:0:0:0:
461,308,339103,1,0,0:0:0:0:
461,308,339175,1,0,0:0:0:0:
461,308,339247,1,8,0:0:0:0:
470,320,339391,1,0,0:0:0:0:
470,320,339464,1,0,0:0:0:0:
470,320,339536,1,8,0:0:0:0:
470,320,339608,1,0,0:0:0:0:
470,320,339680,1,8,0:0:0:0:
470,320,339752,1,8,0:0:0:0:
470,320,339824,1,0,0:0:0:0:
470,320,339896,1,0,0:0:0:0:
470,320,339968,1,12,0:0:0:0:
396,297,340113,1,0,0:0:0:0:
396,297,340257,1,8,0:0:0:0:
396,297,340401,1,8,0:0:0:0:
396,297,340473,1,8,0:0:0:0:
396,297,340545,1,0,0:0:0:0:
396,297,340689,1,8,0:0:0:0:
396,297,340834,1,0,0:0:0:0:
434,315,340978,1,0,0:0:0:0:
434,315,341050,1,0,0:0:0:0:
434,315,341122,1,8,0:0:0:0:
434,315,341194,1,8,0:0:0:0:
434,315,341266,1,8,0:0:0:0:
434,315,341339,1,8,0:0:0:0:
434,315,341411,1,0,0:0:0:0:
434,315,341483,1,0,0:0:0:0:
434,315,341555,1,8,0:0:0:0:
434,315,341627,1,8,0:0:0:0:
434,315,341699,1,8,0:0:0:0:
434,315,341771,1,8,0:0:0:0:
434,315,341843,1,0,0:0:0:0:
434,315,341915,1,0,0:0:0:0:
434,315,341988,1,8,0:0:0:0:
434,315,342060,1,8,0:0:0:0:
434,315,342132,1,8,0:0:0:0:
434,315,342204,1,8,0:0:0:0:
434,315,342276,1,0,0:0:0:0:
411,311,342420,1,8,0:0:0:0:
411,311,342564,1,0,0:0:0:0:
411,311,342709,1,8,0:0:0:0:
411,311,342781,1,8,0:0:0:0:
411,311,342853,1,0,0:0:0:0:
411,311,342997,1,8,0:0:0:0:
411,311,343141,1,0,0:0:0:0:
411,311,343286,1,0,0:0:0:0:
411,311,343430,1,12,0:0:0:0:
482,329,343574,1,0,0:0:0:0:
434,339,343718,1,0,0:0:0:0:
434,339,343863,1,8,0:0:0:0:
434,339,344007,1,4,0:0:0:0:
434,339,344295,1,12,0:0:0:0:
453,309,344584,1,8,0:0:0:0:
453,309,344656,1,8,0:0:0:0:
453,309,344728,1,0,0:0:0:0:
453,309,344800,1,0,0:0:0:0:
453,309,344872,1,8,0:0:0:0:
422,338,345016,1,8,0:0:0:0:
422,338,345089,1,8,0:0:0:0:
422,338,345161,1,0,0:0:0:0:
422,338,345233,1,0,0:0:0:0:
422,338,345305,1,8,0:0:0:0:
422,338,345377,1,0,0:0:0:0:
422,338,345449,1,8,0:0:0:0:
422,338,345521,1,8,0:0:0:0:
412,246,345593,1,0,0:0:0:0:
412,246,345665,1,0,0:0:0:0:
412,246,345738,1,8,0:0:0:0:
429,303,345810,1,0,0:0:0:0:
429,303,345882,1,8,0:0:0:0:
429,303,345954,1,8,0:0:0:0:
429,303,346026,1,0,0:0:0:0:
436,298,346098,1,0,0:0:0:0:
437,300,346170,1,8,0:0:0:0:
437,300,346242,1,0,0:0:0:0:
436,298,346314,1,8,0:0:0:0:
437,300,346387,1,8,0:0:0:0:
437,300,346459,1,0,0:0:0:0:
436,298,346531,1,8,0:0:0:0:
437,300,346603,1,0,0:0:0:0:
437,300,346675,1,0,0:0:0:0:
436,298,346747,1,8,0:0:0:0:
437,300,346819,1,0,0:0:0:0:
437,300,346891,1,8,0:0:0:0:
417,304,347036,1,0,0:0:0:0:
417,304,347180,1,8,0:0:0:0:
417,304,347324,1,8,0:0:0:0:
417,304,347396,1,8,0:0:0:0:
417,304,347468,1,0,0:0:0:0:
417,304,347613,1,8,0:0:0:0:
419,308,347757,1,0,0:0:0:0:
419,308,347901,1,0,0:0:0:0:
419,308,347973,1,0,0:0:0:0:
419,308,348045,1,8,0:0:0:0:
472,320,348238,1,0,0:0:0:0:
472,320,348430,1,8,0:0:0:0:
472,320,348622,1,0,0:0:0:0:
472,320,348814,1,0,0:0:0:0:
472,320,349007,1,12,0:0:0:0:
481,281,349199,1,12,0:0:0:0:
410,336,351038,1,0,0:0:0:0:
410,336,351109,1,0,0:0:0:0:
450,319,351180,1,8,0:0:0:0:
450,319,351250,1,8,0:0:0:0:
450,319,351321,1,0,0:0:0:0:
450,319,351392,1,0,0:0:0:0:
450,319,351463,1,12,0:0:0:0:
488,334,351604,1,0,0:0:0:0:
488,334,351746,1,0,0:0:0:0:
488,334,351816,1,0,0:0:0:0:
488,334,351887,1,8,0:0:0:0:
488,334,352029,1,0,0:0:0:0:
488,334,352170,1,8,0:0:0:0:
488,334,352241,1,0,0:0:0:0:
488,334,352312,1,8,0:0:0:0:
488,334,352382,1,8,0:0:0:0:
488,334,352453,1,0,0:0:0:0:
488,334,352524,1,0,0:0:0:0:
488,334,352595,1,8,0:0:0:0:
488,334,352736,1,0,0:0:0:0:
488,334,352878,1,0,0:0:0:0:
488,334,352949,1,0,0:0:0:0:
488,334,353019,1,8,0:0:0:0:
488,334,353161,1,0,0:0:0:0:
488,334,353302,1,0,0:0:0:0:
488,334,353373,1,0,0:0:0:0:
488,334,353444,1,8,0:0:0:0:
491,337,353515,1,8,0:0:0:0:
491,337,353585,1,0,0:0:0:0:
491,337,353656,1,0,0:0:0:0:
491,337,353727,1,8,0:0:0:0:
508,334,353868,1,0,0:0:0:0:
508,334,354010,1,0,0:0:0:0:
508,334,354081,1,0,0:0:0:0:
508,334,354151,1,8,0:0:0:0:
508,334,354293,1,0,0:0:0:0:
508,334,354434,1,8,0:0:0:0:
508,334,354505,1,0,0:0:0:0:
508,334,354576,1,8,0:0:0:0:
508,334,354647,1,8,0:0:0:0:
508,334,354717,1,0,0:0:0:0:
508,334,354788,1,0,0:0:0:0:
508,334,354859,1,8,0:0:0:0:
508,334,355000,1,0,0:0:0:0:
508,334,355142,1,0,0:0:0:0:
508,334,355213,1,0,0:0:0:0:
508,334,355283,1,8,0:0:0:0:
414,274,355425,1,0,0:0:0:0:
463,308,355496,1,8,0:0:0:0:
463,308,355637,1,8,0:0:0:0:
463,308,355708,1,0,0:0:0:0:
463,308,355849,1,0,0:0:0:0:
463,308,355991,1,12,0:0:0:0:
438,329,356132,1,0,0:0:0:0:
438,329,356274,1,0,0:0:0:0:
438,329,356345,1,0,0:0:0:0:
438,329,356415,1,8,0:0:0:0:
452,326,356486,1,0,0:0:0:0:
452,326,356557,1,8,0:0:0:0:
452,326,356628,1,8,0:0:0:0:
452,326,356699,1,0,0:0:0:0:
358,305,356769,1,0,0:0:0:0:
358,305,356840,1,8,0:0:0:0:
358,305,356911,1,8,0:0:0:0:
358,305,356982,1,0,0:0:0:0:
420,277,357052,1,0,0:0:0:0:
420,277,357123,1,8,0:0:0:0:
402,323,357265,1,0,0:0:0:0:
381,308,357406,1,0,0:0:0:0:
431,341,357477,1,0,0:0:0:0:
431,341,357548,1,8,0:0:0:0:
431,341,357618,1,8,0:0:0:0:
452,323,357689,1,0,0:0:0:0:
452,323,357760,1,8,0:0:0:0:
452,323,357831,1,0,0:0:0:0:
452,323,357901,1,0,0:0:0:0:
452,323,357972,1,8,0:0:0:0:
452,323,358043,1,8,0:0:0:0:
452,323,358114,1,0,0:0:0:0:
452,323,358184,1,0,0:0:0:0:
452,323,358255,1,8,0:0:0:0:
349,318,358397,1,0,0:0:0:0:
349,318,358538,1,0,0:0:0:0:
349,318,358609,1,0,0:0:0:0:
349,318,358680,1,8,0:0:0:0:
349,318,358821,1,0,0:0:0:0:
349,318,358963,1,8,0:0:0:0:
349,318,359033,1,0,0:0:0:0:
349,318,359104,1,8,0:0:0:0:
349,318,359175,1,8,0:0:0:0:
349,318,359246,1,0,0:0:0:0:
349,318,359387,1,8,0:0:0:0:
349,318,359529,1,0,0:0:0:0:
349,318,359670,1,0,0:0:0:0:
349,318,359741,1,0,0:0:0:0:
349,318,359812,1,8,0:0:0:0:
405,316,359953,1,0,0:0:0:0:
439,332,360095,1,0,0:0:0:0:
439,332,360236,1,12,0:0:0:0:
439,332,360378,1,12,0:0:0:0:
439,332,360519,1,12,0:0:0:0:
455,318,360661,1,0,0:0:0:0:
455,318,360732,1,0,0:0:0:0:
455,318,360802,1,8,0:0:0:0:
420,322,360944,1,8,0:0:0:0:
433,320,361085,1,8,0:0:0:0:
430,344,361156,1,8,0:0:0:0:
430,344,361227,1,0,0:0:0:0:
430,344,361298,1,0,0:0:0:0:
430,344,361368,1,8,0:0:0:0:
441,318,361510,1,0,0:0:0:0:
407,307,361651,1,8,0:0:0:0:
407,307,361793,1,0,0:0:0:0:
407,307,361864,1,0,0:0:0:0:
407,307,361934,1,8,0:0:0:0:
435,323,362005,1,0,0:0:0:0:
435,323,362076,1,8,0:0:0:0:
402,302,362147,1,8,0:0:0:0:
423,315,362217,1,0,0:0:0:0:
423,315,362288,1,8,0:0:0:0:
423,315,362359,1,0,0:0:0:0:
423,315,362430,1,0,0:0:0:0:
413,312,362500,1,8,0:0:0:0:
412,311,362571,1,0,0:0:0:0:
412,311,362642,1,8,0:0:0:0:
413,312,362713,1,8,0:0:0:0:
413,312,362783,1,0,0:0:0:0:
441,290,362925,1,0,0:0:0:0:
441,290,362996,1,0,0:0:0:0:
446,292,363066,1,8,0:0:0:0:
446,292,363208,1,8,0:0:0:0:
446,292,363279,1,8,0:0:0:0:
446,292,363349,1,0,0:0:0:0:
446,292,363491,1,0,0:0:0:0:
446,292,363562,1,0,0:0:0:0:
446,292,363632,1,8,0:0:0:0:
446,292,363703,1,0,0:0:0:0:
446,292,363774,1,8,0:0:0:0:
446,292,363845,1,8,0:0:0:0:
446,292,363915,1,0,0:0:0:0:
446,292,364057,1,0,0:0:0:0:
446,292,364128,1,0,0:0:0:0:
446,292,364199,1,8,0:0:0:0:
446,292,364340,1,8,0:0:0:0:
446,292,364411,1,8,0:0:0:0:
446,292,364482,1,0,0:0:0:0:
446,292,364552,1,8,0:0:0:0:
446,292,364623,1,0,0:0:0:0:
446,292,364694,1,0,0:0:0:0:
446,292,364765,1,8,0:0:0:0:
446,292,364835,1,8,0:0:0:0:
446,292,364906,1,0,0:0:0:0:
446,292,364977,1,0,0:0:0:0:
446,292,365048,1,12,0:0:0:0:
437,328,365331,1,0,0:0:0:0:
461,252,365401,1,0,0:0:0:0:
461,252,365472,1,8,0:0:0:0:
437,328,365543,1,0,0:0:0:0:
437,328,365614,1,8,0:0:0:0:
461,252,365684,1,8,0:0:0:0:
461,252,365755,1,0,0:0:0:0:
437,328,365826,1,8,0:0:0:0:
437,328,365897,1,0,0:0:0:0:
461,252,365967,1,0,0:0:0:0:
461,252,366038,1,8,0:0:0:0:
407,275,366109,1,0,0:0:0:0:
407,275,366180,1,8,0:0:0:0:
407,275,366250,1,8,0:0:0:0:
407,275,366321,1,0,0:0:0:0:
407,275,366392,1,0,0:0:0:0:
407,275,366463,1,8,0:0:0:0:
407,275,366533,1,0,0:0:0:0:
407,275,366604,1,8,0:0:0:0:
407,275,366675,1,8,0:0:0:0:
374,243,366746,1,8,0:0:0:0:
374,243,366816,1,8,0:0:0:0:
374,243,366887,1,0,0:0:0:0:
407,275,366958,1,0,0:0:0:0:
374,243,367029,1,8,0:0:0:0:
431,277,367099,1,0,0:0:0:0:
432,268,367170,1,8,0:0:0:0:
432,268,367241,1,8,0:0:0:0:
432,268,367312,1,0,0:0:0:0:
445,294,367382,1,8,0:0:0:0:
445,294,367453,1,0,0:0:0:0:
445,294,367524,1,0,0:0:0:0:
445,294,367595,1,8,0:0:0:0:
445,294,367665,1,0,0:0:0:0:
445,294,367736,1,8,0:0:0:0:
445,294,367807,1,8,0:0:0:0:
452,306,367878,1,0,0:0:0:0:
452,306,367949,1,8,0:0:0:0:
452,306,368019,1,0,0:0:0:0:
452,306,368090,1,0,0:0:0:0:
452,306,368161,1,8,0:0:0:0:
452,306,368232,1,8,0:0:0:0:
452,306,368302,1,0,0:0:0:0:
452,306,368373,1,0,0:0:0:0:
452,306,368444,1,8,0:0:0:0:
456,307,368515,1,8,0:0:0:0:
456,307,368585,1,0,0:0:0:0:
456,307,368656,1,0,0:0:0:0:
456,307,368727,1,8,0:0:0:0:
456,307,368798,1,0,0:0:0:0:
456,307,368868,1,8,0:0:0:0:
456,307,368939,1,8,0:0:0:0:
456,307,369010,1,0,0:0:0:0:
456,307,369151,1,0,0:0:0:0:
456,307,369293,1,12,0:0:0:0:
425,332,369576,1,4,0:0:0:0:
434,334,369859,1,8,0:0:0:0:
434,334,369930,1,0,0:0:0:0:
434,334,370000,1,8,0:0:0:0:
434,334,370071,1,8,0:0:0:0:
434,334,370142,1,0,0:0:0:0:
434,334,370213,1,8,0:0:0:0:
434,334,370283,1,0,0:0:0:0:
434,334,370354,1,0,0:0:0:0:
434,334,370425,1,8,0:0:0:0:
433,309,370496,1,8,0:0:0:0:
433,309,370566,1,0,0:0:0:0:
433,309,370637,1,0,0:0:0:0:
433,309,370708,1,8,0:0:0:0:
433,309,370779,1,0,0:0:0:0:
433,309,370849,1,0,0:0:0:0:
433,309,370920,1,8,0:0:0:0:
433,309,370991,1,0,0:0:0:0:
441,332,371062,1,0,0:0:0:0:
433,309,371132,1,8,0:0:0:0:
444,335,371203,1,0,0:0:0:0:
444,335,371274,1,8,0:0:0:0:
444,335,371345,1,8,0:0:0:0:
444,335,371415,1,0,0:0:0:0:
444,335,371486,1,0,0:0:0:0:
444,335,371557,1,8,0:0:0:0:
444,335,371628,1,8,0:0:0:0:
453,336,371699,1,0,0:0:0:0:
453,336,371769,1,0,0:0:0:0:
453,336,371840,1,8,0:0:0:0:
498,350,371982,1,0,0:0:0:0:
498,350,372052,1,0,0:0:0:0:
498,350,372123,1,8,0:0:0:0:
473,322,372194,1,8,0:0:0:0:
473,322,372265,1,0,0:0:0:0:
473,322,372335,1,0,0:0:0:0:
473,322,372406,1,8,0:0:0:0:
482,333,372548,1,0,0:0:0:0:
486,333,372618,1,0,0:0:0:0:
482,333,372689,1,8,0:0:0:0:
486,333,372831,1,0,0:0:0:0:
487,298,372972,1,8,0:0:0:0:
487,298,373066,1,8,0:0:0:0:
487,298,373161,1,0,0:0:0:0:
487,298,373255,1,8,0:0:0:0:
487,298,373349,1,0,0:0:0:0:
487,298,373444,1,0,0:0:0:0:
487,298,373538,1,8,0:0:0:0:
382,318,373632,1,0,0:0:0:0:
382,318,373727,1,8,0:0:0:0:
438,300,373821,1,8,0:0:0:0:
438,300,373915,1,0,0:0:0:0:
382,318,374010,1,8,0:0:0:0:
457,296,374104,1,0,0:0:0:0:
414,309,374203,1,8,0:0:0:0:
441,324,374302,1,8,0:0:0:0:
441,324,374401,1,8,0:0:0:0:
441,324,374500,1,0,0:0:0:0:
452,329,374599,1,8,0:0:0:0:
452,329,374698,1,8,0:0:0:0:
452,329,374797,1,8,0:0:0:0:
452,329,374896,1,0,0:0:0:0:
452,329,374995,1,8,0:0:0:0:
452,329,375094,1,8,0:0:0:0:
452,329,375193,1,8,0:0:0:0:
452,329,375292,1,0,0:0:0:0:
392,328,375465,1,8,0:0:0:0:
392,328,375539,1,8,0:0:0:0:
374,312,375613,1,8,0:0:0:0:
432,278,375688,1,0,0:0:0:0:
484,341,375787,1,0,0:0:0:0:
484,341,375886,1,8,0:0:0:0:
484,341,375985,1,0,0:0:0:0:
482,287,376084,1,8,0:0:0:0:
482,287,376183,1,8,0:0:0:0:
482,287,376282,1,0,0:0:0:0:
473,313,376381,1,8,0:0:0:0:
473,313,376480,1,8,0:0:0:0:
473,313,376576,1,0,0:0:0:0:
477,311,376672,1,0,0:0:0:0:
477,311,376768,1,0,0:0:0:0:
477,311,376864,1,12,0:0:0:0:
256,192,376912,12,0,400061,0:0:0:0:
