osu file format v14

[General]
AudioFilename: audio.mp3
AudioLeadIn: 0
PreviewTime: -1
Countdown: 0
SampleSet: None
StackLeniency: 0.7
Mode: 0
LetterboxInBreaks: 0
WidescreenStoryboard: 0

[Editor]
Bookmarks: 20666,21679,42079,43275,44475,45675,45975,46275,46875,48075,49275,50475,52279
DistanceSpacing: 1.8
BeatDivisor: 4
GridSize: 8
TimelineZoom: 1.9

[Metadata]
Title:Charging the Void
TitleUnicode:Charging the Void
Artist:Vektor
ArtistUnicode:Vektor
Creator:Zedriv
Version:no u
Source:
Tags:deathmetal metal vektor void stream jump
BeatmapID:1616521
BeatmapSetID:768653

[Difficulty]
HPDrainRate:8
CircleSize:4
OverallDifficulty:9
ApproachRate:10
SliderMultiplier:2
SliderTickRate:1

[Events]
//Background and Video events
0,0,"the souls.jpg",0,0
//Break Periods
//Storyboard Layer 0 (Background)
//Storyboard Layer 1 (Fail)
//Storyboard Layer 2 (Pass)
//Storyboard Layer 3 (Foreground)
//Storyboard Sound Samples

[TimingPoints]
19879,300,4,1,0,100,1,0
22804,-100,4,1,0,5,0,0
22879,-100,4,1,0,100,0,0
33529,-50,4,1,0,100,0,0
34555,300,4,1,0,100,1,0
34555,-50,4,1,0,100,0,0
37275,300,4,1,0,100,1,0
37275,-100,4,1,0,100,0,0
37575,-66.6666666666667,4,1,0,100,0,0
37875,-100,4,1,0,100,0,0

[HitObjects]
281,127,20666,5,0,0:0:0:0:
256,192,20741,2,0,L|245:223,1,25
166,32,20929,1,0,0:0:0:0:
290,296,21079,1,0,0:0:0:0:
345,28,21229,1,0,0:0:0:0:
139,211,21379,1,0,0:0:0:0:
424,193,21529,1,0,0:0:0:0:
256,192,21679,12,0,22804,0:0:0:0:
184,328,22879,5,0,0:0:0:0:
208,284,22954,1,0,0:0:0:0:
199,234,23029,1,0,0:0:0:0:
133,49,23179,5,0,0:0:0:0:
316,279,23329,2,0,L|350:319,1,50
246,50,23479,1,0,0:0:0:0:
422,279,23629,1,0,0:0:0:0:
348,148,23779,5,0,0:0:0:0:
336,99,23854,1,0,0:0:0:0:
355,52,23929,1,0,0:0:0:0:
316,279,24079,1,0,0:0:0:0:
231,144,24229,5,0,0:0:0:0:
222,94,24304,1,0,0:0:0:0:
246,50,24379,1,0,0:0:0:0:
196,284,24529,5,0,0:0:0:0:
400,67,24679,1,0,0:0:0:0:
234,313,24829,5,0,0:0:0:0:
202,351,24904,1,0,0:0:0:0:
152,354,24979,1,0,0:0:0:0:
108,329,25054,1,0,0:0:0:0:
91,281,25129,1,0,0:0:0:0:
102,232,25204,1,0,0:0:0:0:
143,203,25279,1,0,0:0:0:0:
446,161,25429,5,0,0:0:0:0:
143,203,25579,1,0,0:0:0:0:
102,232,25654,1,0,0:0:0:0:
91,281,25729,1,0,0:0:0:0:
411,105,25879,5,0,0:0:0:0:
122,279,26029,1,0,0:0:0:0:
452,176,26179,1,0,0:0:0:0:
166,346,26329,1,0,0:0:0:0:
498,246,26479,1,0,0:0:0:0:
143,203,26629,5,0,0:0:0:0:
401,40,26779,1,0,0:0:0:0:
143,203,26929,1,0,0:0:0:0:
401,40,27079,1,0,0:0:0:0:
143,203,27229,1,0,0:0:0:0:
401,40,27379,1,0,0:0:0:0:
143,203,27529,1,0,0:0:0:0:
113,243,27604,5,0,0:0:0:0:
113,292,27679,1,0,0:0:0:0:
140,333,27754,1,0,0:0:0:0:
188,342,27829,1,0,0:0:0:0:
429,316,27979,1,0,0:0:0:0:
160,320,28129,5,0,0:0:0:0:
110,328,28204,1,0,0:0:0:0:
65,350,28279,1,0,0:0:0:0:
428,197,28429,1,0,0:0:0:0:
159,200,28579,5,0,0:0:0:0:
109,198,28654,1,0,0:0:0:0:
59,198,28729,1,0,0:0:0:0:
427,88,28879,1,0,0:0:0:0:
160,81,29029,5,0,0:0:0:0:
110,75,29104,1,0,0:0:0:0:
66,50,29179,1,0,0:0:0:0:
427,88,29329,1,0,0:0:0:0:
71,197,29479,1,0,0:0:0:0:
428,197,29629,5,0,0:0:0:0:
466,229,29704,1,0,0:0:0:0:
478,277,29779,1,0,0:0:0:0:
456,322,29854,1,0,0:0:0:0:
407,335,29929,1,0,0:0:0:0:
361,315,30004,1,0,0:0:0:0:
341,268,30079,1,0,0:0:0:0:
315,171,30229,5,0,0:0:0:0:
290,127,30304,1,0,0:0:0:0:
244,105,30379,1,0,0:0:0:0:
56,169,30529,1,0,0:0:0:0:
340,215,30679,5,0,0:0:0:0:
315,171,30754,1,0,0:0:0:0:
269,149,30829,1,0,0:0:0:0:
56,169,30979,1,0,0:0:0:0:
365,259,31129,5,0,0:0:0:0:
340,215,31204,1,0,0:0:0:0:
294,193,31279,1,0,0:0:0:0:
56,169,31429,5,0,0:0:0:0:
384,295,31579,1,0,0:0:0:0:
73,240,31729,1,0,0:0:0:0:
407,352,31879,1,0,0:0:0:0:
86,306,32029,2,0,L|30:298,2,50
376,260,32329,5,0,0:0:0:0:
195,52,32479,1,0,0:0:0:0:
86,306,32629,1,0,0:0:0:0:
376,260,32779,1,0,0:0:0:0:
195,52,32929,1,0,0:0:0:0:
86,306,33079,2,0,L|30:298,2,50
376,327,33379,1,0,0:0:0:0:
86,306,33529,6,0,P|44:217|47:97,1,200
376,260,33829,2,0,P|418:171|386:52,1,200
87,238,34129,2,0,P|45:149|99:75,1,200
146,58,34354,1,0,0:0:0:0:
195,56,34429,1,0,0:0:0:0:
428,96,34555,5,0,0:0:0:0:
99,74,34855,2,0,P|56:163|69:318,1,250
389,120,35155,2,0,P|430:208|413:305,1,200
377,341,35380,1,0,0:0:0:0:
329,355,35455,1,0,0:0:0:0:
279,349,35530,1,0,0:0:0:0:
237,321,35605,1,0,0:0:0:0:
102,189,35755,5,0,0:0:0:0:
454,89,35905,1,0,0:0:0:0:
152,290,36055,1,0,0:0:0:0:
442,237,36205,5,0,0:0:0:0:
137,63,36355,1,0,0:0:0:0:
374,321,36505,1,0,0:0:0:0:
68,138,36655,1,0,0:0:0:0:
459,111,36805,5,0,0:0:0:0:
84,324,36955,1,0,0:0:0:0:
173,169,37275,6,0,L|252:97,1,100
199,235,37575,6,0,L|341:105,1,150.000005722046
258,273,37875,5,0,0:0:0:0:
295,239,37950,1,0,0:0:0:0:
332,206,38025,1,0,0:0:0:0:
416,50,38175,5,0,0:0:0:0:
71,160,38325,1,0,0:0:0:0:
416,50,38475,1,0,0:0:0:0:
71,160,38625,1,0,0:0:0:0:
416,50,38775,1,0,0:0:0:0:
71,160,38925,1,0,0:0:0:0:
416,50,39075,2,0,L|464:34,2,50
75,164,39375,1,0,0:0:0:0:
404,293,39675,5,0,0:0:0:0:
191,55,39825,1,0,0:0:0:0:
224,358,39975,1,0,0:0:0:0:
380,101,40125,1,0,0:0:0:0:
106,227,40275,1,0,0:0:0:0:
76,267,40350,1,0,0:0:0:0:
62,315,40425,1,0,0:0:0:0:
442,265,40575,5,0,0:0:0:0:
55,159,40725,1,0,0:0:0:0:
436,156,40875,1,0,0:0:0:0:
64,268,41025,1,0,0:0:0:0:
442,265,41175,1,0,0:0:0:0:
55,159,41325,1,0,0:0:0:0:
436,156,41475,1,0,0:0:0:0:
64,268,41625,1,0,0:0:0:0:
442,265,41775,1,0,0:0:0:0:
215,234,42075,5,0,0:0:0:0:
182,220,42150,1,0,0:0:0:0:
156,196,42225,1,0,0:0:0:0:
141,164,42300,1,0,0:0:0:0:
136,129,42375,1,0,0:0:0:0:
146,95,42450,1,0,0:0:0:0:
172,72,42525,1,0,0:0:0:0:
204,59,42600,1,0,0:0:0:0:
238,63,42675,1,0,0:0:0:0:
266,83,42750,1,0,0:0:0:0:
275,116,42825,1,0,0:0:0:0:
265,149,42900,1,0,0:0:0:0:
252,181,42975,1,0,0:0:0:0:
246,215,43050,1,0,0:0:0:0:
250,249,43125,1,0,0:0:0:0:
264,281,43200,1,0,0:0:0:0:
287,306,43275,5,0,0:0:0:0:
258,315,43350,1,0,0:0:0:0:
228,309,43425,1,0,0:0:0:0:
202,293,43500,1,0,0:0:0:0:
179,273,43575,1,0,0:0:0:0:
161,248,43650,1,0,0:0:0:0:
138,228,43725,1,0,0:0:0:0:
109,217,43800,1,0,0:0:0:0:
81,229,43875,1,0,0:0:0:0:
62,252,43950,1,0,0:0:0:0:
58,281,44025,1,0,0:0:0:0:
70,308,44100,1,0,0:0:0:0:
91,328,44175,1,0,0:0:0:0:
119,337,44250,1,0,0:0:0:0:
148,338,44325,1,0,0:0:0:0:
176,328,44400,1,0,0:0:0:0:
199,318,44475,5,0,0:0:0:0:
176,307,44550,1,0,0:0:0:0:
157,290,44625,1,0,0:0:0:0:
143,269,44700,1,0,0:0:0:0:
136,244,44775,1,0,0:0:0:0:
139,219,44850,1,0,0:0:0:0:
153,198,44925,1,0,0:0:0:0:
173,183,45000,1,0,0:0:0:0:
193,168,45075,1,0,0:0:0:0:
206,146,45150,1,0,0:0:0:0:
214,122,45225,1,0,0:0:0:0:
225,100,45300,1,0,0:0:0:0:
242,82,45375,1,0,0:0:0:0:
264,70,45450,1,0,0:0:0:0:
288,65,45525,1,0,0:0:0:0:
312,66,45600,1,0,0:0:0:0:
335,74,45675,5,0,0:0:0:0:
316,103,45750,1,0,0:0:0:0:
309,137,45825,1,0,0:0:0:0:
314,171,45900,1,0,0:0:0:0:
332,200,45975,5,0,0:0:0:0:
287,196,46050,1,0,0:0:0:0:
245,179,46125,1,0,0:0:0:0:
212,148,46200,1,0,0:0:0:0:
190,108,46275,5,0,0:0:0:0:
242,124,46350,1,0,0:0:0:0:
282,161,46425,1,0,0:0:0:0:
302,211,46500,1,0,0:0:0:0:
300,265,46575,1,0,0:0:0:0:
272,312,46650,1,0,0:0:0:0:
220,331,46725,1,0,0:0:0:0:
167,316,46800,1,0,0:0:0:0:
129,275,46875,5,0,0:0:0:0:
197,259,46950,1,0,0:0:0:0:
265,275,47025,1,0,0:0:0:0:
325,309,47100,1,0,0:0:0:0:
391,329,47175,1,0,0:0:0:0:
458,310,47250,1,0,0:0:0:0:
486,246,47325,1,0,0:0:0:0:
480,176,47400,1,0,0:0:0:0:
419,141,47475,1,0,0:0:0:0:
349,141,47550,1,0,0:0:0:0:
287,174,47625,1,0,0:0:0:0:
239,225,47700,1,0,0:0:0:0:
178,259,47775,1,0,0:0:0:0:
108,249,47850,1,0,0:0:0:0:
64,194,47925,1,0,0:0:0:0:
71,124,48000,1,0,0:0:0:0:
124,78,48075,5,0,0:0:0:0:
132,157,48150,1,0,0:0:0:0:
171,226,48225,1,0,0:0:0:0:
233,275,48300,1,0,0:0:0:0:
312,287,48375,1,0,0:0:0:0:
379,244,48450,1,0,0:0:0:0:
407,169,48525,1,0,0:0:0:0:
376,95,48600,1,0,0:0:0:0:
301,67,48675,1,0,0:0:0:0:
222,83,48750,1,0,0:0:0:0:
188,155,48825,1,0,0:0:0:0:
213,230,48900,1,0,0:0:0:0:
191,306,48975,1,0,0:0:0:0:
116,334,49050,1,0,0:0:0:0:
53,284,49125,1,0,0:0:0:0:
42,204,49200,1,0,0:0:0:0:
88,139,49275,5,0,0:0:0:0:
113,225,49350,1,0,0:0:0:0:
185,279,49425,1,0,0:0:0:0:
272,301,49500,1,0,0:0:0:0:
361,295,49575,1,0,0:0:0:0:
424,231,49650,1,0,0:0:0:0:
440,142,49725,1,0,0:0:0:0:
391,66,49800,1,0,0:0:0:0:
301,78,49875,1,0,0:0:0:0:
259,158,49950,1,0,0:0:0:0:
245,246,50025,1,0,0:0:0:0:
187,314,50100,1,0,0:0:0:0:
100,288,50175,1,0,0:0:0:0:
70,202,50250,1,0,0:0:0:0:
106,119,50325,1,0,0:0:0:0:
180,67,50400,1,0,0:0:0:0:
268,50,50475,5,0,0:0:0:0:
441,90,50625,2,0,L|497:105,2,50
127,215,50925,1,0,0:0:0:0:
390,50,51075,1,0,0:0:0:0:
343,341,51225,1,0,0:0:0:0:
132,64,51375,1,0,0:0:0:0:
112,319,51525,1,0,0:0:0:0:
386,116,51675,1,0,0:0:0:0:
42,187,51825,1,0,0:0:0:0:
407,281,51975,1,0,0:0:0:0:
