osu file format v14

[General]
AudioFilename: audio.mp3
AudioLeadIn: 0
PreviewTime: 104454
Countdown: 1
SampleSet: Normal
StackLeniency: 0.7
Mode: 0
LetterboxInBreaks: 0
WidescreenStoryboard: 0

[Editor]
DistanceSpacing: 0.1
BeatDivisor: 4
GridSize: 4
TimelineZoom: 1

[Metadata]
Title:Overthrow
TitleUnicode:Overthrow
Artist:Veil of Maya
ArtistUnicode:Veil of Maya
Creator:Flutternye
Version:Overthrown
Source:
Tags:Metal
BeatmapID:1464954
BeatmapSetID:692324

[Difficulty]
HPDrainRate:6
CircleSize:4.2
OverallDifficulty:8
ApproachRate:9.5
SliderMultiplier:2.8
SliderTickRate:1

[Events]
//Background and Video events
0,0,"Konachan.com - 119781 black_rock_shooter chain dress green_eyes horns scythe skull takanashi_yomi tsunekun weapon wings.jpg",0,0
//Break Periods
2,90637,103927
2,162462,169620
2,178446,205094
//Storyboard Layer 0 (Background)
//Storyboard Layer 1 (Fail)
//Storyboard Layer 2 (Pass)
//Storyboard Layer 3 (Foreground)
//Storyboard Sound Samples

[TimingPoints]
-657,291.970802919708,4,1,0,100,1,0
72,-100,4,3,1,40,0,0
21970,-133.333333333333,4,3,1,40,0,0
23138,-100,4,3,1,40,0,0
30875,-100,4,1,1,60,0,0
32627,-200,4,1,1,60,0,0
32773,-100,4,1,1,60,0,0
34671,-200,4,1,1,60,0,0
34817,-100,4,1,1,60,0,0
44890,-133.333333333333,4,3,1,40,0,1
75547,-100,4,3,1,40,0,0
104452,-100,4,3,1,40,0,1
106204,-200,4,3,1,40,0,1
106496,-100,4,3,1,40,0,1
107518,-200,4,3,1,40,0,1
107810,-100,4,3,1,40,0,1
110291,-200,4,3,1,40,0,1
110583,-100,4,3,1,40,0,1
118467,-100,4,3,1,40,0,0
120218,-100,4,3,1,40,0,0
133795,-200,4,3,1,40,0,0
134233,-100,4,3,1,40,0,0
134525,-133.333333333333,4,3,1,40,0,1
162262,437.956204379562,4,3,1,100,1,0
162846,-100,4,3,1,40,0,0
172772,-66.6666666666667,4,3,1,40,0,0

[HitObjects]
216,112,72,6,0,L|240:192,1,70
280,328,218,1,8,0:0:0:0:
456,200,364,1,0,0:0:0:0:
240,248,510,6,0,P|160:248|112:216,1,140
368,104,802,1,0,0:0:0:0:
240,248,948,1,0,0:0:0:0:
72,112,1094,6,0,B|112:136|120:168|120:168|152:168|192:208,1,140,0|8,0:0|0:0,0:0:0:0:
336,224,1386,2,0,B|296:200|288:168|288:168|256:168|216:128,1,140,0|8,0:0|0:0,0:0:0:0:
144,80,1678,1,0,0:0:0:0:
232,40,1824,1,8,0:0:0:0:
328,40,1970,6,0,P|408:96|400:152,1,140,0|8,0:0|0:0,0:0:0:0:
296,104,2262,2,0,P|224:168|136:144,1,140,0|8,0:0|0:0,0:0:0:0:
336,224,2554,2,0,P|416:232|408:272,1,140,0|8,0:0|0:0,0:0:0:0:
336,328,2846,5,0,0:0:0:0:
232,304,2992,1,8,0:0:0:0:
160,240,3138,2,0,B|120:184|120:184|112:112,1,140,0|8,0:0|0:0,0:0:0:0:
192,157,3430,2,0,B|216:93|216:93|304:29,1,140,0|8,0:0|0:0,0:0:0:0:
232,232,3722,6,0,P|288:296|336:272,1,140,0|8,0:0|0:0,0:0:0:0:
344,264,3941,1,0,0:0:0:0:
352,248,4014,1,0,0:0:0:0:
384,48,4160,1,8,0:0:0:0:
368,80,4306,2,0,B|352:104|352:104|280:152|280:152|256:200,1,140,0|8,0:0|0:0,0:0:0:0:
272,176,4744,5,8,0:0:0:0:
344,168,4890,2,0,P|304:240|232:240,1,140,0|8,0:0|0:0,0:0:0:0:
200,184,5182,2,0,P|272:248|344:192,1,140,0|8,0:0|0:0,0:0:0:0:
408,176,5474,2,0,B|440:136|488:112|488:112|440:112|416:104,1,140,0|8,0:0|0:0,0:0:0:0:
312,88,5766,5,0,0:0:0:0:
264,88,5839,1,0,0:0:0:0:
224,104,5912,1,8,0:0:0:0:
64,216,6058,2,0,P|176:200|216:168,1,140,0|8,0:0|0:0,0:0:0:0:
336,232,6350,2,0,P|224:248|168:288,1,140,0|8,0:0|0:0,0:0:0:0:
128,312,6642,5,0,0:0:0:0:
32,288,6788,1,8,0:0:0:0:
0,208,6934,1,0,0:0:0:0:
32,128,7080,1,8,0:0:0:0:
88,192,7226,6,0,P|136:264|192:248,1,140,0|8,0:0|0:0,0:0:0:0:
280,160,7518,2,0,P|192:120|152:152,1,140,0|8,0:0|0:0,0:0:0:0:
216,188,7810,2,0,P|280:232|336:204,1,140,0|8,0:0|0:0,0:0:0:0:
384,168,8102,5,0,0:0:0:0:
384,80,8248,1,8,0:0:0:0:
312,32,8394,2,0,P|224:56|224:112,1,140,0|8,0:0|0:0,0:0:0:0:
248,176,8686,2,0,P|288:256|368:304,1,140,0|8,0:0|0:0,0:0:0:0:
160,128,8978,2,0,P|184:216|160:296,1,140,0|8,0:0|0:0,0:0:0:0:
120,344,9270,2,0,P|96:256|120:176,1,140,0|8,0:0|0:0,0:0:0:0:
160,128,9561,5,0,0:0:0:0:
264,96,9707,1,8,0:0:0:0:
368,152,9853,1,0,0:0:0:0:
256,224,9999,1,8,0:0:0:0:
368,152,10145,2,0,P|392:232|352:296,1,140,0|8,0:0|0:0,0:0:0:0:
208,312,10437,6,0,B|168:256|168:256|152:184,1,140,0|8,0:0|0:0,0:0:0:0:
176,48,10729,2,0,B|216:112|216:112|232:200,1,140,0|8,0:0|0:0,0:0:0:0:
296,304,11021,2,0,B|312:224|312:224|304:120,1,140,0|8,0:0|0:0,0:0:0:0:
288,40,11313,2,0,L|272:112,1,70
272,108,11751,5,8,0:0:0:0:
224,240,11897,1,0,0:0:0:0:
128,112,12043,1,8,0:0:0:0:
56,232,12189,1,0,0:0:0:0:
208,176,12335,1,8,0:0:0:0:
56,232,12481,6,0,B|88:248|104:280|104:280|152:280|192:304,1,140,0|8,0:0|0:0,0:0:0:0:
272,320,12773,2,0,P|344:288|296:240,1,140,0|8,0:0|0:0,0:0:0:0:
244,174,13065,2,0,B|212:158|196:126|196:126|148:126|108:102,1,140,0|8,0:0|0:0,0:0:0:0:
272,104,13357,2,0,P|320:192|288:248,1,140,0|8,0:0|0:0,0:0:0:0:
248,320,13649,5,0,0:0:0:0:
244,174,13795,1,8,0:0:0:0:
88,88,13941,1,0,0:0:0:0:
80,208,14087,1,8,0:0:0:0:
144,24,14233,6,0,L|240:176,1,140,0|8,0:0|0:0,0:0:0:0:
128,152,14525,2,0,L|208:280,1,140,0|8,0:0|0:0,0:0:0:0:
88,88,14817,1,0,0:0:0:0:
280,96,15109,6,0,B|280:184|280:184|256:256,1,140
344,216,15401,2,0,B|328:272|328:272|328:368,1,140
384,152,15693,1,0,0:0:0:0:
368,24,15985,6,0,L|272:176,1,140,4|0,0:0|0:0,0:0:0:0:
384,152,16277,2,0,L|304:280,1,140
424,88,16569,1,0,0:0:0:0:
216,96,16715,1,0,0:0:0:0:
120,224,16861,6,0,P|72:296|40:352,1,140,4|8,0:0|0:0,0:0:0:0:
176,304,17153,2,0,P|240:208|264:168,1,140,0|8,0:0|0:0,0:0:0:0:
304,112,17445,5,0,0:0:0:0:
392,72,17591,1,8,0:0:0:0:
448,152,17737,2,0,P|352:192|328:248,1,140,0|8,0:0|0:0,0:0:0:0:
288,304,18029,2,0,P|216:344|152:312,1,140,0|8,0:0|0:0,0:0:0:0:
216,272,18321,2,0,P|168:200|184:144,1,140,0|8,0:0|0:0,0:0:0:0:
216,80,18613,1,0,0:0:0:0:
240,192,18759,1,8,0:0:0:0:
264,328,18905,6,0,B|296:304|288:256|288:256|328:208|312:160|312:160|352:128|328:64,1,280
256,16,19342,5,8,0:0:0:0:
264,104,19488,1,0,0:0:0:0:
240,192,19634,1,8,0:0:0:0:
184,256,19780,1,0,0:0:0:0:
112,304,19926,2,0,B|40:320|40:320|-32:320,1,140,8|0,0:0|0:0,0:0:0:0:
64,200,20218,2,0,B|136:176|136:176|240:176,1,140,8|0,0:0|0:0,0:0:0:0:
288,176,20510,5,8,0:0:0:0:
376,184,20656,1,0,0:0:0:0:
448,232,20802,2,0,B|400:288|400:288|360:288|336:320,1,140,8|0,0:0|0:0,0:0:0:0:
232,312,21094,2,0,B|208:272|168:272|168:272|96:184,1,140,8|0,0:0|0:0,0:0:0:0:
136,104,21386,2,0,B|208:192|208:192|272:208,1,140,8|0,0:0|0:0,0:0:0:0:
232,88,21678,2,0,B|264:120|264:120|304:136|304:136|376:208,1,140,8|0,0:0|0:0,0:0:0:0:
400,232,21970,6,0,B|416:296|312:336|264:248|232:232|232:232|216:256|128:216|112:184,1,315.000012016297,8|0,0:0|0:0,0:0:0:0:
72,176,22554,5,8,0:0:0:0:
80,88,22700,1,0,0:0:0:0:
72,176,22846,1,8,0:0:0:0:
56,272,22992,2,0,L|48:328,2,52.5000020027161,0|0|8,0:0|0:0|0:0,0:0:0:0:
72,176,23284,2,0,B|136:136|136:136|168:64,1,140,0|8,0:0|0:0,0:0:0:0:
248,104,23576,2,0,B|216:176|216:176|208:272,1,140,0|8,0:0|0:0,0:0:0:0:
208,320,23868,5,0,0:0:0:0:
280,272,24014,1,8,0:0:0:0:
352,216,24160,2,0,L|480:120,1,140,0|8,0:0|0:0,0:0:0:0:
368,104,24452,2,0,P|272:160|224:192,1,140,0|8,0:0|0:0,0:0:0:0:
152,232,24744,1,0,0:0:0:0:
160,128,24890,1,8,0:0:0:0:
264,120,25036,6,0,P|312:200|384:200,1,140,0|8,0:0|0:0,0:0:0:0:
276,253,25328,2,0,P|172:221|124:261,1,140,0|8,0:0|0:0,0:0:0:0:
264,120,25620,2,0,P|344:128|400:56,1,140,0|8,0:0|0:0,0:0:0:0:
392,184,25912,2,0,P|320:232|456:288,1,280,0|4,0:0|0:0,0:0:0:0:
392,256,26350,5,8,0:0:0:0:
256,200,26496,1,4,0:0:0:0:
256,320,26642,1,8,0:0:0:0:
176,248,26788,1,4,0:0:0:0:
256,200,26934,2,0,P|320:128|320:72,1,140,8|4,0:0|0:0,0:0:0:0:
352,216,27226,2,0,P|280:288|280:352,1,140,8|0,0:0|0:0,0:0:0:0:
176,248,27518,5,8,0:0:0:0:
136,152,27664,1,0,0:0:0:0:
96,56,27810,1,8,0:0:0:0:
232,80,27956,1,0,0:0:0:0:
136,152,28102,2,0,B|168:176|168:176|224:176|248:232,1,140,8|0,0:0|0:0,0:0:0:0:
176,248,28394,2,0,P|272:296|312:256,1,140,8|0,0:0|0:0,0:0:0:0:
368,224,28686,5,8,0:0:0:0:
416,144,28832,1,0,0:0:0:0:
368,224,28978,2,0,P|288:216|272:136,1,140,8|0,0:0|0:0,0:0:0:0:
256,72,29270,1,8,0:0:0:0:
336,168,29415,1,0,0:0:0:0:
416,104,29561,1,8,0:0:0:0:
472,232,29707,1,0,0:0:0:0:
392,320,29853,6,0,P|296:336|200:288,1,140,8|0,0:0|0:0,0:0:0:0:
96,200,30145,2,0,P|216:200|280:224,1,140,8|0,0:0|0:0,0:0:0:0:
392,248,30437,1,8,0:0:0:0:
280,112,30583,1,0,0:0:0:0:
192,272,30729,1,8,0:0:0:0:
96,208,30875,5,8,0:0:0:0:
208,144,31021,1,8,0:0:0:0:
96,208,31167,2,0,L|264:240,1,140,0|8,0:0|0:0,0:0:0:0:
304,152,31459,2,0,L|464:120,1,140,0|8,0:0|0:0,0:0:0:0:
400,224,31751,5,8,0:0:0:0:
296,304,31897,1,8,0:0:0:0:
400,224,32043,2,0,L|224:192,1,140,0|8,0:0|0:0,0:0:0:0:
128,176,32335,1,8,0:0:0:0:
200,312,32481,1,0,0:0:0:0:
262,198,32627,6,0,L|294:150,1,35
336,80,32773,1,8,0:0:0:0:
216,80,32919,2,0,L|56:80,1,140,0|8,0:0|0:0,0:0:0:0:
128,176,33211,5,8,0:0:0:0:
200,256,33357,1,8,0:0:0:0:
128,176,33503,2,0,L|280:176,1,140,0|8,0:0|0:0,0:0:0:0:
456,240,33795,2,0,B|384:264|384:264|288:272,1,140,0|8,0:0|0:0,0:0:0:0:
200,272,34087,1,8,0:0:0:0:
264,176,34233,1,8,0:0:0:0:
320,269,34379,6,0,B|384:264|384:264|464:240,1,140,0|8,0:0|0:0,0:0:0:0:
384,120,34671,2,0,L|328:144,1,35
264,176,34817,1,8,0:0:0:0:
80,248,34963,2,0,P|160:304|240:280,1,140,0|8,0:0|0:0,0:0:0:0:
96,208,35255,5,8,0:0:0:0:
208,144,35401,1,8,0:0:0:0:
96,208,35547,2,0,L|264:240,1,140
304,152,35839,2,0,L|464:120,1,140,0|8,0:0|0:0,0:0:0:0:
400,224,36131,5,8,0:0:0:0:
296,304,36277,1,8,0:0:0:0:
400,224,36423,2,0,L|224:192,1,140,0|8,0:0|0:0,0:0:0:0:
48,120,36715,2,0,L|208:104,1,140,0|8,0:0|0:0,0:0:0:0:
400,224,37007,2,0,L|240:232,1,140,0|8,0:0|0:0,0:0:0:0:
48,120,37299,6,0,L|176:56,1,140,2|8,0:0|0:0,0:0:0:0:
208,48,37518,1,0,0:0:0:0:
232,56,37591,1,2,0:0:0:0:
256,72,37664,1,0,0:0:0:0:
272,96,37737,1,0,0:0:0:0:
280,112,37810,1,0,0:0:0:0:
288,128,37883,1,2,0:0:0:0:
296,144,37956,1,0,0:0:0:0:
304,160,38029,1,0,0:0:0:0:
312,176,38102,1,0,0:0:0:0:
328,192,38175,1,2,0:0:0:0:
352,200,38248,1,0,0:0:0:0:
376,192,38321,1,0,0:0:0:0:
392,168,38394,1,0,0:0:0:0:
392,144,38467,1,2,0:0:0:0:
384,128,38540,1,0,0:0:0:0:
360,120,38613,1,0,0:0:0:0:
336,120,38686,1,0,0:0:0:0:
312,136,38759,1,2,0:0:0:0:
288,152,38832,1,0,0:0:0:0:
256,160,38905,1,0,0:0:0:0:
232,160,38978,1,0,0:0:0:0:
216,144,39051,1,2,0:0:0:0:
200,128,39124,1,0,0:0:0:0:
168,128,39197,1,0,0:0:0:0:
144,136,39270,1,0,0:0:0:0:
128,160,39342,1,2,0:0:0:0:
128,184,39415,1,0,0:0:0:0:
136,208,39488,1,0,0:0:0:0:
144,224,39561,1,0,0:0:0:0:
160,240,39634,1,2,0:0:0:0:
184,248,39707,1,0,0:0:0:0:
208,240,39780,1,0,0:0:0:0:
224,224,39853,1,0,0:0:0:0:
248,208,39926,1,2,0:0:0:0:
272,192,39999,1,0,0:0:0:0:
304,192,40072,1,0,0:0:0:0:
328,200,40145,1,0,0:0:0:0:
352,224,40218,1,2,0:0:0:0:
304,344,40364,5,0,0:0:0:0:
184,184,40510,1,2,0:0:0:0:
368,272,40656,1,0,0:0:0:0:
232,32,40802,2,0,P|312:88|352:184,1,140,2|0,0:0|0:0,0:0:0:0:
264,336,41094,2,0,P|136:304|104:256,1,140,2|0,0:0|0:0,0:0:0:0:
256,192,41386,5,2,0:0:0:0:
256,192,41459,1,0,0:0:0:0:
256,192,41532,1,0,0:0:0:0:
104,128,41678,2,0,L|184:96,1,70,2|0,0:0|0:0,0:0:0:0:
280,56,41970,1,2,0:0:0:0:
384,168,42116,1,0,0:0:0:0:
304,240,42262,1,2,0:0:0:0:
384,96,42408,1,0,0:0:0:0:
232,176,42554,5,2,0:0:0:0:
232,176,42627,1,0,0:0:0:0:
232,176,42700,1,0,0:0:0:0:
112,208,42846,5,2,0:0:0:0:
272,64,42992,1,0,0:0:0:0:
344,240,43138,1,2,0:0:0:0:
152,96,43284,1,0,0:0:0:0:
368,168,43430,5,2,0:0:0:0:
192,240,43576,1,0,0:0:0:0:
288,88,43722,1,2,0:0:0:0:
248,200,43868,1,0,0:0:0:0:
40,288,44014,1,2,0:0:0:0:
144,200,44160,5,0,0:0:0:0:
152,216,44233,1,0,0:0:0:0:
160,232,44306,1,2,0:0:0:0:
168,248,44379,1,0,0:0:0:0:
176,264,44452,1,4,0:0:0:0:
320,304,44598,1,2,0:0:0:0:
384,144,44744,1,0,0:0:0:0:
256,192,44890,5,4,0:0:0:0:
208,128,45036,1,0,0:0:0:0:
160,64,45182,2,0,P|96:64|104:120,1,105.000004005432,0|4,0:0|0:0,0:0:0:0:
96,168,45474,5,0,0:0:0:0:
112,240,45620,1,0,0:0:0:0:
136,304,45766,2,0,P|184:352|312:296,1,210.000008010865,4|0,0:0|0:0,0:0:0:0:
360,360,46204,2,0,P|392:288|384:224,1,105.000004005432,4|0,0:0|0:0,0:0:0:0:
384,192,46496,1,0,0:0:0:0:
464,304,46642,6,0,P|456:176|400:112,1,210.000008010865,4|0,0:0|0:0,0:0:0:0:
344,80,47080,1,4,0:0:0:0:
272,72,47226,1,0,0:0:0:0:
200,88,47372,2,0,B|136:104|136:104|80:136,1,105.000004005432,0|4,0:0|0:0,0:0:0:0:
48,176,47664,1,0,0:0:0:0:
72,248,47810,2,0,P|128:280|200:256,1,105.000004005432,0|4,0:0|0:0,0:0:0:0:
255,255,48102,1,0,0:0:0:0:
368,176,48248,1,0,0:0:0:0:
459,265,48394,6,0,P|387:241|251:257,1,210.000008010865,4|0,0:0|0:0,0:0:0:0:
136,176,48832,6,0,P|208:152|360:184,1,210.000008010865,4|0,0:0|0:0,0:0:0:0:
464,96,49270,6,0,P|392:72|256:88,1,210.000008010865,4|0,0:0|0:0,0:0:0:0:
72,184,49707,5,4,0:0:0:0:
136,352,49853,1,0,0:0:0:0:
176,240,49999,1,0,0:0:0:0:
224,352,50145,2,0,B|256:312|256:312|288:304|288:304|304:272,1,105.000004005432,4|0,0:0|0:0,0:0:0:0:
344,176,50437,2,0,B|328:120|328:120|344:104|344:104|328:64,1,105.000004005432,0|4,0:0|0:0,0:0:0:0:
178,143,50729,2,0,B|170:199|170:199|186:223|186:223|162:263,1,105.000004005432
104,344,51021,6,0,B|72:248|72:248|104:112,1,210.000008010865,4|0,0:0|0:0,0:0:0:0:
128,48,51459,1,4,0:0:0:0:
178,143,51605,2,8,P|218:207|266:231,1,105.000004005432
336,256,51897,2,0,P|424:264|480:240,1,105.000004005432,12|0,0:0|0:0,0:0:0:0:
384,192,52189,2,0,P|296:184|264:200,1,105.000004005432,0|4,0:0|0:0,0:0:0:0:
208,224,52481,1,0,0:0:0:0:
128,152,52627,1,0,0:0:0:0:
208,224,52773,6,0,P|112:240|16:168,1,210.000008010865,4|0,0:0|0:0,0:0:0:0:
128,152,53211,6,0,P|224:128|336:176,1,210.000008010865,4|0,0:0|0:0,0:0:0:0:
360,64,53649,6,0,P|448:160|448:264,1,210.000008010865,4|0,0:0|0:0,0:0:0:0:
432,328,54087,1,4,0:0:0:0:
376,232,54233,1,0,0:0:0:0:
328,320,54379,2,0,P|264:336|224:320,1,105.000004005432,0|4,0:0|0:0,0:0:0:0:
272,264,54671,2,0,P|232:208|248:152,1,105.000004005432
272,96,54963,1,4,0:0:0:0:
304,192,55109,1,0,0:0:0:0:
344,288,55255,5,0,0:0:0:0:
352,304,55401,2,0,P|280:360|160:296,1,210.000008010865,4|0,0:0|0:0,0:0:0:0:
96,344,55839,6,0,B|40:248|40:248|40:112,1,210.000008010865,4|0,0:0|0:0,0:0:0:0:
128,40,56277,6,0,B|128:192|128:192|168:256,1,210.000008010865,4|0,0:0|0:0,0:0:0:0:
232,320,56715,1,4,0:0:0:0:
312,248,56861,2,0,P|328:208|280:216,1,105.000004005432
328,128,57153,6,0,P|376:88|392:200,1,210.000008010865,4|0,0:0|0:0,0:0:0:0:
488,248,57591,6,0,P|408:304|272:272,1,210.000008010865,4|0,0:0|0:0,0:0:0:0:
376,232,58029,6,0,P|312:200|416:160,1,210.000008010865,4|0,0:0|0:0,0:0:0:0:
472,152,58467,1,4,0:0:0:0:
416,48,58613,1,4,0:0:0:0:
320,72,58759,6,0,P|240:88|176:80,1,105.000004005432,4|4,0:0|0:0,0:0:0:0:
112,144,59051,2,0,P|208:152|248:168,1,105.000004005432
304,224,59342,2,0,P|200:224|160:240,1,105.000004005432
104,256,59634,1,0,0:0:0:0:
256,304,59780,6,0,B|304:320|368:320|464:296|464:296|320:272|272:240|208:200|208:200|264:200|288:176,1,525.000020027161,8|0,0:0|0:0,0:0:0:0:
264,192,60656,2,0,B|352:176|376:136|416:56|416:56|312:112|208:128|112:80,1,525.000020027161,8|0,0:0|0:0,0:0:0:0:
48,40,61532,5,8,0:0:0:0:
72,304,61824,5,0,0:0:0:0:
216,176,61970,1,8,0:0:0:0:
456,296,62262,5,0,0:0:0:0:
280,344,62408,1,8,0:0:0:0:
288,144,62700,2,0,P|248:104|184:104,1,105.000004005432
88,112,62992,1,0,0:0:0:0:
216,168,63138,1,0,0:0:0:0:
16,136,63284,2,0,P|72:184|128:176,1,105.000004005432,4|0,0:0|0:0,0:0:0:0:
216,168,63576,5,0,0:0:0:0:
344,208,63722,1,0,0:0:0:0:
416,256,63868,2,0,P|360:288|288:272,1,105.000004005432
192,280,64160,2,0,P|72:240|96:168,1,210.000008010865,4|0,0:0|0:0,0:0:0:0:
144,224,64598,6,0,P|232:216|256:240,1,105.000004005432,4|0,0:0|0:0,0:0:0:0:
304,280,64890,2,0,P|376:296|416:256,2,105.000004005432,0|4|0,0:0|0:0|0:0,0:0:0:0:
352,64,65328,5,4,0:0:0:0:
352,216,65474,1,4,0:0:0:0:
192,56,65620,1,4,0:0:0:0:
88,224,65766,1,4,0:0:0:0:
384,136,65912,1,4,0:0:0:0:
184,264,66058,1,0,0:0:0:0:
128,192,66204,6,0,P|216:184|248:200,1,105.000004005432,0|4,0:0|0:0,0:0:0:0:
304,224,66496,1,0,0:0:0:0:
384,152,66642,1,0,0:0:0:0:
304,224,66788,6,0,P|400:240|496:168,1,210.000008010865,4|0,0:0|0:0,0:0:0:0:
384,152,67226,6,0,P|288:128|176:176,1,210.000008010865,4|0,0:0|0:0,0:0:0:0:
152,64,67664,6,0,P|64:160|64:264,1,210.000008010865,4|0,0:0|0:0,0:0:0:0:
80,328,68102,1,4,0:0:0:0:
136,232,68248,1,0,0:0:0:0:
184,320,68394,2,0,P|248:336|288:320,1,105.000004005432,0|4,0:0|0:0,0:0:0:0:
240,264,68686,2,0,P|280:208|264:152,1,105.000004005432
240,96,68978,1,4,0:0:0:0:
208,192,69124,1,0,0:0:0:0:
160,304,69270,5,0,0:0:0:0:
160,304,69416,2,0,P|232:360|352:296,1,210.000008010865,4|0,0:0|0:0,0:0:0:0:
416,344,69854,6,0,B|472:248|472:248|472:112,1,210.000008010865,4|0,0:0|0:0,0:0:0:0:
384,40,70292,6,0,B|384:192|384:192|344:256,1,210.000008010865,4|0,0:0|0:0,0:0:0:0:
280,320,70730,1,4,0:0:0:0:
200,248,70876,2,0,P|184:208|232:216,1,105.000004005432
184,128,71168,6,0,P|136:88|120:200,1,210.000008010865,4|0,0:0|0:0,0:0:0:0:
24,248,71606,6,0,P|104:304|240:272,1,210.000008010865,4|0,0:0|0:0,0:0:0:0:
136,232,72044,6,0,P|200:200|96:160,1,210.000008010865,4|0,0:0|0:0,0:0:0:0:
40,152,72482,1,4,0:0:0:0:
96,48,72628,1,4,0:0:0:0:
192,72,72774,6,0,P|272:88|336:80,1,105.000004005432,4|4,0:0|0:0,0:0:0:0:
400,144,73066,2,0,P|304:152|264:168,1,105.000004005432
208,224,73357,2,0,P|312:224|352:240,1,105.000004005432
408,256,73649,1,0,0:0:0:0:
320,72,73795,6,0,P|240:88|176:80,1,105.000004005432,4|4,0:0|0:0,0:0:0:0:
112,144,74087,2,0,P|208:152|248:168,1,105.000004005432
304,224,74378,2,0,P|200:224|160:240,1,105.000004005432
122,294,74671,6,0,L|210:214,1,105.000004005432
122,294,74963,2,0,L|160:176,1,105.000004005432
122,294,75255,2,0,L|80:160,1,105.000004005432
48,64,75547,5,0,0:0:0:0:
216,256,75985,1,0,0:0:0:0:
136,272,76131,1,0,0:0:0:0:
328,136,76277,1,0,0:0:0:0:
288,296,76423,1,0,0:0:0:0:
224,144,76569,6,0,P|128:80|80:96,1,140
304,160,76861,2,0,P|392:224|472:200,1,140
256,192,77299,1,0,0:0:0:0:
256,192,77445,1,0,0:0:0:0:
256,192,77591,1,0,0:0:0:0:
256,192,77737,2,0,P|240:272|164:284,1,140
152,184,78029,1,0,0:0:0:0:
136,192,78175,1,0,0:0:0:0:
144,120,78321,1,0,0:0:0:0:
184,112,78467,1,0,0:0:0:0:
216,116,78613,2,0,P|276:168|288:240,1,140
200,200,78905,2,0,P|288:160|288:64,1,140
360,96,79343,1,0,0:0:0:0:
384,144,79488,1,0,0:0:0:0:
384,192,79634,1,0,0:0:0:0:
368,208,79780,1,0,0:0:0:0:
344,224,79926,1,0,0:0:0:0:
272,224,80072,1,0,0:0:0:0:
152,144,80364,1,0,0:0:0:0:
168,312,80802,1,0,0:0:0:0:
232,296,80948,1,0,0:0:0:0:
248,280,81094,1,0,0:0:0:0:
264,240,81240,1,0,0:0:0:0:
264,72,81678,1,0,0:0:0:0:
288,120,81824,1,0,0:0:0:0:
296,144,81970,1,0,0:0:0:0:
280,176,82116,1,0,0:0:0:0:
152,320,82262,1,0,0:0:0:0:
136,240,82408,1,0,0:0:0:0:
136,184,82554,1,0,0:0:0:0:
360,120,82846,1,0,0:0:0:0:
368,200,82992,1,0,0:0:0:0:
368,240,83138,1,0,0:0:0:0:
352,256,83284,1,0,0:0:0:0:
328,280,83430,1,0,0:0:0:0:
224,288,83576,1,0,0:0:0:0:
136,144,83868,1,0,0:0:0:0:
376,96,84160,2,0,P|272:160|208:192,1,140
96,280,84452,1,0,0:0:0:0:
144,288,84598,2,0,L|272:208,1,140
168,112,85036,1,0,0:0:0:0:
176,112,85109,1,0,0:0:0:0:
184,112,85182,1,0,0:0:0:0:
288,176,85328,1,0,0:0:0:0:
280,208,85474,1,0,0:0:0:0:
280,224,85620,1,0,0:0:0:0:
136,280,85766,1,0,0:0:0:0:
256,152,85912,1,0,0:0:0:0:
376,272,86350,1,0,0:0:0:0:
336,296,86496,1,0,0:0:0:0:
272,304,86642,1,0,0:0:0:0:
240,296,86788,1,0,0:0:0:0:
216,288,86934,1,0,0:0:0:0:
208,280,87080,1,0,0:0:0:0:
144,112,87372,1,0,0:0:0:0:
320,112,87810,1,0,0:0:0:0:
312,176,87956,1,0,0:0:0:0:
288,224,88102,1,0,0:0:0:0:
256,240,88248,1,0,0:0:0:0:
144,224,88540,1,0,0:0:0:0:
144,208,88613,1,0,0:0:0:0:
152,184,88686,1,0,0:0:0:0:
320,80,88832,1,0,0:0:0:0:
336,176,88978,1,0,0:0:0:0:
288,256,89124,1,0,0:0:0:0:
232,272,89270,1,0,0:0:0:0:
176,264,89415,1,0,0:0:0:0:
256,192,90437,5,0,0:0:0:0:
120,224,104452,5,0,0:0:0:0:
408,80,104598,1,0,0:0:0:0:
136,240,104744,1,0,0:0:0:0:
352,168,104890,1,0,0:0:0:0:
280,336,105036,1,0,0:0:0:0:
456,184,105182,1,0,0:0:0:0:
248,32,105328,6,0,P|208:96|240:296,1,280
280,104,105766,2,0,P|272:208|304:256,1,140
376,336,106058,5,0,0:0:0:0:
376,264,106204,2,0,P|432:288|448:312,2,70
96,152,106642,5,0,0:0:0:0:
320,240,106788,1,0,0:0:0:0:
120,240,106934,1,0,0:0:0:0:
192,272,107080,2,0,P|120:312|48:264,2,140
320,112,107518,6,0,P|368:72|392:64,2,70
96,184,107956,6,0,B|160:144|160:144|232:120,1,140
384,72,108248,1,0,0:0:0:0:
352,288,108394,1,0,0:0:0:0:
184,176,108540,1,0,0:0:0:0:
256,368,108686,1,0,0:0:0:0:
120,128,108832,6,0,P|232:112|264:152,1,140
384,256,109124,1,0,0:0:0:0:
152,208,109270,1,0,0:0:0:0:
304,104,109415,1,0,0:0:0:0:
320,248,109561,1,0,0:0:0:0:
416,96,109707,6,0,P|448:184|432:248,1,140
152,208,109999,2,0,P|80:248|8:232,1,140
240,40,110291,6,0,P|296:56|312:80,2,70
48,192,110729,1,0,0:0:0:0:
416,320,110875,1,0,0:0:0:0:
120,96,111021,1,0,0:0:0:0:
144,304,111167,1,0,0:0:0:0:
400,80,111313,1,0,0:0:0:0:
160,216,111459,5,0,0:0:0:0:
160,216,111605,1,0,0:0:0:0:
320,72,111751,1,0,0:0:0:0:
368,320,111897,1,0,0:0:0:0:
120,96,112043,1,0,0:0:0:0:
392,240,112189,1,0,0:0:0:0:
64,208,112335,6,0,P|168:120|336:168,1,280
408,312,112773,2,0,P|312:344|232:312,1,140
72,240,113065,1,0,0:0:0:0:
288,216,113211,6,0,P|376:176|256:88,1,280
88,144,113649,2,0,P|-8:168|-56:152,2,140
240,48,114087,1,0,0:0:0:0:
152,248,114233,1,0,0:0:0:0:
384,144,114379,1,0,0:0:0:0:
328,80,114525,2,0,P|432:80|472:120,2,140
64,128,114963,6,0,P|64:232|256:272,1,280
456,232,115401,1,0,0:0:0:0:
144,184,115547,1,0,0:0:0:0:
384,104,115693,1,0,0:0:0:0:
144,304,115839,1,0,0:0:0:0:
432,88,115985,1,0,0:0:0:0:
224,312,116131,1,0,0:0:0:0:
344,48,116277,1,0,0:0:0:0:
384,328,116423,1,0,0:0:0:0:
168,48,116569,1,0,0:0:0:0:
416,240,116715,1,0,0:0:0:0:
104,224,117007,5,0,0:0:0:0:
432,72,117299,1,0,0:0:0:0:
272,264,117445,5,0,0:0:0:0:
280,232,117518,1,0,0:0:0:0:
288,200,117591,1,0,0:0:0:0:
336,32,117737,5,0,0:0:0:0:
168,104,117883,1,0,0:0:0:0:
416,176,118029,1,0,0:0:0:0:
432,360,118175,1,0,0:0:0:0:
392,256,118321,1,0,0:0:0:0:
144,224,118467,5,0,0:0:0:0:
144,224,118613,1,0,0:0:0:0:
144,224,118759,1,0,0:0:0:0:
144,224,118905,1,0,0:0:0:0:
144,224,119051,1,0,0:0:0:0:
144,224,119197,1,0,0:0:0:0:
144,224,119342,1,0,0:0:0:0:
144,224,119488,1,0,0:0:0:0:
144,224,119634,1,0,0:0:0:0:
304,288,119780,6,0,L|232:296,1,70
288,256,119926,2,0,L|216:248,1,70
272,224,119999,2,0,L|152:168,1,70
264,184,120145,2,0,L|200:120,1,70
336,128,120364,5,0,0:0:0:0:
424,152,120510,1,0,0:0:0:0:
144,96,120656,1,0,0:0:0:0:
224,40,120802,1,0,0:0:0:0:
272,256,120948,1,0,0:0:0:0:
192,312,121094,1,0,0:0:0:0:
168,192,121240,6,0,L|128:40,1,140
232,104,121532,2,0,L|280:272,1,140
328,88,121824,1,0,0:0:0:0:
192,312,121970,1,0,0:0:0:0:
72,144,122116,1,0,0:0:0:0:
312,168,122262,1,0,0:0:0:0:
144,256,122408,6,0,P|56:288|-16:272,2,140
312,168,122846,2,0,B|344:144|344:144|376:128|376:128|384:104|384:104|424:80,1,140
136,144,123138,1,0,0:0:0:0:
368,344,123284,1,0,0:0:0:0:
96,208,123430,2,0,P|184:200|208:144,1,140
208,160,123868,5,0,0:0:0:0:
288,248,124014,1,0,0:0:0:0:
368,336,124160,1,0,0:0:0:0:
368,336,124598,5,0,0:0:0:0:
408,216,124744,1,0,0:0:0:0:
448,104,124890,1,0,0:0:0:0:
312,144,125036,1,0,0:0:0:0:
192,184,125182,2,0,B|72:224|72:224|112:184,1,140
176,288,125474,2,0,L|328:232,1,140
432,280,125766,5,0,0:0:0:0:
464,304,125912,2,0,L|304:360,1,140
352,184,126204,5,0,0:0:0:0:
352,184,126277,1,0,0:0:0:0:
352,184,126350,1,0,0:0:0:0:
120,112,126496,1,0,0:0:0:0:
416,64,126642,1,0,0:0:0:0:
40,120,126788,2,0,P|96:192|200:80,1,280
144,136,127518,5,0,0:0:0:0:
144,136,127591,1,0,0:0:0:0:
144,136,127664,1,0,0:0:0:0:
144,136,127737,1,0,0:0:0:0:
144,136,127810,1,0,0:0:0:0:
144,136,127883,1,0,0:0:0:0:
144,136,127956,1,0,0:0:0:0:
144,136,128029,1,0,0:0:0:0:
144,136,128102,2,0,B|184:168|184:168|184:208|184:208|248:200|248:200|302:221|302:221|302:269|350:245|382:293|390:309,1,280
304,80,128540,5,0,0:0:0:0:
272,112,128686,1,0,0:0:0:0:
352,280,128832,1,0,0:0:0:0:
392,280,128978,1,0,0:0:0:0:
160,232,129124,1,0,0:0:0:0:
144,208,129270,1,0,0:0:0:0:
384,136,129415,1,0,0:0:0:0:
384,136,129853,5,0,0:0:0:0:
312,72,129999,1,0,0:0:0:0:
288,160,130145,1,0,0:0:0:0:
384,136,130291,2,0,P|368:224|320:256,1,140
152,336,130583,1,0,0:0:0:0:
152,336,130875,5,0,0:0:0:0:
120,216,131021,1,0,0:0:0:0:
96,112,131167,1,0,0:0:0:0:
96,112,131459,5,0,0:0:0:0:
216,144,131605,1,0,0:0:0:0:
336,176,131751,1,0,0:0:0:0:
304,304,131897,1,0,0:0:0:0:
448,176,132043,1,0,0:0:0:0:
400,88,132189,2,0,B|376:40|376:40|352:16,1,70
112,32,132481,1,0,0:0:0:0:
336,176,132627,1,0,0:0:0:0:
112,248,132773,6,0,B|192:264|192:264|224:240|224:240|248:320|248:320|296:304|304:248,1,280
336,176,133211,2,0,P|344:96|312:40,1,140
192,64,133503,1,0,0:0:0:0:
272,112,133649,1,0,0:0:0:0:
256,192,133795,2,0,P|248:224|227:259,2,70
256,192,134233,5,4,0:0:0:0:
304,256,134379,1,0,0:0:0:0:
352,320,134525,2,0,P|416:320|408:264,1,105.000004005432,0|4,0:0|0:0,0:0:0:0:
416,216,134817,5,0,0:0:0:0:
400,144,134963,1,0,0:0:0:0:
376,80,135109,2,0,P|328:32|200:88,1,210.000008010865,4|0,0:0|0:0,0:0:0:0:
152,24,135547,2,0,P|120:96|128:160,1,105.000004005432,4|0,0:0|0:0,0:0:0:0:
128,192,135839,1,0,0:0:0:0:
48,80,135985,6,0,P|56:208|112:272,1,210.000008010865,4|0,0:0|0:0,0:0:0:0:
168,304,136423,1,4,0:0:0:0:
240,312,136569,1,0,0:0:0:0:
312,296,136715,2,0,B|376:280|376:280|432:248,1,105.000004005432,0|4,0:0|0:0,0:0:0:0:
464,208,137007,1,0,0:0:0:0:
440,136,137153,2,0,P|384:104|312:128,1,105.000004005432,0|4,0:0|0:0,0:0:0:0:
257,129,137445,1,0,0:0:0:0:
144,208,137591,1,0,0:0:0:0:
53,119,137737,6,0,P|125:143|261:127,1,210.000008010865,4|0,0:0|0:0,0:0:0:0:
376,208,138175,6,0,P|304:232|152:200,1,210.000008010865,4|0,0:0|0:0,0:0:0:0:
48,288,138613,6,0,P|120:312|256:296,1,210.000008010865,4|0,0:0|0:0,0:0:0:0:
440,200,139050,5,4,0:0:0:0:
376,32,139196,1,0,0:0:0:0:
336,144,139342,1,0,0:0:0:0:
288,32,139488,2,0,B|256:72|256:72|224:80|224:80|208:112,1,105.000004005432,4|0,0:0|0:0,0:0:0:0:
168,208,139780,2,0,B|184:264|184:264|168:280|168:280|184:320,1,105.000004005432,0|4,0:0|0:0,0:0:0:0:
334,241,140072,2,0,B|342:185|342:185|326:161|326:161|350:121,1,105.000004005432
408,40,140364,6,0,B|440:136|440:136|408:272,1,210.000008010865,4|0,0:0|0:0,0:0:0:0:
384,336,140802,1,4,0:0:0:0:
334,241,140948,2,8,P|294:177|246:153,1,105.000004005432
176,128,141240,2,0,P|88:120|32:144,1,105.000004005432,12|0,0:0|0:0,0:0:0:0:
128,192,141532,2,0,P|216:200|248:184,1,105.000004005432,0|4,0:0|0:0,0:0:0:0:
304,160,141824,1,0,0:0:0:0:
384,232,141970,1,0,0:0:0:0:
304,160,142116,6,0,P|400:144|496:216,1,210.000008010865,4|0,0:0|0:0,0:0:0:0:
384,232,142554,6,0,P|288:256|176:208,1,210.000008010865,4|0,0:0|0:0,0:0:0:0:
152,320,142992,6,0,P|64:224|64:120,1,210.000008010865,4|0,0:0|0:0,0:0:0:0:
80,56,143430,1,4,0:0:0:0:
136,152,143576,1,0,0:0:0:0:
184,64,143722,2,0,P|248:48|288:64,1,105.000004005432,0|4,0:0|0:0,0:0:0:0:
240,120,144014,2,0,P|280:176|264:232,1,105.000004005432
240,288,144306,1,4,0:0:0:0:
208,192,144452,1,0,0:0:0:0:
160,80,144598,5,0,0:0:0:0:
160,80,144744,2,0,P|232:24|352:88,1,210.000008010865,4|0,0:0|0:0,0:0:0:0:
416,40,145182,6,0,B|472:136|472:136|472:272,1,210.000008010865,4|0,0:0|0:0,0:0:0:0:
384,344,145620,6,0,B|384:192|384:192|344:128,1,210.000008010865,4|0,0:0|0:0,0:0:0:0:
280,64,146058,1,4,0:0:0:0:
200,136,146204,2,0,P|184:176|232:168,1,105.000004005432
184,256,146496,6,0,P|136:296|120:184,1,210.000008010865,4|0,0:0|0:0,0:0:0:0:
24,136,146934,6,0,P|104:80|240:112,1,210.000008010865,4|0,0:0|0:0,0:0:0:0:
136,152,147372,6,0,P|200:184|96:224,1,210.000008010865,4|0,0:0|0:0,0:0:0:0:
40,232,147810,1,4,0:0:0:0:
96,336,147956,1,4,0:0:0:0:
192,312,148102,6,0,P|272:296|336:304,1,105.000004005432,4|4,0:0|0:0,0:0:0:0:
400,240,148394,2,0,P|304:232|264:216,1,105.000004005432
208,160,148685,2,0,P|312:160|352:144,1,105.000004005432
408,128,148977,1,0,0:0:0:0:
248,80,149124,2,0,B|208:64|112:88|48:160|48:160|208:160|208:160|104:216|104:216|168:248,1,525.000020027161
144,240,149999,2,0,B|264:264|328:328|328:328|296:256|272:192|272:192|352:256|384:256|432:200|440:184,1,525.000020027161
496,96,150875,5,8,0:0:0:0:
80,200,151167,5,0,0:0:0:0:
272,152,151313,1,8,0:0:0:0:
384,48,151605,5,0,0:0:0:0:
208,216,151751,1,8,0:0:0:0:
224,240,152043,2,0,P|264:280|328:280,1,105.000004005432
424,272,152335,1,0,0:0:0:0:
296,216,152481,1,0,0:0:0:0:
496,248,152627,2,0,P|440:200|384:208,1,105.000004005432,4|0,0:0|0:0,0:0:0:0:
296,216,152919,5,0,0:0:0:0:
168,176,153065,1,0,0:0:0:0:
96,128,153211,2,0,P|152:96|224:112,1,105.000004005432
320,104,153503,2,0,P|440:144|416:216,1,210.000008010865,4|0,0:0|0:0,0:0:0:0:
368,160,153941,6,0,P|280:168|256:144,1,105.000004005432,4|0,0:0|0:0,0:0:0:0:
208,104,154233,2,0,P|136:88|96:128,2,105.000004005432,0|4|0,0:0|0:0|0:0,0:0:0:0:
160,320,154671,5,4,0:0:0:0:
160,168,154817,1,4,0:0:0:0:
320,328,154963,1,4,0:0:0:0:
424,160,155109,1,4,0:0:0:0:
128,248,155255,1,4,0:0:0:0:
328,120,155401,1,0,0:0:0:0:
384,192,155547,6,0,P|296:200|264:184,1,105.000004005432,0|4,0:0|0:0,0:0:0:0:
208,160,155839,1,0,0:0:0:0:
128,232,155985,1,0,0:0:0:0:
208,160,156131,6,0,P|112:144|16:216,1,210.000008010865,4|0,0:0|0:0,0:0:0:0:
128,232,156569,6,0,P|224:256|336:208,1,210.000008010865,4|0,0:0|0:0,0:0:0:0:
360,320,157007,6,0,P|448:224|448:120,1,210.000008010865,4|0,0:0|0:0,0:0:0:0:
432,56,157445,1,4,0:0:0:0:
376,152,157591,1,0,0:0:0:0:
328,64,157737,2,0,P|264:48|224:64,1,105.000004005432,0|4,0:0|0:0,0:0:0:0:
272,120,158029,2,0,P|232:176|248:232,1,105.000004005432
272,288,158321,1,4,0:0:0:0:
304,192,158467,1,0,0:0:0:0:
352,80,158613,5,0,0:0:0:0:
352,80,158759,2,0,P|280:24|160:88,1,210.000008010865,4|0,0:0|0:0,0:0:0:0:
96,40,159197,6,0,B|40:136|40:136|40:272,1,210.000008010865,4|0,0:0|0:0,0:0:0:0:
128,344,159635,6,0,B|128:192|128:192|168:128,1,210.000008010865,4|0,0:0|0:0,0:0:0:0:
232,64,160073,1,4,0:0:0:0:
312,136,160219,2,0,P|328:176|280:168,1,105.000004005432
328,256,160511,6,0,P|376:296|392:184,1,210.000008010865,4|0,0:0|0:0,0:0:0:0:
488,136,160949,6,0,P|408:80|272:112,1,210.000008010865,4|0,0:0|0:0,0:0:0:0:
376,152,161387,6,0,P|312:184|416:224,1,210.000008010865,4|0,0:0|0:0,0:0:0:0:
472,232,161825,5,4,0:0:0:0:
416,336,161971,1,4,0:0:0:0:
320,312,162117,2,0,P|240:296|176:304,1,105.000004005432,4|4,0:0|0:0,0:0:0:0:
72,192,170145,6,0,L|160:160,1,70
160,160,170364,5,0,0:0:0:0:
184,152,170473,1,0,0:0:0:0:
208,144,170583,1,0,0:0:0:0:
232,136,170692,1,0,0:0:0:0:
256,128,170802,2,0,L|328:112,1,70
232,232,171021,2,0,L|136:256,1,70
128,256,171240,1,0,0:0:0:0:
96,264,171349,1,0,0:0:0:0:
256,128,171459,2,0,L|336:176,1,70
344,176,171678,1,0,0:0:0:0:
368,192,171787,1,0,0:0:0:0:
392,208,171897,1,0,0:0:0:0:
416,224,172006,1,0,0:0:0:0:
248,312,172116,2,0,L|176:352,1,70
192,96,172334,2,0,L|272:136,1,70
280,144,172553,1,0,0:0:0:0:
456,240,172663,1,0,0:0:0:0:
456,240,172991,2,0,P|408:296|240:264,1,210.000008010865
72,128,173429,2,0,B|128:128|144:72|144:72|248:144,1,210.000008010865
344,216,173758,1,0,0:0:0:0:
344,216,174086,2,0,P|256:232|272:208,1,210.000008010865
264,200,174415,2,0,P|240:96|144:112,1,210.000008010865
144,120,174743,2,0,P|112:240|176:320,1,210.000008010865
176,328,175072,2,0,B|160:312|160:312|256:344|344:224,1,210.000008010865
416,120,175400,1,0,0:0:0:0:
208,232,175619,1,0,0:0:0:0:
256,32,175838,1,0,0:0:0:0:
408,320,176057,1,0,0:0:0:0:
208,144,176276,2,0,P|88:112|16:152,1,210.000008010865
16,184,176605,2,0,P|120:176|152:208,1,105.000004005432
240,232,177043,1,0,0:0:0:0:
240,232,177371,2,0,P|368:216|312:88,1,210.000008010865
352,64,177809,1,0,0:0:0:0:
296,168,177918,1,0,0:0:0:0:
184,128,178028,2,0,P|96:168|160:248,1,210.000008010865
256,192,205619,5,0,0:0:0:0:
256,192,205729,1,0,0:0:0:0:
176,72,206276,2,0,P|280:48|352:104,1,105.000004005432
448,144,206495,2,0,P|328:176|272:160,1,105.000004005432
256,192,206714,1,0,0:0:0:0:
384,264,207043,1,0,0:0:0:0:
384,264,207152,2,0,P|264:320|152:264,1,210.000008010865
80,208,207590,1,0,0:0:0:0:
104,248,207699,1,0,0:0:0:0:
280,96,207918,1,0,0:0:0:0:
288,136,208028,1,0,0:0:0:0:
320,328,208247,1,0,0:0:0:0:
168,144,208466,1,0,0:0:0:0:
120,104,208576,1,0,0:0:0:0:
392,152,208794,1,0,0:0:0:0:
440,216,208904,1,0,0:0:0:0:
360,224,209013,1,0,0:0:0:0:
192,264,209232,1,0,0:0:0:0:
152,272,209342,1,0,0:0:0:0:
208,48,209780,1,0,0:0:0:0:
208,48,209889,1,0,0:0:0:0:
400,184,210108,1,0,0:0:0:0:
400,184,210218,1,0,0:0:0:0:
192,264,210546,1,0,0:0:0:0:
192,264,210655,1,0,0:0:0:0:
360,48,211094,1,0,0:0:0:0:
360,48,211203,1,0,0:0:0:0:
128,104,211422,1,0,0:0:0:0:
144,152,211532,1,0,0:0:0:0:
208,360,211751,1,0,0:0:0:0:
440,160,211970,1,0,0:0:0:0:
400,176,212079,1,0,0:0:0:0:
128,256,212298,1,0,0:0:0:0:
176,240,212407,1,0,0:0:0:0:
232,224,212517,1,0,0:0:0:0:
440,160,213283,1,0,0:0:0:0:
440,160,213393,1,0,0:0:0:0:
144,120,213831,1,0,0:0:0:0:
144,120,213940,1,0,0:0:0:0:
144,120,214050,1,0,0:0:0:0:
144,120,214159,1,0,0:0:0:0:
344,280,214597,1,0,0:0:0:0:
344,280,214707,1,0,0:0:0:0:
80,48,214926,1,0,0:0:0:0:
80,48,215035,1,0,0:0:0:0:
416,80,215254,1,0,0:0:0:0:
104,200,215473,1,0,0:0:0:0:
104,200,215583,1,0,0:0:0:0:
368,216,215802,1,0,0:0:0:0:
336,328,215911,1,0,0:0:0:0:
248,240,216021,1,0,0:0:0:0:
176,80,216240,1,0,0:0:0:0:
264,80,216349,1,0,0:0:0:0:
168,280,216787,1,0,0:0:0:0:
88,280,216897,1,0,0:0:0:0:
400,280,217006,1,0,0:0:0:0:
192,136,217116,1,0,0:0:0:0:
120,72,217225,1,0,0:0:0:0:
432,80,217553,1,0,0:0:0:0:
432,80,217663,1,0,0:0:0:0:
200,280,218101,1,0,0:0:0:0:
200,280,218210,1,0,0:0:0:0:
104,80,218429,1,0,0:0:0:0:
120,80,218539,1,0,0:0:0:0:
352,160,218758,1,0,0:0:0:0:
112,224,218977,1,0,0:0:0:0:
112,224,219086,1,0,0:0:0:0:
392,320,219305,1,0,0:0:0:0:
392,320,219415,1,0,0:0:0:0:
448,128,219524,1,0,0:0:0:0:
256,192,219634,5,0,0:0:0:0:
