osu file format v14

[General]
AudioFilename: audio.mp3
AudioLeadIn: 0
PreviewTime: 104271
Countdown: 1
SampleSet: Normal
StackLeniency: 0.3
Mode: 0
LetterboxInBreaks: 0
WidescreenStoryboard: 0

[Editor]
Bookmarks: 1060,16826,30841,44855,58870,72884,89527,89673,89819,89965,90111,90257,90403,90549,90695,90841,90987,91132,91278,91424,91570,91716,91862,92008,92154,92300,92446,92592,92738,92884,93030,93176,93322,93468,93614,93760,93906,94052,94198,94344,94490,94636,94782,94928,95074,95220,95366,95512,95658,95804,95950,96096,96242,96388,96534,96680,96826,96972,97118,97264,97410,97556,97702,97848,97994,98140,98286,98432,98578,98724,98870,99016,99162,99308,99454,99600,99746,99892,100038,100184,100330,100476,100622,100768,100914,101060,101205,101351,101497,101643,101789,101935,102081,102227,102373,102519,102665,102811,102957,103103,103249,103395,103541,103687,103833,103979,104125,104271,104417,120184,134198,148213,162227,162445,162664,162883,163102,163321,163540,163759,163978,164197,164416,164635,164854,165073,165292,165511,165730,165949,166168,166387,166606,166825,167044,167263,167482,167701,167920,168139,168358,168577,168796,169015,169234,169453,169672,169891,170110,184562,195073,205584,219598
DistanceSpacing: 0.1
BeatDivisor: 4
GridSize: 8
TimelineZoom: 2.1

[Metadata]
Title:Overthrow
TitleUnicode:Overthrow
Artist:Veil of Maya
ArtistUnicode:Veil of Maya
Creator:Bergy
Version:Conquered
Source:
Tags:
BeatmapID:1452137
BeatmapSetID:686054

[Difficulty]
HPDrainRate:5
CircleSize:4
OverallDifficulty:8
ApproachRate:9.6
SliderMultiplier:2.5
SliderTickRate:1

[Events]
//Background and Video events
0,0,"download_img.jpg",0,0
//Break Periods
2,73084,103908
2,118487,133689
2,154835,169601
2,183120,194564
//Storyboard Layer 0 (Background)
//Storyboard Layer 1 (Fail)
//Storyboard Layer 2 (Pass)
//Storyboard Layer 3 (Foreground)
//Storyboard Sound Samples

[TimingPoints]
1060,291.970802919708,3,1,0,100,1,0
1060,-125,4,1,0,100,0,0
3687,-66.6666666666667,4,1,0,100,0,0
4417,-200,4,1,0,100,0,0
4709,-125,4,1,0,100,0,0
10695,-66.6666666666667,4,1,0,100,0,0
11424,-200,4,1,0,100,0,0
12008,-125,4,1,0,100,0,0
30841,-100,4,1,0,100,0,0
44855,-111.111111111111,4,1,0,100,0,1
59746,-83.3333333333333,4,1,0,100,0,1
65877,-111.111111111111,4,1,0,100,0,1
72884,-100,4,1,0,100,0,0
104417,-125,4,1,0,100,0,0
134198,-111.111111111111,4,1,0,100,0,1
149089,-83.3333333333333,4,1,0,100,0,1
162227,437.956204379562,3,1,0,100,1,0
162227,-100,3,1,0,100,0,0
172956,-71.4285714285714,4,1,0,100,0,0
202956,-100,4,1,0,100,0,0
205584,437.956204379562,4,1,0,100,1,0
205584,-71.4285714285714,4,1,0,100,0,0

[Colours]
Combo1 : 0,128,192
Combo2 : 192,192,192
Combo3 : 128,160,236
Combo4 : 124,124,124

[HitObjects]
174,16,1060,5,0,0:0:0:0:
160,194,1205,2,0,P|207:144|196:92,1,100
306,294,1497,2,0,P|286:228|235:211,1,100
465,217,1789,1,0,0:0:0:0:
206,304,1935,6,0,L|322:292,1,100
106,314,2227,2,0,L|222:302,1,100
6,324,2519,2,0,L|122:312,1,100
338,368,2811,5,0,0:0:0:0:
352,190,2957,2,0,P|305:240|316:292,1,100
206,90,3249,2,0,P|226:156|277:173,1,100
47,167,3540,1,0,0:0:0:0:
278,28,3687,6,0,P|193:0|121:53,1,187.500007152558
374,287,3979,2,0,P|442:227|432:137,1,187.500007152558
106,242,4271,1,0,0:0:0:0:
352,190,4417,6,0,P|296:162|245:167,1,93.75
358,196,4709,5,0,0:0:0:0:
152,344,4855,1,0,0:0:0:0:
138,166,5001,2,0,P|176:195|184:243,1,100
284,66,5293,1,0,0:0:0:0:
21,129,5439,6,0,L|9:13,1,100
34,250,5731,2,0,L|28:192,1,50
20,129,5877,1,0,0:0:0:0:
44,350,6023,2,0,L|32:234,1,100
291,68,6315,5,0,0:0:0:0:
305,246,6461,2,0,P|258:196|269:144,1,100
159,346,6753,2,0,P|179:280|230:263,1,100
0,269,7044,1,0,0:0:0:0:
167,97,7191,6,0,P|190:88|216:90,1,50
405,213,7337,2,0,P|381:221|355:219,1,50
226,44,7483,2,0,P|250:48|271:63,1,50
345,265,7629,1,0,0:0:0:0:
303,27,7775,1,0,0:0:0:0:
267,280,7921,1,0,0:0:0:0:
167,97,8067,5,0,0:0:0:0:
153,275,8213,2,0,P|200:225|189:173,1,100
299,375,8505,2,0,P|279:309|228:292,1,100
458,298,8796,1,0,0:0:0:0:
306,68,8943,6,0,L|190:80,1,100
406,58,9235,2,0,L|290:70,1,100
506,48,9527,2,0,L|390:60,1,100
438,346,9819,5,0,0:0:0:0:
452,168,9965,2,0,P|405:218|416:270,1,100
306,68,10257,2,0,P|326:134|377:151,1,100
147,145,10548,1,0,0:0:0:0:
423,218,10695,6,0,P|451:133|398:61,1,187.500007152558
164,314,10987,2,0,P|224:382|314:372,1,187.500007152558
219,52,11279,1,0,0:0:0:0:
261,304,11425,6,0,P|289:248|284:197,1,93.75
255,310,11716,5,0,0:0:0:0:
107,104,11862,1,0,0:0:0:0:
285,90,12008,2,0,P|256:128|208:136,1,100
385,236,12300,1,0,0:0:0:0:
131,294,12446,6,0,L|15:282,1,100
255,310,12738,2,0,L|197:304,1,50
134,296,12884,1,0,0:0:0:0:
355,320,13030,2,0,L|239:308,1,100
387,31,13322,5,0,0:0:0:0:
401,209,13468,2,0,P|354:159|365:107,1,100
255,309,13760,2,0,P|275:243|325:226,1,100
96,232,14051,1,0,0:0:0:0:
377,119,14198,6,0,P|386:142|384:168,1,50
261,357,14344,2,0,P|253:333|255:307,1,50
430,178,14490,2,0,P|426:202|411:223,1,50
209,297,14636,1,0,0:0:0:0:
447,255,14782,1,0,0:0:0:0:
194,219,14928,1,0,0:0:0:0:
104,60,15804,5,0,0:0:0:0:
109,109,15876,1,0,0:0:0:0:
115,159,15949,1,0,0:0:0:0:
219,63,16096,1,0,0:0:0:0:
201,222,16242,1,0,0:0:0:0:
338,190,16389,1,0,0:0:0:0:
246,320,16534,1,0,0:0:0:0:
381,361,16681,1,0,0:0:0:0:
422,150,16826,6,0,P|370:157|337:191,1,100
390,346,17118,1,0,0:0:0:0:
194,172,17264,2,0,L|204:252,1,50
208,272,17410,1,0,0:0:0:0:
181,76,17556,1,0,0:0:0:0:
337,189,17702,6,0,L|349:89,1,100
95,180,17994,2,0,L|108:280,1,100
82,83,18286,1,0,0:0:0:0:
193,314,18432,2,0,P|152:280|87:288,1,100
45,384,18724,5,0,0:0:0:0:
269,250,18870,2,0,B|301:252|301:252|326:265|326:265|365:269,1,100,0|0,3:0|3:0,3:0:0:0:
459,84,19162,2,0,B|440:128|440:128|447:179,1,100
501,307,19454,5,0,0:0:0:0:
501,307,19599,1,0,0:0:0:0:
439,81,19746,2,0,B|420:125|420:125|427:176,1,100
501,307,20038,1,0,0:0:0:0:
501,307,20183,1,0,0:0:0:0:
419,76,20330,5,0,2:0:0:0:
411,94,20403,1,0,2:0:0:0:
404,112,20476,1,0,0:0:0:0:
366,271,20622,1,0,0:0:0:0:
508,135,20767,1,0,0:0:0:0:
349,283,20914,2,0,B|302:289|302:289|252:270,1,100
181,76,21205,6,0,L|186:175,1,100
73,280,21497,2,0,L|70:230,1,50,0|0,3:0|3:0,3:0:0:0:
67,180,21643,1,0,3:0:0:0:
78,379,21789,2,0,L|72:279,1,100
263,123,22081,6,0,P|221:169|159:169,1,100
399,259,22373,2,0,P|336:261|292:217,1,100
510,122,22665,1,0,0:0:0:0:
487,219,22810,1,0,0:0:0:0:
263,128,22957,5,0,0:0:0:0:
260,96,23030,1,0,0:0:0:0:
257,65,23103,1,0,0:0:0:0:
254,34,23176,1,0,0:0:0:0:
251,3,23248,5,0,0:0:0:0:
271,260,23395,1,0,0:0:0:0:
417,275,23541,1,0,0:0:0:0:
135,243,23687,1,0,0:0:0:0:
387,364,23833,6,0,B|419:319|419:319|415:251,1,100
262,122,24125,1,0,0:0:0:0:
311,265,24271,1,0,0:0:0:0:
339,77,24417,2,0,P|306:41|226:45,1,100
85,264,24709,6,0,P|133:255|166:219,1,100
13,94,25001,2,0,B|15:139|15:139|28:162|28:162|29:225,1,100
11,1,25293,1,0,0:0:0:0:
91,275,25439,2,0,P|139:266|172:230,1,100
127,124,25731,5,0,0:0:0:0:
237,310,25877,1,0,0:0:0:0:
120,116,26023,2,0,B|173:101|173:101|231:118,1,100
237,310,26315,1,0,0:0:0:0:
128,75,26461,6,0,B|182:83|182:83|227:123,1,100,0|0,2:0|2:0,2:0:0:0:
237,310,26753,1,0,0:0:0:0:
152,41,26899,5,0,0:0:0:0:
166,218,27045,1,0,0:0:0:0:
175,11,27191,1,0,0:0:0:0:
193,239,27337,5,0,0:0:0:0:
24,94,27483,2,0,B|13:145|13:145|34:210,1,100
122,345,27775,1,0,0:0:0:0:
283,270,27921,2,0,P|236:240|160:255,1,100
388,355,28213,6,0,B|441:363|441:363|523:335,1,100
375,148,28505,2,0,L|383:224,1,50
385,249,28651,1,0,0:0:0:0:
365,48,28797,2,0,L|377:174,1,100
205,322,29089,6,0,P|247:276|309:276,1,100
80,193,29381,2,0,P|143:191|187:235,1,100
23,354,29673,1,0,0:0:0:0:
0,257,29818,1,0,0:0:0:0:
185,85,29965,5,0,0:0:0:0:
181,115,30037,1,0,0:0:0:0:
178,147,30110,1,0,0:0:0:0:
175,177,30183,1,0,0:0:0:0:
171,210,30256,1,0,0:0:0:0:
260,363,30403,6,0,B|284:318|284:318|279:244,1,100,0|0,3:0|0:0,0:0:0:0:
128,336,30695,1,0,0:0:0:0:
62,133,30841,6,0,P|122:88|171:92,1,125
186,277,31132,1,0,0:0:0:0:
78,245,31278,1,0,0:0:0:0:
205,12,31424,2,0,P|250:72|246:121,1,125
228,384,31716,6,0,P|183:324|187:275,1,125
372,260,32007,1,0,0:0:0:0:
340,368,32153,1,0,0:0:0:0:
107,241,32300,2,0,P|167:196|216:200,1,125
478,218,32592,6,0,P|418:263|369:259,1,125
354,74,32883,1,0,0:0:0:0:
462,106,33029,1,0,0:0:0:0:
335,339,33176,2,0,P|290:279|294:230,1,125
242,0,33468,6,0,P|240:61|200:106,1,125
13,135,33760,2,0,L|104:123,1,62.5
313,125,33906,6,0,P|259:95|199:107,1,125
364,14,34198,1,0,0:0:0:0:
251,253,34344,6,0,L|246:191,1,62.5
159,30,34490,1,0,0:0:0:0:
153,179,34636,1,0,0:0:0:0:
356,22,34782,1,0,0:0:0:0:
364,270,34928,2,8,P|289:278|249:251,1,125
445,138,35220,5,0,0:0:0:0:
467,323,35366,1,0,0:0:0:0:
253,149,35512,2,0,L|330:141,1,62.5
512,221,35658,1,0,0:0:0:0:
356,22,35804,2,8,P|281:13|241:40,1,125
309,267,36096,6,0,L|315:133,1,125
71,210,36388,1,0,0:0:0:0:
174,318,36534,1,0,0:0:0:0:
314,142,36680,2,8,P|253:97|205:101,1,125,8|8,0:3|0:3,0:3:0:0:
72,321,36972,5,0,0:0:0:0:
117,118,37118,1,0,3:0:0:0:
64,329,37264,1,0,0:0:0:0:
264,121,37410,2,0,P|237:104|206:99,1,62.5,0|0,3:0|3:0,3:0:0:0:
92,242,37556,2,0,P|122:236|149:220,1,62.5,0|0,3:0|3:0,3:0:0:0:
303,167,37702,2,8,P|287:139|263:120,1,62.5,0|8,3:0|3:0,3:0:0:0:
258,273,37848,5,0,0:0:0:0:
293,283,37920,1,0,0:0:0:0:
330,282,37993,1,0,0:0:0:0:
365,269,38066,1,0,0:0:0:0:
394,245,38139,1,0,0:0:0:0:
413,213,38212,1,0,0:0:0:0:
421,177,38285,1,0,0:0:0:0:
417,140,38358,1,0,0:0:0:0:
401,106,38431,5,0,0:0:0:0:
367,122,38504,1,0,0:0:0:0:
330,123,38577,1,0,0:0:0:0:
295,109,38650,1,0,0:0:0:0:
270,81,38724,6,0,L|259:8,3,62.5
189,165,39016,2,0,L|178:238,3,62.5
46,148,39308,1,0,0:0:0:0:
42,110,39380,1,0,0:0:0:0:
38,73,39454,2,0,L|30:-1,1,62.5
246,92,39600,5,0,0:0:0:0:
272,118,39672,1,0,0:0:0:0:
285,152,39745,1,0,0:0:0:0:
283,190,39818,1,0,0:0:0:0:
265,222,39891,1,0,0:0:0:0:
246,254,39966,1,0,0:0:0:0:
244,291,40039,1,0,0:0:0:0:
257,326,40112,1,0,0:0:0:0:
285,349,40184,5,0,0:0:0:0:
307,319,40256,1,0,0:0:0:0:
339,302,40329,1,0,0:0:0:0:
377,300,40402,1,0,0:0:0:0:
411,314,40476,6,0,L|431:383,3,62.5
492,222,40768,2,0,L|512:153,3,62.5
402,201,41059,1,0,0:0:0:0:
364,196,41131,1,0,0:0:0:0:
327,191,41204,1,0,0:0:0:0:
290,186,41277,1,0,0:0:0:0:
253,182,41351,6,0,P|245:248|266:272,1,62.5
322,72,41497,2,0,P|264:40|199:57,1,125
168,123,41716,1,0,0:0:0:0:
168,123,41789,1,0,0:0:0:0:
368,286,41935,1,0,0:0:0:0:
330,80,42081,1,0,0:0:0:0:
207,380,42227,5,0,0:0:0:0:
245,174,42373,1,0,0:0:0:0:
403,375,42519,1,0,0:0:0:0:
366,368,42591,1,0,0:0:0:0:
329,362,42664,1,0,0:0:0:0:
469,119,42811,1,0,0:0:0:0:
507,325,42957,1,0,0:0:0:0:
512,40,43103,5,0,0:0:0:0:
322,131,43249,1,0,0:0:0:0:
504,214,43395,5,0,0:0:0:0:
314,123,43541,1,0,0:0:0:0:
496,24,43687,5,0,0:0:0:0:
306,115,43833,1,0,0:0:0:0:
414,316,43979,5,0,0:0:0:0:
429,103,44125,2,0,L|422:171,1,62.5
413,87,44271,2,0,L|406:155,1,62.5
422,324,44417,5,0,0:0:0:0:
298,305,44563,1,0,0:0:0:0:
174,286,44709,1,0,0:0:0:0:
237,80,44855,6,0,B|231:129|231:129|244:156|244:156|238:234,1,112.499996566773
139,361,45147,2,0,P|96:331|91:241,1,112.499996566773
340,157,45439,2,0,P|296:190|207:166,1,112.499996566773
97,50,45731,6,0,L|88:208,1,112.499996566773
7,242,46023,1,0,0:0:0:0:
107,44,46169,6,0,L|98:202,1,112.499996566773
0,251,46461,1,0,0:0:0:0:
214,50,46607,6,0,B|160:30|160:30|106:43,2,112.499996566773
340,157,47045,2,0,B|394:177|394:177|447:163,2,112.499996566773
214,50,47483,6,0,B|208:99|208:99|221:126|221:126|215:204,1,112.499996566773
367,297,47775,6,0,P|335:256|250:249,1,112.499996566773
89,357,48067,2,0,L|201:347,1,112.499996566773
366,188,48359,6,0,B|351:244|351:244|373:321,1,112.499996566773
473,350,48651,1,0,0:0:0:0:
347,189,48797,6,0,B|341:246|341:246|377:319,1,112.499996566773
484,358,49089,1,0,0:0:0:0:
329,194,49235,6,0,B|332:251|332:251|381:316,1,112.499996566773
298,88,49527,2,0,P|231:137|229:213,1,112.499996566773
409,74,49819,2,0,P|367:2|290:-7,1,112.499996566773
113,157,50111,6,0,B|162:151|162:151|189:164|189:164|267:158,1,112.499996566773
33,32,50403,1,0,0:0:0:0:
137,180,50549,6,0,B|186:182|186:182|210:200|210:200|288:207,1,112.499996566773
33,32,50841,1,0,0:0:0:0:
153,206,50987,6,0,B|201:217|201:217|222:238|222:238|297:259,1,112.499996566773
33,32,51278,5,0,0:0:0:0:
161,238,51424,6,0,B|206:257|206:257|223:282|223:282|293:315,1,112.499996566773
33,32,51716,1,0,0:0:0:0:
154,344,51862,6,0,B|175:290|175:290|155:220,1,112.499996566773
7,126,52154,2,0,P|65:129|116:48,1,112.499996566773
262,5,52446,2,0,B|237:58|237:58|248:143,1,112.499996566773
435,259,52738,6,0,B|384:231|384:231|283:234,1,112.499996566773
247,361,53030,1,0,0:0:0:0:
439,248,53176,6,0,B|388:220|388:220|287:223,1,112.499996566773
238,370,53468,1,0,0:0:0:0:
439,248,53614,6,0,L|457:84,2,112.499996566773
244,122,54052,2,0,L|231:10,2,112.499996566773
434,357,54490,6,0,B|428:308|428:308|441:281|441:281|435:203,1,112.499996566773
205,218,54782,2,0,B|263:227|263:227|335:191,1,112.499996566773
438,31,55074,2,0,P|383:50|356:156,1,112.499996566773
160,317,55366,6,0,B|196:271|196:271|207:191,1,112.499996566773
89,116,55658,1,0,0:0:0:0:
177,323,55804,6,0,B|205:272|205:272|202:191,1,112.499996566773
80,105,56096,1,0,0:0:0:0:
195,326,56242,6,0,B|214:271|214:271|196:192,1,112.499996566773
9,384,56534,2,0,L|154:376,1,112.499996566773
283,176,56826,2,0,P|230:126|177:128,1,112.499996566773
335,268,57118,6,0,P|385:215|383:162,1,112.499996566773
119,182,57410,1,0,0:0:0:0:
363,262,57556,6,0,P|421:218|428:165,1,112.499996566773
119,182,57848,1,0,0:0:0:0:
396,258,57994,6,0,P|460:224|476:173,1,112.499996566773
119,182,58286,1,0,0:0:0:0:
185,353,58432,5,0,0:0:0:0:
279,124,58578,1,0,0:0:0:0:
192,373,58724,1,0,0:0:0:0:
108,104,58870,6,0,P|147:70|221:75,1,112.499996566773
201,219,59162,1,0,0:0:0:0:
108,104,59308,1,0,0:0:0:0:
251,1,59454,2,0,P|284:40|279:114,1,112.499996566773
253,384,59746,6,0,P|166:374|136:175,1,299.999990844727
301,210,60184,1,0,0:0:0:0:
253,384,60330,1,0,0:0:0:0:
120,194,60476,1,0,0:0:0:0:
350,289,60622,6,0,P|437:279|467:80,1,299.999990844727
302,115,61060,1,0,0:0:0:0:
350,289,61206,1,0,0:0:0:0:
483,99,61352,1,0,0:0:0:0:
251,17,61497,6,0,L|86:29,1,149.999995422363
0,247,61789,1,0,0:0:0:0:
294,115,61935,6,0,L|144:125,1,149.999995422363
43,345,62227,1,0,0:0:0:0:
294,115,62373,6,0,P|375:147|352:347,1,299.999990844727
190,330,62811,1,0,0:0:0:0:
215,151,62957,1,0,0:0:0:0:
182,338,63103,1,0,0:0:0:0:
219,26,63249,6,0,P|300:58|277:258,1,299.999990844727
115,241,63687,1,0,0:0:0:0:
139,62,63833,1,0,0:0:0:0:
107,249,63979,1,0,0:0:0:0:
350,65,64125,6,0,P|302:24|211:30,1,149.999995422363
423,136,64417,2,0,P|450:79|420:-7,1,149.999995422363
221,122,64709,1,0,0:0:0:0:
374,229,64855,2,0,P|436:240|511:189,1,149.999995422363
260,217,65147,2,0,P|264:279|333:340,1,149.999995422363
423,136,65439,1,0,0:0:0:0:
447,315,65585,1,0,0:0:0:0:
415,128,65731,1,0,0:0:0:0:
218,243,65877,6,0,P|144:241|95:188,1,112.499996566773
236,86,66169,1,0,0:0:0:0:
363,212,66315,1,0,0:0:0:0:
114,220,66461,6,0,P|95:170|108:116,1,112.499996566773
321,26,66753,6,0,B|351:152|235:124|295:281,1,224.999993133545
329,18,67191,2,0,P|431:59|411:201,1,224.999993133545
337,10,67629,2,0,P|262:9|206:17,1,112.499996566773
96,278,67921,1,0,0:0:0:0:
276,192,68067,1,0,0:0:0:0:
90,165,68213,1,0,0:0:0:0:
257,315,68359,1,0,0:0:0:0:
179,22,68505,6,0,P|150:89|178:156,1,112.499996566773
378,162,68797,2,0,P|334:104|263:94,1,112.499996566773
155,257,69089,2,0,P|227:247|275:191,1,112.499996566773
49,60,69381,6,0,L|30:224,1,112.499996566773
13,358,69673,1,0,0:0:0:0:
31,209,69819,1,0,0:0:0:0:
13,358,69965,2,0,L|176:344,1,112.499996566773
490,170,70257,6,0,L|326:189,1,112.499996566773
192,206,70549,1,0,0:0:0:0:
341,188,70695,1,0,0:0:0:0:
192,206,70841,2,0,L|206:43,1,112.499996566773
337,384,71132,6,0,L|173:365,1,112.499996566773
39,348,71424,1,0,0:0:0:0:
417,238,71570,6,0,L|305:250,1,112.499996566773
119,274,71862,1,0,0:0:0:0:
484,36,72008,6,0,L|395:105,1,112.499996566773
202,253,72300,1,0,0:0:0:0:
309,0,72446,6,0,L|295:111,1,112.499996566773
369,312,72738,1,0,0:0:0:0:
369,312,72811,1,0,0:0:0:0:
369,312,72884,1,0,0:0:0:0:
134,51,104417,5,0,0:0:0:0:
134,51,104563,1,0,0:0:0:0:
97,227,104709,1,0,0:0:0:0:
260,151,104855,2,0,L|377:143,2,100
4,240,105293,2,0,L|213:253,1,200
391,349,105731,2,0,L|292:355,1,100
84,363,106023,1,0,0:0:0:0:
211,236,106169,6,0,L|313:242,2,100
86,104,106607,2,0,L|207:96,1,100
366,91,106899,1,0,0:0:0:0:
211,236,107045,1,0,0:0:0:0:
211,236,107191,2,0,L|109:242,1,100
366,91,107483,1,0,0:0:0:0:
366,91,107629,2,0,L|468:97,1,100
322,377,107921,6,0,L|309:168,1,200
109,120,108359,2,0,L|103:222,2,100
253,0,108797,1,0,0:0:0:0:
253,0,108943,2,0,L|259:102,1,100
381,284,109235,6,0,L|394:75,1,200
200,171,109673,2,0,L|213:380,1,200
398,270,110111,2,0,L|404:168,1,100
260,14,110403,1,0,0:0:0:0:
262,63,110475,1,0,0:0:0:0:
265,113,110548,5,0,0:0:0:0:
416,56,110695,1,0,0:0:0:0:
416,56,110841,1,0,0:0:0:0:
240,264,110987,1,0,0:0:0:0:
390,206,111132,1,0,0:0:0:0:
390,206,111278,1,0,0:0:0:0:
260,14,111424,5,0,0:0:0:0:
260,14,111570,1,0,0:0:0:0:
297,190,111716,1,0,0:0:0:0:
134,114,111862,2,0,L|17:106,2,100
387,212,112300,2,0,L|178:225,1,200
12,339,112738,2,0,L|111:345,1,100
282,356,113030,1,0,0:0:0:0:
169,203,113176,6,0,L|69:209,2,100
348,90,113614,2,0,L|248:83,1,100
77,72,113906,1,0,0:0:0:0:
283,209,114052,1,0,0:0:0:0:
283,209,114198,2,0,L|382:202,1,100
176,78,114490,1,0,0:0:0:0:
176,78,114636,2,0,L|76:71,1,100
183,365,114928,6,0,L|196:156,1,200
344,24,115366,2,0,L|350:123,2,100
493,180,115804,1,0,0:0:0:0:
493,180,115950,2,0,L|486:279,1,100
297,384,116242,2,0,L|284:175,1,200
147,10,116680,6,0,L|134:219,1,200
24,378,117118,2,0,L|17:279,1,100
234,77,117410,1,0,0:0:0:0:
230,126,117482,1,0,0:0:0:0:
226,176,117555,5,0,0:0:0:0:
75,119,117702,1,0,0:0:0:0:
75,119,117848,1,0,0:0:0:0:
257,322,117994,1,0,0:0:0:0:
106,265,118141,1,0,0:0:0:0:
106,265,118287,1,0,0:0:0:0:
138,108,134198,6,0,P|204:85|277:98,1,112.499996566773
223,225,134490,1,0,0:0:0:0:
138,108,134636,1,0,0:0:0:0:
389,71,134782,2,0,P|378:134|340:186,1,112.499996566773
49,300,135074,6,0,P|89:231|238:237,1,224.999993133545
41,308,135512,2,0,B|154:246|157:365|294:267,1,224.999993133545
33,316,135950,6,0,L|48:155,1,112.499996566773
126,65,136242,1,0,0:0:0:0:
42,197,136388,1,0,0:0:0:0:
272,133,136534,1,0,0:0:0:0:
187,0,136680,1,0,0:0:0:0:
220,223,136826,6,0,B|274:236|274:236|336:223,1,112.499996566773
485,84,137118,2,0,L|353:75,1,112.499996566773
337,331,137410,2,0,P|404:303|439:224,1,112.499996566773
332,9,137702,6,0,B|234:20|234:20|198:38|198:38|112:48,1,224.999993133545
340,17,138140,2,0,P|383:80|279:192,1,224.999993133545
348,9,138578,6,0,L|510:-4,1,112.499996566773
405,254,138870,1,0,0:0:0:0:
284,94,139016,1,0,0:0:0:0:
501,170,139162,2,0,L|514:297,1,112.499996566773
232,327,139454,6,0,P|310:237|426:275,1,224.999993133545
224,335,139892,2,0,P|146:245|30:283,1,224.999993133545
0,384,140330,1,0,0:0:0:0:
232,343,140476,1,0,0:0:0:0:
110,159,140622,1,0,0:0:0:0:
243,355,140768,5,0,0:0:0:0:
341,127,140914,1,0,0:0:0:0:
93,144,141060,1,0,0:0:0:0:
357,384,141205,6,0,L|494:371,1,112.499996566773
444,158,141497,2,0,P|387:127|308:137,1,112.499996566773
476,381,141789,2,0,B|494:328|494:328|477:255,1,112.499996566773
238,160,142081,6,0,L|226:398,1,224.999993133545
246,152,142519,2,0,B|344:163|344:163|380:181|380:181|466:191,1,224.999993133545
255,144,142957,6,0,L|124:152,1,112.499996566773
250,319,143249,1,0,0:0:0:0:
334,187,143395,1,0,0:0:0:0:
104,251,143541,1,0,0:0:0:0:
189,384,143687,1,0,0:0:0:0:
255,144,143833,6,0,L|124:136,1,112.499996566773
318,2,144125,2,0,P|341:62|307:127,1,112.499996566773
250,319,144417,2,0,P|227:259|261:194,1,112.499996566773
483,324,144709,6,0,L|250:327,1,224.999993133545
475,316,145147,2,0,P|390:262|420:146,1,224.999993133545
467,308,145585,2,0,L|480:193,1,112.499996566773
264,151,145877,1,0,0:0:0:0:
370,272,146023,1,0,0:0:0:0:
389,57,146169,2,0,B|331:38|331:38|269:47,1,112.499996566773
132,283,146461,6,0,P|223:265|261:142,1,224.999993133545
140,291,146899,2,0,P|49:273|11:150,1,224.999993133545
228,66,147337,5,0,0:0:0:0:
148,299,147483,1,0,0:0:0:0:
95,66,147629,1,0,0:0:0:0:
250,212,147775,1,0,0:0:0:0:
8,158,147921,1,0,0:0:0:0:
245,81,148067,1,0,0:0:0:0:
137,321,148213,6,0,B|69:318|69:318|-21:251,1,125
262,119,148505,1,0,0:0:0:0:
246,243,148650,1,0,0:0:0:0:
154,80,148797,2,0,P|183:33|272:15,1,125
464,314,149089,6,0,P|347:360|246:229,1,299.999990844727
497,77,149527,1,0,0:0:0:0:
480,195,149672,1,0,0:0:0:0:
464,314,149819,1,0,0:0:0:0:
104,126,149965,6,0,P|117:70|348:24,1,299.999990844727
136,361,150403,1,0,0:0:0:0:
120,242,150550,1,0,0:0:0:0:
104,126,150695,1,0,0:0:0:0:
370,287,150841,6,0,L|176:259,1,149.999995422363
93,118,151132,1,0,0:0:0:0:
386,310,151278,6,0,L|192:282,1,149.999995422363
81,105,151570,1,0,0:0:0:0:
386,310,151716,6,0,P|464:259|380:68,1,299.999990844727
151,278,152154,1,0,0:0:0:0:
270,294,152301,1,0,0:0:0:0:
386,310,152446,1,0,0:0:0:0:
40,91,152592,6,0,B|63:196|63:196|40:278|40:278|67:385,1,299.999990844727
274,59,153030,1,0,0:0:0:0:
156,75,153177,1,0,0:0:0:0:
40,91,153322,1,0,0:0:0:0:
335,167,153468,6,0,P|379:134|391:36,1,149.999995422363
237,214,153760,2,0,P|270:258|368:270,1,149.999995422363
274,59,154052,1,0,0:0:0:0:
144,215,154198,6,0,L|130:401,1,149.999995422363
405,194,154490,2,0,L|393:44,1,149.999995422363
47,257,170110,6,0,L|126:251,1,62.5
114,164,170329,2,0,L|193:158,1,62.5
181,71,170548,2,0,L|260:65,1,62.5
138,346,170767,6,0,L|217:340,1,62.5
205,253,170986,2,0,L|284:247,1,62.5
272,160,171205,2,0,L|351:154,1,62.5
512,192,171424,6,0,L|433:186,1,62.5
445,99,171643,2,0,L|366:93,1,62.5
378,6,171862,2,0,L|299:0,1,62.5
421,281,172081,6,0,L|342:275,1,62.5
354,188,172300,2,0,L|275:182,1,62.5
481,8,172518,5,0,0:0:0:0:
224,90,172628,1,0,0:0:0:0:
224,90,172956,6,0,L|219:198,1,87.499997329712
329,328,173175,2,0,P|312:281|282:251,1,87.499997329712
89,333,173394,2,0,P|154:370|251:313,1,174.999994659424
82,158,173723,2,0,L|89:346,1,174.999994659424
74,150,174051,6,0,B|157:122|157:122|247:159,1,174.999994659424
233,359,174380,2,0,B|167:301|167:301|154:204,1,174.999994659424
346,115,174708,2,0,B|328:200|328:200|251:260,1,174.999994659424,0|0,0:0|0:0,3:0:0:0:
101,70,175037,2,0,P|175:68|246:150,1,174.999994659424
130,265,175365,6,0,P|124:222|134:180,1,87.499997329712
350,116,175584,2,0,P|312:144|268:156,1,87.499997329712
103,0,175803,2,0,P|142:15|174:45,1,87.499997329712
48,297,176022,2,0,P|57:213|134:179,1,174.999994659424
274,280,176351,2,0,P|196:313|129:264,1,174.999994659424
282,288,176679,6,0,L|289:100,1,174.999994659424
512,220,177008,2,0,P|423:258|333:195,1,174.999994659424
427,66,177336,2,0,L|429:154,1,87.499997329712
431,359,177555,1,0,0:0:0:0:
187,286,177774,5,0,0:0:0:0:
324,384,177883,1,0,0:0:0:0:
251,157,177993,6,0,L|52:174,1,174.999994659424
115,339,178321,2,0,P|208:374|269:304,1,174.999994659424
107,254,178650,2,0,P|30:317|60:404,1,174.999994659424
187,286,178978,2,0,L|194:94,1,174.999994659424
195,294,179307,6,0,B|325:259|325:259|379:287,1,174.999994659424
170,379,179635,2,0,L|179:165,1,174.999994659424
315,102,179964,2,0,B|358:178|358:178|322:269,1,174.999994659424
209,97,180292,2,0,B|253:21|253:21|350:7,1,174.999994659424
511,173,180621,6,0,P|408:209|350:168,1,174.999994659424
428,27,180949,1,0,0:0:0:0:
427,26,181059,2,0,L|432:114,1,87.499997329712
286,313,181278,2,0,P|306:205|370:176,1,174.999994659424
394,358,181606,2,0,L|209:353,1,174.999994659424
408,348,181935,6,0,B|415:276|415:276|434:245|434:245|439:176,1,174.999994659424
443,91,182263,1,0,0:0:0:0:
215,173,182372,2,0,L|229:266,1,87.499997329712
290,76,182591,2,0,P|246:54|202:52,1,87.499997329712
289,343,182810,5,0,0:0:0:0:
330,218,182920,1,0,0:0:0:0:
290,40,195073,5,0,0:0:0:0:
224,153,195621,5,0,0:0:0:0:
136,155,195730,1,0,0:0:0:0:
48,157,195839,1,0,0:0:0:0:
171,31,195949,5,0,0:0:0:0:
232,161,196059,2,0,P|192:243|105:258,1,174.999994659424
240,169,196387,2,0,P|291:244|260:327,1,174.999994659424
175,358,196716,1,0,0:0:0:0:
248,161,196825,2,0,P|339:154|395:222,1,174.999994659424
48,378,197263,5,0,0:0:0:0:
89,208,197372,1,0,0:0:0:0:
89,208,197591,1,0,0:0:0:0:
290,323,197701,6,0,L|75:301,1,174.999994659424
16,287,198029,1,0,0:0:0:0:
149,122,198139,2,0,P|192:228|157:276,1,174.999994659424
116,42,198577,1,0,0:0:0:0:
274,113,198686,2,0,L|290:297,1,174.999994659424
192,384,199015,6,0,P|278:322|388:348,1,174.999994659424
425,359,199343,1,0,0:0:0:0:
443,182,199453,1,0,0:0:0:0:
107,340,199672,1,0,0:0:0:0:
180,65,199891,5,0,0:0:0:0:
261,231,200000,1,0,0:0:0:0:
304,107,200110,1,0,0:0:0:0:
137,189,200219,1,0,0:0:0:0:
389,206,200329,6,0,P|428:135|408:36,1,174.999994659424
330,5,200657,1,0,0:0:0:0:
261,231,200767,2,0,L|498:220,1,174.999994659424
144,143,201205,1,0,0:0:0:0:
234,335,201314,2,0,P|336:309|368:227,1,174.999994659424
195,210,201643,6,0,L|179:393,1,174.999994659424
46,354,201971,2,0,L|41:275,1,43.749998664856
29,149,202080,1,0,0:0:0:0:
308,367,202299,1,0,0:0:0:0:
368,134,202518,1,0,0:0:0:0:
258,210,202628,2,0,B|195:214|195:214|151:243|151:243|83:249,1,174.999994659424
111,80,202956,6,0,L|120:190,1,62.5
194,39,203175,2,0,L|203:149,1,62.5
266,218,203394,6,0,L|260:280,1,62.5
349,259,203613,2,0,L|343:321,1,62.5
424,97,203832,6,0,L|433:207,1,62.5
507,56,204051,2,0,L|516:166,1,62.5
439,265,204270,5,0,0:0:0:0:
439,265,204380,1,0,0:0:0:0:
357,181,204489,1,0,0:0:0:0:
357,181,204599,1,0,0:0:0:0:
384,338,204708,5,0,0:0:0:0:
384,338,204818,1,0,0:0:0:0:
266,218,204927,1,0,0:0:0:0:
266,218,205037,1,0,0:0:0:0:
217,354,205146,5,0,0:0:0:0:
217,354,205256,1,0,0:0:0:0:
276,122,205365,1,0,0:0:0:0:
73,197,205475,1,0,0:0:0:0:
