osu file format v14

[General]
AudioFilename: Mikasa_new.mp3
AudioLeadIn: 0
PreviewTime: 143341
Countdown: 0
SampleSet: Normal
StackLeniency: 0.7
Mode: 1
LetterboxInBreaks: 0
WidescreenStoryboard: 1

[Editor]
Bookmarks: 2618,28800,41891,45163,59887,73523,74614,86068,92614,118796,124523,153159,156432,182614,185887
DistanceSpacing: 0.4
BeatDivisor: 8
GridSize: 32
TimelineZoom: 2.899998

[Metadata]
Title:Mikasa
TitleUnicode:Mikasa
Artist:Veil Of Maya
ArtistUnicode:Veil Of Maya
Creator:Slim-san
Version:lLenin's Oni
Source:
Tags:matriarch metal djent Heaxys lLenin english rock metalcore arcpotato vom Sumerian Records SUM437 Hivie iLenin
BeatmapID:3618617
BeatmapSetID:1723898

[Difficulty]
HPDrainRate:5.5
CircleSize:2
OverallDifficulty:6
ApproachRate:10
SliderMultiplier:1.4
SliderTickRate:1

[Events]
//Background and Video events
0,0,"72235081_p0.jpg",0,100
//Break Periods
2,143541,152709
//Storyboard Layer 0 (Background)
//Storyboard Layer 1 (Fail)
//Storyboard Layer 2 (Pass)
//Storyboard Layer 3 (Foreground)
//Storyboard Layer 4 (Overlay)
//Storyboard Sound Samples

[TimingPoints]
163,272.727272727273,3,1,0,100,1,0
982,-100,3,1,0,100,0,0
22526,-111.111111111111,3,1,0,100,0,0
28799,-95.2380952380952,3,1,0,100,0,1
41890,-95.2380952380952,3,1,0,100,0,0
42163,-100,3,1,0,100,0,0
45163,409.089979340956,4,1,0,100,1,0
45163,-66.6795455986339,4,1,0,100,0,0
45572,-90.9090909090909,4,1,0,100,0,0
59887,272.727272727273,3,1,0,100,1,0
59887,-136.337297918795,3,1,0,100,0,0
60160,-100,3,1,0,100,0,0
63432,-90.9090909090909,3,1,0,100,0,1
72977,-90.9090909090909,3,1,0,100,0,0
73796,-100,3,1,0,100,0,0
92614,-95.2380952380952,3,1,0,100,0,1
118796,-95.2380952380952,3,1,0,100,0,0
119068,-111.111111111111,3,1,0,100,0,0
143477,-111.111111111111,3,1,0,20,0,0
153023,-111.111111111111,3,1,0,100,0,0
156432,-95.2380952380952,3,1,0,100,0,1
182614,-95.2380952380952,3,1,0,100,0,0
182750,-97.5551580202743,3,1,0,100,0,0
182887,-100.006112843083,3,1,0,100,0,0
183023,-102.564102564103,3,1,0,100,0,0
183091,-103.892804978726,3,1,0,100,0,0
183159,-105.256385511163,3,1,0,100,0,0
183296,-108.115252445149,3,1,0,100,0,0
183432,-111.111111111111,3,1,0,100,0,0

[HitObjects]
256,192,981,5,0,0:0:0:0:
256,192,1049,1,0,0:0:0:0:
256,192,1117,1,8,0:0:0:0:
256,192,1253,1,0,0:0:0:0:
256,192,1390,1,8,0:0:0:0:
256,192,1526,1,0,0:0:0:0:
256,192,1594,1,0,0:0:0:0:
256,192,1663,1,0,0:0:0:0:
256,192,1799,1,0,0:0:0:0:
256,192,1935,1,8,0:0:0:0:
256,192,2072,1,8,0:0:0:0:
256,192,2208,1,8,0:0:0:0:
256,192,2344,1,8,0:0:0:0:
256,192,2481,1,8,0:0:0:0:
256,192,2617,1,4,0:0:0:0:
256,192,2890,1,0,0:0:0:0:
256,192,2958,1,0,0:0:0:0:
256,192,3026,1,8,0:0:0:0:
256,192,3163,1,0,0:0:0:0:
256,192,3299,1,8,0:0:0:0:
256,160,3435,1,0,0:0:0:0:
256,160,3572,1,0,0:0:0:0:
288,160,3708,1,8,0:0:0:0:
288,160,3844,1,0,0:0:0:0:
288,160,3981,1,8,0:0:0:0:
288,160,4117,1,8,0:0:0:0:
288,224,4253,1,0,0:0:0:0:
288,160,4526,1,0,0:0:0:0:
256,192,4663,1,8,0:0:0:0:
224,160,4799,1,8,0:0:0:0:
224,160,4935,1,0,0:0:0:0:
256,160,5072,1,8,0:0:0:0:
288,192,5208,1,8,0:0:0:0:
288,192,5344,1,0,0:0:0:0:
288,192,5413,1,0,0:0:0:0:
288,192,5481,1,8,0:0:0:0:
288,192,5617,1,0,0:0:0:0:
256,192,5753,1,8,0:0:0:0:
288,160,5890,1,0,0:0:0:0:
256,224,6163,1,0,0:0:0:0:
256,224,6299,1,8,0:0:0:0:
256,224,6435,1,0,0:0:0:0:
256,192,6572,1,8,0:0:0:0:
256,192,6708,1,0,0:0:0:0:
224,192,6776,1,0,0:0:0:0:
256,224,6844,1,8,0:0:0:0:
256,192,6981,1,0,0:0:0:0:
256,192,7117,1,0,0:0:0:0:
223,159,7253,1,8,0:0:0:0:
256,192,7390,1,8,0:0:0:0:
256,192,7526,1,4,0:0:0:0:
256,192,7799,1,0,0:0:0:0:
256,160,7935,1,12,0:0:0:0:
256,192,8208,1,8,0:0:0:0:
256,160,8344,1,4,0:0:0:0:
256,160,8617,1,8,0:0:0:0:
256,160,8685,1,0,0:0:0:0:
256,160,8753,1,0,0:0:0:0:
256,160,8822,1,0,0:0:0:0:
256,160,8890,1,8,0:0:0:0:
256,160,9026,1,0,0:0:0:0:
256,160,9163,1,12,0:0:0:0:
256,224,9299,1,8,0:0:0:0:
256,224,9435,1,0,0:0:0:0:
256,224,9572,1,8,0:0:0:0:
224,224,9708,1,0,0:0:0:0:
224,224,9844,1,0,0:0:0:0:
224,224,9981,1,8,0:0:0:0:
256,192,10253,1,0,0:0:0:0:
256,192,10390,1,0,0:0:0:0:
224,224,10526,1,8,0:0:0:0:
224,224,10663,1,0,0:0:0:0:
256,192,10799,1,8,0:0:0:0:
256,192,10867,1,8,0:0:0:0:
256,192,10935,1,0,0:0:0:0:
256,192,11003,1,0,0:0:0:0:
256,192,11072,1,8,0:0:0:0:
256,224,11208,1,8,0:0:0:0:
256,224,11344,1,0,0:0:0:0:
256,224,11481,1,0,0:0:0:0:
256,224,11617,1,8,0:0:0:0:
224,192,11753,1,0,0:0:0:0:
246,203,11890,1,8,0:0:0:0:
320,224,12026,1,0,0:0:0:0:
320,224,12163,1,8,0:0:0:0:
256,192,12299,1,8,0:0:0:0:
256,192,12367,1,8,0:0:0:0:
256,192,12435,1,0,0:0:0:0:
288,224,12708,1,0,0:0:0:0:
288,160,12844,1,8,0:0:0:0:
288,160,12981,1,8,0:0:0:0:
288,160,13117,1,0,0:0:0:0:
288,224,13185,1,0,0:0:0:0:
224,160,13253,1,8,0:0:0:0:
320,192,13390,1,8,0:0:0:0:
288,192,13526,1,8,0:0:0:0:
320,192,13663,1,0,0:0:0:0:
288,192,13799,1,8,0:0:0:0:
224,192,14072,1,8,0:0:0:0:
221,189,14140,1,8,0:0:0:0:
221,192,14208,1,8,0:0:0:0:
224,192,14344,1,0,0:0:0:0:
224,192,14481,1,8,0:0:0:0:
224,192,14617,1,8,0:0:0:0:
224,192,14753,1,0,0:0:0:0:
224,192,14890,1,0,0:0:0:0:
224,192,14958,1,0,0:0:0:0:
224,192,15026,1,0,0:0:0:0:
230,190,15163,1,8,0:0:0:0:
256,192,15299,1,0,0:0:0:0:
256,192,15367,1,0,0:0:0:0:
256,192,15435,1,8,0:0:0:0:
256,192,15572,1,0,0:0:0:0:
256,192,15708,1,8,0:0:0:0:
224,192,15844,1,0,0:0:0:0:
256,224,15981,1,8,0:0:0:0:
256,224,16117,1,8,0:0:0:0:
256,224,16253,1,0,0:0:0:0:
256,224,16390,1,0,0:0:0:0:
256,224,16526,1,8,0:0:0:0:
256,224,16663,1,0,0:0:0:0:
256,224,16799,1,8,0:0:0:0:
256,224,16935,1,8,0:0:0:0:
256,224,17072,1,8,0:0:0:0:
256,224,17208,1,0,0:0:0:0:
256,224,17344,1,8,0:0:0:0:
252,213,17617,1,0,0:0:0:0:
256,192,17753,1,8,0:0:0:0:
256,192,17890,1,0,0:0:0:0:
256,224,18026,1,0,0:0:0:0:
256,224,18163,1,8,0:0:0:0:
256,160,18299,1,0,0:0:0:0:
256,192,18435,1,8,0:0:0:0:
256,192,18572,1,8,0:0:0:0:
256,160,18708,1,8,0:0:0:0:
256,160,18844,1,0,0:0:0:0:
256,160,18981,1,8,0:0:0:0:
256,96,19049,1,8,0:0:0:0:
256,96,19117,1,8,0:0:0:0:
243,183,19253,1,0,0:0:0:0:
256,160,19390,1,0,0:0:0:0:
256,160,19526,1,8,0:0:0:0:
224,160,19799,1,0,0:0:0:0:
224,160,19935,1,8,0:0:0:0:
256,160,20072,1,8,0:0:0:0:
256,128,20208,1,8,0:0:0:0:
256,128,20344,1,0,0:0:0:0:
256,192,20617,1,8,0:0:0:0:
256,192,20685,1,0,0:0:0:0:
288,160,20753,1,0,0:0:0:0:
320,192,20890,1,8,0:0:0:0:
256,192,21026,1,0,0:0:0:0:
256,192,21094,1,0,0:0:0:0:
262,187,21163,1,0,0:0:0:0:
265,183,21299,1,8,0:0:0:0:
288,160,21435,1,0,0:0:0:0:
256,160,21503,1,0,0:0:0:0:
288,160,21572,1,8,0:0:0:0:
288,160,21708,1,8,0:0:0:0:
288,160,21844,1,8,0:0:0:0:
288,192,21981,1,0,0:0:0:0:
288,160,22049,1,0,0:0:0:0:
288,192,22117,1,8,0:0:0:0:
320,192,22253,1,0,0:0:0:0:
256,192,22526,1,0,0:0:0:0:
256,192,22663,1,0,0:0:0:0:
256,192,22799,1,8,0:0:0:0:
256,192,22935,1,0,0:0:0:0:
256,192,23072,1,8,0:0:0:0:
256,192,23208,1,8,0:0:0:0:
256,192,23344,1,0,0:0:0:0:
256,192,23481,1,0,0:0:0:0:
256,192,23617,1,8,0:0:0:0:
256,192,23753,1,8,0:0:0:0:
256,192,23890,1,0,0:0:0:0:
256,192,24163,1,0,0:0:0:0:
256,160,24299,1,0,0:0:0:0:
256,160,24435,1,8,0:0:0:0:
256,160,24572,1,8,0:0:0:0:
256,160,24708,1,0,0:0:0:0:
256,160,24844,1,8,0:0:0:0:
256,160,24981,1,0,0:0:0:0:
256,160,25117,1,0,0:0:0:0:
256,160,25253,1,8,0:0:0:0:
256,160,25390,1,8,0:0:0:0:
256,160,25526,1,0,0:0:0:0:
256,192,25799,1,8,0:0:0:0:
256,192,25935,1,8,0:0:0:0:
256,192,26072,1,0,0:0:0:0:
256,192,26208,1,8,0:0:0:0:
288,192,26344,1,0,0:0:0:0:
288,192,26481,1,0,0:0:0:0:
288,192,26617,1,8,0:0:0:0:
288,192,26753,1,0,0:0:0:0:
288,192,26890,1,8,0:0:0:0:
288,192,27026,1,8,0:0:0:0:
256,192,27163,1,4,0:0:0:0:
160,256,27981,1,8,0:0:0:0:
192,224,28253,1,0,0:0:0:0:
192,224,28390,1,0,0:0:0:0:
192,224,28526,1,8,0:0:0:0:
256,192,28799,1,4,0:0:0:0:
224,192,29072,1,0,0:0:0:0:
256,192,29208,1,8,0:0:0:0:
256,256,29344,1,0,0:0:0:0:
256,192,29481,1,8,0:0:0:0:
288,192,29617,1,8,0:0:0:0:
256,192,29753,1,0,0:0:0:0:
256,192,29890,1,8,0:0:0:0:
256,160,30026,1,0,0:0:0:0:
256,192,30163,1,0,0:0:0:0:
288,192,30299,1,8,0:0:0:0:
288,192,30435,1,0,0:0:0:0:
288,192,30503,1,8,0:0:0:0:
288,192,30572,1,0,0:0:0:0:
288,192,30640,1,0,0:0:0:0:
256,192,30708,1,8,0:0:0:0:
256,192,30844,1,0,0:0:0:0:
64,192,30981,1,0,0:0:0:0:
256,192,31117,1,8,0:0:0:0:
192,192,31185,1,8,0:0:0:0:
256,192,31253,1,0,0:0:0:0:
256,160,31390,1,8,0:0:0:0:
288,192,31526,1,0,0:0:0:0:
256,192,31663,1,8,0:0:0:0:
288,192,31799,1,0,0:0:0:0:
288,192,31935,1,0,0:0:0:0:
288,192,32072,1,8,0:0:0:0:
256,224,32344,1,0,0:0:0:0:
256,224,32481,1,8,0:0:0:0:
256,224,32617,1,8,0:0:0:0:
256,224,32753,1,0,0:0:0:0:
288,192,32890,1,0,0:0:0:0:
288,192,32958,1,0,0:0:0:0:
320,224,33026,1,0,0:0:0:0:
256,224,33163,1,8,0:0:0:0:
256,224,33299,1,8,0:0:0:0:
256,192,33435,1,0,0:0:0:0:
256,160,33572,1,0,0:0:0:0:
256,160,33708,1,8,0:0:0:0:
256,224,33981,1,8,0:0:0:0:
256,224,34117,1,8,0:0:0:0:
256,224,34253,1,0,0:0:0:0:
256,224,34390,1,8,0:0:0:0:
256,192,34526,1,8,0:0:0:0:
224,192,34594,1,8,0:0:0:0:
224,192,34663,1,0,0:0:0:0:
224,224,34731,1,0,0:0:0:0:
224,224,34799,1,8,0:0:0:0:
224,192,34935,1,0,0:0:0:0:
256,192,35072,1,0,0:0:0:0:
256,192,35208,1,8,0:0:0:0:
288,192,35344,1,0,0:0:0:0:
256,192,35617,1,0,0:0:0:0:
256,192,35753,1,8,0:0:0:0:
256,160,35890,1,0,0:0:0:0:
256,160,36026,1,0,0:0:0:0:
256,160,36163,1,8,0:0:0:0:
256,192,36299,1,0,0:0:0:0:
256,224,36435,1,8,0:0:0:0:
224,192,36503,1,8,0:0:0:0:
224,192,36572,1,0,0:0:0:0:
256,192,36708,1,8,0:0:0:0:
256,192,36844,1,8,0:0:0:0:
256,192,36981,1,0,0:0:0:0:
256,160,37049,1,0,0:0:0:0:
288,192,37117,1,0,0:0:0:0:
256,192,37253,1,8,0:0:0:0:
256,192,37390,1,8,0:0:0:0:
224,192,37526,1,0,0:0:0:0:
224,192,37663,1,0,0:0:0:0:
256,192,37731,1,0,0:0:0:0:
224,192,37799,1,8,0:0:0:0:
256,192,38072,1,0,0:0:0:0:
256,160,38208,1,0,0:0:0:0:
249,184,38276,1,0,0:0:0:0:
256,160,38344,1,8,0:0:0:0:
256,160,38481,1,8,0:0:0:0:
256,160,38617,1,0,0:0:0:0:
256,192,38890,1,0,0:0:0:0:
256,192,39026,1,8,0:0:0:0:
224,160,39163,1,0,0:0:0:0:
224,160,39299,1,0,0:0:0:0:
224,160,39435,1,8,0:0:0:0:
320,224,39503,1,8,0:0:0:0:
224,192,39572,1,0,0:0:0:0:
224,192,39708,1,8,0:0:0:0:
224,192,39844,1,0,0:0:0:0:
224,192,39981,1,8,0:0:0:0:
224,192,40117,1,0,0:0:0:0:
320,224,40253,1,8,0:0:0:0:
223,187,40390,1,8,0:0:0:0:
224,192,40526,1,8,0:0:0:0:
224,192,40663,1,0,0:0:0:0:
256,224,40935,1,0,0:0:0:0:
256,224,41072,1,8,0:0:0:0:
224,224,41140,1,8,0:0:0:0:
224,224,41208,1,0,0:0:0:0:
224,224,41276,1,0,0:0:0:0:
224,192,41344,1,8,0:0:0:0:
224,256,41481,1,0,0:0:0:0:
224,256,41617,1,0,0:0:0:0:
224,256,41753,1,8,0:0:0:0:
224,256,41890,1,0,0:0:0:0:
243,198,42708,1,0,0:0:0:0:
243,198,42776,1,0,0:0:0:0:
243,198,42844,1,8,0:0:0:0:
256,192,42981,1,0,0:0:0:0:
256,192,43117,1,8,0:0:0:0:
243,198,43185,1,8,0:0:0:0:
256,192,43253,1,8,0:0:0:0:
256,192,43390,1,0,0:0:0:0:
224,192,43526,1,8,0:0:0:0:
224,192,43663,1,0,0:0:0:0:
256,192,43935,1,8,0:0:0:0:
288,192,44208,1,0,0:0:0:0:
288,192,44344,1,8,0:0:0:0:
288,160,44481,1,0,0:0:0:0:
288,192,44753,1,8,0:0:0:0:
288,192,45026,1,8,0:0:0:0:
288,192,45163,1,0,0:0:0:0:
256,192,45981,1,8,0:0:0:0:
256,192,46185,1,8,0:0:0:0:
256,192,46390,1,0,0:0:0:0:
256,192,46594,1,0,0:0:0:0:
256,192,46799,1,8,0:0:0:0:
256,192,47617,1,8,0:0:0:0:
256,192,47822,1,0,0:0:0:0:
256,192,48026,1,0,0:0:0:0:
256,192,48231,1,8,0:0:0:0:
256,192,48435,1,0,0:0:0:0:
256,192,48742,1,0,0:0:0:0:
256,192,48844,1,8,0:0:0:0:
256,160,49049,1,0,0:0:0:0:
256,160,49253,1,8,0:0:0:0:
256,192,50072,1,0,0:0:0:0:
256,192,50378,1,8,0:0:0:0:
256,192,50481,1,0,0:0:0:0:
256,192,50685,1,8,0:0:0:0:
256,192,50890,1,0,0:0:0:0:
256,192,51094,1,0,0:0:0:0:
288,192,51299,1,8,0:0:0:0:
256,192,51708,1,8,0:0:0:0:
256,192,51776,1,8,0:0:0:0:
256,192,51844,1,8,0:0:0:0:
256,192,51912,1,0,0:0:0:0:
256,192,52117,1,0,0:0:0:0:
256,192,52424,1,0,0:0:0:0:
256,160,52526,1,8,0:0:0:0:
256,192,52731,1,8,0:0:0:0:
256,192,52935,1,0,0:0:0:0:
256,192,53140,1,0,0:0:0:0:
256,192,53344,1,8,0:0:0:0:
256,192,54162,1,8,0:0:0:0:
256,224,54367,1,0,0:0:0:0:
288,192,54674,1,0,0:0:0:0:
288,192,54776,1,8,0:0:0:0:
320,192,54981,1,0,0:0:0:0:
256,192,55287,1,8,0:0:0:0:
256,192,55390,1,0,0:0:0:0:
256,192,55594,1,8,0:0:0:0:
256,192,55799,1,0,0:0:0:0:
192,192,56617,1,0,0:0:0:0:
256,256,56924,1,8,0:0:0:0:
224,192,57231,1,0,0:0:0:0:
224,192,57537,1,8,0:0:0:0:
256,192,57844,1,8,0:0:0:0:
256,192,58049,1,0,0:0:0:0:
256,192,58253,1,8,0:0:0:0:
256,192,58458,12,8,59276,0:0:0:0:
224,224,59481,5,0,0:0:0:0:
224,224,59583,1,0,0:0:0:0:
224,224,59685,1,0,0:0:0:0:
224,224,59787,1,0,0:0:0:0:
224,224,59887,1,8,0:0:0:0:
192,224,60705,1,8,0:0:0:0:
192,224,60773,1,8,0:0:0:0:
192,224,60841,1,8,0:0:0:0:
192,224,60977,1,0,0:0:0:0:
256,192,61114,1,8,0:0:0:0:
256,192,61250,1,0,0:0:0:0:
256,192,61318,1,0,0:0:0:0:
256,192,61387,1,0,0:0:0:0:
256,192,61523,1,8,0:0:0:0:
224,224,61796,1,0,0:0:0:0:
224,224,61864,1,0,0:0:0:0:
224,224,61932,1,8,0:0:0:0:
224,192,62068,1,8,0:0:0:0:
256,192,62205,1,0,0:0:0:0:
256,192,62341,1,8,0:0:0:0:
256,192,62614,1,8,0:0:0:0:
256,192,62682,1,8,0:0:0:0:
256,192,62750,1,0,0:0:0:0:
224,224,62887,1,8,0:0:0:0:
224,224,63023,1,0,0:0:0:0:
256,256,63159,1,8,0:0:0:0:
224,192,63432,1,0,0:0:0:0:
224,192,63500,1,0,0:0:0:0:
224,192,63568,1,8,0:0:0:0:
224,192,63705,1,8,0:0:0:0:
256,192,63841,1,8,0:0:0:0:
256,128,63977,1,0,0:0:0:0:
224,160,64046,1,8,0:0:0:0:
288,160,64114,1,8,0:0:0:0:
288,160,64250,1,0,0:0:0:0:
288,128,64387,1,0,0:0:0:0:
256,192,64523,1,8,0:0:0:0:
320,128,64659,1,0,0:0:0:0:
288,224,64727,1,0,0:0:0:0:
352,128,64796,1,8,0:0:0:0:
224,192,64864,1,8,0:0:0:0:
320,128,64932,1,0,0:0:0:0:
285,199,65068,1,0,0:0:0:0:
256,192,65205,1,0,0:0:0:0:
256,192,65273,1,0,0:0:0:0:
288,192,65341,1,0,0:0:0:0:
256,192,65477,1,8,0:0:0:0:
288,192,65614,1,0,0:0:0:0:
256,192,65750,1,0,0:0:0:0:
262,183,65887,1,8,0:0:0:0:
256,192,66023,1,0,0:0:0:0:
256,192,66091,1,0,0:0:0:0:
256,192,66159,1,8,0:0:0:0:
309,197,66296,1,8,0:0:0:0:
256,192,66432,1,8,0:0:0:0:
256,192,66500,1,8,0:0:0:0:
256,192,66568,1,0,0:0:0:0:
256,192,66637,1,0,0:0:0:0:
256,192,66705,1,8,0:0:0:0:
256,224,66841,1,0,0:0:0:0:
256,224,66977,1,8,0:0:0:0:
218,179,67114,1,8,0:0:0:0:
256,192,67250,1,0,0:0:0:0:
288,160,67387,1,8,0:0:0:0:
256,192,67523,1,0,0:0:0:0:
256,192,67659,1,8,0:0:0:0:
284,151,67727,1,8,0:0:0:0:
256,192,67796,1,0,0:0:0:0:
256,192,67932,1,0,0:0:0:0:
256,224,68068,1,12,0:0:0:0:
256,192,68341,1,0,0:0:0:0:
256,192,68409,1,0,0:0:0:0:
256,192,68477,1,8,0:0:0:0:
256,224,68546,1,8,0:0:0:0:
256,224,68614,1,0,0:0:0:0:
256,224,68750,1,8,0:0:0:0:
256,224,68887,1,0,0:0:0:0:
256,160,69023,1,0,0:0:0:0:
256,160,69159,1,0,0:0:0:0:
256,160,69227,1,0,0:0:0:0:
256,160,69296,1,8,0:0:0:0:
256,192,69432,1,0,0:0:0:0:
256,192,69568,1,8,0:0:0:0:
288,192,69705,1,4,0:0:0:0:
241,197,69977,1,8,0:0:0:0:
236,192,70046,1,8,0:0:0:0:
241,197,70114,1,0,0:0:0:0:
235,151,70182,1,0,0:0:0:0:
266,171,70250,1,8,0:0:0:0:
266,171,70387,1,8,0:0:0:0:
266,171,70523,1,8,0:0:0:0:
266,171,70659,1,0,0:0:0:0:
276,159,70727,1,0,0:0:0:0:
262,171,70796,1,8,0:0:0:0:
262,171,70932,1,0,0:0:0:0:
262,171,71068,1,8,0:0:0:0:
269,157,71205,1,8,0:0:0:0:
269,157,71341,1,0,0:0:0:0:
229,187,71409,1,0,0:0:0:0:
229,187,71477,1,8,0:0:0:0:
254,175,71546,1,0,0:0:0:0:
229,187,71614,1,0,0:0:0:0:
243,157,71750,1,8,0:0:0:0:
243,157,71887,1,0,0:0:0:0:
262,156,72023,1,8,0:0:0:0:
243,157,72091,1,0,0:0:0:0:
269,157,72159,1,0,0:0:0:0:
267,139,72296,1,0,0:0:0:0:
269,168,72432,1,8,0:0:0:0:
275,156,72568,1,8,0:0:0:0:
243,157,72705,1,0,0:0:0:0:
258,132,72841,1,8,0:0:0:0:
258,132,72909,1,8,0:0:0:0:
258,132,72977,1,0,0:0:0:0:
199,200,74068,1,0,0:0:0:0:
199,200,74205,1,8,0:0:0:0:
236,201,74273,1,8,0:0:0:0:
233,178,74341,1,8,0:0:0:0:
233,178,74477,1,0,0:0:0:0:
233,179,74546,1,0,0:0:0:0:
242,170,74614,1,8,0:0:0:0:
224,192,74750,1,8,0:0:0:0:
224,192,74887,1,0,0:0:0:0:
224,192,75023,1,8,0:0:0:0:
224,192,75159,1,0,0:0:0:0:
224,192,75296,1,8,0:0:0:0:
192,160,75364,1,8,0:0:0:0:
224,192,75432,1,0,0:0:0:0:
224,192,75568,1,8,0:0:0:0:
224,192,75705,1,8,0:0:0:0:
224,192,75841,1,8,0:0:0:0:
256,224,75977,1,0,0:0:0:0:
236,207,76046,1,0,0:0:0:0:
256,192,76114,1,8,0:0:0:0:
224,192,76250,1,8,0:0:0:0:
224,224,76387,1,0,0:0:0:0:
256,224,76523,1,0,0:0:0:0:
240,219,76591,1,0,0:0:0:0:
256,224,76659,1,0,0:0:0:0:
224,192,76796,1,8,0:0:0:0:
224,192,76932,1,0,0:0:0:0:
224,224,77000,1,0,0:0:0:0:
224,192,77068,1,0,0:0:0:0:
192,192,77205,1,8,0:0:0:0:
192,192,77341,1,0,0:0:0:0:
192,192,77477,1,8,0:0:0:0:
256,224,77614,1,0,0:0:0:0:
256,224,77750,1,8,0:0:0:0:
256,192,77818,1,0,0:0:0:0:
224,192,77887,1,0,0:0:0:0:
288,192,78023,1,8,0:0:0:0:
288,192,78159,1,0,0:0:0:0:
256,192,78296,1,8,0:0:0:0:
224,128,78432,1,8,0:0:0:0:
256,128,78568,1,0,0:0:0:0:
256,128,78637,1,0,0:0:0:0:
224,128,78705,1,8,0:0:0:0:
256,160,78841,1,8,0:0:0:0:
256,160,78977,1,0,0:0:0:0:
256,160,79114,1,0,0:0:0:0:
256,160,79250,1,8,0:0:0:0:
288,160,79387,1,0,0:0:0:0:
288,160,79523,1,12,0:0:0:0:
224,192,79796,1,8,0:0:0:0:
224,192,79932,1,8,0:0:0:0:
256,192,80000,1,8,0:0:0:0:
224,192,80068,1,8,0:0:0:0:
224,192,80205,1,0,0:0:0:0:
224,192,80341,1,0,0:0:0:0:
224,192,80477,1,0,0:0:0:0:
250,187,80546,1,8,0:0:0:0:
256,128,80614,1,8,0:0:0:0:
256,128,80750,1,0,0:0:0:0:
288,160,80818,1,0,0:0:0:0:
224,192,80887,1,0,0:0:0:0:
256,192,81023,1,8,0:0:0:0:
256,192,81159,1,0,0:0:0:0:
236,169,81296,1,0,0:0:0:0:
236,169,81432,1,8,0:0:0:0:
236,169,81568,1,8,0:0:0:0:
236,169,81705,1,0,0:0:0:0:
237,172,81773,1,0,0:0:0:0:
320,160,81841,1,8,0:0:0:0:
320,160,81977,1,8,0:0:0:0:
288,192,82046,1,8,0:0:0:0:
288,192,82114,1,8,0:0:0:0:
288,192,82250,1,0,0:0:0:0:
288,160,82387,1,8,0:0:0:0:
256,160,82455,1,8,0:0:0:0:
288,192,82523,1,0,0:0:0:0:
288,192,82659,1,0,0:0:0:0:
288,192,82796,1,12,0:0:0:0:
224,192,83068,1,0,0:0:0:0:
224,192,83205,1,8,0:0:0:0:
256,160,83341,1,8,0:0:0:0:
256,160,83477,1,8,0:0:0:0:
288,192,83546,1,0,0:0:0:0:
256,160,83614,1,0,0:0:0:0:
256,192,83750,1,8,0:0:0:0:
288,160,83818,1,8,0:0:0:0:
256,192,83887,1,0,0:0:0:0:
256,160,84023,1,8,0:0:0:0:
256,160,84159,1,0,0:0:0:0:
256,160,84296,1,0,0:0:0:0:
256,160,84432,1,8,0:0:0:0:
256,192,84568,1,4,0:0:0:0:
256,192,84841,1,4,0:0:0:0:
320,224,85114,1,8,0:0:0:0:
288,224,85250,1,0,0:0:0:0:
288,224,85387,1,12,0:0:0:0:
288,224,85659,1,12,0:0:0:0:
288,192,85932,1,0,0:0:0:0:
288,192,86068,1,8,0:0:0:0:
192,192,86341,1,0,0:0:0:0:
192,192,86477,1,0,0:0:0:0:
256,192,86614,1,8,0:0:0:0:
256,192,86750,1,8,0:0:0:0:
256,192,86887,1,4,0:0:0:0:
224,192,87159,1,8,0:0:0:0:
224,192,87296,1,0,0:0:0:0:
224,192,87432,1,8,0:0:0:0:
224,192,87568,1,8,0:0:0:0:
224,192,87705,1,0,0:0:0:0:
224,192,87977,1,0,0:0:0:0:
256,160,88114,1,8,0:0:0:0:
256,160,88250,1,0,0:0:0:0:
256,160,88387,1,8,0:0:0:0:
256,160,88523,1,4,0:0:0:0:
256,160,88796,1,8,0:0:0:0:
256,160,88932,1,8,0:0:0:0:
256,160,89068,1,0,0:0:0:0:
256,160,89205,1,0,0:0:0:0:
256,160,89341,1,8,0:0:0:0:
256,160,89477,1,8,0:0:0:0:
256,160,89614,1,0,0:0:0:0:
256,128,89750,1,8,0:0:0:0:
256,128,89887,1,0,0:0:0:0:
256,128,90023,1,0,0:0:0:0:
256,128,90159,1,12,0:0:0:0:
224,192,90432,1,8,0:0:0:0:
224,192,90568,1,8,0:0:0:0:
224,192,90705,1,0,0:0:0:0:
224,192,90841,1,0,0:0:0:0:
224,192,90977,1,12,0:0:0:0:
256,192,92614,1,4,0:0:0:0:
224,192,92887,1,0,0:0:0:0:
256,192,93023,1,8,0:0:0:0:
256,256,93159,1,0,0:0:0:0:
256,192,93296,1,0,0:0:0:0:
288,192,93432,1,8,0:0:0:0:
288,224,93500,1,8,0:0:0:0:
256,192,93568,1,8,0:0:0:0:
256,192,93705,1,0,0:0:0:0:
256,160,93841,1,8,0:0:0:0:
256,192,93977,1,8,0:0:0:0:
288,192,94114,1,0,0:0:0:0:
288,192,94250,1,8,0:0:0:0:
288,192,94318,1,8,0:0:0:0:
288,192,94387,1,0,0:0:0:0:
288,192,94455,1,0,0:0:0:0:
256,192,94523,1,8,0:0:0:0:
256,192,94659,1,0,0:0:0:0:
64,192,94796,1,0,0:0:0:0:
256,192,94932,1,8,0:0:0:0:
192,192,95000,1,8,0:0:0:0:
256,192,95068,1,0,0:0:0:0:
256,160,95205,1,8,0:0:0:0:
288,192,95341,1,0,0:0:0:0:
256,192,95477,1,8,0:0:0:0:
288,192,95614,1,0,0:0:0:0:
288,192,95750,1,0,0:0:0:0:
288,192,95887,1,8,0:0:0:0:
256,224,96159,1,0,0:0:0:0:
256,224,96296,1,8,0:0:0:0:
256,224,96432,1,0,0:0:0:0:
256,224,96568,1,0,0:0:0:0:
288,192,96705,1,8,0:0:0:0:
288,192,96773,1,8,0:0:0:0:
320,224,96841,1,8,0:0:0:0:
256,224,96977,1,0,0:0:0:0:
256,224,97114,1,8,0:0:0:0:
256,192,97250,1,0,0:0:0:0:
256,160,97387,1,0,0:0:0:0:
256,160,97523,1,8,0:0:0:0:
256,224,97796,1,0,0:0:0:0:
256,224,97932,1,0,0:0:0:0:
256,224,98068,1,8,0:0:0:0:
256,224,98205,1,0,0:0:0:0:
256,192,98341,1,8,0:0:0:0:
224,192,98409,1,8,0:0:0:0:
224,192,98477,1,0,0:0:0:0:
224,224,98614,1,8,0:0:0:0:
224,192,98750,1,8,0:0:0:0:
256,192,98887,1,0,0:0:0:0:
224,160,98955,1,0,0:0:0:0:
256,192,99023,1,0,0:0:0:0:
288,192,99159,1,8,0:0:0:0:
256,192,99432,1,0,0:0:0:0:
256,192,99568,1,8,0:0:0:0:
256,160,99705,1,0,0:0:0:0:
256,160,99841,1,0,0:0:0:0:
256,160,99977,1,8,0:0:0:0:
256,192,100114,1,0,0:0:0:0:
256,224,100250,1,8,0:0:0:0:
224,192,100318,1,8,0:0:0:0:
256,224,100387,1,0,0:0:0:0:
224,192,100455,1,0,0:0:0:0:
256,192,100523,1,8,0:0:0:0:
256,192,100659,1,8,0:0:0:0:
256,192,100796,1,0,0:0:0:0:
266,200,100864,1,0,0:0:0:0:
288,192,100932,1,0,0:0:0:0:
256,192,101068,1,8,0:0:0:0:
256,192,101205,1,8,0:0:0:0:
224,192,101341,1,0,0:0:0:0:
224,192,101477,1,0,0:0:0:0:
241,195,101546,1,0,0:0:0:0:
224,192,101614,1,8,0:0:0:0:
256,192,101887,1,0,0:0:0:0:
256,160,102023,1,8,0:0:0:0:
247,187,102091,1,0,0:0:0:0:
256,160,102159,1,0,0:0:0:0:
256,160,102296,1,0,0:0:0:0:
256,160,102432,1,8,0:0:0:0:
256,192,102705,1,0,0:0:0:0:
256,192,102841,1,8,0:0:0:0:
224,160,102977,1,0,0:0:0:0:
224,160,103114,1,0,0:0:0:0:
224,160,103250,1,8,0:0:0:0:
320,224,103318,1,8,0:0:0:0:
224,192,103387,1,0,0:0:0:0:
224,192,103523,1,8,0:0:0:0:
224,192,103659,1,0,0:0:0:0:
224,160,103727,1,0,0:0:0:0:
224,192,103796,1,8,0:0:0:0:
256,192,103864,1,8,0:0:0:0:
224,192,103932,1,0,0:0:0:0:
320,224,104068,1,8,0:0:0:0:
224,192,104341,1,8,0:0:0:0:
224,192,104477,1,0,0:0:0:0:
256,224,104750,1,0,0:0:0:0:
256,224,104887,1,8,0:0:0:0:
224,224,105023,1,0,0:0:0:0:
224,192,105159,1,8,0:0:0:0:
224,256,105296,1,0,0:0:0:0:
224,256,105364,1,0,0:0:0:0:
224,256,105432,1,0,0:0:0:0:
224,256,105568,1,8,0:0:0:0:
256,192,105705,1,4,0:0:0:0:
224,192,105977,1,0,0:0:0:0:
256,192,106114,1,8,0:0:0:0:
256,256,106250,1,0,0:0:0:0:
256,192,106387,1,0,0:0:0:0:
288,192,106523,1,8,0:0:0:0:
256,192,106591,1,8,0:0:0:0:
256,192,106659,1,8,0:0:0:0:
256,192,106796,1,0,0:0:0:0:
256,160,106932,1,8,0:0:0:0:
256,192,107068,1,8,0:0:0:0:
288,192,107205,1,0,0:0:0:0:
288,192,107341,1,8,0:0:0:0:
288,192,107409,1,8,0:0:0:0:
288,192,107477,1,0,0:0:0:0:
288,192,107546,1,0,0:0:0:0:
256,192,107614,1,8,0:0:0:0:
256,192,107750,1,0,0:0:0:0:
64,192,107887,1,0,0:0:0:0:
256,192,108023,1,8,0:0:0:0:
192,192,108091,1,8,0:0:0:0:
256,192,108159,1,0,0:0:0:0:
256,160,108296,1,8,0:0:0:0:
288,192,108432,1,0,0:0:0:0:
256,192,108568,1,8,0:0:0:0:
288,192,108705,1,0,0:0:0:0:
288,192,108841,1,0,0:0:0:0:
288,192,108977,1,8,0:0:0:0:
256,224,109250,1,0,0:0:0:0:
256,224,109387,1,8,0:0:0:0:
256,224,109523,1,8,0:0:0:0:
256,224,109659,1,0,0:0:0:0:
288,192,109796,1,8,0:0:0:0:
288,192,109864,1,8,0:0:0:0:
320,224,109932,1,8,0:0:0:0:
256,224,110068,1,0,0:0:0:0:
256,224,110205,1,8,0:0:0:0:
256,192,110341,1,0,0:0:0:0:
256,160,110477,1,0,0:0:0:0:
256,160,110614,1,8,0:0:0:0:
256,224,110887,1,0,0:0:0:0:
256,224,111023,1,0,0:0:0:0:
256,224,111159,1,8,0:0:0:0:
256,224,111296,1,0,0:0:0:0:
256,192,111432,1,8,0:0:0:0:
224,192,111500,1,8,0:0:0:0:
224,192,111568,1,0,0:0:0:0:
224,224,111637,1,0,0:0:0:0:
224,224,111705,1,8,0:0:0:0:
224,192,111841,1,0,0:0:0:0:
256,192,111977,1,8,0:0:0:0:
256,192,112114,1,0,0:0:0:0:
288,192,112250,1,8,0:0:0:0:
256,192,112523,1,0,0:0:0:0:
256,192,112659,1,8,0:0:0:0:
256,160,112796,1,0,0:0:0:0:
256,160,112932,1,0,0:0:0:0:
256,160,113068,1,8,0:0:0:0:
256,192,113205,1,0,0:0:0:0:
256,224,113341,1,8,0:0:0:0:
224,192,113409,1,8,0:0:0:0:
256,224,113477,1,0,0:0:0:0:
224,192,113546,1,0,0:0:0:0:
256,192,113614,1,8,0:0:0:0:
256,192,113750,1,0,0:0:0:0:
256,192,113887,1,0,0:0:0:0:
288,192,114023,1,8,0:0:0:0:
256,192,114159,1,8,0:0:0:0:
256,192,114296,1,8,0:0:0:0:
224,192,114432,1,0,0:0:0:0:
224,192,114568,1,0,0:0:0:0:
224,192,114705,1,8,0:0:0:0:
256,192,114977,1,0,0:0:0:0:
256,160,115114,1,8,0:0:0:0:
0,192,115182,1,8,0:0:0:0:
256,160,115250,1,0,0:0:0:0:
256,160,115387,1,8,0:0:0:0:
256,160,115523,1,0,0:0:0:0:
256,192,115796,1,0,0:0:0:0:
256,192,115932,1,8,0:0:0:0:
224,160,116068,1,0,0:0:0:0:
224,160,116205,1,0,0:0:0:0:
224,160,116341,1,8,0:0:0:0:
320,224,116409,1,8,0:0:0:0:
224,192,116477,1,0,0:0:0:0:
224,192,116614,1,8,0:0:0:0:
224,192,116750,1,0,0:0:0:0:
224,160,116887,1,8,0:0:0:0:
224,192,117023,1,8,0:0:0:0:
320,224,117159,1,0,0:0:0:0:
228,189,117296,1,0,0:0:0:0:
224,192,117432,1,8,0:0:0:0:
224,192,117568,1,0,0:0:0:0:
256,224,117841,1,0,0:0:0:0:
256,224,117977,1,8,0:0:0:0:
224,224,118046,1,8,0:0:0:0:
224,224,118114,1,0,0:0:0:0:
224,224,118182,1,0,0:0:0:0:
224,192,118250,1,8,0:0:0:0:
224,256,118387,1,0,0:0:0:0:
224,256,118523,1,0,0:0:0:0:
224,256,118659,1,8,0:0:0:0:
224,256,118796,1,4,0:0:0:0:
192,224,119068,1,0,0:0:0:0:
192,224,119205,1,0,0:0:0:0:
192,224,119341,1,0,0:0:0:0:
192,224,119477,1,0,0:0:0:0:
192,224,119614,1,12,0:0:0:0:
192,224,119887,1,0,0:0:0:0:
192,224,120023,1,0,0:0:0:0:
192,224,120091,1,0,0:0:0:0:
192,224,120159,1,8,0:0:0:0:
224,224,120296,1,8,0:0:0:0:
224,224,120432,1,4,0:0:0:0:
192,192,120705,1,8,0:0:0:0:
192,192,120841,1,0,0:0:0:0:
192,192,120977,1,8,0:0:0:0:
192,160,121046,1,8,0:0:0:0:
192,160,121114,1,0,0:0:0:0:
192,160,121250,1,4,0:0:0:0:
224,160,121387,1,12,0:0:0:0:
224,160,121659,1,4,0:0:0:0:
96,160,121932,1,8,0:0:0:0:
192,128,122068,1,0,0:0:0:0:
192,160,122137,1,0,0:0:0:0:
192,160,122205,1,8,0:0:0:0:
224,128,122341,1,0,0:0:0:0:
224,128,122477,1,8,0:0:0:0:
224,128,122614,1,0,0:0:0:0:
224,128,122750,1,0,0:0:0:0:
224,128,122887,1,12,0:0:0:0:
224,96,123159,1,8,0:0:0:0:
224,96,123296,1,0,0:0:0:0:
192,96,123432,1,8,0:0:0:0:
192,96,123568,1,8,0:0:0:0:
192,96,123705,1,4,0:0:0:0:
256,192,123977,1,8,0:0:0:0:
256,192,124114,1,0,0:0:0:0:
256,192,124182,1,0,0:0:0:0:
256,192,124250,1,0,0:0:0:0:
256,160,124387,1,0,0:0:0:0:
256,160,124523,1,12,0:0:0:0:
256,192,124796,1,0,0:0:0:0:
256,192,124864,1,0,0:0:0:0:
256,192,124932,1,8,0:0:0:0:
256,192,125068,1,8,0:0:0:0:
256,192,125205,1,0,0:0:0:0:
224,160,125341,1,4,0:0:0:0:
256,192,125614,1,8,0:0:0:0:
256,192,125750,1,0,0:0:0:0:
256,192,125887,1,0,0:0:0:0:
256,192,126023,1,0,0:0:0:0:
256,192,126159,1,12,0:0:0:0:
256,192,126296,1,8,0:0:0:0:
256,192,126432,1,0,0:0:0:0:
256,192,126568,1,8,0:0:0:0:
256,192,126637,1,8,0:0:0:0:
256,192,126705,1,0,0:0:0:0:
256,192,126841,1,8,0:0:0:0:
256,192,126977,1,4,0:0:0:0:
256,160,127114,1,0,0:0:0:0:
256,160,127250,1,8,0:0:0:0:
256,160,127387,1,8,0:0:0:0:
256,160,127523,1,0,0:0:0:0:
256,160,127591,1,0,0:0:0:0:
256,160,127659,1,0,0:0:0:0:
256,192,127796,1,12,0:0:0:0:
288,160,127932,1,4,0:0:0:0:
288,160,128205,1,12,0:0:0:0:
288,160,128477,1,0,0:0:0:0:
224,224,128614,1,8,0:0:0:0:
224,224,128682,1,8,0:0:0:0:
224,224,128750,1,8,0:0:0:0:
224,224,128887,1,0,0:0:0:0:
224,224,129023,1,0,0:0:0:0:
224,224,129159,1,8,0:0:0:0:
224,192,129296,1,8,0:0:0:0:
224,192,129432,1,0,0:0:0:0:
266,213,129500,1,0,0:0:0:0:
288,160,129568,1,0,0:0:0:0:
256,192,129705,1,8,0:0:0:0:
256,192,129841,1,0,0:0:0:0:
256,192,129977,1,8,0:0:0:0:
226,180,130114,1,8,0:0:0:0:
226,176,130182,1,0,0:0:0:0:
224,160,130250,1,8,0:0:0:0:
224,192,130387,1,0,0:0:0:0:
224,192,130523,1,8,0:0:0:0:
192,224,130591,1,0,0:0:0:0:
224,192,130659,1,0,0:0:0:0:
224,192,130796,1,8,0:0:0:0:
224,192,130932,1,0,0:0:0:0:
224,192,131068,1,8,0:0:0:0:
224,192,131137,1,8,0:0:0:0:
224,192,131205,1,8,0:0:0:0:
192,192,131341,1,0,0:0:0:0:
192,192,131477,1,0,0:0:0:0:
192,192,131614,1,0,0:0:0:0:
192,192,131682,1,0,0:0:0:0:
192,192,131750,1,8,0:0:0:0:
192,192,131887,1,0,0:0:0:0:
64,192,132023,1,0,0:0:0:0:
192,192,132159,1,8,0:0:0:0:
192,192,132296,1,0,0:0:0:0:
190,200,132364,1,0,0:0:0:0:
192,192,132432,1,0,0:0:0:0:
192,192,132568,1,8,0:0:0:0:
192,192,132705,1,4,0:0:0:0:
256,192,133523,1,8,0:0:0:0:
224,192,134205,1,0,0:0:0:0:
224,192,134273,1,0,0:0:0:0:
224,192,134341,1,8,0:0:0:0:
256,192,134477,1,0,0:0:0:0:
256,192,134750,1,8,0:0:0:0:
256,192,135023,1,0,0:0:0:0:
256,192,135159,1,8,0:0:0:0:
252,194,135296,1,8,0:0:0:0:
256,192,135432,1,0,0:0:0:0:
256,192,135568,1,8,0:0:0:0:
256,192,135637,1,8,0:0:0:0:
256,192,135705,1,0,0:0:0:0:
256,192,135841,1,8,0:0:0:0:
256,192,135977,1,0,0:0:0:0:
256,192,136796,1,8,0:0:0:0:
256,192,136932,1,0,0:0:0:0:
256,192,137068,1,8,0:0:0:0:
256,192,137205,1,0,0:0:0:0:
256,192,137273,1,0,0:0:0:0:
256,192,137341,1,8,0:0:0:0:
256,160,137477,1,8,0:0:0:0:
256,160,137614,1,0,0:0:0:0:
256,192,138159,1,8,0:0:0:0:
256,192,138227,1,0,0:0:0:0:
256,192,138296,1,0,0:0:0:0:
256,192,138364,1,0,0:0:0:0:
256,192,138432,1,8,0:0:0:0:
224,192,139250,1,12,0:0:0:0:
224,192,139387,1,0,0:0:0:0:
224,192,139659,1,0,0:0:0:0:
224,192,139932,1,0,0:0:0:0:
224,192,140068,1,8,0:0:0:0:
224,192,140205,1,0,0:0:0:0:
224,192,140341,1,8,0:0:0:0:
224,192,140477,1,0,0:0:0:0:
224,192,140546,1,0,0:0:0:0:
224,192,140614,1,8,0:0:0:0:
224,160,140750,1,8,0:0:0:0:
224,160,140887,1,0,0:0:0:0:
224,160,141705,1,12,0:0:0:0:
224,160,141841,1,0,0:0:0:0:
256,192,142114,1,0,0:0:0:0:
256,192,142387,1,0,0:0:0:0:
256,192,142523,1,12,0:0:0:0:
256,192,142659,1,0,0:0:0:0:
288,192,142932,1,8,0:0:0:0:
288,192,143205,1,0,0:0:0:0:
288,192,143341,1,8,0:0:0:0:
256,192,153159,5,8,0:0:0:0:
256,192,153296,1,0,0:0:0:0:
256,192,153432,1,0,0:0:0:0:
256,192,153568,1,8,0:0:0:0:
256,192,153705,1,0,0:0:0:0:
256,192,153841,1,0,0:0:0:0:
256,192,153977,1,8,0:0:0:0:
256,192,154114,1,8,0:0:0:0:
256,192,154250,1,8,0:0:0:0:
256,192,154387,1,0,0:0:0:0:
256,192,154523,1,0,0:0:0:0:
256,192,154659,1,0,0:0:0:0:
256,192,154796,1,8,0:0:0:0:
256,192,154932,1,0,0:0:0:0:
231,190,155068,1,8,0:0:0:0:
224,192,155205,1,8,0:0:0:0:
224,192,155477,1,0,0:0:0:0:
224,160,155614,1,8,0:0:0:0:
234,187,155682,1,8,0:0:0:0:
224,160,155750,1,8,0:0:0:0:
192,224,155887,1,0,0:0:0:0:
224,224,156023,1,8,0:0:0:0:
224,224,156159,1,8,0:0:0:0:
224,192,156296,1,8,0:0:0:0:
256,192,156432,1,4,0:0:0:0:
224,192,156705,1,0,0:0:0:0:
256,192,156841,1,8,0:0:0:0:
256,256,156977,1,0,0:0:0:0:
256,192,157114,1,0,0:0:0:0:
288,192,157250,1,8,0:0:0:0:
288,224,157318,1,8,0:0:0:0:
256,192,157387,1,8,0:0:0:0:
256,192,157523,1,0,0:0:0:0:
256,160,157659,1,8,0:0:0:0:
256,192,157796,1,8,0:0:0:0:
288,192,157932,1,0,0:0:0:0:
288,192,158068,1,8,0:0:0:0:
288,192,158137,1,8,0:0:0:0:
288,192,158205,1,0,0:0:0:0:
288,192,158273,1,0,0:0:0:0:
256,192,158341,1,8,0:0:0:0:
256,192,158477,1,0,0:0:0:0:
64,192,158614,1,0,0:0:0:0:
256,192,158750,1,8,0:0:0:0:
192,192,158818,1,8,0:0:0:0:
256,192,158887,1,0,0:0:0:0:
256,160,159023,1,8,0:0:0:0:
288,192,159159,1,0,0:0:0:0:
256,192,159296,1,8,0:0:0:0:
288,192,159432,1,0,0:0:0:0:
288,192,159568,1,0,0:0:0:0:
288,192,159705,1,8,0:0:0:0:
256,224,159977,1,0,0:0:0:0:
256,224,160114,1,8,0:0:0:0:
256,224,160250,1,0,0:0:0:0:
256,224,160387,1,0,0:0:0:0:
288,192,160523,1,8,0:0:0:0:
288,192,160591,1,8,0:0:0:0:
320,224,160659,1,8,0:0:0:0:
256,192,160796,1,0,0:0:0:0:
256,192,160932,1,8,0:0:0:0:
256,192,161068,1,0,0:0:0:0:
256,160,161205,1,0,0:0:0:0:
256,160,161341,1,8,0:0:0:0:
256,224,161614,1,0,0:0:0:0:
256,224,161750,1,0,0:0:0:0:
256,160,161818,1,0,0:0:0:0:
256,224,161887,1,8,0:0:0:0:
256,224,162023,1,0,0:0:0:0:
256,192,162159,1,8,0:0:0:0:
224,192,162227,1,8,0:0:0:0:
224,192,162296,1,0,0:0:0:0:
224,224,162432,1,0,0:0:0:0:
224,192,162568,1,8,0:0:0:0:
256,192,162705,1,0,0:0:0:0:
256,192,162841,1,8,0:0:0:0:
288,192,162977,1,0,0:0:0:0:
256,192,163250,1,0,0:0:0:0:
256,192,163387,1,8,0:0:0:0:
256,160,163523,1,0,0:0:0:0:
256,160,163659,1,0,0:0:0:0:
256,160,163796,1,8,0:0:0:0:
256,192,163932,1,0,0:0:0:0:
256,224,164068,1,8,0:0:0:0:
224,192,164137,1,8,0:0:0:0:
256,224,164205,1,0,0:0:0:0:
256,192,164341,1,8,0:0:0:0:
256,192,164477,1,8,0:0:0:0:
256,192,164614,1,0,0:0:0:0:
258,195,164682,1,0,0:0:0:0:
288,192,164750,1,0,0:0:0:0:
256,192,164887,1,8,0:0:0:0:
256,192,165023,1,8,0:0:0:0:
224,192,165159,1,0,0:0:0:0:
224,192,165296,1,0,0:0:0:0:
259,200,165364,1,0,0:0:0:0:
224,192,165432,1,8,0:0:0:0:
256,192,165705,1,0,0:0:0:0:
256,160,165841,1,8,0:0:0:0:
256,160,165977,1,0,0:0:0:0:
253,157,166046,1,0,0:0:0:0:
256,160,166114,1,8,0:0:0:0:
256,160,166250,1,0,0:0:0:0:
256,192,166523,1,0,0:0:0:0:
256,192,166659,1,8,0:0:0:0:
224,160,166796,1,0,0:0:0:0:
224,160,166932,1,0,0:0:0:0:
224,160,167068,1,8,0:0:0:0:
320,224,167137,1,8,0:0:0:0:
224,192,167205,1,0,0:0:0:0:
224,192,167341,1,8,0:0:0:0:
224,192,167477,1,0,0:0:0:0:
228,191,167546,1,0,0:0:0:0:
224,192,167614,1,0,0:0:0:0:
224,192,167750,1,8,0:0:0:0:
320,224,167887,1,8,0:0:0:0:
256,192,168023,1,0,0:0:0:0:
224,192,168159,1,8,0:0:0:0:
224,192,168296,1,8,0:0:0:0:
256,192,168432,1,0,0:0:0:0:
256,224,168705,1,8,0:0:0:0:
224,224,168773,1,8,0:0:0:0:
224,224,168841,1,0,0:0:0:0:
224,224,168909,1,0,0:0:0:0:
224,192,168977,1,8,0:0:0:0:
224,256,169114,1,0,0:0:0:0:
224,256,169250,1,8,0:0:0:0:
224,256,169387,1,8,0:0:0:0:
256,192,169523,1,4,0:0:0:0:
224,192,169796,1,0,0:0:0:0:
256,192,169932,1,0,0:0:0:0:
256,256,170068,1,8,0:0:0:0:
256,192,170205,1,0,0:0:0:0:
288,192,170341,1,8,0:0:0:0:
256,192,170409,1,8,0:0:0:0:
256,192,170477,1,8,0:0:0:0:
256,192,170614,1,8,0:0:0:0:
256,160,170750,1,0,0:0:0:0:
256,192,170887,1,8,0:0:0:0:
288,192,171023,1,0,0:0:0:0:
288,192,171159,1,8,0:0:0:0:
288,192,171227,1,8,0:0:0:0:
288,192,171296,1,0,0:0:0:0:
288,192,171364,1,0,0:0:0:0:
256,192,171432,1,8,0:0:0:0:
256,192,171568,1,0,0:0:0:0:
64,192,171705,1,8,0:0:0:0:
256,192,171841,1,0,0:0:0:0:
192,192,171909,1,0,0:0:0:0:
256,192,171977,1,8,0:0:0:0:
256,160,172114,1,8,0:0:0:0:
288,192,172250,1,0,0:0:0:0:
256,192,172387,1,8,0:0:0:0:
288,192,172523,1,0,0:0:0:0:
288,192,172659,1,0,0:0:0:0:
256,128,172727,1,0,0:0:0:0:
288,192,172796,1,8,0:0:0:0:
256,160,172932,1,0,0:0:0:0:
256,224,173068,1,8,0:0:0:0:
256,224,173205,1,8,0:0:0:0:
256,224,173341,1,0,0:0:0:0:
256,224,173477,1,0,0:0:0:0:
288,192,173614,1,8,0:0:0:0:
288,192,173682,1,8,0:0:0:0:
320,224,173750,1,0,0:0:0:0:
256,224,173887,1,8,0:0:0:0:
256,224,174023,1,0,0:0:0:0:
256,192,174091,1,0,0:0:0:0:
256,192,174159,1,8,0:0:0:0:
256,160,174296,1,0,0:0:0:0:
256,160,174432,1,8,0:0:0:0:
256,192,174568,1,0,0:0:0:0:
255,195,174637,1,0,0:0:0:0:
256,224,174705,1,0,0:0:0:0:
256,224,174841,1,8,0:0:0:0:
256,224,174977,1,0,0:0:0:0:
256,224,175114,1,0,0:0:0:0:
256,192,175250,1,8,0:0:0:0:
224,224,175523,1,8,0:0:0:0:
250,195,175659,1,0,0:0:0:0:
128,224,175796,1,8,0:0:0:0:
249,194,175932,1,8,0:0:0:0:
288,192,176068,1,8,0:0:0:0:
256,192,176341,1,0,0:0:0:0:
256,192,176477,1,8,0:0:0:0:
256,160,176614,1,0,0:0:0:0:
256,160,176750,1,0,0:0:0:0:
256,160,176887,1,8,0:0:0:0:
256,192,177023,1,0,0:0:0:0:
256,224,177159,1,0,0:0:0:0:
224,192,177227,1,0,0:0:0:0:
256,224,177296,1,8,0:0:0:0:
224,192,177364,1,8,0:0:0:0:
256,192,177432,1,0,0:0:0:0:
256,192,177568,1,8,0:0:0:0:
256,192,177705,1,0,0:0:0:0:
256,160,177773,1,0,0:0:0:0:
288,192,177841,1,0,0:0:0:0:
256,192,177977,1,8,0:0:0:0:
256,192,178114,1,8,0:0:0:0:
224,192,178250,1,0,0:0:0:0:
224,192,178387,1,0,0:0:0:0:
248,207,178455,1,0,0:0:0:0:
224,192,178523,1,8,0:0:0:0:
256,192,178796,1,0,0:0:0:0:
256,160,178932,1,8,0:0:0:0:
0,192,179000,1,8,0:0:0:0:
256,160,179068,1,0,0:0:0:0:
256,160,179205,1,8,0:0:0:0:
256,160,179341,1,0,0:0:0:0:
256,192,179614,1,0,0:0:0:0:
256,192,179750,1,8,0:0:0:0:
224,160,179887,1,0,0:0:0:0:
224,160,180023,1,0,0:0:0:0:
224,160,180159,1,8,0:0:0:0:
320,224,180227,1,8,0:0:0:0:
224,192,180296,1,0,0:0:0:0:
224,192,180432,1,8,0:0:0:0:
224,192,180568,1,0,0:0:0:0:
224,160,180637,1,0,0:0:0:0:
224,192,180705,1,8,0:0:0:0:
224,192,180841,1,0,0:0:0:0:
320,224,180977,1,8,0:0:0:0:
224,192,181250,1,8,0:0:0:0:
224,192,181387,1,0,0:0:0:0:
256,224,181659,1,0,0:0:0:0:
256,224,181796,1,8,0:0:0:0:
224,224,181864,1,8,0:0:0:0:
224,224,181932,1,0,0:0:0:0:
224,224,182000,1,0,0:0:0:0:
224,192,182068,1,8,0:0:0:0:
224,256,182205,1,0,0:0:0:0:
224,256,182341,1,0,0:0:0:0:
224,256,182477,1,8,0:0:0:0:
224,256,182614,1,0,0:0:0:0:
224,256,182750,1,8,0:0:0:0:
224,256,182887,1,0,0:0:0:0:
224,256,183023,1,0,0:0:0:0:
224,256,183091,1,0,0:0:0:0:
224,256,183159,1,0,0:0:0:0:
224,224,183296,1,8,0:0:0:0:
224,224,183432,1,0,0:0:0:0:
256,192,184250,1,8,0:0:0:0:
256,192,184932,1,0,0:0:0:0:
256,192,185000,1,0,0:0:0:0:
256,192,185068,1,8,0:0:0:0:
256,192,185205,1,0,0:0:0:0:
256,192,185477,1,8,0:0:0:0:
256,192,185750,1,0,0:0:0:0:
