osu file format v14

[General]
AudioFilename: Mikasa.mp3
AudioLeadIn: 0
PreviewTime: 91521
Countdown: 0
SampleSet: Normal
StackLeniency: 0.3
Mode: 0
LetterboxInBreaks: 0
EpilepsyWarning: 1
WidescreenStoryboard: 1

[Editor]
DistanceSpacing: 1
BeatDivisor: 4
GridSize: 16
TimelineZoom: 2.583108

[Metadata]
Title:Mikasa
TitleUnicode:Mikasa
Artist:Veil of Maya
ArtistUnicode:Veil of Maya
Creator:Bergy
Version:Normal
Source:
Tags:matriarch progressive metal deathcore djent davided mikasaserket puxtu seni
BeatmapID:1215684
BeatmapSetID:480298

[Difficulty]
HPDrainRate:2.1
CircleSize:3.1
OverallDifficulty:2.1
ApproachRate:4.1
SliderMultiplier:0.8
SliderTickRate:1

[Events]
//Background and Video events
0,0,"bg.jpg",0,0
//Break Periods
//Storyboard Layer 0 (Background)
//Storyboard Layer 1 (Fail)
//Storyboard Layer 2 (Pass)
//Storyboard Layer 3 (Foreground)
//Storyboard Sound Samples

[TimingPoints]
22,272.727272727273,3,1,1,70,1,0
27840,-100,4,1,1,70,0,1
33567,-100,4,1,1,70,0,0
34385,-100,4,1,1,70,0,1
40931,-100,4,1,3,70,0,0
41749,-100,4,1,1,70,0,0
44204,409.089979340956,4,1,1,70,1,0
44204,-66.6666666666667,4,1,1,70,0,0
51976,-66.6666666666667,4,1,3,70,0,0
52385,-66.6666666666667,4,1,1,70,0,0
58931,272.727272727273,3,1,3,70,1,0
59749,-100,4,1,1,70,0,0
91658,-100,4,1,1,70,0,1
97385,-100,4,1,1,70,0,0
98203,-100,4,1,1,70,0,1
103931,-100,4,1,1,70,0,0
104749,-100,4,1,1,70,0,1
110476,-100,4,1,1,70,0,0
111294,-100,4,1,1,70,0,1
117840,-100,4,1,1,70,0,0
120976,-100,4,1,3,70,0,0

[Colours]
Combo1 : 242,196,196
Combo2 : 174,174,174
Combo3 : 146,173,239
Combo4 : 181,119,98

[HitObjects]
58,86,22,6,0,B|194:40|168:137|297:87,1,240,0|0,2:1|2:1,2:1:0:0:
363,56,1113,2,0,P|401:47|440:55,1,80,0|0,2:1|2:1,2:1:0:0:
479,125,1658,6,0,L|464:284,1,160,4|0,2:1|2:1,2:1:0:0:
425,353,2476,2,0,P|459:365|503:354,2,80,0|0|0,2:1|2:1|2:1,2:1:0:0:
360,306,3294,2,0,B|296:311|296:311|265:330|265:330|205:335,1,160,0|0,2:1|2:1,2:1:0:0:
136,295,4113,2,0,P|102:224|135:154,1,160,0|0,2:1|2:1,2:1:0:0:
207,120,4931,6,0,L|379:135,1,160,4|0,2:1|2:1,2:1:0:0:
425,187,5749,2,0,B|436:231|436:231|421:274,2,80,0|0|0,2:1|2:1|2:1,2:1:0:0:
355,226,6567,1,2,2:1:0:0:
273,0,7385,1,2,2:1:0:0:
33,23,8204,6,0,L|18:188,1,160,4|0,2:1|2:1,2:1:0:0:
56,253,9022,2,0,P|59:296|37:339,2,80,0|0|0,2:1|2:1|2:1,2:1:0:0:
107,192,9840,2,0,B|168:179|168:179|225:192,1,120,2|2,2:1|2:1,2:1:0:0:
305,103,10658,2,0,B|244:116|244:116|187:103,1,120,2|2,2:1|2:1,2:1:0:0:
90,32,11476,6,0,P|64:105|93:178,1,160,4|0,2:1|2:1,2:1:0:0:
166,210,12294,2,0,P|203:219|231:248,2,80,0|0|0,2:1|2:1|2:1,2:1:0:0:
102,259,13113,1,2,2:1:0:0:
196,333,13522,1,2,2:0:0:0:
311,298,13931,2,0,L|305:128,1,160,2|0,2:0|2:0,0:0:0:0:
246,83,14749,6,0,B|183:78|183:78|147:96|147:96|88:93,1,160,4|0,2:1|2:1,2:1:0:0:
30,146,15567,2,0,P|19:198|35:235,2,80,0|0|0,2:0|2:0|2:0,2:0:0:0:
98,186,16385,2,0,P|171:213|245:186,1,160,4|0,2:1|2:1,2:1:0:0:
306,134,17204,2,0,P|347:108|382:108,2,80,0|0|0,2:1|2:1|2:1,2:1:0:0:
366,186,18022,5,2,2:1:0:0:
427,288,18431,1,2,2:1:0:0:
506,197,18840,2,0,L|497:61,1,120,2|2,2:1|2:1,2:1:0:0:
382,43,19658,1,2,2:1:0:0:
264,70,20067,1,2,2:1:0:0:
345,157,20476,2,0,L|355:287,1,120,2|2,2:1|2:1,2:1:0:0:
251,214,21294,6,0,B|221:139|221:139|251:52,1,160,4|0,2:1|2:1,2:1:0:0:
324,34,22113,2,0,L|431:24,2,80,8|0|0,2:1|2:1|2:1,2:1:0:0:
330,113,22931,2,0,B|351:148|351:148|340:240,1,120,0|0,2:1|2:1,2:1:0:0:
306,343,23749,2,0,P|343:356|383:355,2,80,8|0|8,2:1|2:1|2:1,2:1:0:0:
236,303,24567,6,0,P|162:287|104:330,1,120,4|0,2:1|2:1,2:1:0:0:
28,376,25385,2,0,L|17:257,1,120,8|0,2:1|2:1,2:1:0:0:
3,137,26204,1,8,2:1:0:0:
174,304,27022,2,0,L|164:400,2,80,2|2|2,2:1|2:1|2:1,2:1:0:0:
145,229,27840,6,0,P|121:176|134:112,1,120,4|0,2:1|2:1,2:1:0:0:
244,76,28658,2,0,P|270:29|266:-14,2,80,8|0|0,2:1|2:1|2:1,2:1:0:0:
206,146,29476,2,0,L|338:135,1,120,0|0,2:1|2:1,2:1:0:0:
441,166,30294,1,8,2:1:0:0:
358,252,30703,1,0,2:0:0:0:
240,272,31113,6,0,P|181:280|127:255,1,120,4|0,2:1|2:1,2:1:0:0:
78,138,31931,2,0,L|69:54,2,80,8|0|0,2:1|2:1|2:1,2:1:0:0:
63,216,32749,2,0,L|75:344,1,120,0|0,2:1|2:1,2:1:0:0:
192,353,33567,2,0,L|205:232,1,120,8|0,2:1|2:1,2:1:0:0:
122,146,34385,6,0,P|66:125|9:141,1,120,4|0,2:1|2:1,2:1:0:0:
60,250,35204,2,0,L|51:347,2,80,8|0|0,2:1|2:1|2:1,2:1:0:0:
136,226,36022,2,0,B|194:244|193:204|261:229,1,120,0|0,2:1|2:1,2:1:0:0:
369,258,36840,1,8,2:1:0:0:
381,138,37249,1,0,2:0:0:0:
305,45,37658,6,0,B|176:-2|199:97|67:43,1,240,4|8,2:1|2:1,2:1:0:0:
39,118,38749,2,0,L|46:198,1,80,0|0,2:1|2:1,2:1:0:0:
87,266,39294,2,0,P|125:274|164:265,1,80,0|0,2:1|2:1,2:1:0:0:
302,184,40113,2,0,P|366:163|440:191,1,120,8|0,2:1|2:1,2:1:0:0:
507,251,40931,1,4,2:1:0:0:
295,364,41749,6,0,P|218:383|150:347,1,160,8|0,2:1|2:1,2:1:0:0:
84,300,42567,2,0,L|204:290,1,120,10|0,2:1|2:1,2:1:0:0:
158,180,43385,2,0,L|277:190,1,120,10|0,2:1|2:1,2:1:0:0:
370,113,44204,6,0,P|390:81|473:55,2,120.000004577637,4|0|8,2:1|2:1|2:1,2:1:0:0:
251,130,45431,2,0,L|132:120,1,120,0|0,2:1|2:1,2:1:0:0:
57,348,46658,1,8,2:1:0:0:
173,375,47067,1,0,2:1:0:0:
275,312,47476,6,0,P|352:293|409:317,1,120.000004577637,0|0,2:1|2:1,2:1:0:0:
498,353,48294,2,0,L|508:228,1,120.000004577637,8|0,2:1|2:1,2:1:0:0:
417,154,49113,2,0,P|340:135|283:159,1,120.000004577637,0|0,2:1|2:1,2:1:0:0:
229,241,49931,2,0,L|222:314,2,60.0000022888184,8|0|0,2:1|2:1|2:1,2:1:0:0:
169,136,50749,6,0,B|49:125|49:125|28:77|50:23|113:20,1,240.000009155274,10|8,2:1|2:1,2:1:0:0:
203,42,51976,1,4,2:1:0:0:
321,26,52385,1,0,2:0:0:0:
193,229,53203,2,0,P|220:280|274:303,1,120.000004577637,8|0,2:1|2:1,2:1:0:0:
395,315,54022,6,0,L|395:186,1,120.000004577637,0|0,2:1|2:1,2:1:0:0:
358,80,54840,2,0,P|308:40|232:42,1,120.000004577637,8|0,2:1|2:1,2:1:0:0:
144,84,55658,6,0,L|153:187,1,90.0000034332277,8|8,2:1|2:1,2:1:0:0:
103,249,56272,2,0,L|94:352,1,90.0000034332277,8|8,2:1|2:1,2:1:0:0:
173,383,56885,1,8,2:1:0:0:
259,300,57294,6,0,B|317:179|201:194|279:55,1,240.000009155274,4|0,2:1|0:0,0:0:0:0:
369,138,58522,2,0,P|394:209|390:253,1,120.000004577637,0|4,2:1|2:1,2:1:0:0:
148,229,59749,6,0,L|141:308,2,80,8|0|0,2:1|2:1|2:1,2:1:0:0:
190,160,60567,2,0,P|264:134|338:160,1,160,4|0,2:1|2:1,2:1:0:0:
388,222,61385,2,0,L|402:389,1,160,4|0,2:1|2:1,2:1:0:0:
480,369,62203,6,0,L|465:197,1,160,4|0,2:1|2:1,2:1:0:0:
459,129,63021,2,0,P|476:90|473:44,2,80,0|0|0,2:1|2:1|2:1,2:1:0:0:
394,176,63840,2,0,P|319:206|239:172,1,160,0|0,2:1|2:1,2:1:0:0:
194,120,64658,2,0,P|120:94|47:124,1,160,0|0,2:1|2:1,2:1:0:0:
11,195,65476,6,0,B|20:314|20:314|81:347|140:311,1,240,4|0,2:1|2:1,2:1:0:0:
208,282,66567,2,0,P|255:269|300:278,1,80,0|0,2:1|2:1,2:1:0:0:
358,313,67112,2,0,L|372:145,1,160,4|0,2:1|2:1,2:1:0:0:
400,79,67931,2,0,P|440:69|482:82,2,80,4|0|0,2:1|2:1|2:1,2:1:0:0:
320,88,68749,6,0,P|242:76|197:6,1,160,4|0,2:1|2:1,2:1:0:0:
122,41,69567,2,0,L|107:203,1,160,0|0,2:1|2:1,2:1:0:0:
80,275,70385,2,0,L|-7:268,2,80,8|8|8,2:1|2:1|2:1,2:1:0:0:
145,321,71203,2,0,L|232:314,2,80,8|8|8,2:1|2:1|2:1,2:1:0:0:
71,353,72021,5,4,2:1:0:0:
71,353,73658,6,0,P|132:377|191:359,1,120,4|0,2:1|2:1,2:1:0:0:
287,310,74476,2,0,P|362:286|406:300,1,120,0|0,2:1|2:1,2:1:0:0:
475,380,75294,6,0,L|464:207,1,160,4|0,2:1|2:1,2:1:0:0:
417,156,76112,2,0,P|359:154|304:197,1,120,0|0,2:0|2:0,2:0:0:0:
260,298,76931,6,0,L|248:128,1,160,0|0,2:0|2:0,2:0:0:0:
194,79,77749,1,2,2:0:0:0:
74,76,78158,1,2,2:0:0:0:
38,191,78567,6,0,L|51:349,1,160,4|0,2:1|2:1,2:1:0:0:
124,383,79385,2,0,P|165:317|224:297,1,120,0|0,2:0|2:0,2:0:0:0:
307,357,80203,2,0,B|327:281|327:281|312:185,1,160,0|0,2:1|2:1,2:1:0:0:
263,137,81021,1,2,2:0:0:0:
143,127,81431,1,2,2:0:0:0:
71,223,81840,6,0,L|244:238,1,160,6|0,2:1|2:1,2:1:0:0:
306,264,82658,2,0,B|311:306|311:306|302:353,2,80,2|0|0,2:1|2:1|2:1,2:1:0:0:
296,184,83476,2,0,B|374:167|374:167|419:179,1,120,10|4,2:1|2:1,2:1:0:0:
368,69,84294,2,0,B|290:52|290:52|245:64,1,120,8|4,2:1|2:1,2:1:0:0:
144,118,85112,6,0,L|129:287,1,160,4|0,2:1|2:1,2:1:0:0:
84,343,85931,2,0,P|34:345|-4:329,2,80,8|0|0,2:1|2:1|2:1,2:1:0:0:
163,352,86749,2,0,B|243:342|243:342|321:355,1,160,0|0,2:1|2:1,2:1:0:0:
395,325,87567,2,0,L|509:336,2,80,8|0|0,2:1|2:1|2:1,2:1:0:0:
330,275,88385,6,0,P|302:202|329:129,1,160,4|0,2:1|2:1,2:1:0:0:
409,122,89203,2,0,L|495:129,2,80,8|0|0,2:1|2:1|2:1,2:1:0:0:
363,56,90021,1,8,2:1:0:0:
363,56,91658,6,0,L|374:188,1,120,4|0,2:1|2:1,2:1:0:0:
406,290,92476,2,0,P|448:309|492:310,2,80,8|0|0,2:1|2:1|2:1,2:1:0:0:
333,255,93294,2,0,B|298:231|257:237|257:237|231:268,1,120,0|0,2:1|2:1,2:1:0:0:
198,382,94112,1,8,2:1:0:0:
84,343,94521,1,0,2:0:0:0:
81,221,94931,6,0,L|67:81,1,120,4|0,2:1|2:1,2:1:0:0:
185,69,95749,2,0,B|182:118|182:118|165:143,2,80,8|0|0,2:1|2:1|2:1,2:1:0:0:
243,14,96567,2,0,P|298:26|356:5,1,120,0|0,2:1|2:1,2:1:0:0:
397,117,97385,2,0,P|385:172|406:230,1,120,8|0,2:1|2:1,2:1:0:0:
466,332,98203,6,0,P|409:349|352:334,1,120,4|0,2:1|2:1,2:1:0:0:
275,238,99021,2,0,L|283:146,2,80,8|0|0,2:1|2:1|2:1,2:1:0:0:
221,298,99840,2,0,L|79:310,1,120,0|0,2:1|2:1,2:1:0:0:
7,230,100658,2,0,P|-7:173|7:116,1,120,8|8,2:1|2:1,2:1:0:0:
109,51,101476,6,0,B|188:38|188:38|241:50,1,120,4|0,2:1|2:1,2:1:0:0:
282,153,102294,2,0,L|273:237,2,80,8|0|0,2:1|2:1|2:1,2:1:0:0:
331,89,103112,2,0,B|377:88|408:70|408:70|469:64,1,120,0|0,2:1|2:1,2:1:0:0:
465,185,103931,2,0,L|472:272,2,80,8|0|0,2:1|2:1|2:1,2:1:0:0:
385,180,104749,6,0,B|304:210|304:135|216:164,1,160,4|0,2:1|2:1,2:1:0:0:
156,186,105567,1,8,2:1:0:0:
112,252,105840,2,0,L|109:341,1,80,0|8,2:1|2:1,2:1:0:0:
173,379,106385,2,0,P|243:375|303:297,1,160,0|0,2:1|2:1,2:1:0:0:
300,232,107203,1,8,2:1:0:0:
263,160,107476,2,0,P|229:133|177:119,1,80,0|8,2:1|2:1,2:1:0:0:
114,122,108021,6,0,P|178:114|244:43,1,160,4|0,2:1|2:1,2:1:0:0:
307,0,108840,1,8,2:1:0:0:
370,48,109112,2,0,L|369:128,1,80,0|8,2:1|2:1,2:1:0:0:
301,171,109658,2,0,B|289:250|289:250|298:293,1,120,8|0,2:1|2:1,2:1:0:0:
378,380,110476,2,0,B|390:301|390:301|381:258,1,120,8|0,2:1|2:1,2:1:0:0:
263,243,111294,6,0,L|135:254,1,120,4|0,2:1|2:1,2:1:0:0:
107,371,112112,2,0,L|21:378,2,80,8|0|0,2:1|2:1|2:1,2:1:0:0:
181,338,112931,2,0,P|235:323|295:341,1,120,0|0,2:1|2:1,2:1:0:0:
415,340,113749,1,8,2:1:0:0:
512,268,114158,1,0,2:0:0:0:
499,150,114567,6,0,B|377:103|388:208|269:151,1,240,4|8,2:1|2:1,2:1:0:0:
204,105,115658,2,0,L|120:97,1,80,0|0,2:1|2:1,2:1:0:0:
71,157,116203,2,0,P|57:205|67:243,1,80,0|0,2:1|2:1,2:1:0:0:
182,341,117021,2,0,L|324:328,1,120,8|8,2:1|2:1,2:1:0:0:
396,255,117840,6,0,L|490:263,2,80,4|0|0,2:1|2:1|2:1,2:1:0:0:
396,255,120294,2,0,P|385:184|250:146,1,200,8|4,2:1|2:1,2:1:0:0:
