osu file format v14

[General]
AudioFilename: Mikasa.mp3
AudioLeadIn: 0
PreviewTime: 91521
Countdown: 0
SampleSet: Normal
StackLeniency: 0.5
Mode: 0
LetterboxInBreaks: 0
EpilepsyWarning: 1
WidescreenStoryboard: 1

[Editor]
DistanceSpacing: 1.8
BeatDivisor: 4
GridSize: 16
TimelineZoom: 2.583108

[Metadata]
Title:Mikasa
TitleUnicode:Mikasa
Artist:Veil of Maya
ArtistUnicode:Veil of Maya
Creator:Bergy
Version:Insane
Source:
Tags:matriarch progressive metal deathcore djent davided mikasaserket puxtu seni
BeatmapID:1219509
BeatmapSetID:480298

[Difficulty]
HPDrainRate:5
CircleSize:3.5
OverallDifficulty:7
ApproachRate:8.5
SliderMultiplier:1.5
SliderTickRate:1

[Events]
//Background and Video events
0,0,"bg.jpg",0,0
//Break Periods
//Storyboard Layer 0 (Background)
//Storyboard Layer 1 (Fail)
//Storyboard Layer 2 (Pass)
//Storyboard Layer 3 (Foreground)
//Storyboard Sound Samples

[TimingPoints]
22,272.727272727273,3,1,1,75,1,0
6567,-100,3,1,3,75,0,0
6704,-100,3,1,1,75,0,0
6976,-100,3,1,3,75,0,0
7113,-100,3,1,1,75,0,0
7385,-100,3,1,3,75,0,0
7522,-100,3,1,1,75,0,0
8204,-100,3,1,1,75,0,0
18022,-100,3,1,3,75,0,0
19658,-100,3,1,1,75,0,0
24158,-100,3,1,3,75,0,0
24567,-100,3,1,1,75,0,0
27022,-100,3,1,1,55,0,0
27226,-100,3,1,1,5,0,0
27294,-100,3,1,1,60,0,0
27499,-100,3,1,1,5,0,0
27567,-100,3,1,1,65,0,0
27772,-100,3,1,1,5,0,0
27840,-83.3333333333333,4,1,1,85,0,1
33567,-83.3333333333333,4,1,1,85,0,0
34385,-83.3333333333333,4,1,1,85,0,1
40931,-100,4,1,1,85,0,0
41749,-100,4,1,1,85,0,0
42976,-100,4,1,3,85,0,0
43249,-100,4,1,1,85,0,0
43522,-100,4,1,1,85,0,0
43794,-100,4,1,3,85,0,0
44067,-100,4,1,1,85,0,0
44204,409.089979340956,4,1,1,65,1,0
44204,-76.9230769230769,4,1,1,65,0,0
51772,-100,4,1,3,65,0,0
51976,-76.9230769230769,4,1,1,65,0,0
52181,-76.9230769230769,4,1,3,65,0,0
52385,-76.9230769230769,4,1,1,65,0,0
57294,-142.857142857143,4,1,1,65,0,0
58931,272.727272727273,3,1,3,75,1,0
59749,-100,4,1,1,75,0,0
62476,-100,4,1,3,75,0,0
67112,-100,4,1,1,75,0,0
67249,-100,4,1,3,75,0,0
70385,-100,4,1,1,75,0,0
72021,-100,4,1,3,75,0,0
73112,-100,4,1,1,75,0,0
73658,-100,4,1,1,75,0,0
83885,-100,4,1,3,75,0,0
84158,-100,4,1,1,75,0,0
84703,-100,4,1,3,75,0,0
84976,-100,4,1,1,75,0,0
91658,-83.3333333333333,4,1,1,85,0,1
97385,-83.3333333333333,4,1,1,85,0,0
98203,-83.3333333333333,4,1,1,85,0,1
103931,-83.3333333333333,4,1,1,85,0,0
104749,-90.9090909090909,4,1,1,85,0,1
110476,-90.9090909090909,4,1,1,85,0,0
111294,-83.3333333333333,4,1,1,85,0,1
117840,-100,4,1,3,75,0,0
118658,-100,4,1,3,75,0,0
120431,-76.9230769230769,4,1,3,75,0,0
120567,-76.9230769230769,4,1,1,5,0,0
120703,-76.9230769230769,4,1,1,75,0,0
120840,-76.9230769230769,4,1,1,5,0,0
120976,-76.9230769230769,4,1,3,75,0,0
121112,-76.9230769230769,4,1,1,5,0,0

[Colours]
Combo1 : 242,196,196
Combo2 : 174,174,174
Combo3 : 146,173,239
Combo4 : 196,64,64

[HitObjects]
66,110,22,6,0,L|166:99,1,75,8|8,0:1|0:1,0:0:0:0:
247,23,294,1,0,2:1:0:0:
245,41,362,1,0,2:1:0:0:
244,60,430,1,0,2:1:0:0:
243,79,498,1,0,2:1:0:0:
242,97,567,2,0,L|238:149,2,37.5,0|0|0,2:1|2:0|2:1,0:0:0:0:
396,205,840,5,8,0:1:0:0:
450,296,976,2,0,B|494:293,2,37.5,8|8|8,0:1|0:1|0:1,0:0:0:0:
365,358,1249,1,8,0:1:0:0:
365,358,1385,2,0,B|350:323|350:323|344:269,1,75,8|8,0:1|0:1,0:0:0:0:
284,201,1658,6,0,P|223:186|131:225,1,150,4|0,2:1|2:1,0:0:0:0:
77,306,2067,2,0,L|67:396,2,75,8|0|8,0:1|2:1|0:1,0:0:0:0:
43,196,2476,2,0,L|36:96,1,75,0|8,2:1|0:1,0:0:0:0:
102,3,2749,1,0,2:1:0:0:
118,124,2885,2,0,P|73:134|24:120,1,75,8|0,0:1|2:1,0:0:0:0:
94,11,3158,1,8,0:1:0:0:
238,8,3294,6,0,L|247:175,1,150,0|0,2:1|2:1,0:0:0:0:
221,265,3704,1,8,0:1:0:0:
324,187,3840,2,0,P|292:169|255:166,1,75,2|8,2:1|0:1,0:0:0:0:
139,233,4113,2,0,L|127:334,2,75,2|8|2,2:1|0:1|2:1,0:0:0:0:
186,130,4522,2,0,L|174:29,2,75,10|0|10,0:1|2:1|0:1,0:0:0:0:
221,265,4931,6,0,P|273:292|368:252,1,150,6|0,2:1|2:1,0:0:0:0:
419,172,5340,1,8,1:1:0:0:
331,101,5476,2,0,L|340:203,1,75,0|8,2:1|1:1,0:0:0:0:
364,274,5749,2,0,B|406:284|406:284|531:254,1,150,2|2,2:1|2:1,0:0:0:0:
481,135,6158,1,8,1:1:0:0:
481,135,6294,2,0,L|476:47,1,75,2|8,2:1|1:1,0:0:0:0:
281,64,6567,6,0,L|287:224,1,150,4|0,2:1|2:0,0:0:0:0:
203,256,6976,2,0,P|195:190|257:125,1,150,12|8,1:0|1:0,0:0:0:0:
370,256,7385,2,0,P|378:190|313:124,1,150,4|0,2:1|2:0,0:0:0:0:
286,213,7794,1,0,2:0:0:0:
286,213,7863,1,0,2:0:0:0:
286,213,7931,2,0,L|287:267,2,37.5,0|0|0,2:0|2:0|2:0,0:0:0:0:
282,61,8204,6,0,B|225:34|198:87|126:52,1,150,6|0,2:1|2:1,0:0:0:0:
32,8,8613,1,10,1:1:0:0:
27,120,8749,2,0,L|26:218,1,75,0|8,2:1|1:1,0:0:0:0:
67,300,9022,2,0,P|113:311|184:217,1,150,0|0,2:1|2:1,0:0:0:0:
179,135,9431,2,0,P|131:113|91:111,2,75,8|2|8,1:1|2:1|1:1,0:0:0:0:
270,200,9840,6,0,P|314:214|404:159,1,150,2|0,2:1|2:1,0:0:0:0:
319,122,10249,2,0,L|321:290,1,150,10|8,1:1|1:1,0:0:0:0:
419,321,10658,2,0,B|425:221|425:221|400:152,1,150,2|0,2:1|2:1,0:0:0:0:
387,62,11067,1,2,2:1:0:0:
387,62,11136,1,0,2:1:0:0:
387,62,11204,2,0,L|441:61,2,37.5,8|8|8,1:1|1:1|1:1,0:0:0:0:
300,146,11476,6,0,B|227:168|227:168|141:135,1,150,4|0,2:1|2:1,0:0:0:0:
122,28,11885,1,8,0:1:0:0:
46,111,12022,2,0,L|38:202,1,75,0|8,2:1|0:1,0:0:0:0:
59,296,12294,2,0,P|112:293|188:218,1,150,2|2,2:1|2:1,0:0:0:0:
266,159,12703,1,8,1:1:0:0:
266,159,12840,2,0,L|271:262,1,75,2|8,2:1|1:1,0:0:0:0:
292,326,13112,6,0,P|255:257|186:240,1,150,10|8,1:1|1:1,0:0:0:0:
82,268,13522,2,0,P|151:231|168:162,1,150,10|0,1:1|2:1,0:0:0:0:
238,70,13931,2,0,L|341:61,1,75,10|8,0:1|0:1,0:0:0:0:
467,175,14203,6,0,L|475:230,3,37.5,0|0|0|0,2:1|2:1|2:1|2:1,0:0:0:0:
501,257,14476,1,0,2:1:0:0:
504,276,14544,1,0,2:1:0:0:
507,295,14612,1,0,2:1:0:0:
510,313,14680,1,0,2:1:0:0:
512,333,14749,6,0,B|430:289|444:367|352:315,1,150,4|0,2:1|2:1,0:0:0:0:
316,220,15158,2,0,L|309:117,2,75,8|0|8,0:1|2:1|0:1,0:0:0:0:
249,311,15567,2,0,P|204:299|177:270,1,75,0|8,2:1|0:1,0:0:0:0:
215,119,15840,2,0,P|227:163|215:201,1,75,0|8,2:1|0:1,0:0:0:0:
66,245,16113,2,0,P|98:212|137:203,1,75,0|8,2:1|0:1,0:0:0:0:
316,219,16385,6,0,L|329:34,1,150,4|0,2:1|2:1,0:0:0:0:
420,7,16794,2,0,L|514:1,2,75,8|0|8,0:1|2:1|0:1,0:0:0:0:
335,77,17204,2,0,L|424:93,1,75,0|8,2:0|0:0,0:0:0:0:
492,164,17476,2,0,L|476:253,1,75,0|8,2:0|0:0,0:0:0:0:
404,322,17749,2,0,L|315:306,1,75,0|8,2:0|0:0,0:0:0:0:
343,198,18022,6,0,P|286:191|207:253,1,150,2|2,2:1|2:1,0:0:0:0:
140,328,18431,2,0,P|83:374|9:371,1,150,2|2,2:1|2:1,0:0:0:0:
47,264,18840,2,0,L|59:95,1,150,2|2,2:1|2:1,0:0:0:0:
124,23,19249,2,0,B|210:2|199:48|283:20,1,150,2|2,2:1|2:1,0:0:0:0:
366,80,19658,6,0,L|372:170,1,75,0|0,2:0|2:0,0:0:0:0:
408,261,19931,1,8,0:0:0:0:
389,259,19999,1,8,0:0:0:0:
370,257,20067,1,8,0:0:0:0:
351,255,20135,1,8,0:0:0:0:
333,254,20204,2,0,L|262:243,3,37.5,0|0|0|0,2:0|2:0|2:0|2:0,0:0:0:0:
264,267,20476,2,0,L|192:276,3,37.5,0|0|0|0,2:0|2:0|2:0|2:0,0:0:0:0:
196,363,20749,5,8,0:0:0:0:
215,362,20817,1,8,0:0:0:0:
234,360,20885,1,8,0:0:0:0:
253,358,20953,1,8,0:0:0:0:
272,357,21022,2,0,L|343:346,3,37.5,0|0|0|0,2:0|2:0|2:0|2:0,0:0:0:0:
343,365,21294,5,4,2:1:0:0:
186,212,21567,2,0,P|128:199|89:208,1,75,0|0,2:0|2:0,0:0:0:0:
7,239,21840,2,0,L|13:138,1,75,0|0,2:0|2:0,0:0:0:0:
48,57,22113,2,0,P|113:26|206:59,1,150,8|0,0:0|2:0,0:0:0:0:
273,114,22522,1,0,2:0:0:0:
284,225,22658,2,0,L|184:219,1,75,0|0,2:0|2:0,0:0:0:0:
107,171,22931,6,0,L|108:339,1,150,0|0,2:0|2:0,0:0:0:0:
202,382,23340,2,0,P|248:346|347:369,1,150,0|0,2:0|2:0,0:0:0:0:
444,381,23749,2,0,B|458:271|458:271|438:212,1,150,8|0,0:0|2:0,0:0:0:0:
468,72,24158,1,12,0:0:0:0:
468,72,24294,1,12,0:0:0:0:
468,72,24431,1,12,0:0:0:0:
382,146,24567,6,0,L|220:152,1,150,4|0,2:1|2:0,0:0:0:0:
136,91,24976,2,0,P|151:50|178:29,2,75,0|0|0,2:0|2:0|2:0,0:0:0:0:
128,203,25385,2,0,P|157:249|260:259,1,150,8|0,0:0|2:0,0:0:0:0:
342,208,25794,2,0,L|350:114,2,75,0|0|0,2:0|2:0|2:0,0:0:0:0:
343,384,26204,5,8,0:0:0:0:
343,384,27022,6,0,L|523:375,2,150,2|2|2,1:1|1:1|1:1,0:0:0:0:
123,372,27840,6,0,L|142:189,1,179.999994506836,6|0,2:1|2:1,0:0:0:0:
76,84,28249,2,0,P|32:123|30:252,1,179.999994506836,0|0,2:1|2:1,0:0:0:0:
142,193,28658,1,8,1:1:0:0:
224,269,28794,1,0,2:1:0:0:
224,269,29067,2,0,P|321:279|376:199,1,179.999994506836,0|0,2:1|2:1,0:0:0:0:
395,88,29476,6,0,P|352:42|226:80,1,179.999994506836,0|0,2:1|2:1,0:0:0:0:
174,162,29885,2,0,L|193:348,1,179.999994506836,0|0,2:1|2:1,0:0:0:0:
318,335,30294,1,8,1:1:0:0:
222,251,30431,1,0,2:1:0:0:
222,251,30704,2,0,P|285:213|398:239,1,179.999994506836,0|0,2:1|2:1,0:0:0:0:
446,341,31113,6,0,L|435:135,1,179.999994506836,4|0,2:1|2:1,0:0:0:0:
363,58,31522,2,0,B|272:36|272:36|158:58,1,179.999994506836,0|0,2:1|2:1,0:0:0:0:
182,178,31931,2,0,L|205:236,2,44.999998626709,8|0|0,0:1|2:1|2:1,0:0:0:0:
96,84,32204,1,0,2:1:0:0:
3,169,32340,2,0,L|-22:115,2,44.999998626709,0|0|0,2:1|2:1|2:1,0:0:0:0:
65,278,32613,1,0,2:1:0:0:
158,364,32749,6,0,B|284:369|284:369|263:353|252:326,1,179.999994506836,0|0,2:1|2:1,0:0:0:0:
205,208,33158,2,0,P|272:212|329:300,1,179.999994506836,0|0,2:1|2:1,0:0:0:0:
418,365,33567,5,8,0:1:0:0:
420,346,33635,1,8,0:1:0:0:
422,327,33703,1,8,0:1:0:0:
424,309,33771,1,8,0:1:0:0:
426,290,33840,2,0,L|433:245,3,44.999998626709,0|0|0|0,2:1|2:1|2:1|2:1,0:0:0:0:
462,211,34112,2,0,L|456:166,3,44.999998626709,0|0|0|0,2:1|2:1|2:1|2:1,0:0:0:0:
376,158,34385,6,0,P|305:169|210:95,1,179.999994506836,4|0,2:1|2:1,0:0:0:0:
158,0,34794,2,0,L|170:194,1,179.999994506836,0|0,2:1|2:1,0:0:0:0:
192,307,35204,1,8,1:1:0:0:
78,252,35340,1,0,2:1:0:0:
78,252,35613,2,0,P|67:191|154:104,1,179.999994506836,0|0,2:1|2:1,0:0:0:0:
263,130,36022,6,0,L|455:124,1,179.999994506836,2|2,2:1|2:1,0:0:0:0:
503,13,36431,2,0,B|476:124|476:124|491:202,1,179.999994506836,0|0,2:1|2:1,0:0:0:0:
504,314,36840,1,10,0:1:0:0:
389,263,36976,1,0,2:1:0:0:
389,263,37249,2,0,P|326:249|245:328,1,179.999994506836,2|0,2:1|2:1,0:0:0:0:
337,342,37658,6,0,L|345:155,1,179.999994506836,4|0,2:1|2:1,0:0:0:0:
435,73,38067,2,0,L|443:260,1,179.999994506836,0|0,2:1|2:1,0:0:0:0:
490,369,38476,2,0,L|539:354,2,44.999998626709,8|0|0,0:1|2:1|2:1,0:0:0:0:
364,353,38749,1,0,2:1:0:0:
354,228,38885,2,0,L|358:176,2,44.999998626709,0|0|0,2:1|2:1|2:1,0:0:0:0:
243,290,39158,1,0,2:1:0:0:
253,165,39294,6,0,P|290:101|400:86,1,179.999994506836,0|0,2:1|2:1,0:0:0:0:
504,135,39704,2,0,L|487:333,1,179.999994506836,0|0,2:1|2:1,0:0:0:0:
375,260,40112,5,8,0:1:0:0:
356,262,40180,1,8,0:1:0:0:
337,264,40248,1,8,0:1:0:0:
319,266,40316,1,8,0:1:0:0:
300,268,40385,2,0,L|242:276,3,44.999998626709,0|0|0|0,2:1|2:1|2:1|2:1,0:0:0:0:
216,298,40658,2,0,L|156:289,3,44.999998626709,0|0|0|0,2:1|2:1|2:1|2:1,0:0:0:0:
127,256,40931,5,4,2:1:0:0:
127,256,41749,5,8,0:0:0:0:
125,237,41817,1,8,0:0:0:0:
123,218,41885,1,8,0:0:0:0:
121,200,41953,1,8,0:0:0:0:
119,181,42021,2,0,L|111:123,3,37.5,0|0|0|0,2:0|2:0|2:0|2:0,0:0:0:0:
129,109,42294,2,0,L|138:49,3,37.5,0|0|0|0,2:0|2:0|2:0|2:0,0:0:0:0:
158,19,42567,5,8,0:1:0:0:
250,72,42704,2,0,B|262:175|262:175|246:229,2,150,4|4|0,2:1|2:1|2:1,0:0:0:0:
152,11,43385,1,8,1:1:0:0:
62,64,43522,2,0,B|50:167|50:167|66:221,2,150,4|4|0,2:1|2:1|2:1,0:0:0:0:
144,3,44204,5,4,2:1:0:0:
277,234,44408,2,0,B|287:134|287:134|274:90,1,146.249993305207,2|2,1:1|1:1,0:0:0:0:
73,213,45022,2,0,L|68:311,1,97.4999955368044,10|0,1:1|2:1,0:0:0:0:
180,370,45431,2,0,L|175:273,1,97.4999955368044,0|0,2:1|2:1,0:0:0:0:
298,371,45840,5,0,2:1:0:0:
401,317,46044,2,0,P|431:247|385:157,1,146.249993305207,2|2,1:1|1:1,0:0:0:0:
266,82,46658,1,10,1:1:0:0:
159,131,46863,2,0,L|143:248,1,97.4999955368044,0|0,2:1|1:1,0:0:0:0:
157,242,47169,1,0,2:1:0:0:
168,257,47272,1,0,2:1:0:0:
228,357,47476,6,0,L|111:341,1,97.4999955368044,0|0,2:1|1:1,0:0:0:0:
117,355,47782,1,0,2:1:0:0:
102,366,47885,1,0,2:1:0:0:
18,283,48090,2,0,P|39:217|27:155,1,97.4999955368044,2|8,1:1|0:0,0:0:0:0:
18,155,48397,2,0,L|36:37,1,97.4999955368044,2|0,1:1|1:1,0:0:0:0:
56,27,48703,1,2,1:1:0:0:
210,149,49113,6,0,P|268:131|316:145,1,97.4999955368044,0|0,2:1|1:1,0:0:0:0:
316,151,49419,1,0,2:1:0:0:
330,164,49522,1,0,2:1:0:0:
391,262,49726,2,0,P|333:280|285:266,1,97.4999955368044,0|8,2:1|0:0,0:0:0:0:
285,260,50032,1,0,2:0:0:0:
271,247,50135,1,0,2:1:0:0:
197,338,50340,2,0,L|36:345,1,146.249993305207,0|0,2:1|1:1,0:0:0:0:
7,264,50749,6,0,L|-3:203,5,32.4999985122681,8|8|8|8|8|8,0:0|0:0|0:0|0:0|0:0|0:0,0:0:0:0:
54,152,51158,2,0,L|64:91,5,32.4999985122681,0|0|0|0|0|0,2:0|2:0|2:0|2:0|2:0|2:0,2:0:0:0:
117,51,51567,1,8,0:0:0:0:
180,233,51772,1,4,0:0:0:0:
297,179,51976,2,0,P|315:133|300:79,1,97.4999955368044,4|4,2:1|0:1,0:0:0:0:
188,241,52385,5,4,2:1:0:0:
278,341,52590,2,0,L|460:331,1,146.249993305207,2|2,1:1|1:1,0:0:0:0:
484,167,53203,1,10,1:1:0:0:
397,88,53408,2,0,L|280:72,1,97.4999955368044,0|0,2:1|1:1,0:0:0:0:
286,86,53714,1,0,2:1:0:0:
271,97,53817,1,0,2:1:0:0:
205,194,54022,6,0,L|322:210,1,97.4999955368044,0|0,2:1|1:1,0:0:0:0:
316,196,54328,1,0,2:1:0:0:
331,185,54431,1,0,2:1:0:0:
442,149,54635,2,0,B|453:198|453:198|446:257,1,97.4999955368044,2|8,2:1|0:0,0:0:0:0:
459,282,54942,2,0,L|339:269,1,97.4999955368044,2|0,1:1|1:1,0:0:0:0:
344,279,55249,1,2,1:1:0:0:
229,50,55658,6,0,L|237:210,1,146.249993305207,8|8,1:1|1:1,0:0:0:0:
82,281,56272,2,0,P|81:199|145:140,1,146.249993305207,8|8,1:1|1:1,0:0:0:0:
286,325,56885,1,8,1:1:0:0:
287,288,56987,1,8,1:1:0:0:
279,252,57089,1,8,1:1:0:0:
264,219,57191,1,8,1:1:0:0:
237,194,57294,6,0,P|327:217|470:136,1,262.499991989136,4|0,2:1|0:0,0:0:0:0:
381,76,58522,5,0,2:1:0:0:
349,70,58624,1,0,2:0:0:0:
318,94,58726,1,0,2:0:0:0:
287,97,58828,1,0,2:0:0:0:
249,77,58931,5,4,2:1:0:0:
238,75,59748,5,8,0:1:0:0:
237,94,59816,1,8,0:1:0:0:
234,112,59884,1,8,0:1:0:0:
232,131,59952,1,8,0:1:0:0:
230,150,60021,2,0,L|222:208,3,37.5,0|0|0|0,2:1|2:1|2:1|2:1,0:0:0:0:
242,236,60294,2,0,L|249:296,3,37.5,0|0|0|0,2:1|2:1|2:1|2:1,0:0:0:0:
192,291,60567,6,0,P|135:235|150:149,1,150,4|8,2:1|1:1,0:0:0:0:
215,50,60976,2,0,L|309:43,2,75,8|0|0,1:1|2:1|2:1,0:0:0:0:
74,52,61385,2,0,L|-24:40,1,75,4|0,2:1|1:1,0:0:0:0:
1,155,61658,1,8,1:1:0:0:
3,173,61726,1,8,1:1:0:0:
5,192,61794,1,8,1:1:0:0:
6,211,61862,1,8,1:1:0:0:
8,229,61931,2,0,L|16:320,1,75,0|0,2:1|2:1,0:0:0:0:
96,226,62203,6,0,P|145:179|255:182,1,150,4|2,2:1|2:1,0:0:0:0:
334,192,62612,1,2,2:1:0:0:
399,283,62749,2,0,L|406:369,1,75,2|2,2:1|2:1,0:0:0:0:
299,319,63021,2,0,P|259:305|211:309,2,75,2|2|2,2:1|2:1|2:1,0:0:0:0:
399,283,63431,2,0,P|439:269|487:273,2,75,2|2|2,2:1|2:1|2:1,0:0:0:0:
316,207,63840,5,2,2:1:0:0:
316,207,63976,2,0,L|309:114,1,75,2|2,2:1|2:1,0:0:0:0:
255,33,64249,2,0,B|142:12|142:12|108:21,1,150,2|2,2:1|2:1,0:0:0:0:
29,102,64658,2,0,L|16:200,2,75,2|2|2,2:1|2:1|2:1,0:0:0:0:
112,178,65067,2,0,L|125:276,2,75,2|2|2,2:1|2:1|2:1,0:0:0:0:
206,116,65476,6,0,P|257:166|259:251,1,150,6|2,2:1|2:1,0:0:0:0:
231,348,65885,1,2,2:1:0:0:
340,325,66021,2,0,L|427:324,1,75,2|2,2:1|2:1,0:0:0:0:
510,263,66294,2,0,P|527:313|523:353,2,75,2|2|2,2:1|2:1|2:1,0:0:0:0:
440,174,66703,2,0,P|423:124|427:84,2,75,2|2|2,2:1|2:1|2:1,0:0:0:0:
400,279,67112,6,0,P|334:238|248:244,1,150,4|2,2:1|2:1,0:0:0:0:
158,279,67521,2,0,L|148:365,2,75,2|2|2,2:1|2:1|2:1,0:0:0:0:
178,166,67931,2,0,P|168:115|139:72,1,75,6|2,2:1|2:1,0:0:0:0:
52,135,68203,1,2,2:1:0:0:
50,153,68271,1,0,2:1:0:0:
49,172,68339,1,2,2:1:0:0:
47,191,68407,1,0,2:1:0:0:
45,210,68476,2,0,L|38:293,1,75,2|2,2:1|2:1,0:0:0:0:
137,233,68749,6,0,P|184:204|302:226,1,150,6|2,2:1|2:1,0:0:0:0:
364,291,69158,1,2,2:1:0:0:
364,291,69294,2,0,L|372:386,1,75,2|2,2:1|2:1,0:0:0:0:
469,312,69567,2,0,L|477:217,1,75,2|2,2:1|2:1,0:0:0:0:
454,126,69840,2,0,P|411:94|362:89,1,75,2|2,2:1|2:1,0:0:0:0:
289,136,70112,2,0,L|282:210,1,75,2|2,2:1|2:1,0:0:0:0:
204,117,70385,6,0,L|116:128,2,75,12|0|8,1:1|2:1|1:1,0:0:0:0:
297,53,70794,2,0,P|342:73|370:121,1,75,0|8,2:1|1:1,3:0:0:0:
367,204,71067,1,0,2:1:0:0:
327,309,71203,2,0,L|320:389,1,75,8|0,1:1|2:1,0:0:0:0:
429,356,71476,1,8,1:1:0:0:
429,337,71544,1,8,1:1:0:0:
430,318,71612,1,8,0:1:0:0:
431,299,71680,1,8,0:0:0:0:
432,281,71749,2,0,L|436:234,3,37.5,0|0|0|0,2:1|2:1|2:1|2:1,0:0:0:0:
396,203,72021,5,4,2:1:0:0:
396,203,73112,5,0,2:1:0:0:
438,98,73249,2,0,L|497:89,4,37.5,8|0|0|0|0,1:1|2:1|2:1|2:0|2:0,0:0:0:0:
325,112,73658,6,0,B|252:101|252:101|185:65,1,150,4|0,2:1|2:1,0:0:0:0:
81,18,74067,2,0,L|-15:12,2,75,8|0|8,1:1|2:1|1:1,0:0:0:0:
98,130,74476,2,0,L|106:292,1,150,0|0,2:1|2:1,0:0:0:0:
201,220,74885,2,0,P|250:210|288:220,1,75,8|0,1:1|2:1,0:0:0:0:
378,257,75158,1,8,1:1:0:0:
314,349,75294,6,8,B|231:376|245:321|168:348,1,150,6|2,2:1|2:1,0:0:0:0:
60,381,75703,2,0,L|74:216,1,150,10|10,1:1|1:1,0:0:0:0:
72,118,76112,2,0,P|24:109|-10:115,2,75,2|10|2,2:1|1:1|2:1,0:0:0:0:
166,180,76521,2,0,P|218:205|315:159,1,150,10|8,1:1|1:1,0:0:0:0:
364,81,76931,6,0,L|376:-21,1,75,2|8,2:1|1:1,0:0:0:0:
463,73,77203,2,0,L|475:175,1,75,2|8,2:1|1:1,0:0:0:0:
379,236,77476,2,0,L|391:134,1,75,2|8,2:1|1:1,0:0:0:0:
476,242,77749,2,0,P|455:299|347:327,1,150,2|0,2:1|2:1,0:0:0:0:
262,373,78158,2,0,B|228:375|228:375|185:362,1,75,10|0,1:1|2:1,0:0:0:0:
117,262,78431,1,8,1:1:0:0:
290,230,78567,6,0,L|280:68,1,150,6|2,2:1|2:1,0:0:0:0:
189,13,78976,2,0,P|169:59|199:160,1,150,10|10,1:1|1:1,0:0:0:0:
219,262,79385,2,0,L|130:249,2,75,2|10|2,2:1|1:1|2:1,0:0:0:0:
326,295,79794,2,0,B|507:283,1,150,10|8,1:1|1:1,0:0:0:0:
450,174,80203,6,0,P|479:146|490:97,1,75,2|8,2:1|1:1,0:0:0:0:
326,98,80476,2,0,P|335:137|372:171,1,75,2|8,2:1|1:1,0:0:0:0:
446,21,80749,2,0,P|407:9|359:24,1,75,2|8,2:1|1:1,0:0:0:0:
261,10,81021,6,0,L|100:-2,1,150,2|0,2:1|2:1,0:0:0:0:
30,78,81431,2,0,L|36:152,1,75,10|0,1:1|2:1,0:0:0:0:
39,264,81703,1,8,1:1:0:0:
133,201,81840,6,0,P|210:175|295:210,1,150,6|0,2:1|2:1,0:0:0:0:
345,280,82249,2,0,L|342:362,2,75,8|0|8,1:1|2:1|1:1,0:0:0:0:
409,187,82658,2,0,L|406:24,1,150,2|0,2:1|2:1,0:0:0:0:
310,97,83067,2,0,P|266:109|218:106,1,75,8|0,1:1|2:1,0:0:0:0:
127,82,83340,1,0,2:1:0:0:
25,127,83475,5,10,0:1:0:0:
78,217,83612,2,0,B|181:229|181:229|235:213,2,150,4|4|0,2:1|2:1|2:1,0:0:0:0:
17,119,84293,1,8,1:1:0:0:
70,29,84430,2,0,B|173:17|173:17|227:33,2,150,4|4|0,2:1|2:1|2:1,0:0:0:0:
9,111,85112,6,0,L|20:293,1,150,4|0,2:1|2:1,0:0:0:0:
89,367,85521,1,0,2:1:0:0:
89,367,85658,2,0,L|194:360,1,75,0|0,2:1|2:1,0:0:0:0:
247,286,85931,2,0,B|270:214|210:214|239:141,1,150,8|0,1:1|2:1,0:0:0:0:
321,64,86340,1,0,2:1:0:0:
321,64,86476,2,0,P|336:103|335:143,1,75,0|0,2:1|2:1,0:0:0:0:
334,256,86749,6,0,P|365:320|452:328,1,150,0|0,2:1|2:1,0:0:0:0:
505,234,87158,1,0,2:1:0:0:
505,234,87294,2,0,L|510:143,1,75,0|0,2:1|2:1,0:0:0:0:
443,57,87567,2,0,B|381:58|381:58|357:66|357:66|294:69,1,150,8|0,1:1|2:1,0:0:0:0:
181,26,87976,1,0,2:1:0:0:
181,26,88112,2,0,P|194:64|191:106,1,75,0|0,2:1|2:1,0:0:0:0:
111,187,88385,6,0,L|289:179,1,150,4|0,2:1|2:1,0:0:0:0:
375,144,88794,1,0,2:1:0:0:
375,144,88931,2,0,B|386:182|386:182|382:228,1,75,0|0,2:1|2:1,0:0:0:0:
329,320,89203,2,0,L|420:329,1,75,8|0,1:1|1:1,0:0:0:0:
244,240,89476,2,0,L|152:245,1,75,0|0,2:1|2:1,0:0:0:0:
300,136,89749,2,0,L|391:145,1,75,0|0,2:1|2:1,0:0:0:0:
227,46,90021,5,8,1:1:0:0:
41,137,91658,6,0,P|101:110|206:154,1,179.999994506836,4|0,2:1|2:1,0:0:0:0:
252,265,92067,2,0,L|250:73,1,179.999994506836,0|0,2:1|2:1,0:0:0:0:
351,9,92476,1,8,1:1:0:0:
427,108,92612,1,0,2:1:0:0:
427,108,92885,2,0,B|449:199|449:199|427:300,1,179.999994506836,0|0,2:1|2:1,0:0:0:0:
327,356,93294,6,0,P|304:290|357:178,1,179.999994506836,0|0,2:1|2:1,0:0:0:0:
427,108,93703,2,0,L|213:99,1,179.999994506836,0|0,2:1|2:1,0:0:0:0:
136,38,94112,1,8,1:1:0:0:
138,164,94249,2,0,P|117:217|-8:244,2,179.999994506836,0|0|0,2:1|2:1|2:1,0:0:0:0:
247,100,94931,6,0,L|239:307,1,179.999994506836,4|0,2:1|2:1,0:0:0:0:
359,321,95340,2,0,P|350:241|253:176,1,179.999994506836,0|0,2:1|2:1,0:0:0:0:
131,176,95749,2,0,L|84:185,2,44.999998626709,8|0|0,1:1|2:1|2:1,0:0:0:0:
239,108,96021,1,0,2:1:0:0:
125,65,96158,2,0,L|78:74,2,44.999998626709,0|0|0,2:1|2:1|2:1,0:0:0:0:
233,1,96430,1,0,2:1:0:0:
342,66,96567,6,0,L|334:252,1,179.999994506836,0|0,2:1|2:1,0:0:0:0:
427,344,96976,2,0,B|431:229|431:229|363:162,1,179.999994506836,0|0,2:0|2:0,0:0:0:0:
259,119,97385,5,8,0:1:0:0:
240,120,97453,1,8,0:1:0:0:
221,122,97521,1,8,0:1:0:0:
203,124,97589,1,8,0:1:0:0:
184,126,97658,2,0,L|127:135,3,44.999998626709,0|0|0|0,2:1|2:1|2:1|2:1,0:0:0:0:
98,112,97931,2,0,L|38:105,3,44.999998626709,8|8|0|0,2:1|2:1|2:1|2:1,0:0:0:0:
16,80,98203,6,0,L|26:261,1,179.999994506836,4|0,2:1|2:1,0:0:0:0:
73,377,98612,2,0,P|117:303|212:287,1,179.999994506836,0|0,2:1|2:1,0:0:0:0:
325,320,99021,1,8,1:1:0:0:
295,196,99158,1,0,2:1:0:0:
295,196,99431,2,0,P|221:152|205:57,1,179.999994506836,0|0,2:1|2:1,0:0:0:0:
310,87,99840,6,0,L|510:79,1,179.999994506836,2|2,2:1|2:1,0:0:0:0:
475,204,100249,2,0,L|295:196,1,179.999994506836,0|0,2:1|2:1,0:0:0:0:
170,170,100658,1,10,1:1:0:0:
209,289,100794,2,0,L|322:281,1,89.9999972534181,0|0,2:1|1:1,0:0:0:0:
250,95,101067,1,10,2:1:0:0:
250,95,101203,2,0,L|137:87,1,89.9999972534181,8|0,2:1|2:1,0:0:0:0:
37,121,101476,6,0,P|63:176|169:216,1,179.999994506836,4|0,2:1|2:1,0:0:0:0:
288,174,101885,2,0,P|233:200|193:306,1,179.999994506836,0|0,2:1|2:1,0:0:0:0:
298,376,102294,2,0,L|251:385,2,44.999998626709,8|0|0,1:1|2:1|2:1,0:0:0:0:
406,312,102566,1,0,2:1:0:0:
295,252,102703,2,0,P|275:268|267:298,2,44.999998626709,0|0|0,2:1|2:1|2:1,0:0:0:0:
405,191,102975,1,0,2:1:0:0:
318,99,103112,6,0,B|243:93|243:93|214:100|214:100|139:97,1,179.999994506836,0|0,2:1|2:1,0:0:0:0:
36,23,103521,2,0,P|9:82|54:198,1,179.999994506836,0|0,2:1|2:1,0:0:0:0:
158,239,103931,1,8,0:1:0:0:
158,239,103999,1,8,0:1:0:0:
158,239,104067,2,0,L|271:244,1,89.9999972534181,0|0,2:1|2:1,0:0:0:0:
342,327,104340,1,8,0:1:0:0:
342,327,104408,1,8,0:1:0:0:
342,327,104476,2,0,L|229:332,1,89.9999972534181,0|0,2:1|2:1,0:0:0:0:
138,328,104749,6,0,P|89:301|83:195,1,165.000005035401,4|8,2:1|0:1,0:0:0:0:
179,142,105158,2,0,B|261:179|268:113|338:143,1,165.000005035401,0|0,2:1|2:1,0:0:0:0:
421,224,105567,1,8,0:1:0:0:
411,107,105703,2,0,P|342:64|235:79,1,165.000005035401,0|0,2:1|2:0,0:0:0:0:
179,142,106112,2,0,P|168:202|174:247,1,82.5000025177003,8|0,0:1|0:1,0:0:0:0:
225,326,106385,6,0,L|37:317,1,165.000005035401,0|8,2:1|0:1,0:0:0:0:
9,213,106794,2,0,P|17:136|95:45,1,165.000005035401,0|0,2:1|2:1,0:0:0:0:
174,23,107203,1,8,0:1:0:0:
240,117,107340,2,0,B|307:112|307:112|334:118|334:118|403:115,1,165.000005035401,0|0,2:1|2:0,0:0:0:0:
510,68,107749,2,0,L|504:166,1,82.5000025177003,8|0,0:1|0:1,0:0:0:0:
470,260,108021,6,0,P|390:229|311:272,1,165.000005035401,4|8,2:1|0:1,0:0:0:0:
272,366,108431,2,0,L|259:189,1,165.000005035401,0|0,2:1|2:1,0:0:0:0:
195,99,108840,2,0,L|147:106,2,41.2500012588501,8|0|0,0:1|2:1|2:1,0:0:0:0:
307,125,109112,1,0,2:1:0:0:
294,9,109249,2,0,L|246:1,2,41.2500012588501,0|0|8,2:1|2:1|0:1,0:0:0:0:
409,3,109521,1,0,2:1:0:0:
433,116,109658,5,8,0:1:0:0:
432,135,109726,1,8,0:1:0:0:
430,154,109794,1,8,0:1:0:0:
428,172,109862,1,8,0:1:0:0:
426,191,109931,2,0,L|417:248,3,41.2500012588501,0|0|0|0,2:1|2:1|2:1|2:1,0:0:0:0:
434,270,110203,2,0,L|441:330,3,41.2500012588501,0|0|0|0,2:1|2:1|2:1|2:1,0:0:0:0:
398,362,110476,6,0,L|453:367,2,55.0000016784668,8|8|8,0:1|0:1|0:0,0:0:0:0:
322,297,110749,6,0,L|219:289,2,55.0000016784668,0|0|0,2:1|2:1|2:0,2:0:0:0:
380,217,111021,6,0,L|483:209,2,55.0000016784668,0|0|0,2:1|2:1|2:0,2:0:0:0:
297,145,111294,6,0,P|223:120|133:179,1,179.999994506836,4|0,2:1|2:1,0:0:0:0:
149,293,111703,2,0,L|334:279,1,179.999994506836,0|0,2:1|2:1,0:0:0:0:
452,303,112112,1,8,0:1:0:0:
469,181,112249,1,0,2:1:0:0:
469,181,112521,2,0,B|395:175|395:175|366:182|366:182|290:178,1,179.999994506836,0|0,2:1|2:1,0:0:0:0:
163,195,112931,6,0,P|148:96|205:31,1,179.999994506836,2|2,2:1|2:1,0:0:0:0:
316,0,113340,2,0,L|289:186,1,179.999994506836,0|0,2:1|2:1,0:0:0:0:
329,298,113749,1,10,0:1:0:0:
207,267,113885,1,0,2:1:0:0:
207,267,114158,2,0,L|1:277,1,179.999994506836,2|0,2:1|2:1,0:0:0:0:
117,364,114567,6,0,P|147:301|109:181,1,179.999994506836,4|0,2:1|2:1,0:0:0:0:
21,122,114976,2,0,L|200:113,1,179.999994506836,0|0,2:1|2:1,0:0:0:0:
308,46,115385,2,0,L|315:-1,2,44.999998626709,8|0|0,1:1|2:1|2:1,0:0:0:0:
316,171,115657,1,0,2:1:0:0:
428,112,115794,2,0,L|435:64,2,44.999998626709,0|0|0,2:1|2:1|2:1,0:0:0:0:
435,237,116066,1,0,2:1:0:0:
338,318,116203,6,0,B|264:312|264:312|235:319|235:319|159:315,1,179.999994506836,0|0,2:1|2:1,0:0:0:0:
41,268,116612,2,0,P|14:172|67:98,1,179.999994506836,0|0,2:1|2:1,0:0:0:0:
166,59,117021,1,8,0:1:0:0:
261,130,117158,1,8,0:1:0:0:
261,130,117226,1,8,0:1:0:0:
261,130,117294,2,0,L|251:238,1,89.9999972534181,8|8,0:1|0:1,0:0:0:0:
363,281,117567,2,0,L|353:173,1,89.9999972534181,8|8,0:1|0:1,0:0:0:0:
417,106,117840,5,4,2:1:0:0:
417,106,117908,1,0,2:1:0:0:
417,106,117976,2,0,L|318:101,1,75,0|0,2:1|2:1,0:0:0:0:
233,18,118249,1,0,2:1:0:0:
233,18,118317,1,0,2:1:0:0:
233,18,118385,2,0,L|328:13,1,75,0|0,2:1|2:1,0:0:0:0:
413,17,118658,5,4,0:1:0:0:
0,24,119476,1,12,0:1:0:0:
440,309,120158,5,0,2:1:0:0:
440,309,120226,1,0,2:1:0:0:
440,309,120294,1,8,1:1:0:0:
320,241,120431,2,0,B|220:235|220:235|118:263,2,194.999991073609,4|4|4,2:1|2:1|2:1,0:0:0:0:
