osu file format v14

[General]
AudioFilename: Mikasa.mp3
AudioLeadIn: 0
PreviewTime: 91521
Countdown: 0
SampleSet: Normal
StackLeniency: 0.3
Mode: 0
LetterboxInBreaks: 0
EpilepsyWarning: 1
WidescreenStoryboard: 1

[Editor]
DistanceSpacing: 1.2
BeatDivisor: 4
GridSize: 32
TimelineZoom: 3.783107

[Metadata]
Title:Mikasa
TitleUnicode:Mikasa
Artist:Veil of Maya
ArtistUnicode:Veil of Maya
Creator:Bergy
Version:Extra
Source:
Tags:matriarch progressive metal deathcore djent davided mikasaserket puxtu seni
BeatmapID:1229702
BeatmapSetID:480298

[Difficulty]
HPDrainRate:5.5
CircleSize:4
OverallDifficulty:8
ApproachRate:9.4
SliderMultiplier:1.8
SliderTickRate:1

[Events]
//Background and Video events
0,0,"bg.jpg",0,0
//Break Periods
//Storyboard Layer 0 (Background)
//Storyboard Layer 1 (Fail)
//Storyboard Layer 2 (Pass)
//Storyboard Layer 3 (Foreground)
//Storyboard Sound Samples

[TimingPoints]
22,272.727272727273,3,1,1,75,1,0
6567,-100,3,1,3,75,0,0
6704,-100,3,1,1,75,0,0
6976,-100,3,1,3,75,0,0
7113,-100,3,1,1,75,0,0
7385,-100,3,1,3,75,0,0
7522,-100,3,1,1,75,0,0
8204,-100,3,1,1,75,0,0
18022,-100,3,1,3,75,0,0
19658,-100,3,1,1,75,0,0
24158,-100,3,1,3,75,0,0
24567,-100,3,1,1,75,0,0
27022,-142.857142857143,3,1,1,55,0,0
27840,-83.3333333333333,4,1,1,85,0,1
33567,-83.3333333333333,4,1,1,85,0,0
34385,-83.3333333333333,4,1,1,85,0,1
40931,-100,4,1,1,85,0,0
41749,-100,4,1,1,85,0,0
42704,-83.3333333333333,4,1,1,85,0,0
42976,-100,4,1,3,85,0,0
43249,-100,4,1,1,85,0,0
43522,-100,4,1,1,85,0,0
43794,-100,4,1,3,85,0,0
44067,-100,4,1,1,85,0,0
44204,409.089979340956,4,1,1,65,1,0
44204,-76.9230769230769,4,1,1,65,0,0
51772,-100,4,1,3,65,0,0
51976,-76.9230769230769,4,1,1,65,0,0
52181,-76.9230769230769,4,1,3,65,0,0
52385,-76.9230769230769,4,1,1,65,0,0
57294,-142.857142857143,4,1,1,65,0,0
58931,272.727272727273,3,1,3,75,1,0
59749,-100,4,1,1,75,0,0
62476,-100,4,1,3,75,0,0
67112,-100,4,1,1,75,0,0
67249,-100,4,1,3,75,0,0
70385,-100,4,1,1,75,0,0
72021,-100,4,1,3,75,0,0
73112,-100,4,1,1,75,0,0
73658,-100,4,1,1,75,0,0
83476,-100,4,1,1,75,0,0
83885,-100,4,1,3,75,0,0
84158,-100,4,1,1,75,0,0
84703,-100,4,1,3,75,0,0
84976,-100,4,1,1,75,0,0
91658,-83.3333333333333,4,1,1,85,0,1
97385,-83.3333333333333,4,1,1,85,0,0
98203,-83.3333333333333,4,1,1,85,0,1
103931,-83.3333333333333,4,1,1,85,0,0
104749,-90.9090909090909,4,1,1,85,0,1
110476,-90.9090909090909,4,1,1,85,0,0
111294,-83.3333333333333,4,1,1,85,0,1
117840,-100,4,1,3,75,0,0
118658,-200,4,1,3,75,0,0
120431,-142.857142857143,4,1,3,75,0,0
120567,-142.857142857143,4,1,1,5,0,0
120703,-100,4,1,1,75,0,0
120840,-100,4,1,1,5,0,0
120976,-76.9230769230769,4,1,3,75,0,0
121112,-76.9230769230769,4,1,1,5,0,0

[Colours]
Combo1 : 242,196,196
Combo2 : 174,174,174
Combo3 : 146,173,239
Combo4 : 181,119,98

[HitObjects]
141,75,22,6,0,L|208:66,3,45,8|8|8|8,0:1|0:1|0:1|0:1,0:0:0:0:
220,40,294,1,0,2:1:0:0:
253,44,362,1,0,2:1:0:0:
286,48,430,1,0,2:1:0:0:
320,52,498,1,0,2:1:0:0:
353,57,567,2,0,L|420:66,3,45,0|0|0|0,2:1|2:0|2:1|2:1,2:0:0:0:
427,97,840,5,8,0:1:0:0:
352,299,976,1,8,0:0:0:0:
352,299,1044,1,8,0:0:0:0:
352,299,1112,1,8,0:0:0:0:
435,105,1249,1,8,0:1:0:0:
462,232,1385,1,8,0:1:0:0:
325,172,1522,1,8,0:1:0:0:
221,361,1658,6,0,L|117:356,1,90,4|8,2:1|0:1,0:0:0:0:
175,167,1931,1,0,2:1:0:0:
200,269,2067,1,8,0:1:0:0:
77,199,2204,1,0,2:1:0:0:
102,97,2340,1,8,0:1:0:0:
14,266,2476,6,0,P|-10:212|7:159,1,90,0|8,2:1|0:1,0:0:0:0:
94,105,2749,1,0,2:1:0:0:
149,216,2885,1,8,0:1:0:0:
220,130,3022,2,0,L|227:23,1,90,0|8,2:1|0:1,0:0:0:0:
157,224,3294,6,0,P|203:243|260:234,1,90,0|8,2:1|0:1,0:0:0:0:
346,75,3567,1,0,2:1:0:0:
227,121,3704,1,8,0:1:0:0:
364,253,3840,2,0,B|380:210|380:210|382:156,1,90,2|8,2:1|0:1,0:0:0:0:
404,350,4113,6,0,B|431:313|431:313|449:262,1,90,2|8,2:1|0:1,0:0:0:0:
389,157,4385,1,2,2:1:0:0:
311,384,4522,2,0,B|356:377|356:377|405:354,1,90,10|0,0:1|2:1,0:0:0:0:
493,222,4794,1,10,0:1:0:0:
308,68,4931,6,0,L|318:183,1,90,6|8,2:1|1:1,0:0:0:0:
456,119,5204,1,0,2:1:0:0:
429,0,5340,1,8,1:1:0:0:
300,60,5476,2,0,L|167:70,1,90,0|8,2:1|1:1,0:0:0:0:
80,30,5749,6,0,P|116:58|134:99,1,90,2|8,2:1|1:1,0:0:0:0:
3,199,6022,2,0,P|9:154|36:119,1,90,2|8,2:1|1:1,0:0:0:0:
187,182,6294,2,0,P|146:198|102:194,1,90,2|8,2:1|1:1,0:0:0:0:
232,97,6567,6,0,B|265:128|265:128|288:185,1,90,4|8,2:1|1:0,0:0:0:0:
302,282,6840,1,0,2:0:0:0:
409,97,6976,2,0,B|435:61|435:61|476:40,1,90,12|0,1:0|2:0,0:0:0:0:
389,209,7249,1,8,1:0:0:0:
291,33,7385,2,0,B|174:23,1,90,4|8,2:1|1:0,0:0:0:0:
89,119,7658,5,0,2:0:0:0:
85,152,7726,1,0,2:0:0:0:
81,185,7794,1,0,2:0:0:0:
77,219,7862,1,0,2:0:0:0:
72,252,7931,2,0,L|63:319,3,45,0|0|0|0,2:0|2:0|2:0|2:0,0:0:0:0:
91,334,8204,6,0,P|137:350|204:333,1,90,6|8,2:1|1:1,0:0:0:0:
261,230,8476,1,0,2:1:0:0:
143,270,8613,1,10,1:1:0:0:
293,148,8749,1,0,2:1:0:0:
168,156,8886,1,8,1:1:0:0:
345,77,9022,6,0,L|441:71,1,90,0|8,2:1|1:1,0:0:0:0:
347,264,9294,1,0,2:1:0:0:
301,156,9431,1,8,1:1:0:0:
439,238,9567,1,0,2:1:0:0:
393,346,9704,1,8,1:1:0:0:
391,174,9840,6,0,B|438:161|438:161|487:175,1,90,2|8,2:1|1:1,0:0:0:0:
491,316,10113,1,0,2:1:0:0:
311,222,10249,2,0,B|298:175|298:175|312:126,1,90,10|0,1:1|2:1,0:0:0:0:
358,52,10522,1,8,0:1:0:0:
477,172,10658,2,0,B|430:185|430:185|381:171,1,90,2|8,2:1|0:1,0:0:0:0:
321,88,10931,6,0,L|254:79,3,45,0|0|0|0,2:1|2:1|2:1|2:1,2:0:0:0:
228,101,11204,1,8,0:1:0:0:
195,105,11272,1,8,0:1:0:0:
162,109,11340,1,10,0:1:0:0:
128,113,11408,1,8,0:1:0:0:
95,117,11476,6,0,L|102:225,1,90,4|8,2:1|1:1,0:0:0:0:
109,361,11749,1,0,2:1:0:0:
39,286,11885,1,8,0:1:0:0:
168,176,12022,1,0,2:1:0:0:
185,289,12158,1,8,0:1:0:0:
265,215,12294,6,0,B|312:199|312:199|359:207,1,90,2|8,2:1|1:1,0:0:0:0:
193,297,12567,2,0,B|155:264|155:264|139:219,1,90,2|8,2:1|1:1,0:0:0:0:
204,57,12840,2,0,B|194:105|194:105|163:142,1,90,2|8,2:1|1:1,0:0:0:0:
0,0,13113,5,10,1:1:0:0:
0,0,13249,1,8,1:1:0:0:
59,208,13385,1,8,1:1:0:0:
59,208,13521,1,10,1:1:0:0:
212,49,13658,2,0,L|317:49,1,90,8|0,1:1|2:1,0:0:0:0:
430,2,13931,5,10,0:1:0:0:
426,35,13999,1,8,0:1:0:0:
422,68,14067,1,8,0:1:0:0:
418,102,14135,1,8,0:1:0:0:
413,135,14204,2,0,L|404:202,3,45,0|0|0|0,2:1|2:1|2:1|2:1,0:0:0:0:
437,212,14476,1,0,2:1:0:0:
428,255,14544,1,0,2:1:0:0:
400,290,14612,1,0,2:1:0:0:
359,308,14680,1,0,2:1:0:0:
315,304,14749,6,0,L|198:283,2,90,4|8|0,2:0|0:0|2:0,0:0:0:0:
463,348,15158,1,8,0:1:0:0:
466,216,15294,2,0,L|454:102,1,90,0|8,2:1|0:1,0:0:0:0:
292,100,15567,6,0,P|271:159|299:220,1,90,0|8,2:1|0:1,0:0:0:0:
382,65,15840,2,0,P|343:15|276:9,1,90,0|8,2:1|0:1,0:0:0:0:
368,161,16113,2,0,P|431:149|470:95,1,90,0|8,2:1|0:1,0:0:0:0:
221,164,16385,6,0,L|224:264,2,90,4|8|0,2:1|0:1|2:0,0:0:0:0:
339,312,16794,1,8,0:1:0:0:
408,201,16931,2,0,P|368:164|318:160,1,90,0|8,2:1|0:1,0:0:0:0:
218,291,17204,6,0,B|261:264|261:264|289:218,1,90,0|8,2:0|0:0,0:0:0:0:
164,104,17476,2,0,B|165:154|165:154|191:201,1,90,0|8,2:0|0:0,0:0:0:0:
352,150,17749,2,0,B|307:126|307:126|253:125,1,90,0|8,2:0|0:0,0:0:0:0:
81,42,18022,5,2,2:1:0:0:
82,75,18090,1,0,2:1:0:0:
83,109,18158,1,2,2:1:0:0:
84,143,18226,1,0,2:1:0:0:
86,176,18294,1,2,2:1:0:0:
189,287,18431,2,0,L|193:168,1,90,2|2,2:1|2:1,0:0:0:0:
194,82,18704,1,2,2:1:0:0:
308,105,18840,5,2,2:1:0:0:
328,131,18908,1,0,2:1:0:0:
339,163,18976,1,2,2:1:0:0:
340,196,19044,1,0,2:1:0:0:
329,228,19112,1,2,2:1:0:0:
230,300,19249,2,0,B|190:308|190:308|115:284,1,90,2|2,2:1|2:1,0:1:0:0:
245,217,19522,1,2,2:1:0:0:
387,331,19658,6,0,L|462:338,3,45,0|0|0|0,2:0|2:0|2:0|2:0,0:0:0:0:
488,225,19931,1,8,0:0:0:0:
461,204,19999,1,8,0:0:0:0:
429,193,20067,1,8,0:0:0:0:
396,192,20135,1,8,0:0:0:0:
364,203,20203,2,0,L|301:207,3,45,0|0|0|0,2:0|2:0|2:0|2:0,0:0:0:0:
304,71,20476,6,0,P|311:106|301:131,3,45,0|0|0|0,2:0|2:0|2:0|2:0,0:0:0:0:
187,271,20749,1,8,0:0:0:0:
188,237,20817,1,8,0:0:0:0:
190,203,20885,1,8,0:0:0:0:
191,169,20953,1,8,0:0:0:0:
193,136,21022,2,0,L|199:53,3,45,0|0|0|0,2:0|2:0|2:0|2:0,0:0:0:0:
72,74,21294,6,0,L|78:258,1,180,4|0,2:1|2:0,0:0:0:0:
125,349,21704,1,0,2:0:0:0:
125,349,21840,2,0,P|189:369|228:365,1,90,0|0,2:0|2:0,0:0:0:0:
229,270,22113,2,0,L|217:377,1,90,8|0,0:0|0:0,0:0:0:0:
311,209,22385,2,0,L|323:316,1,90,0|0,2:0|2:0,0:0:0:0:
375,135,22658,2,0,L|414:235,1,90,0|0,2:0|2:0,0:0:0:0:
421,70,22931,6,0,B|332:28|332:109|248:68,1,180,0|0,2:0|2:0,0:0:0:0:
178,12,23340,2,0,P|206:80|166:216,1,180,0|0,2:0|2:0,0:0:0:0:
131,252,23749,2,0,L|31:252,1,90,8|0,0:0|2:0,0:0:0:0:
104,167,24022,1,0,2:0:0:0:
125,344,24158,1,12,0:0:0:0:
189,182,24294,1,12,0:0:0:0:
210,359,24430,1,12,0:0:0:0:
271,198,24567,6,0,P|256:131|146:110,1,180,4|0,2:1|2:0,0:0:0:0:
52,187,24976,1,0,2:0:0:0:
52,187,25113,2,0,L|42:292,1,90,0|0,2:0|2:0,0:0:0:0:
182,378,25385,2,0,L|177:190,1,180,8|0,0:0|2:0,0:0:0:0:
314,147,25794,1,0,2:0:0:0:
314,147,25931,2,0,L|304:252,1,90,0|0,2:0|2:0,0:0:0:0:
475,378,26204,5,8,0:0:0:0:
475,378,27022,6,0,L|483:245,2,125.999996154785,2|2|2,1:1|1:1|1:1,0:0:0:0:
367,304,27840,6,0,P|291:221|302:102,1,215.999993408203,6|0,2:1|2:1,0:0:0:0:
373,21,28249,2,0,L|493:15,1,107.999996704102,0|0,2:1|1:1,0:0:0:0:
512,144,28522,1,0,2:1:0:0:
375,296,28658,1,8,1:1:0:0:
268,222,28794,2,0,L|250:2,2,215.999993408203,0|0|0,2:1|2:1|2:1,0:0:0:0:
383,289,29476,6,0,B|425:235|425:235|412:70,1,215.999993408203,0|0,2:1|2:1,0:0:0:0:
310,8,29885,2,0,L|183:-1,1,107.999996704102,0|0,2:1|1:1,0:0:0:0:
103,85,30158,1,0,2:1:0:0:
281,207,30294,1,8,1:1:0:0:
327,85,30431,2,0,L|100:98,2,215.999993408203,0|0|0,2:1|2:1|2:1,0:0:0:0:
346,258,31113,6,0,P|262:286|205:175,1,215.999993408203,4|0,2:1|2:1,0:0:0:0:
360,176,31522,2,0,P|426:234|358:339,1,215.999993408203,0|0,2:1|2:1,0:0:0:0:
237,359,31931,5,8,0:1:0:0:
237,359,31999,1,0,2:1:0:0:
237,359,32067,1,0,2:1:0:0:
273,199,32204,1,0,2:1:0:0:
140,305,32340,5,0,2:1:0:0:
140,305,32408,1,0,2:1:0:0:
140,305,32476,1,0,2:1:0:0:
104,145,32613,1,0,2:1:0:0:
281,207,32749,6,0,L|496:194,1,215.999993408203,0|0,2:1|2:1,0:0:0:0:
462,91,33158,2,0,P|402:144|431:281,1,215.999993408203,0|0,2:1|2:1,0:0:0:0:
493,347,33567,5,8,0:1:0:0:
460,343,33635,1,8,0:1:0:0:
427,339,33703,1,8,0:1:0:0:
393,335,33771,1,8,0:1:0:0:
360,330,33840,2,0,L|293:321,3,53.9999983520508,0|0|0|0,2:1|2:1|2:1|2:1,0:0:0:0:
273,341,34112,1,0,2:1:0:0:
230,332,34180,1,0,2:1:0:0:
195,304,34248,1,0,2:1:0:0:
177,263,34316,1,0,2:1:0:0:
178,219,34385,6,0,L|195:-6,1,215.999993408203,4|0,2:1|2:1,0:0:0:0:
335,115,34794,2,0,P|270:136|211:115,1,107.999996704102,0|0,2:1|1:1,0:0:0:0:
77,41,35067,1,0,2:1:0:0:
269,12,35204,1,8,1:1:0:0:
224,133,35340,2,0,B|202:301|202:301|213:363,2,215.999993408203,0|0|0,2:1|2:1|2:1,0:0:0:0:
304,182,36022,6,0,P|220:226|131:145,1,215.999993408203,2|2,2:1|2:1,0:0:0:0:
111,26,36431,2,0,L|250:16,1,107.999996704102,0|2,2:1|0:1,0:0:0:0:
351,19,36704,1,0,2:1:0:0:
312,190,36840,1,10,0:1:0:0:
214,112,36976,2,0,L|-17:84,2,215.999993408203,0|2|0,2:1|2:1|2:1,0:0:0:0:
94,199,37658,6,0,P|50:256|124:404,1,215.999993408203,4|0,2:1|2:1,0:0:0:0:
158,294,38067,2,0,B|277:344|257:250|366:292,1,215.999993408203,0|0,2:1|2:1,0:0:0:0:
489,367,38476,5,8,0:1:0:0:
489,367,38544,1,0,2:1:0:0:
489,367,38613,1,0,2:1:0:0:
465,207,38749,1,0,2:1:0:0:
365,291,38885,5,0,2:1:0:0:
365,291,38953,1,0,2:1:0:0:
365,291,39022,1,0,2:1:0:0:
381,123,39158,1,0,2:1:0:0:
238,254,39294,6,0,B|151:243|151:243|116:252|116:252|24:242,1,215.999993408203,0|0,2:1|2:1,0:0:0:0:
115,158,39703,2,0,P|145:258|91:348,1,215.999993408203,0|0,2:1|2:1,0:0:0:0:
284,384,40113,5,8,0:1:0:0:
288,351,40181,1,8,0:1:0:0:
293,318,40249,1,8,0:1:0:0:
298,284,40317,1,8,0:1:0:0:
302,251,40386,2,0,L|310:183,3,53.9999983520508,0|0|0|0,2:1|2:0|2:0|2:0,2:0:0:0:
281,179,40658,1,0,2:1:0:0:
277,146,40726,1,0,2:1:0:0:
272,113,40794,1,0,2:1:0:0:
267,79,40862,1,0,2:1:0:0:
263,46,40931,5,4,2:1:0:0:
263,46,41750,5,8,1:0:0:0:
226,47,41818,1,8,1:0:0:0:
195,64,41886,1,8,1:0:0:0:
169,89,41954,1,8,1:0:0:0:
156,123,42022,2,0,L|147:166,3,45,0|0|0|0,2:0|2:0|2:0|2:0,2:0:0:0:
117,194,42294,2,0,L|122:248,3,45,0|0|0|0,2:0|2:0|2:0|2:0,2:0:0:0:
149,268,42567,5,8,0:1:0:0:
282,164,42704,2,0,P|323:236|241:359,2,215.999993408203,4|4|0,2:1|2:1|2:1,0:0:0:0:
157,276,43385,5,8,1:1:0:0:
25,184,43522,2,0,L|-3:387,2,180,4|4|0,2:1|2:1|2:1,0:0:0:0:
121,106,44204,5,4,2:1:0:0:
324,203,44408,2,0,P|266:207|218:238,1,116.999994644165,2|0,1:1|1:1,0:0:0:0:
410,314,44715,2,0,P|358:288|301:291,1,116.999994644165,2|0,1:1|1:1,0:0:0:0:
338,384,45022,1,10,1:1:0:0:
424,134,45226,1,0,2:1:0:0:
512,267,45431,1,0,2:1:0:0:
332,211,45635,1,0,2:1:0:0:
257,384,45840,5,0,2:1:0:0:
184,227,46044,2,0,L|194:89,1,116.999994644165,2|0,1:1|1:1,0:0:0:0:
104,171,46351,2,0,L|114:33,1,116.999994644165,2|0,1:1|1:1,0:0:0:0:
200,13,46658,1,10,1:1:0:0:
345,164,46863,2,0,P|271:181|216:155,1,116.999994644165,0|0,2:1|1:1,0:0:0:0:
288,86,47169,1,0,2:1:0:0:
288,86,47271,1,0,2:1:0:0:
105,335,47476,6,0,P|179:352|234:326,1,116.999994644165,0|0,2:1|1:1,0:0:0:0:
162,257,47782,1,0,2:1:0:0:
162,257,47884,1,0,2:1:0:0:
417,185,48090,2,0,B|367:163|367:163|291:156,1,116.999994644165,2|8,1:1|1:1,0:0:0:0:
184,177,48397,2,0,B|234:155|234:155|310:148,1,116.999994644165,2|0,1:1|1:1,0:0:0:0:
331,29,48703,2,0,B|309:79|309:79|302:155,1,116.999994644165,2|0,1:1|1:1,0:0:0:0:
179,301,49113,6,0,L|175:181,1,116.999994644165,0|0,2:1|1:1,0:0:0:0:
112,97,49419,1,0,2:1:0:0:
112,97,49522,1,0,2:1:0:0:
84,377,49726,2,0,L|80:257,1,116.999994644165,0|8,2:1|1:1,0:0:0:0:
17,173,50032,1,0,2:1:0:0:
17,173,50135,1,0,2:1:0:0:
216,285,50340,2,0,B|281:310|273:268|328:287|328:287|360:285|360:285|419:295,1,175.499991966248,0|0,2:1|1:1,0:0:0:0:
427,314,50749,5,8,0:0:0:0:
465,310,50817,1,8,0:0:0:0:
492,283,50885,1,8,0:0:0:0:
495,245,50953,1,8,0:0:0:0:
473,214,51021,1,8,0:0:0:0:
436,204,51089,1,8,0:0:0:0:
402,220,51158,2,0,L|347:221,5,38.9999982147218,0|0|0|0|0|0,2:0|2:0|2:0|2:0|2:0|2:0,0:0:0:0:
234,243,51567,5,8,1:1:0:0:
73,127,51772,1,4,2:1:0:0:
317,77,51976,1,4,2:1:0:0:
107,251,52181,1,4,2:1:0:0:
229,30,52385,5,4,2:1:0:0:
363,206,52590,2,0,L|206:189,1,116.999994644165,2|0,1:1|1:1,0:0:0:0:
318,281,52897,2,0,L|161:264,1,116.999994644165,2|0,1:1|1:1,0:0:0:0:
158,191,53203,1,10,1:1:0:0:
358,352,53408,2,0,P|396:291|379:232,1,116.999994644165,0|0,2:1|1:1,0:0:0:0:
334,169,53715,1,0,2:1:0:0:
334,169,53817,1,0,2:1:0:0:
193,276,54022,6,0,P|155:215|172:156,1,116.999994644165,0|0,2:1|1:1,0:0:0:0:
217,93,54329,1,0,2:1:0:0:
217,93,54431,1,0,2:1:0:0:
441,168,54635,2,0,L|308:185,1,116.999994644165,2|8,2:1|1:1,0:0:0:0:
234,208,54942,2,0,L|367:225,1,116.999994644165,2|0,1:1|1:1,0:0:0:0:
441,248,55249,2,0,L|308:265,1,116.999994644165,2|0,1:1|1:1,0:0:0:0:
199,336,55658,5,8,1:1:0:0:
199,336,55760,2,0,L|189:255,1,58.4999973220826,8|0,1:1|2:1,0:0:0:0:
193,79,55965,1,8,1:1:0:0:
193,79,56067,2,0,L|183:160,1,58.4999973220826,8|0,1:1|2:1,0:0:0:0:
65,283,56272,1,8,1:1:0:0:
65,283,56374,2,0,L|76:202,1,58.4999973220826,8|0,1:1|2:1,0:0:0:0:
125,33,56579,1,8,1:1:0:0:
125,33,56681,2,0,L|94:108,1,58.4999973220826,8|0,1:1|2:1,0:0:0:0:
0,162,56885,5,8,1:1:0:0:
58,158,56987,1,8,1:1:0:0:
116,154,57089,1,8,1:1:0:0:
175,151,57191,1,8,1:1:0:0:
233,147,57294,6,0,P|213:217|398:267,1,314.999990386963,4|0,2:1|0:0,0:0:0:0:
329,224,58522,1,0,2:1:0:0:
329,224,58624,1,0,2:0:0:0:
329,224,58726,1,0,2:0:0:0:
329,224,58828,1,0,2:0:0:0:
329,224,58931,1,4,2:1:0:0:
329,224,59749,5,8,0:1:0:0:
293,220,59817,1,8,0:1:0:0:
257,217,59885,1,8,0:1:0:0:
221,214,59953,1,8,0:1:0:0:
185,211,60021,2,0,L|120:205,3,45,0|0|0|0,2:1|2:1|2:1|2:1,0:0:0:0:
106,221,60294,1,0,2:1:0:0:
70,219,60362,1,0,2:1:0:0:
39,202,60430,1,0,2:1:0:0:
19,172,60498,1,0,2:1:0:0:
15,137,60567,6,0,L|22:21,1,90,4|0,2:1|1:1,0:0:0:0:
179,109,60840,1,8,1:1:0:0:
208,129,60908,1,8,1:1:0:0:
232,155,60976,1,8,1:1:0:0:
244,188,61044,1,8,1:1:0:0:
243,224,61112,2,0,L|238:340,1,90,0|0,2:1|2:1,0:0:0:0:
387,207,61385,6,0,P|447:188|510:206,1,90,4|0,2:1|1:1,0:0:0:0:
396,343,61658,1,8,1:1:0:0:
360,341,61726,1,8,1:1:0:0:
324,339,61794,1,8,1:1:0:0:
288,338,61862,1,8,1:1:0:0:
252,336,61931,2,0,L|136:329,1,90,0|0,2:1|2:1,0:0:0:0:
69,222,62203,6,0,P|129:179|250:207,1,180,4|2,2:1|2:1,0:0:0:0:
315,272,62612,1,2,2:1:0:0:
406,198,62749,2,0,L|417:88,1,90,2|2,2:1|2:1,0:0:0:0:
262,63,63021,1,2,2:1:0:0:
237,199,63158,1,2,2:1:0:0:
140,12,63294,1,2,2:1:0:0:
115,148,63431,1,2,2:1:0:0:
270,55,63567,2,0,P|319:44|374:60,1,90,2|2,2:1|2:1,0:0:0:0:
456,114,63840,5,2,2:1:0:0:
461,230,63976,2,0,B|421:251|421:251|377:252,1,90,2|2,2:1|2:1,0:0:0:0:
208,122,64249,2,0,B|246:145|246:145|269:183,1,90,2|2,2:1|2:1,0:0:0:0:
271,300,64521,1,2,2:1:0:0:
131,214,64658,2,0,B|116:167|116:167|122:106,1,90,2|2,2:1|2:1,0:0:0:0:
164,21,64931,1,2,2:1:0:0:
277,191,65067,2,0,B|266:239|266:239|230:289,1,90,2|2,2:1|2:1,0:0:0:0:
139,222,65340,1,2,2:1:0:0:
301,115,65476,6,0,B|439:130|439:130|498:108,1,180,6|2,2:1|2:1,0:0:0:0:
441,3,65885,1,2,2:1:0:0:
304,17,66021,2,0,L|288:144,1,90,2|2,2:1|2:1,0:0:0:0:
367,296,66294,5,2,2:1:0:0:
497,275,66431,1,2,2:1:0:0:
295,202,66567,5,2,2:1:0:0:
424,223,66704,1,2,2:1:0:0:
230,309,66840,5,2,2:1:0:0:
359,288,66977,1,2,2:1:0:0:
162,212,67112,6,0,L|180:26,1,180,4|2,2:1|2:1,0:0:0:0:
17,93,67521,1,2,2:1:0:0:
17,93,67658,2,0,L|28:204,1,90,2|2,2:1|2:1,0:0:0:0:
136,301,67931,2,0,B|161:267|161:267|173:199,1,90,6|2,2:1|2:1,0:0:0:0:
275,57,68203,5,2,2:1:0:0:
297,84,68271,1,0,2:1:0:0:
307,118,68339,1,2,2:1:0:0:
301,154,68407,1,0,2:1:0:0:
282,183,68475,1,2,2:1:0:0:
262,212,68544,1,0,2:1:0:0:
256,248,68612,1,2,2:1:0:0:
266,282,68680,1,0,2:1:0:0:
289,309,68749,6,0,L|489:325,1,180,4|2,2:1|2:1,0:0:0:0:
512,208,69158,1,2,2:1:0:0:
396,146,69294,2,0,P|334:134|282:160,1,90,2|2,2:1|2:1,0:0:0:0:
291,301,69567,5,2,2:1:0:0:
420,279,69704,1,2,2:1:0:0:
218,206,69840,5,2,2:1:0:0:
347,227,69977,1,2,2:1:0:0:
153,313,70113,5,2,2:1:0:0:
282,292,70250,1,2,2:1:0:0:
62,353,70385,6,0,L|76:224,1,90,12|0,1:1|2:1,0:0:0:0:
62,31,70658,2,0,L|76:160,1,90,8|0,1:1|2:1,0:0:0:0:
147,382,70931,2,0,L|161:253,1,90,8|0,1:1|2:1,0:0:0:0:
147,60,71204,2,0,L|161:189,1,90,8|0,1:1|2:1,0:0:0:0:
234,281,71476,5,8,1:1:0:0:
261,303,71544,1,8,1:1:0:0:
295,313,71612,1,8,0:1:0:0:
331,307,71680,1,8,0:0:0:0:
360,288,71748,1,0,2:1:0:0:
389,268,71817,1,0,2:1:0:0:
425,262,71885,1,0,2:1:0:0:
459,272,71953,1,0,2:1:0:0:
486,295,72021,5,4,2:1:0:0:
486,295,73112,6,0,L|485:236,1,45,0|0,2:1|2:1,0:0:0:0:
417,131,73249,1,8,1:1:0:0:
381,134,73317,1,8,1:1:0:0:
345,138,73385,1,0,2:1:0:0:
309,141,73453,1,0,2:1:0:0:
273,145,73521,1,0,2:1:0:0:
237,148,73589,1,0,2:1:0:0:
202,152,73658,6,0,L|212:42,1,90,4|8,2:1|1:1,0:0:0:0:
315,38,73931,1,0,2:1:0:0:
254,223,74067,2,0,P|189:239|137:209,1,90,8|0,1:1|2:1,0:0:0:0:
80,178,74340,1,8,1:1:0:0:
218,54,74476,2,0,L|321:45,1,90,0|8,2:1|1:1,0:0:0:0:
413,79,74749,1,0,2:1:0:0:
378,237,74885,1,8,1:1:0:0:
291,124,75021,1,0,2:1:0:0:
250,280,75157,1,8,1:1:0:0:
454,286,75294,6,0,B|464:238|464:238|448:171,1,90,6|8,2:1|1:1,0:0:0:0:
411,88,75567,1,2,2:1:0:0:
302,204,75703,2,0,L|189:208,1,90,10|0,1:1|2:1,0:0:0:0:
101,166,75976,1,10,1:1:0:0:
285,34,76112,1,2,2:1:0:0:
310,196,76249,1,10,1:1:0:0:
231,125,76385,1,2,2:1:0:0:
419,96,76521,2,0,L|415:197,1,90,10|0,1:1|2:1,0:0:0:0:
436,301,76794,1,8,1:1:0:0:
310,196,76931,6,0,B|268:191|268:191|221:198,1,90,2|8,2:1|1:1,0:0:0:0:
309,359,77203,2,0,B|334:325|334:325|351:281,1,90,2|8,2:1|1:1,0:0:0:0:
168,276,77476,2,0,B|184:314|184:314|214:351,1,90,2|8,2:1|1:1,0:0:0:0:
212,190,77749,2,0,P|118:192|73:258,1,180,2|0,2:1|2:1,0:0:0:0:
38,369,78158,2,0,L|134:357,1,90,10|0,1:1|2:1,0:0:0:0:
243,342,78431,1,8,1:1:0:0:
287,221,78567,6,0,P|336:210|393:222,1,90,6|8,2:1|1:1,0:0:0:0:
466,284,78840,1,2,2:1:0:0:
508,158,78976,2,0,L|503:46,1,90,10|0,1:1|2:1,0:0:0:0:
408,0,79249,1,10,1:1:0:0:
308,150,79385,1,2,2:1:0:0:
409,98,79521,1,10,1:1:0:0:
314,29,79658,1,2,2:1:0:0:
210,160,79794,2,0,L|320:157,1,90,10|0,1:1|2:1,0:0:0:0:
401,106,80067,1,8,1:1:0:0:
231,0,80203,6,0,B|214:42|214:42|207:111,1,90,2|8,2:1|1:1,0:0:0:0:
278,244,80476,2,0,B|295:201|295:201|302:132,1,90,2|8,2:1|1:1,0:0:0:0:
140,39,80749,2,0,B|134:84|134:84|145:152,1,90,2|8,2:1|1:1,0:0:0:0:
324,319,81021,2,0,B|361:242|361:242|376:127,1,180,2|0,2:1|2:1,0:0:0:0:
315,20,81431,2,0,B|268:25|268:25|229:43,2,90,10|0|8,1:1|2:1|0:0,0:0:0:0:
460,95,81840,6,0,L|468:292,1,180,6|0,2:1|2:1,0:0:0:0:
367,357,82249,1,8,1:1:0:0:
367,357,82385,2,0,L|364:254,1,90,0|8,2:1|1:1,0:0:0:0:
261,65,82658,2,0,L|269:262,1,180,2|0,2:1|2:1,0:0:0:0:
170,369,83067,1,8,1:1:0:0:
170,369,83203,2,0,L|167:266,1,90,0|8,2:1|1:1,0:0:0:0:
100,45,83476,5,10,0:1:0:0:
31,182,83612,2,0,L|41:389,2,180,4|4|0,2:1|2:1|2:1,0:0:0:0:
108,53,84294,5,8,1:1:0:0:
201,164,84431,2,0,P|150:242|61:248,2,180,4|4|0,2:1|2:1|2:1,0:0:0:0:
237,56,85112,6,0,L|255:255,1,180,4|0,2:1|2:1,0:0:0:0:
300,342,85521,1,0,2:1:0:0:
300,342,85658,2,0,P|352:349|409:326,1,90,0|0,2:1|2:1,0:0:0:0:
443,183,85931,2,0,P|393:151|252:189,1,180,8|0,1:1|2:1,0:0:0:0:
183,235,86340,1,0,2:1:0:0:
183,235,86476,2,0,L|175:345,1,90,0|0,2:1|2:1,0:0:0:0:
70,375,86749,6,0,B|62:294|62:294|68:273|68:273|63:186,1,180,0|0,2:1|2:1,0:0:0:0:
74,79,87158,1,0,2:1:0:0:
74,79,87294,2,0,B|119:66|119:66|178:72,1,90,0|0,2:1|2:1,0:0:0:0:
246,198,87567,2,0,B|102:219|102:219|71:204,1,180,8|0,1:1|2:1,0:0:0:0:
5,293,87976,1,0,2:1:0:0:
5,293,88112,2,0,L|1:396,1,90,0|0,2:1|2:1,0:0:0:0:
167,319,88385,6,0,B|263:283|253:358|344:319,1,180,4|0,2:1|2:1,0:0:0:0:
434,249,88794,1,0,2:1:0:0:
434,249,88931,2,0,L|443:149,1,90,0|0,2:1|2:1,0:0:0:0:
317,75,89203,2,0,P|302:138|301:276,1,180,8|0,1:1|2:1,0:0:0:0:
385,356,89612,1,0,2:1:0:0:
385,356,89749,2,0,L|489:361,1,90,0|0,2:1|2:1,0:0:0:0:
195,303,90021,5,8,1:1:0:0:
195,303,91658,6,0,L|212:66,1,215.999993408203,4|0,2:1|2:1,0:0:0:0:
72,160,92067,2,0,P|133:191|186:182,1,107.999996704102,0|0,2:1|1:1,0:0:0:0:
289,145,92340,1,0,2:1:0:0:
112,25,92476,1,8,1:1:0:0:
64,168,92612,2,0,B|52:333|52:333|70:398,2,215.999993408203,0|0|0,2:1|2:1|2:1,0:0:0:0:
178,179,93294,6,0,P|218:227|190:378,1,215.999993408203,0|0,2:1|2:1,0:0:0:0:
296,384,93703,2,0,P|320:312|315:257,1,107.999996704102,0|0,2:1|1:1,0:0:0:0:
277,164,93976,1,0,2:1:0:0:
418,325,94112,1,8,1:1:0:0:
413,187,94249,2,0,P|404:107|508:18,2,215.999993408203,0|0|0,2:1|2:1|2:1,0:0:0:0:
508,315,94931,6,0,B|408:303|408:303|383:310|383:310|290:300,1,215.999993408203,4|0,2:1|2:1,0:0:0:0:
292,115,95340,2,0,P|337:158|275:304,1,215.999993408203,0|0,2:1|2:1,0:0:0:0:
135,213,95749,5,8,1:1:0:0:
135,213,95817,1,0,2:1:0:0:
135,213,95885,1,0,2:1:0:0:
284,123,96021,1,0,2:1:0:0:
90,50,96158,5,0,2:1:0:0:
90,50,96226,1,0,2:1:0:0:
90,50,96294,1,0,2:1:0:0:
264,53,96430,1,0,2:1:0:0:
4,19,96567,6,0,L|12:252,1,215.999993408203,0|0,2:1|2:1,0:0:0:0:
0,369,96976,2,0,P|39:268|177:242,1,215.999993408203,0|0,2:1|2:1,0:0:0:0:
258,293,97385,5,8,0:1:0:0:
291,289,97453,1,8,0:1:0:0:
324,285,97521,1,8,0:1:0:0:
358,281,97589,1,8,0:1:0:0:
391,276,97658,2,0,L|458:267,3,53.9999983520508,0|0|0|0,2:1|2:1|2:1|2:1,0:0:0:0:
483,287,97930,1,8,0:1:0:0:
507,250,97998,1,8,0:1:0:0:
512,205,98066,1,0,2:1:0:0:
496,164,98134,1,0,2:1:0:0:
464,133,98203,6,0,L|231:114,1,215.999993408203,4|0,2:1|2:1,0:0:0:0:
129,20,98612,2,0,L|139:149,1,107.999996704102,0|0,2:1|1:1,0:0:0:0:
224,224,98885,1,0,2:1:0:0:
237,33,99021,1,8,1:1:0:0:
57,83,99158,2,0,P|30:145|43:309,2,215.999993408203,0|0|0,2:1|2:1|2:1,0:0:0:0:
147,137,99840,6,0,L|161:376,1,215.999993408203,2|2,2:1|2:1,0:0:0:0:
288,265,100249,2,0,P|223:230|176:237,1,107.999996704102,0|2,2:1|1:1,0:0:0:0:
75,256,100521,1,0,2:1:0:0:
254,380,100658,1,10,1:1:0:0:
296,257,100794,2,0,L|294:131,1,107.999996704102,0|0,2:1|1:1,0:0:0:0:
177,75,101067,1,10,2:1:0:0:
391,51,101204,1,8,2:1:0:0:
266,3,101340,1,0,2:1:0:0:
303,141,101476,6,0,P|369:158|389:317,1,215.999993408203,4|0,2:1|2:1,0:0:0:0:
311,247,101885,2,0,B|155:258|155:258|183:237|190:194,1,215.999993408203,0|0,2:1|2:1,0:0:0:0:
152,66,102294,5,8,1:1:0:0:
152,66,102362,1,0,2:1:0:0:
152,66,102431,1,0,2:1:0:0:
94,206,102567,1,0,2:1:0:0:
236,10,102703,5,0,2:1:0:0:
236,10,102771,1,0,2:1:0:0:
236,10,102840,1,0,2:1:0:0:
294,150,102976,1,0,2:1:0:0:
99,0,103112,6,0,L|85:227,1,215.999993408203,0|0,2:1|2:1,0:0:0:0:
213,333,103521,2,0,L|199:106,1,215.999993408203,0|0,2:1|2:1,0:0:0:0:
334,73,103931,5,8,0:1:0:0:
334,73,103999,1,8,0:1:0:0:
334,73,104067,1,0,2:1:0:0:
334,73,104135,1,0,2:1:0:0:
334,73,104203,2,0,L|342:150,1,53.9999983520508,0|0,2:1|2:1,0:0:0:0:
375,249,104340,5,8,0:1:0:0:
375,249,104408,1,8,0:1:0:0:
375,249,104476,1,0,2:1:0:0:
375,249,104544,1,0,2:1:0:0:
375,249,104612,2,0,L|383:172,1,53.9999983520508,0|0,2:1|2:1,0:0:0:0:
472,115,104749,6,0,P|503:206|455:290,1,198.000006042481,4|8,2:1|0:1,0:0:0:0:
363,327,105158,2,0,L|149:312,1,198.000006042481,0|0,2:1|2:1,0:0:0:0:
26,326,105567,1,8,0:1:0:0:
92,238,105703,2,0,L|102:113,1,99.0000030212403,0|0,2:1|0:0,0:0:0:0:
35,63,105976,1,0,2:1:0:0:
170,3,106112,2,0,L|180:128,1,99.0000030212403,8|0,0:1|0:1,0:0:0:0:
228,217,106385,6,0,B|267:226|267:226|297:219|297:219|364:250|417:196,1,198.000006042481,0|8,2:1|0:1,0:0:0:0:
343,140,106794,2,0,L|346:355,1,198.000006042481,0|0,2:1|2:1,0:0:0:0:
512,384,107203,1,8,0:1:0:0:
480,286,107340,2,0,P|431:271|362:285,1,99.0000030212403,0|0,2:1|0:0,0:0:0:0:
271,331,107612,1,0,2:1:0:0:
335,148,107749,2,0,L|450:136,1,99.0000030212403,8|0,0:1|0:1,0:0:0:0:
339,47,108021,6,0,P|262:78|251:204,1,198.000006042481,4|8,2:1|0:1,0:0:0:0:
316,232,108431,2,0,L|79:222,1,198.000006042481,0|0,2:1|2:1,0:0:0:0:
94,316,108840,5,8,0:1:0:0:
94,316,108908,1,0,2:1:0:0:
94,316,108976,1,0,2:1:0:0:
132,136,109112,1,0,2:1:0:0:
264,283,109249,5,0,2:1:0:0:
264,283,109317,1,0,2:1:0:0:
264,283,109385,1,8,0:1:0:0:
226,103,109521,1,0,2:1:0:0:
358,273,109658,6,0,L|361:329,3,49.5000015106202,8|8|8|8,0:1|0:1|0:1|0:1,0:0:0:0:
387,364,109931,1,0,2:1:0:0:
347,367,109999,1,0,2:1:0:0:
308,370,110067,1,0,2:1:0:0:
268,373,110135,1,0,2:1:0:0:
229,376,110203,2,0,L|163:380,3,49.5000015106202,0|0|0|0,2:1|2:1|2:1|2:1,0:0:0:0:
147,340,110476,6,0,L|173:230,2,66.0000020141602,8|8|8,0:1|0:1|0:1,0:0:0:0:
93,299,110749,2,0,L|89:186,2,66.0000020141602,0|0|0,2:1|2:1|2:1,0:0:0:0:
31,273,111021,2,0,L|-1:164,2,66.0000020141602,0|0|0,2:1|2:1|2:1,0:0:0:0:
73,157,111294,6,0,L|304:139,1,215.999993408203,4|0,2:1|2:1,0:0:0:0:
421,48,111703,2,0,L|287:41,1,107.999996704102,0|0,2:1|0:1,0:0:0:0:
183,27,111976,1,0,2:1:0:0:
183,196,112112,1,8,0:1:0:0:
297,141,112249,2,0,L|528:123,2,215.999993408203,0|0|0,2:1|2:1|2:1,0:0:0:0:
191,204,112931,6,0,P|213:281|362:302,1,215.999993408203,2|2,2:1|2:1,0:0:0:0:
405,223,113340,2,0,L|298:214,1,107.999996704102,0|2,2:1|0:1,0:0:0:0:
183,212,113612,1,0,2:1:0:0:
131,378,113749,1,10,0:1:0:0:
76,268,113885,2,0,L|61:42,2,215.999993408203,0|2|0,2:1|2:1|2:1,0:0:0:0:
127,369,114567,6,0,P|251:345|254:255,1,215.999993408203,4|0,2:1|2:1,0:0:0:0:
173,82,114976,2,0,L|178:298,1,215.999993408203,0|0,2:1|2:1,0:0:0:0:
361,298,115385,5,8,1:1:0:0:
361,298,115453,1,0,2:1:0:0:
361,298,115521,1,0,2:1:0:0:
306,151,115658,1,0,2:1:0:0:
491,237,115794,5,0,2:1:0:0:
491,237,115862,1,0,2:1:0:0:
491,237,115930,1,0,2:1:0:0:
436,90,116067,1,0,2:1:0:0:
298,143,116203,6,0,P|212:154|145:47,1,215.999993408203,0|0,2:1|2:1,0:0:0:0:
245,58,116612,2,0,L|262:286,1,215.999993408203,0|0,2:1|2:1,0:0:0:0:
415,357,117021,1,8,0:1:0:0:
187,238,117158,1,8,0:1:0:0:
187,238,117226,1,8,0:1:0:0:
187,238,117294,1,8,0:1:0:0:
402,216,117431,1,8,0:1:0:0:
217,384,117567,1,8,0:1:0:0:
300,137,117703,1,8,0:1:0:0:
333,363,117840,5,4,2:1:0:0:
333,363,117908,1,0,2:1:0:0:
333,363,117976,1,0,2:1:0:0:
266,214,118112,1,0,2:1:0:0:
134,352,118249,5,0,2:1:0:0:
134,352,118317,1,0,2:1:0:0:
134,352,118385,1,0,2:1:0:0:
107,176,118521,1,0,2:1:0:0:
0,277,118658,6,0,B|88:316|88:233|172:279,1,180,4|0,0:1|0:1,0:0:0:0:
476,365,119476,2,0,P|518:288|492:205,1,180,12|0,0:0|0:0,0:0:0:0:
392,65,120158,1,0,2:1:0:0:
392,65,120226,1,0,2:1:0:0:
392,65,120294,1,8,1:1:0:0:
379,244,120431,6,0,P|345:250|304:241,1,62.9999980773926,4|0,2:1|0:1,0:0:0:0:
472,48,120703,6,0,P|498:77|512:125,1,90,4|0,2:1|0:1,0:0:0:0:
395,383,120976,6,0,P|411:334|455:287,1,116.999994644165,4|0,2:1|0:1,0:0:0:0:
