osu file format v14

[General]
AudioFilename: Mikasa.mp3
AudioLeadIn: 0
PreviewTime: 91521
Countdown: 0
SampleSet: Normal
StackLeniency: 0.3
Mode: 0
LetterboxInBreaks: 0
EpilepsyWarning: 1
WidescreenStoryboard: 1

[Editor]
Bookmarks: 117021
DistanceSpacing: 1.4
BeatDivisor: 4
GridSize: 32
TimelineZoom: 2.683108

[Metadata]
Title:Mikasa
TitleUnicode:Mikasa
Artist:Veil of Maya
ArtistUnicode:Veil of Maya
Creator:Bergy
Version:Advanced
Source:
Tags:matriarch progressive metal deathcore djent davided mikasaserket puxtu seni
BeatmapID:1310512
BeatmapSetID:480298

[Difficulty]
HPDrainRate:2.5
CircleSize:3.4
OverallDifficulty:4
ApproachRate:6
SliderMultiplier:1
SliderTickRate:1

[Events]
//Background and Video events
0,0,"bg.jpg",0,0
//Break Periods
//Storyboard Layer 0 (Background)
//Storyboard Layer 1 (Fail)
//Storyboard Layer 2 (Pass)
//Storyboard Layer 3 (Foreground)
//Storyboard Sound Samples

[TimingPoints]
22,272.727272727273,3,1,1,75,1,0
6567,-100,3,1,3,75,0,0
6704,-100,3,1,1,75,0,0
6976,-100,3,1,3,75,0,0
7113,-100,3,1,1,75,0,0
7385,-100,3,1,3,75,0,0
7522,-100,3,1,1,75,0,0
8204,-100,3,1,1,75,0,0
18022,-100,3,1,3,75,0,0
19658,-100,3,1,1,75,0,0
24158,-100,3,1,3,75,0,0
24567,-100,3,1,1,75,0,0
27022,-100,3,1,1,55,0,0
27226,-100,3,1,1,5,0,0
27294,-100,3,1,1,60,0,0
27499,-100,3,1,1,5,0,0
27567,-100,3,1,1,65,0,0
27772,-100,3,1,1,5,0,0
27840,-90.9090909090909,4,1,1,85,0,1
33567,-90.9090909090909,4,1,1,85,0,0
34385,-90.9090909090909,4,1,1,85,0,1
40931,-100,4,1,1,85,0,0
42976,-100,4,1,3,85,0,0
43249,-100,4,1,1,85,0,0
43794,-100,4,1,3,85,0,0
44067,-100,4,1,1,85,0,0
44204,409.089979340956,4,1,1,65,1,0
44204,-80,4,1,1,65,0,0
51772,-100,4,1,3,65,0,0
51976,-80,4,1,1,65,0,0
52181,-80,4,1,3,65,0,0
52385,-80,4,1,1,65,0,0
58931,272.727272727273,3,1,3,75,1,0
58931,-100,3,1,3,75,0,0
59749,-100,3,1,1,75,0,0
62476,-100,3,1,3,75,0,0
67112,-100,3,1,1,75,0,0
67249,-100,3,1,3,75,0,0
70385,-100,3,1,1,75,0,0
72021,-100,3,1,3,75,0,0
73112,-100,3,1,1,75,0,0
73658,-100,3,1,1,75,0,0
83885,-100,3,1,3,75,0,0
84158,-100,3,1,1,75,0,0
84703,-100,3,1,3,75,0,0
84976,-100,3,1,1,75,0,0
91658,-90.9090909090909,4,1,1,85,0,1
97385,-90.9090909090909,4,1,1,85,0,0
98203,-90.9090909090909,4,1,1,85,0,1
103931,-90.9090909090909,4,1,1,85,0,0
104749,-90.9090909090909,4,1,1,85,0,1
110476,-90.9090909090909,4,1,1,85,0,0
111294,-90.9090909090909,4,1,1,85,0,1
117840,-100,4,1,3,75,0,0
120567,-100,4,1,1,5,0,0
120703,-100,4,1,1,75,0,0
120840,-100,4,1,1,5,0,0
120976,-100,4,1,3,75,0,0
121112,-100,4,1,1,5,0,0

[Colours]
Combo1 : 242,196,196
Combo2 : 174,174,174
Combo3 : 146,173,239
Combo4 : 181,119,98

[HitObjects]
0,176,22,6,0,P|37:143|86:138,1,100,8|0,0:1|2:1,0:0:0:0:
160,140,431,2,0,P|223:126|250:94,1,100,0|0,2:1|2:1,0:0:0:0:
283,36,840,1,8,0:1:0:0:
358,159,1112,1,8,0:1:0:0:
434,41,1385,1,8,0:1:0:0:
512,156,1658,6,0,L|508:272,1,100,4|0,2:1|2:1,0:0:0:0:
448,382,2203,1,0,2:1:0:0:
342,289,2476,2,0,L|242:292,2,100,0|0|0,2:1|2:1|2:1,0:0:0:0:
312,152,3294,6,0,P|281:129|210:119,1,100,0|0,2:1|2:1,0:0:0:0:
84,144,3840,1,2,2:1:0:0:
2,257,4112,2,0,B|-10:305|-10:305|-1:355,1,100,2|2,2:1|2:1,0:0:0:0:
70,381,4522,2,0,L|169:377,1,100,10|10,0:1|0:1,0:0:0:0:
243,360,4931,6,0,P|231:307|246:244,1,100,6|0,2:1|2:1,0:0:0:0:
324,152,5476,1,0,2:1:0:0:
425,247,5749,2,0,L|422:362,2,100,2|2|2,2:1|2:1|2:1,0:0:0:0:
366,119,6567,6,0,B|302:116|302:116|272:128|272:128|200:125,1,150,4|12,2:1|1:0,0:0:0:0:
26,210,7385,2,0,B|90:207|90:207|120:219|120:219|192:216,1,150,4|0,2:1|2:0,0:0:0:0:
147,8,8203,6,0,P|129:73|141:113,1,100,6|0,2:1|2:1,0:0:0:0:
196,148,8612,2,0,L|310:144,1,100,10|8,0:1|1:1,0:0:0:0:
356,98,9022,2,0,L|361:-7,2,100,0|0|2,2:1|2:1|2:1,0:0:0:0:
346,235,9840,6,0,B|300:236|275:265|275:265|247:245|207:259,1,150,2|10,2:1|1:1,0:0:0:0:
38,382,10658,2,0,B|83:380|108:351|108:351|136:371|176:357,1,150,2|2,2:1|2:1,0:0:0:0:
33,202,11476,6,0,L|26:95,1,100,4|0,2:1|2:1,0:0:0:0:
141,20,12022,1,0,2:1:0:0:
221,134,12294,2,0,P|199:179|147:200,2,100,2|2|2,2:1|2:1|2:1,0:0:0:0:
306,23,13112,6,0,B|276:104|324:98|298:170,1,150,10|10,1:1|1:1,0:0:0:0:
181,344,13931,2,0,P|205:301|250:284,1,100,10|0,0:1|2:1,0:0:0:0:
389,302,14476,1,0,2:1:0:0:
424,166,14749,6,0,L|416:58,2,100,4|0|0,2:1|2:1|2:1,0:0:0:0:
283,171,15567,1,0,2:1:0:0:
160,239,15840,1,0,2:1:0:0:
168,99,16112,1,0,2:1:0:0:
268,0,16385,6,0,P|312:32|332:78,2,100,4|0|0,2:1|2:1|2:1,0:0:0:0:
128,15,17203,1,0,2:0:0:0:
90,150,17476,1,0,2:0:0:0:
195,242,17749,1,0,2:0:0:0:
330,206,18022,6,0,L|340:371,1,150,2|2,2:1|2:1,0:0:0:0:
136,300,18840,2,0,P|68:270|-2:292,1,150,2|2,2:1|2:1,0:0:0:0:
137,127,19658,6,0,B|201:124|201:124|231:136|231:136|303:133,1,150,0|8,2:0|0:0,0:0:0:0:
473,34,20476,2,0,P|405:4|335:26,1,150,0|8,2:0|0:0,0:0:0:0:
390,229,21294,6,0,L|398:129,1,100,4|0,2:1|2:0,0:0:0:0:
265,84,21840,1,0,2:0:0:0:
190,201,22112,2,0,P|194:251|221:292,2,100,8|0|0,0:0|2:0|2:0,0:0:0:0:
310,270,22931,6,0,L|312:382,1,100,0|0,2:0|2:0,0:0:0:0:
236,367,23340,2,0,P|170:353|140:365,1,100,0|0,2:0|2:0,0:0:0:0:
66,357,23749,2,0,L|83:257,1,100,8|0,0:0|2:0,0:0:0:0:
58,187,24158,2,0,L|3:181,2,50,12|12|12,0:0|0:0|0:0,0:0:0:0:
133,179,24567,6,0,L|125:23,1,150,4|0,2:1|2:0,0:0:0:0:
305,137,25385,2,0,L|297:293,1,150,8|0,0:0|2:0,0:0:0:0:
97,350,26203,5,8,0:0:0:0:
112,65,27022,2,0,L|-6:71,2,100,2|2|2,1:1|1:1|1:1,0:0:0:0:
265,48,27840,6,0,B|266:95|266:95|259:114|259:114|260:156,1,110.000003356934,6|0,2:1|2:1,0:0:0:0:
295,225,28249,2,0,P|349:251|411:240,1,110.000003356934,0|0,2:1|2:1,0:0:0:0:
462,204,28658,2,0,L|467:141,1,55.0000016784668,8|0,1:1|2:1,0:0:0:0:
358,38,29067,2,0,L|226:31,1,110.000003356934,0|0,2:1|2:1,0:0:0:0:
175,59,29476,6,0,P|149:116|165:172,1,110.000003356934,0|0,2:1|2:1,0:0:0:0:
196,227,29885,2,0,P|138:201|82:217,1,110.000003356934,0|0,2:1|2:1,0:0:0:0:
33,257,30294,2,0,L|30:322,1,55.0000016784668,8|0,1:1|2:1,0:0:0:0:
175,363,30703,2,0,B|230:356|230:356|290:322,1,110.000003356934,0|0,2:1|2:1,0:0:0:0:
276,252,31112,6,0,L|274:130,1,110.000003356934,4|0,2:1|2:1,0:0:0:0:
312,74,31522,2,0,P|355:50|420:52,1,110.000003356934,0|0,2:1|2:1,0:0:0:0:
483,85,31931,1,8,0:1:0:0:
491,238,32203,1,0,2:1:0:0:
491,238,32340,1,0,2:1:0:0:
348,291,32612,1,0,2:1:0:0:
348,291,32749,6,0,B|281:294|281:294|245:309|245:309|174:312,1,165.000005035401,0|0,2:1|2:1,0:0:0:0:
94,123,33567,2,0,B|161:126|161:126|197:141|197:141|256:142,1,165.000005035401,8|0,0:1|2:1,0:0:0:0:
421,17,34385,6,0,P|360:-6|307:3,1,110.000003356934,4|0,2:1|2:1,0:0:0:0:
246,31,34794,2,0,L|116:21,1,110.000003356934,0|0,2:1|2:1,0:0:0:0:
69,61,35203,2,0,P|57:95|61:129,1,55.0000016784668,8|0,1:1|2:1,0:0:0:0:
139,244,35612,2,0,L|248:235,1,110.000003356934,0|0,2:1|2:1,0:0:0:0:
308,185,36022,6,0,P|270:232|266:293,1,110.000003356934,2|2,2:1|2:1,0:0:0:0:
300,347,36431,2,0,L|410:358,1,110.000003356934,0|0,2:1|2:1,0:0:0:0:
474,315,36840,2,0,L|479:260,1,55.0000016784668,10|0,0:1|2:1,0:0:0:0:
422,117,37249,2,0,P|388:90|310:84,1,110.000003356934,2|0,2:1|2:1,0:0:0:0:
246,85,37658,6,0,P|191:80|147:48,1,110.000003356934,4|0,2:1|2:1,0:0:0:0:
86,1,38067,2,0,L|79:112,1,110.000003356934,0|0,2:1|2:1,0:0:0:0:
36,175,38476,1,8,0:1:0:0:
136,291,38749,1,0,2:1:0:0:
136,291,38885,1,0,2:1:0:0:
248,186,39158,1,0,2:1:0:0:
248,186,39294,6,0,B|331:155|324:222|420:186,1,165.000005035401,0|0,2:1|2:1,0:0:0:0:
297,82,40112,2,0,P|240:72|145:136,1,165.000005035401,8|0,0:1|2:1,0:0:0:0:
102,329,40931,5,4,2:1:0:0:
337,196,42567,6,0,B|275:198|275:198|249:210|249:210|190:214,1,150,8|4,0:1|2:1,0:0:0:0:
357,88,43385,2,0,B|295:90|295:90|269:102|269:102|210:106,1,150,8|4,1:1|2:1,0:0:0:0:
391,0,44204,6,0,P|437:38|448:112,1,125,4|0,2:1|1:1,0:0:0:0:
294,215,45022,2,0,L|220:210,1,62.5,10|0,1:1|2:1,0:0:0:0:
171,147,45431,2,0,L|97:152,1,62.5,0|0,2:1|2:1,0:0:0:0:
33,196,45840,1,0,2:1:0:0:
361,317,46658,5,10,1:1:0:0:
361,317,46863,2,0,B|376:254|376:254|365:176,1,125,0|0,2:1|2:1,0:0:0:0:
312,126,47476,2,0,B|249:111|249:111|171:122,1,125,0|0,2:1|2:1,0:0:0:0:
108,154,48090,2,0,L|103:224,1,62.5,2|8,1:1|0:0,0:0:0:0:
408,43,49113,6,0,P|346:22|287:44,1,125,0|0,2:1|2:1,0:0:0:0:
215,82,49726,1,0,2:1:0:0:
215,82,49931,2,0,L|138:87,1,62.5,8|0,0:0|2:0,0:0:0:0:
65,66,50340,1,0,2:1:0:0:
62,241,50749,6,0,L|189:230,1,125,8|0,1:1|2:1,0:0:0:0:
334,324,51567,2,0,P|341:293|335:264,1,62.5,8|4,1:1|2:1,0:0:0:0:
298,183,51976,2,0,P|291:152|298:122,1,62.5,4|4,2:1|2:1,0:0:0:0:
361,61,52385,1,4,2:1:0:0:
23,341,53203,5,10,1:1:0:0:
23,341,53408,2,0,L|17:208,1,125,0|0,2:1|2:1,0:0:0:0:
9,128,54022,2,0,P|36:181|113:203,1,125,0|0,2:1|2:1,0:0:0:0:
176,175,54635,2,0,L|190:94,1,62.5,2|8,2:1|0:0,0:0:0:0:
441,354,55658,6,0,P|471:313|472:245,1,93.75,8|8,1:1|1:1,0:0:0:0:
365,202,56272,2,0,P|395:243|386:307,1,93.75,8|8,1:1|1:1,0:0:0:0:
270,323,56885,2,0,P|300:282|296:253,1,62.5,8|8,1:1|1:1,0:0:0:0:
256,192,57294,5,4,2:1:0:0:
256,192,57397,12,4,58931,2:1:0:0:
86,216,59749,6,0,L|79:323,2,100,8|0|0,0:1|2:1|2:1,0:0:0:0:
219,172,60567,2,0,P|287:167|381:266,1,200,4|0,2:1|2:1,0:0:0:0:
244,296,61385,2,0,P|176:301|82:202,1,200,4|0,2:1|2:1,0:0:0:0:
67,76,62203,6,0,B|168:122|159:35|265:76,1,200,4|2,2:1|2:1,0:0:0:0:
386,133,63021,1,2,2:1:0:0:
410,271,63294,2,0,L|299:257,1,100,2|2,2:1|2:1,0:0:0:0:
185,195,63840,6,0,L|74:209,2,100,2|2|2,2:1|2:1|2:1,0:0:0:0:
315,144,64658,2,0,L|414:156,2,100,2|2|2,2:1|2:1|2:1,0:0:0:0:
319,4,65476,6,0,P|244:11|179:127,1,200,6|2,2:1|2:1,0:0:0:0:
240,237,66294,2,0,P|252:300|235:348,2,100,2|2|2,2:1|2:1|2:1,0:0:0:0:
102,210,67112,6,0,B|98:128|98:128|70:90|70:90|64:11,1,200,4|2,2:1|2:1,0:0:0:0:
204,33,67931,1,6,2:1:0:0:
212,172,68203,1,2,2:1:0:0:
330,96,68476,1,2,2:1:0:0:
297,232,68749,6,0,P|363:275|477:231,1,200,6|2,2:1|2:1,0:0:0:0:
504,102,69567,2,0,L|514:-20,2,100,2|2|2,2:1|2:1|2:1,0:0:0:0:
401,197,70385,6,0,L|391:75,1,100,12|8,1:1|1:1,0:0:0:0:
282,9,70931,1,8,1:1:0:0:
172,96,71203,2,0,P|157:148|170:190,1,100,8|8,1:1|1:1,0:0:0:0:
210,253,71612,2,0,P|223:300|208:347,1,100,8|0,0:1|2:1,0:0:0:0:
140,382,72021,5,4,2:1:0:0:
37,166,73112,1,0,2:1:0:0:
37,166,73249,2,0,B|86:145|86:145|142:149,1,100,8|0,1:1|2:1,0:0:0:0:
198,184,73658,6,0,L|201:73,1,100,4|0,2:1|2:1,0:0:0:0:
246,24,74067,2,0,P|287:15|348:27,1,100,8|8,1:1|1:1,0:0:0:0:
396,85,74476,1,0,2:1:0:0:
346,216,74749,2,0,L|276:213,2,50,0|8|0,2:1|1:1|2:1,0:0:0:0:
307,350,75294,6,0,P|248:366|213:354,1,100,6|2,2:1|2:1,0:0:0:0:
151,309,75703,2,0,P|103:296|56:312,1,100,10|10,1:1|1:1,0:0:0:0:
6,368,76112,1,2,2:1:0:0:
27,229,76385,2,0,L|30:171,2,50,2|10|0,2:1|1:1|2:1,0:0:0:0:
150,151,76931,5,2,2:1:0:0:
289,142,77203,1,2,2:1:0:0:
428,133,77476,1,2,2:1:0:0:
348,248,77749,2,0,L|238:255,1,100,2|0,2:1|2:1,0:0:0:0:
172,259,78158,2,0,P|152:199|160:161,1,100,10|8,1:1|1:1,0:0:0:0:
213,112,78567,6,0,L|325:104,1,100,6|2,2:1|2:1,0:0:0:0:
385,124,78976,2,0,P|418:164|419:217,1,100,10|10,1:1|1:1,0:0:0:0:
383,275,79385,1,2,2:1:0:0:
242,276,79658,2,0,L|247:346,2,50,2|10|0,2:1|1:1|2:1,0:0:0:0:
103,117,80203,5,2,2:1:0:0:
242,108,80475,1,2,2:1:0:0:
381,99,80748,1,2,2:1:0:0:
493,183,81021,2,0,L|381:197,1,100,2|0,2:1|2:1,0:0:0:0:
337,247,81431,2,0,L|225:233,1,100,10|8,1:1|1:1,0:0:0:0:
178,187,81840,6,0,B|174:269|174:269|191:303|191:303|189:383,1,200,6|0,2:1|2:1,0:0:0:0:
65,316,82658,2,0,P|81:221|168:180,1,200,2|0,2:1|2:1,0:0:0:0:
308,215,83476,6,0,B|306:153|306:153|294:127|294:127|290:68,1,150,10|4,0:1|2:1,0:0:0:0:
416,235,84294,2,0,B|414:173|414:173|402:147|402:147|398:88,1,150,8|4,1:1|2:1,0:0:0:0:
497,272,85112,6,0,P|424:323|333:268,1,200,4|0,2:1|2:1,0:0:0:0:
292,140,85931,1,8,1:1:0:0:
200,245,86203,2,0,L|101:232,1,100,0|0,2:1|2:1,0:0:0:0:
133,95,86749,2,0,B|238:117|209:27|331:50,1,200,0|0,2:1|2:1,0:0:0:0:
412,153,87567,1,8,1:1:0:0:
299,236,87840,2,0,L|186:246,1,100,0|0,2:1|2:1,0:0:0:0:
124,363,88385,6,0,P|155:309|107:169,1,200,4|0,2:1|2:1,0:0:0:0:
7,101,89203,1,8,1:1:0:0:
144,74,89476,1,0,2:1:0:0:
281,48,89749,1,0,2:1:0:0:
236,180,90021,5,8,1:1:0:0:
461,351,91658,6,0,L|453:242,1,110.000003356934,4|0,2:1|2:1,0:0:0:0:
412,175,92067,2,0,P|354:156|307:169,1,110.000003356934,0|0,2:1|2:1,0:0:0:0:
256,225,92476,2,0,L|200:219,1,55.0000016784668,8|0,1:1|2:1,0:0:0:0:
139,77,92885,2,0,P|109:116|50:126,1,110.000003356934,0|0,2:1|2:1,0:0:0:0:
0,67,93294,6,0,L|10:178,1,110.000003356934,0|0,2:1|2:1,0:0:0:0:
2,253,93703,2,0,B|58:241|58:241|115:257,1,110.000003356934,0|0,2:1|2:1,0:0:0:0:
163,309,94112,2,0,L|221:317,1,55.0000016784668,8|0,1:1|2:1,0:0:0:0:
360,374,94521,2,0,P|346:322|370:270,1,110.000003356934,0|0,2:1|2:1,0:0:0:0:
413,208,94931,6,0,L|422:91,1,110.000003356934,4|0,2:1|2:1,0:0:0:0:
368,42,95340,2,0,P|314:26|262:41,1,110.000003356934,0|0,2:1|2:1,0:0:0:0:
209,94,95749,1,8,1:1:0:0:
69,28,96021,1,0,2:1:0:0:
69,28,96158,1,0,2:1:0:0:
65,169,96431,1,0,2:1:0:0:
65,169,96567,6,0,B|121:171|121:171|159:186|159:186|228:189,1,165.000005035401,0|0,2:1|2:0,0:0:0:0:
425,307,97385,2,0,B|371:309|371:309|335:324|335:324|263:328,1,165.000005035401,8|0,0:0|2:0,0:0:0:0:
38,379,98203,6,0,P|71:316|58:276,1,110.000003356934,4|0,2:1|2:1,0:0:0:0:
20,216,98612,2,0,P|12:162|43:118,1,110.000003356934,0|0,2:1|2:1,0:0:0:0:
117,96,99021,2,0,L|172:95,1,55.0000016784668,8|0,1:1|2:1,0:0:0:0:
319,49,99431,2,0,L|326:163,1,110.000003356934,0|0,2:1|2:1,0:0:0:0:
374,219,99840,6,0,P|310:200|263:215,1,110.000003356934,2|2,2:1|2:1,0:0:0:0:
216,267,100249,2,0,L|209:376,1,110.000003356934,0|0,2:1|2:1,0:0:0:0:
131,382,100658,2,0,L|75:376,1,55.0000016784668,10|0,1:1|2:1,0:0:0:0:
14,234,101067,1,10,2:1:0:0:
14,234,101203,1,8,2:1:0:0:
130,132,101476,6,0,P|195:110|236:126,1,110.000003356934,4|0,2:1|2:1,0:0:0:0:
299,160,101885,2,0,P|351:173|400:150,1,110.000003356934,0|0,2:1|2:1,0:0:0:0:
455,96,102294,1,8,1:1:0:0:
511,239,102567,1,0,2:1:0:0:
511,239,102703,1,0,2:1:0:0:
376,306,102976,1,0,2:1:0:0:
376,306,103112,6,0,B|296:273|309:341|209:303,1,165.000005035401,0|0,2:1|2:1,0:0:0:0:
76,166,103931,2,0,B|161:197|145:132|245:171,1,165.000005035401,8|8,0:1|0:1,0:0:0:0:
419,91,104749,6,0,P|358:14|238:19,1,220.000006713867,4|0,2:1|0:1,0:0:0:0:
105,82,105567,1,8,0:1:0:0:
191,208,105840,2,0,L|301:200,1,110.000003356934,0|8,0:0|0:1,0:0:0:0:
225,334,106385,6,0,P|131:327|63:223,1,220.000006713867,0|0,2:1|0:1,0:0:0:0:
105,82,107203,1,8,0:1:0:0:
258,71,107476,1,0,0:0:0:0:
191,210,107749,1,8,0:1:0:0:
338,168,108021,6,0,B|352:253|352:253|327:295|327:295|339:379,1,220.000006713867,4|0,2:1|0:1,0:0:0:0:
492,359,108840,1,8,0:1:0:0:
505,206,109112,2,0,L|496:93,1,110.000003356934,0|8,2:1|0:1,0:0:0:0:
372,6,109658,6,0,B|316:8|316:8|280:23|280:23|207:27,1,165.000005035401,8|0,0:1|2:1,0:0:0:0:
18,155,110476,2,0,B|78:158|78:158|114:173|114:173|188:177,1,165.000005035401,8|0,0:1|0:0,0:0:0:0:
362,313,111294,6,0,P|311:331|246:309,1,110.000003356934,4|0,2:1|2:1,0:0:0:0:
189,282,111703,2,0,P|136:268|85:286,1,110.000003356934,0|0,2:1|2:1,0:0:0:0:
54,357,112112,2,0,L|-6:351,1,55.0000016784668,8|0,0:1|2:1,0:0:0:0:
22,199,112521,2,0,L|133:192,1,110.000003356934,0|0,2:1|2:1,0:0:0:0:
189,139,112931,6,0,B|246:128|246:128|305:146,1,110.000003356934,2|2,2:1|2:1,0:0:0:0:
356,190,113340,2,0,L|481:180,1,110.000003356934,0|0,2:1|2:1,0:0:0:0:
509,244,113749,2,0,P|507:268|488:305,1,55.0000016784668,10|0,0:1|2:1,0:0:0:0:
343,323,114158,2,0,P|282:308|239:327,1,110.000003356934,2|0,2:1|2:1,0:0:0:0:
188,382,114567,6,0,L|180:265,1,110.000003356934,4|0,2:1|2:1,0:0:0:0:
242,225,114976,2,0,P|262:174|246:118,1,110.000003356934,0|0,2:1|2:1,0:0:0:0:
214,52,115385,1,8,1:1:0:0:
69,106,115658,1,0,2:1:0:0:
69,106,115794,1,0,2:1:0:0:
166,225,116067,1,0,2:1:0:0:
166,225,116203,6,0,B|91:194|101:263|7:229,1,165.000005035401,0|0,2:1|2:1,0:0:0:0:
211,336,117021,2,0,B|286:367|276:298|370:332,1,165.000005035401,8|8,0:1|0:1,0:0:0:0:
481,155,117840,6,0,L|490:100,2,50,4|0|0,2:1|2:1|2:1,0:0:0:0:
437,209,118249,2,0,L|446:264,2,50,0|0|0,2:1|2:1|2:1,0:0:0:0:
328,70,120294,6,0,B|241:39|245:152|186:76|168:105|131:71|149:25|192:17|201:50,1,250,8|4,1:1|2:1,0:0:0:0:
