osu file format v14

[General]
AudioFilename: 05Mikasa.mp3
AudioLeadIn: 0
PreviewTime: 91789
Countdown: 0
SampleSet: Normal
StackLeniency: 0.7
Mode: 1
LetterboxInBreaks: 0
WidescreenStoryboard: 1

[Editor]
DistanceSpacing: 1
BeatDivisor: 4
GridSize: 32
TimelineZoom: 2.2

[Metadata]
Title:Mikasa
TitleUnicode:Mikasa
Artist:Veil Of Maya
ArtistUnicode:Veil Of Maya
Creator:Capu
Version:ikin's Futsuu
Source:
Tags:English Metal Metalcore Djent Matriarch VOM Sumerian Records ikin5050
BeatmapID:3630870
BeatmapSetID:1766221

[Difficulty]
HPDrainRate:7
CircleSize:2
OverallDifficulty:4
ApproachRate:10
SliderMultiplier:1.3
SliderTickRate:1

[Events]
//Background and Video events
0,0,"mikasa.jpeg",0,40
//Break Periods
//Storyboard Layer 0 (Background)
//Storyboard Layer 1 (Fail)
//Storyboard Layer 2 (Pass)
//Storyboard Layer 3 (Foreground)
//Storyboard Layer 4 (Overlay)
//Storyboard Sound Samples

[TimingPoints]
227,272.727272727273,3,1,0,80,1,0
27158,-100,3,1,0,80,0,0
27431,-100,3,1,0,80,0,0
27704,-100,3,1,0,80,0,0
28045,-100,3,1,0,100,0,1
41136,-100,3,1,0,100,0,0
44408,409.089979340956,4,1,0,80,1,0
44408,-66.6666666666667,4,1,0,80,0,0
44510,-66.6666666666667,4,1,0,80,0,0
44817,-66.6666666666667,4,1,0,80,0,0
45123,-66.6666666666667,4,1,0,80,0,0
45328,-66.6666666666667,4,1,0,80,0,0
45532,-66.6666666666667,4,1,0,80,0,0
45737,-66.6666666666667,4,1,0,80,0,0
45942,-66.6666666666667,4,1,0,80,0,0
50851,-66.6666666666667,4,1,0,80,0,0
51873,-66.6666666666667,4,1,0,80,0,0
52078,-66.6666666666667,4,1,0,80,0,0
52282,-66.6666666666667,4,1,0,80,0,0
52487,-66.6666666666667,4,1,0,80,0,0
52692,-66.6666666666667,4,1,0,80,0,0
55760,-66.6666666666667,4,1,0,80,0,0
59135,272.727272727273,3,1,0,80,1,0
91862,-100,3,1,0,100,0,1
104135,-100,3,1,0,100,0,0
104953,-100,3,1,0,100,0,1
118044,-100,3,1,0,80,0,0
142589,-100,3,1,0,80,0,0
142725,-100,3,1,0,45,0,0
152339,-100,3,1,0,60,0,0
153157,-100,3,1,0,70,0,0
154044,-100,3,1,0,70,0,0
154180,-100,3,1,0,70,0,0
154453,-100,3,1,0,70,0,0
154725,-100,3,1,0,70,0,0
154794,-100,3,1,0,80,0,0
155544,-100,3,1,0,100,0,0
155680,-100,3,1,0,100,0,1
167953,-100,3,1,0,100,0,0
168771,-100,3,1,0,100,0,1
181862,-100,3,1,0,100,0,0

[HitObjects]
256,192,227,5,8,0:0:0:0:
256,192,499,1,0,0:0:0:0:
256,192,772,1,0,0:0:0:0:
256,192,1045,1,8,0:0:0:0:
256,192,1317,1,8,0:0:0:0:
256,192,1454,1,8,0:0:0:0:
256,192,1590,1,8,0:0:0:0:
256,192,1863,1,4,0:0:0:0:
256,192,2681,1,8,0:0:0:0:
256,192,2954,1,0,0:0:0:0:
256,192,3090,1,0,0:0:0:0:
256,192,3499,1,8,0:0:0:0:
256,192,4045,1,0,0:0:0:0:
256,192,4317,1,8,0:0:0:0:
256,192,4590,1,0,0:0:0:0:
256,192,4727,1,0,0:0:0:0:
256,192,4999,1,0,0:0:0:0:
256,192,5136,1,12,0:0:0:0:
256,192,5954,1,8,0:0:0:0:
256,192,6227,1,0,0:0:0:0:
256,192,6499,1,0,0:0:0:0:
256,192,6772,1,8,0:0:0:0:
256,192,7181,1,0,0:0:0:0:
256,192,7590,1,8,0:0:0:0:
256,192,7999,1,0,0:0:0:0:
256,192,8408,1,8,0:0:0:0:
256,192,8817,1,0,0:0:0:0:
256,192,9772,1,0,0:0:0:0:
256,192,10045,1,8,0:0:0:0:
256,192,10454,1,8,0:0:0:0:
256,192,10863,1,8,0:0:0:0:
256,192,11272,1,0,0:0:0:0:
256,192,12499,1,8,0:0:0:0:
256,192,12772,1,0,0:0:0:0:
256,192,13045,1,0,0:0:0:0:
256,192,13317,1,8,0:0:0:0:
256,192,13454,1,8,0:0:0:0:
256,192,13727,1,8,0:0:0:0:
256,192,14136,1,8,0:0:0:0:
256,192,14408,1,0,0:0:0:0:
256,192,14545,1,0,0:0:0:0:
256,192,14681,1,8,0:0:0:0:
256,192,14954,1,0,0:0:0:0:
256,192,15772,1,8,0:0:0:0:
256,192,16045,1,0,0:0:0:0:
256,192,16317,1,8,0:0:0:0:
256,192,16590,1,0,0:0:0:0:
256,192,17136,1,0,0:0:0:0:
256,192,18227,1,0,0:0:0:0:
256,192,18636,1,0,0:0:0:0:
256,192,19045,1,0,0:0:0:0:
256,192,19454,1,8,0:0:0:0:
256,192,19863,1,8,0:0:0:0:
256,192,20272,1,8,0:0:0:0:
256,192,20681,1,0,0:0:0:0:
256,192,21090,1,8,0:0:0:0:
256,192,22317,1,8,0:0:0:0:
256,192,22590,1,0,0:0:0:0:
256,192,22863,1,0,0:0:0:0:
256,192,23136,1,0,0:0:0:0:
256,192,23545,1,0,0:0:0:0:
256,192,24499,1,8,0:0:0:0:
256,192,24772,1,0,0:0:0:0:
256,192,25181,1,0,0:0:0:0:
256,192,25590,1,8,0:0:0:0:
256,192,25999,1,0,0:0:0:0:
256,192,26408,1,8,0:0:0:0:
256,192,28045,1,12,0:0:0:0:
256,192,28317,1,0,0:0:0:0:
256,192,28454,1,8,0:0:0:0:
256,192,28727,1,0,0:0:0:0:
256,192,28863,1,8,0:0:0:0:
256,192,29272,1,0,0:0:0:0:
256,192,29681,1,8,0:0:0:0:
256,192,29954,1,0,0:0:0:0:
256,192,30090,1,0,0:0:0:0:
256,192,30363,1,0,0:0:0:0:
256,192,30499,1,8,0:0:0:0:
256,192,31317,1,12,0:0:0:0:
256,192,31590,1,0,0:0:0:0:
256,192,31727,1,0,0:0:0:0:
256,192,31999,1,0,0:0:0:0:
256,192,32136,1,8,0:0:0:0:
256,192,32545,1,0,0:0:0:0:
256,192,32954,1,8,0:0:0:0:
256,192,33363,1,8,0:0:0:0:
256,192,33772,1,0,0:0:0:0:
256,192,34590,1,12,0:0:0:0:
256,192,34863,1,0,0:0:0:0:
256,192,34999,1,0,0:0:0:0:
256,192,35272,1,0,0:0:0:0:
256,192,35408,1,8,0:0:0:0:
256,192,35681,1,0,0:0:0:0:
256,192,35954,1,0,0:0:0:0:
256,192,36227,1,8,0:0:0:0:
256,192,36499,1,0,0:0:0:0:
256,192,36772,1,0,0:0:0:0:
256,192,37045,1,8,0:0:0:0:
256,192,37863,1,4,0:0:0:0:
256,192,38136,1,0,0:0:0:0:
256,192,38272,1,0,0:0:0:0:
256,192,38545,1,0,0:0:0:0:
256,192,38681,1,8,0:0:0:0:
256,192,38954,1,0,0:0:0:0:
256,192,39227,1,0,0:0:0:0:
256,192,39499,1,8,0:0:0:0:
256,192,39772,1,0,0:0:0:0:
256,192,40317,1,8,0:0:0:0:
256,192,40727,1,8,0:0:0:0:
256,192,41136,1,4,0:0:0:0:
256,192,41954,1,0,0:0:0:0:
256,192,42363,1,0,0:0:0:0:
256,192,42772,1,8,0:0:0:0:
256,192,42908,1,0,0:0:0:0:
256,192,43181,1,0,0:0:0:0:
256,192,43454,1,0,0:0:0:0:
256,192,43590,1,8,0:0:0:0:
256,192,43727,1,0,0:0:0:0:
256,192,43999,1,0,0:0:0:0:
256,192,44408,1,4,0:0:0:0:
256,192,45226,1,8,0:0:0:0:
256,192,45430,1,0,0:0:0:0:
256,192,45635,1,8,0:0:0:0:
256,192,45839,1,8,0:0:0:0:
256,192,46044,1,0,0:0:0:0:
256,192,46862,1,8,0:0:0:0:
256,192,47271,1,0,0:0:0:0:
256,192,47476,1,0,0:0:0:0:
256,192,47885,1,0,0:0:0:0:
256,192,48498,1,8,0:0:0:0:
256,192,48805,1,8,0:0:0:0:
256,192,49112,1,0,0:0:0:0:
256,192,49521,1,0,0:0:0:0:
256,192,49930,1,0,0:0:0:0:
256,192,50135,1,8,0:0:0:0:
256,192,50544,1,0,0:0:0:0:
256,192,50953,1,8,0:0:0:0:
256,192,51771,1,0,0:0:0:0:
256,192,51976,1,8,0:0:0:0:
256,192,52180,1,8,0:0:0:0:
256,192,52589,1,4,0:0:0:0:
256,192,53407,1,8,0:0:0:0:
256,192,53612,1,0,0:0:0:0:
256,192,53919,1,0,0:0:0:0:
256,192,54226,1,0,0:0:0:0:
256,192,54532,1,0,0:0:0:0:
256,192,54839,1,8,0:0:0:0:
256,192,55862,1,8,0:0:0:0:
256,192,56169,1,0,0:0:0:0:
256,192,56476,1,8,0:0:0:0:
256,192,56782,1,0,0:0:0:0:
256,192,57089,1,8,0:0:0:0:
256,192,57294,1,8,0:0:0:0:
256,192,57498,1,0,0:0:0:0:
256,192,58726,1,0,0:0:0:0:
256,192,59135,1,12,0:0:0:0:
256,192,59953,1,8,0:0:0:0:
256,192,60225,1,0,0:0:0:0:
256,192,60771,1,8,0:0:0:0:
256,192,61044,1,0,0:0:0:0:
256,192,61316,1,0,0:0:0:0:
256,192,61589,1,8,0:0:0:0:
256,192,61862,1,0,0:0:0:0:
256,192,62135,1,8,0:0:0:0:
256,192,62407,1,4,0:0:0:0:
256,192,62953,1,8,0:0:0:0:
256,192,63225,1,0,0:0:0:0:
256,192,63498,1,8,0:0:0:0:
256,192,63771,1,0,0:0:0:0:
256,192,64044,1,8,0:0:0:0:
256,192,64453,1,0,0:0:0:0:
256,192,64862,1,8,0:0:0:0:
256,192,65271,1,8,0:0:0:0:
256,192,65680,1,8,0:0:0:0:
256,192,66225,1,8,0:0:0:0:
256,192,66498,1,8,0:0:0:0:
256,192,66771,1,0,0:0:0:0:
256,192,67044,1,0,0:0:0:0:
256,192,67316,1,8,0:0:0:0:
256,192,67589,1,8,0:0:0:0:
256,192,68407,1,0,0:0:0:0:
256,192,68680,1,0,0:0:0:0:
256,192,68953,1,8,0:0:0:0:
256,192,69225,1,0,0:0:0:0:
256,192,69498,1,0,0:0:0:0:
256,192,69771,1,8,0:0:0:0:
256,192,70180,1,8,0:0:0:0:
256,192,70589,1,8,0:0:0:0:
256,192,71135,1,8,0:0:0:0:
256,192,71407,1,8,0:0:0:0:
256,192,71680,1,0,0:0:0:0:
256,192,71953,1,0,0:0:0:0:
256,192,72225,1,8,0:0:0:0:
256,192,73453,1,8,0:0:0:0:
256,192,73862,1,0,0:0:0:0:
256,192,74271,1,8,0:0:0:0:
256,192,74680,1,0,0:0:0:0:
256,192,75089,1,8,0:0:0:0:
256,192,75498,1,8,0:0:0:0:
256,192,75907,1,0,0:0:0:0:
256,192,76316,1,8,0:0:0:0:
256,192,76725,1,8,0:0:0:0:
256,192,77135,1,8,0:0:0:0:
256,192,77407,1,0,0:0:0:0:
256,192,77680,1,8,0:0:0:0:
256,192,77953,1,0,0:0:0:0:
256,192,78498,1,0,0:0:0:0:
256,192,78771,1,8,0:0:0:0:
256,192,79180,1,8,0:0:0:0:
256,192,79589,1,0,0:0:0:0:
256,192,79998,1,8,0:0:0:0:
256,192,80407,1,8,0:0:0:0:
256,192,80680,1,8,0:0:0:0:
256,192,80953,1,0,0:0:0:0:
256,192,81225,1,8,0:0:0:0:
256,192,81635,1,0,0:0:0:0:
256,192,82044,1,12,0:0:0:0:
256,192,82862,1,8,0:0:0:0:
256,192,83135,1,0,0:0:0:0:
256,192,83680,1,8,0:0:0:0:
256,192,83816,1,0,0:0:0:0:
256,192,84089,1,0,0:0:0:0:
256,192,84498,1,8,0:0:0:0:
256,192,84635,1,0,0:0:0:0:
256,192,84907,1,0,0:0:0:0:
256,192,85316,1,12,0:0:0:0:
256,192,86135,1,12,0:0:0:0:
256,192,86407,1,0,0:0:0:0:
256,192,86680,1,0,0:0:0:0:
256,192,86953,1,8,0:0:0:0:
256,192,87771,1,12,0:0:0:0:
256,192,88044,1,0,0:0:0:0:
256,192,88316,1,0,0:0:0:0:
256,192,88589,1,0,0:0:0:0:
256,192,89407,1,12,0:0:0:0:
256,192,89680,1,0,0:0:0:0:
256,192,89953,1,0,0:0:0:0:
256,192,90225,1,8,0:0:0:0:
256,192,91862,1,12,0:0:0:0:
256,192,92135,1,0,0:0:0:0:
256,192,92271,1,8,0:0:0:0:
256,192,92544,1,0,0:0:0:0:
256,192,92680,1,8,0:0:0:0:
256,192,93089,1,0,0:0:0:0:
256,192,93498,1,8,0:0:0:0:
256,192,93771,1,0,0:0:0:0:
256,192,93907,1,0,0:0:0:0:
256,192,94180,1,0,0:0:0:0:
256,192,94316,1,8,0:0:0:0:
256,192,95135,1,12,0:0:0:0:
256,192,95407,1,0,0:0:0:0:
256,192,95544,1,0,0:0:0:0:
256,192,95816,1,0,0:0:0:0:
256,192,95953,1,8,0:0:0:0:
256,192,96362,1,0,0:0:0:0:
256,192,96771,1,8,0:0:0:0:
256,192,97180,1,8,0:0:0:0:
256,192,97589,1,0,0:0:0:0:
256,192,98407,1,4,0:0:0:0:
256,192,98680,1,8,0:0:0:0:
256,192,98816,1,0,0:0:0:0:
256,192,99089,1,0,0:0:0:0:
256,192,99225,1,8,0:0:0:0:
256,192,99498,1,0,0:0:0:0:
256,192,99771,1,0,0:0:0:0:
256,192,100044,1,8,0:0:0:0:
256,192,100316,1,0,0:0:0:0:
256,192,100589,1,0,0:0:0:0:
256,192,100862,1,8,0:0:0:0:
256,192,101680,1,12,0:0:0:0:
256,192,101953,1,0,0:0:0:0:
256,192,102089,1,0,0:0:0:0:
256,192,102362,1,0,0:0:0:0:
256,192,102498,1,8,0:0:0:0:
256,192,102771,1,0,0:0:0:0:
256,192,103044,1,0,0:0:0:0:
256,192,103316,1,8,0:0:0:0:
256,192,103589,1,0,0:0:0:0:
256,192,104135,1,8,0:0:0:0:
256,192,104544,1,8,0:0:0:0:
256,192,104953,1,12,0:0:0:0:
256,192,105225,1,0,0:0:0:0:
256,192,105362,1,8,0:0:0:0:
256,192,105635,1,0,0:0:0:0:
256,192,105771,1,8,0:0:0:0:
256,192,106180,1,0,0:0:0:0:
256,192,106589,1,8,0:0:0:0:
256,192,106862,1,0,0:0:0:0:
256,192,106998,1,0,0:0:0:0:
256,192,107271,1,0,0:0:0:0:
256,192,107407,1,8,0:0:0:0:
256,192,108225,1,12,0:0:0:0:
256,192,108498,1,0,0:0:0:0:
256,192,108635,1,0,0:0:0:0:
256,192,108907,1,0,0:0:0:0:
256,192,109044,1,8,0:0:0:0:
256,192,109453,1,8,0:0:0:0:
256,192,109862,1,0,0:0:0:0:
256,192,110271,1,0,0:0:0:0:
256,192,110680,1,8,0:0:0:0:
256,192,111498,1,4,0:0:0:0:
256,192,111771,1,8,0:0:0:0:
256,192,111907,1,0,0:0:0:0:
256,192,112180,1,0,0:0:0:0:
256,192,112316,1,8,0:0:0:0:
256,192,112589,1,8,0:0:0:0:
256,192,112862,1,0,0:0:0:0:
256,192,113135,1,8,0:0:0:0:
256,192,113407,1,0,0:0:0:0:
256,192,113680,1,0,0:0:0:0:
256,192,113953,1,8,0:0:0:0:
256,192,114771,1,12,0:0:0:0:
256,192,115044,1,0,0:0:0:0:
256,192,115180,1,0,0:0:0:0:
256,192,115453,1,0,0:0:0:0:
256,192,115589,1,8,0:0:0:0:
256,192,115862,1,0,0:0:0:0:
256,192,116135,1,0,0:0:0:0:
256,192,116407,1,8,0:0:0:0:
256,192,116680,1,0,0:0:0:0:
256,192,117225,1,8,0:0:0:0:
256,192,117635,1,8,0:0:0:0:
256,192,118044,1,4,0:0:0:0:
256,192,118453,1,0,0:0:0:0:
256,192,118862,1,8,0:0:0:0:
256,192,119271,1,0,0:0:0:0:
256,192,119680,1,8,0:0:0:0:
256,192,120089,1,0,0:0:0:0:
256,192,120225,1,0,0:0:0:0:
256,192,120498,1,8,0:0:0:0:
256,192,120635,1,0,0:0:0:0:
256,192,120907,1,8,0:0:0:0:
256,192,121180,1,8,0:0:0:0:
256,192,121316,1,0,0:0:0:0:
256,192,121725,1,0,0:0:0:0:
256,192,122135,1,8,0:0:0:0:
256,192,122544,1,0,0:0:0:0:
256,192,122953,1,8,0:0:0:0:
256,192,123362,1,0,0:0:0:0:
256,192,123771,1,8,0:0:0:0:
256,192,124589,1,8,0:0:0:0:
256,192,124998,1,0,0:0:0:0:
256,192,125407,1,8,0:0:0:0:
256,192,125816,1,8,0:0:0:0:
256,192,126225,1,0,0:0:0:0:
256,192,126635,1,0,0:0:0:0:
256,192,126771,1,0,0:0:0:0:
256,192,127044,1,8,0:0:0:0:
256,192,127180,1,0,0:0:0:0:
256,192,127453,1,8,0:0:0:0:
256,192,127725,1,8,0:0:0:0:
256,192,127862,1,0,0:0:0:0:
256,192,128271,1,0,0:0:0:0:
256,192,128680,1,8,0:0:0:0:
256,192,129089,1,0,0:0:0:0:
256,192,129498,1,8,0:0:0:0:
256,192,129771,1,0,0:0:0:0:
256,192,130044,1,8,0:0:0:0:
256,192,130316,1,0,0:0:0:0:
256,192,131135,1,8,0:0:0:0:
256,192,131544,1,0,0:0:0:0:
256,192,131953,1,8,0:0:0:0:
256,192,132771,1,12,0:0:0:0:
256,192,133589,1,8,0:0:0:0:
256,192,133725,1,0,0:0:0:0:
256,192,133998,1,0,0:0:0:0:
256,192,134271,1,8,0:0:0:0:
256,192,134407,1,0,0:0:0:0:
256,192,134816,1,0,0:0:0:0:
256,192,135225,1,8,0:0:0:0:
256,192,136044,1,8,0:0:0:0:
256,192,136453,1,0,0:0:0:0:
256,192,136862,1,8,0:0:0:0:
256,192,137680,1,12,0:0:0:0:
256,192,138498,1,8,0:0:0:0:
256,192,138635,1,0,0:0:0:0:
256,192,138907,1,0,0:0:0:0:
256,192,139180,1,0,0:0:0:0:
256,192,139316,1,8,0:0:0:0:
256,192,139725,1,0,0:0:0:0:
256,192,140135,1,8,0:0:0:0:
256,192,140953,1,8,0:0:0:0:
256,192,141089,1,0,0:0:0:0:
256,192,141362,1,0,0:0:0:0:
256,192,141771,1,8,0:0:0:0:
256,192,141907,1,0,0:0:0:0:
256,192,142180,1,0,0:0:0:0:
256,192,142453,1,8,0:0:0:0:
256,192,142589,1,0,0:0:0:0:
256,192,143953,1,0,0:0:0:0:
256,192,144225,1,8,0:0:0:0:
256,192,144635,1,0,0:0:0:0:
256,192,145044,1,8,0:0:0:0:
256,192,145862,1,0,0:0:0:0:
256,192,146271,1,0,0:0:0:0:
256,192,146680,1,8,0:0:0:0:
256,192,147089,1,0,0:0:0:0:
256,192,147498,1,8,0:0:0:0:
256,192,147907,1,8,0:0:0:0:
256,192,148316,1,0,0:0:0:0:
256,192,148725,1,8,0:0:0:0:
256,192,149135,1,0,0:0:0:0:
256,192,150225,1,8,0:0:0:0:
256,192,150498,1,0,0:0:0:0:
256,192,150771,1,8,0:0:0:0:
256,192,151044,1,8,0:0:0:0:
256,192,151316,1,0,0:0:0:0:
256,192,151589,1,8,0:0:0:0:
256,192,151998,1,8,0:0:0:0:
256,192,152407,1,0,0:0:0:0:
256,192,152816,1,0,0:0:0:0:
256,192,153225,1,8,0:0:0:0:
256,192,153635,1,0,0:0:0:0:
256,192,154044,1,8,0:0:0:0:
256,192,154180,1,0,0:0:0:0:
256,192,154453,1,0,0:0:0:0:
256,192,154862,1,8,0:0:0:0:
256,192,155271,1,8,0:0:0:0:
256,192,155680,1,12,0:0:0:0:
256,192,155953,1,0,0:0:0:0:
256,192,156089,1,8,0:0:0:0:
256,192,156362,1,0,0:0:0:0:
256,192,156498,1,8,0:0:0:0:
256,192,156907,1,0,0:0:0:0:
256,192,157316,1,8,0:0:0:0:
256,192,157589,1,0,0:0:0:0:
256,192,157725,1,0,0:0:0:0:
256,192,157998,1,0,0:0:0:0:
256,192,158135,1,8,0:0:0:0:
256,192,158953,1,12,0:0:0:0:
256,192,159225,1,0,0:0:0:0:
256,192,159362,1,0,0:0:0:0:
256,192,159635,1,0,0:0:0:0:
256,192,159771,1,8,0:0:0:0:
256,192,160180,1,0,0:0:0:0:
256,192,160589,1,8,0:0:0:0:
256,192,160998,1,8,0:0:0:0:
256,192,161407,1,0,0:0:0:0:
256,192,162225,1,4,0:0:0:0:
256,192,162498,1,8,0:0:0:0:
256,192,162635,1,0,0:0:0:0:
256,192,162907,1,0,0:0:0:0:
256,192,163044,1,8,0:0:0:0:
256,192,163316,1,0,0:0:0:0:
256,192,163589,1,0,0:0:0:0:
256,192,163862,1,8,0:0:0:0:
256,192,164135,1,0,0:0:0:0:
256,192,164407,1,0,0:0:0:0:
256,192,164680,1,8,0:0:0:0:
256,192,165498,1,12,0:0:0:0:
256,192,165771,1,0,0:0:0:0:
256,192,165907,1,0,0:0:0:0:
256,192,166180,1,0,0:0:0:0:
256,192,166316,1,8,0:0:0:0:
256,192,166725,1,0,0:0:0:0:
256,192,167135,1,8,0:0:0:0:
256,192,167407,1,0,0:0:0:0:
256,192,167953,1,8,0:0:0:0:
256,192,168362,1,8,0:0:0:0:
256,192,168771,1,12,0:0:0:0:
256,192,169044,1,0,0:0:0:0:
256,192,169180,1,8,0:0:0:0:
256,192,169316,1,0,0:0:0:0:
256,192,169589,1,8,0:0:0:0:
256,192,169862,1,0,0:0:0:0:
256,192,169998,1,0,0:0:0:0:
256,192,170135,1,8,0:0:0:0:
256,192,170407,1,8,0:0:0:0:
256,192,170680,1,0,0:0:0:0:
256,192,170816,1,8,0:0:0:0:
256,192,170953,1,0,0:0:0:0:
256,192,171225,1,8,0:0:0:0:
256,192,171498,1,0,0:0:0:0:
256,192,171635,1,0,0:0:0:0:
256,192,171771,1,0,0:0:0:0:
256,192,172044,1,12,0:0:0:0:
256,192,172316,1,0,0:0:0:0:
256,192,172453,1,8,0:0:0:0:
256,192,172589,1,0,0:0:0:0:
256,192,172862,1,8,0:0:0:0:
256,192,173135,1,0,0:0:0:0:
256,192,173271,1,8,0:0:0:0:
256,192,173407,1,0,0:0:0:0:
256,192,173680,1,0,0:0:0:0:
256,192,173953,1,8,0:0:0:0:
256,192,174089,1,0,0:0:0:0:
256,192,174225,1,0,0:0:0:0:
256,192,174362,1,0,0:0:0:0:
256,192,174498,1,8,0:0:0:0:
256,192,175316,1,4,0:0:0:0:
256,192,175589,1,8,0:0:0:0:
256,192,175725,1,0,0:0:0:0:
256,192,175998,1,0,0:0:0:0:
256,192,176135,1,8,0:0:0:0:
256,192,176407,1,8,0:0:0:0:
256,192,176680,1,0,0:0:0:0:
256,192,176953,1,8,0:0:0:0:
256,192,177225,1,0,0:0:0:0:
256,192,177498,1,0,0:0:0:0:
256,192,177771,1,8,0:0:0:0:
256,192,178589,1,12,0:0:0:0:
256,192,178862,1,0,0:0:0:0:
256,192,178998,1,0,0:0:0:0:
256,192,179271,1,0,0:0:0:0:
256,192,179407,1,8,0:0:0:0:
256,192,179680,1,0,0:0:0:0:
256,192,179953,1,0,0:0:0:0:
256,192,180225,1,8,0:0:0:0:
256,192,180498,1,0,0:0:0:0:
256,192,181044,1,8,0:0:0:0:
256,192,181453,1,8,0:0:0:0:
256,192,181862,1,4,0:0:0:0:
256,192,182271,1,0,0:0:0:0:
256,192,182680,1,8,0:0:0:0:
256,192,183498,1,12,0:0:0:0:
256,192,184316,1,8,0:0:0:0:
256,192,184453,1,0,0:0:0:0:
256,192,184725,1,0,0:0:0:0:
256,192,184998,1,8,0:0:0:0:
