osu file format v14

[General]
AudioFilename: 05Mikasa.mp3
AudioLeadIn: 0
PreviewTime: 91789
Countdown: 0
SampleSet: Normal
StackLeniency: 0.7
Mode: 1
LetterboxInBreaks: 0
WidescreenStoryboard: 1

[Editor]
DistanceSpacing: 1
BeatDivisor: 4
GridSize: 32
TimelineZoom: 2.5

[Metadata]
Title:Mikasa
TitleUnicode:Mikasa
Artist:Veil Of Maya
ArtistUnicode:Veil Of Maya
Creator:Capu
Version:Oni
Source:
Tags:English Metal Metalcore Djent Matriarch VOM Sumerian Records ikin5050
BeatmapID:3680021
BeatmapSetID:1766221

[Difficulty]
HPDrainRate:5.5
CircleSize:2
OverallDifficulty:6
ApproachRate:10
SliderMultiplier:1.4
SliderTickRate:1

[Events]
//Background and Video events
0,0,"mikasa.jpeg",0,40
//Break Periods
//Storyboard Layer 0 (Background)
//Storyboard Layer 1 (Fail)
//Storyboard Layer 2 (Pass)
//Storyboard Layer 3 (Foreground)
//Storyboard Layer 4 (Overlay)
//Storyboard Sound Samples

[TimingPoints]
227,272.727272727273,3,1,0,80,1,0
27158,-105.263157894737,3,1,0,80,0,0
27431,-111.111111111111,3,1,0,80,0,0
27704,-117.647058823529,3,1,0,80,0,0
28045,-100,3,1,0,100,0,1
41136,-100,3,1,0,100,0,0
44408,409.089979340956,4,1,0,80,1,0
44408,-66.6666666666667,4,1,0,80,0,0
44510,-71.4285714285714,4,1,0,80,0,0
44817,-76.9230769230769,4,1,0,80,0,0
45123,-83.3333333333333,4,1,0,80,0,0
45328,-86.9565217391304,4,1,0,80,0,0
45532,-90.9090909090909,4,1,0,80,0,0
45737,-95.2380952380952,4,1,0,80,0,0
45942,-100,4,1,0,80,0,0
50851,-66.6666666666667,4,1,0,80,0,0
51873,-71.4285714285714,4,1,0,80,0,0
52078,-76.9230769230769,4,1,0,80,0,0
52282,-83.3333333333333,4,1,0,80,0,0
52487,-90.9090909090909,4,1,0,80,0,0
52692,-100,4,1,0,80,0,0
55760,-76.9230769230769,4,1,0,80,0,0
58723,-75.187969924812,4,1,0,80,0,0
58825,-73.5294117647059,4,1,0,80,0,0
58927,-71.4285714285714,4,1,0,80,0,0
59029,-69.4444444444444,4,1,0,80,0,0
59135,272.727272727273,3,1,0,80,1,0
91862,-100,3,1,0,100,0,1
104135,-100,3,1,0,100,0,0
104953,-100,3,1,0,100,0,1
118044,-100,3,1,0,80,0,0
142589,-99.9999999999999,3,1,0,80,0,0
142725,-125,3,1,0,45,0,0
152339,-117.647058823529,3,1,0,60,0,0
153157,-117.647058823529,3,1,0,70,0,0
154044,-116.279069767442,3,1,0,70,0,0
154180,-114.942528735632,3,1,0,70,0,0
154453,-113.636363636364,3,1,0,70,0,0
154725,-112.359550561798,3,1,0,70,0,0
154794,-111.111111111111,3,1,0,80,0,0
155680,-100,3,1,0,100,0,1
167953,-100,3,1,0,100,0,0
168771,-100,3,1,0,100,0,1
181862,-100,3,1,0,100,0,0

[HitObjects]
256,192,227,5,8,0:0:0:0:
256,192,295,1,8,0:0:0:0:
256,192,363,1,8,0:0:0:0:
256,192,431,1,8,0:0:0:0:
256,192,499,1,0,0:0:0:0:
256,192,636,1,0,0:0:0:0:
256,192,772,1,8,0:0:0:0:
256,192,908,1,0,0:0:0:0:
256,192,1045,1,8,0:0:0:0:
256,192,1181,1,8,0:0:0:0:
256,192,1249,1,8,0:0:0:0:
256,192,1317,1,8,0:0:0:0:
256,192,1454,1,8,0:0:0:0:
256,192,1590,1,8,0:0:0:0:
256,192,1727,1,8,0:0:0:0:
256,192,1863,1,4,0:0:0:0:
256,192,2136,1,8,0:0:0:0:
256,192,2272,1,8,0:0:0:0:
256,192,2408,1,0,0:0:0:0:
256,192,2477,1,0,0:0:0:0:
256,192,2545,1,8,0:0:0:0:
256,192,2681,1,0,0:0:0:0:
256,192,2817,1,8,0:0:0:0:
256,192,2954,1,0,0:0:0:0:
256,192,3090,1,8,0:0:0:0:
256,192,3227,1,8,0:0:0:0:
256,192,3363,1,0,0:0:0:0:
256,192,3499,1,8,0:0:0:0:
256,192,3772,1,0,0:0:0:0:
256,192,3908,1,8,0:0:0:0:
256,192,4045,1,8,0:0:0:0:
256,192,4181,1,0,0:0:0:0:
256,192,4317,1,8,0:0:0:0:
256,192,4454,1,0,0:0:0:0:
256,192,4522,1,0,0:0:0:0:
256,192,4590,1,0,0:0:0:0:
256,192,4727,1,8,0:0:0:0:
256,192,4863,1,0,0:0:0:0:
256,192,4999,1,8,0:0:0:0:
256,192,5136,1,12,0:0:0:0:
256,192,5408,1,0,0:0:0:0:
256,192,5545,1,0,0:0:0:0:
256,192,5681,1,8,0:0:0:0:
256,192,5817,1,0,0:0:0:0:
256,192,5954,1,8,0:0:0:0:
256,192,6022,1,8,0:0:0:0:
256,192,6090,1,0,0:0:0:0:
256,192,6227,1,8,0:0:0:0:
256,192,6363,1,8,0:0:0:0:
256,192,6499,1,0,0:0:0:0:
256,192,6567,1,0,0:0:0:0:
256,192,6636,1,8,0:0:0:0:
256,192,6772,1,4,0:0:0:0:
256,192,7045,1,0,0:0:0:0:
256,192,7181,1,8,0:0:0:0:
256,192,7317,1,0,0:0:0:0:
256,192,7454,1,0,0:0:0:0:
256,192,7590,1,8,0:0:0:0:
256,192,7727,1,8,0:0:0:0:
256,192,7863,1,0,0:0:0:0:
256,192,7931,1,0,0:0:0:0:
256,192,7999,1,0,0:0:0:0:
256,192,8067,1,0,0:0:0:0:
256,192,8136,1,8,0:0:0:0:
256,192,8272,1,0,0:0:0:0:
256,192,8408,1,8,0:0:0:0:
256,192,8681,1,0,0:0:0:0:
256,192,8817,1,8,0:0:0:0:
256,192,8954,1,0,0:0:0:0:
256,192,9022,1,0,0:0:0:0:
256,192,9090,1,0,0:0:0:0:
256,192,9227,1,8,0:0:0:0:
256,192,9295,1,8,0:0:0:0:
256,192,9363,1,0,0:0:0:0:
256,192,9499,1,8,0:0:0:0:
256,192,9636,1,8,0:0:0:0:
256,192,9772,1,0,0:0:0:0:
256,192,9908,1,8,0:0:0:0:
256,192,10045,1,0,0:0:0:0:
256,192,10113,1,0,0:0:0:0:
256,192,10181,1,8,0:0:0:0:
256,192,10317,1,0,0:0:0:0:
256,192,10454,1,8,0:0:0:0:
256,192,10590,1,8,0:0:0:0:
256,192,10727,1,0,0:0:0:0:
256,192,10863,1,8,0:0:0:0:
256,192,10999,1,8,0:0:0:0:
256,192,11136,1,0,0:0:0:0:
256,192,11204,1,0,0:0:0:0:
256,192,11272,1,0,0:0:0:0:
256,192,11408,1,8,0:0:0:0:
256,192,11477,1,8,0:0:0:0:
256,192,11545,1,8,0:0:0:0:
256,192,11613,1,8,0:0:0:0:
256,192,11681,1,4,0:0:0:0:
256,192,11954,1,8,0:0:0:0:
256,192,12090,1,0,0:0:0:0:
256,192,12227,1,8,0:0:0:0:
256,192,12363,1,8,0:0:0:0:
256,192,12499,1,4,0:0:0:0:
256,192,12772,1,0,0:0:0:0:
256,192,12908,1,8,0:0:0:0:
256,192,13045,1,0,0:0:0:0:
256,192,13113,1,0,0:0:0:0:
256,192,13181,1,0,0:0:0:0:
256,192,13317,1,8,0:0:0:0:
256,192,13454,1,8,0:0:0:0:
256,192,13590,1,8,0:0:0:0:
256,192,13727,1,8,0:0:0:0:
256,192,13863,1,8,0:0:0:0:
256,192,13999,1,0,0:0:0:0:
256,192,14136,1,8,0:0:0:0:
256,192,14204,1,8,0:0:0:0:
256,192,14272,1,0,0:0:0:0:
256,192,14340,1,0,0:0:0:0:
256,192,14408,1,8,0:0:0:0:
256,192,14545,1,8,0:0:0:0:
256,192,14681,1,0,0:0:0:0:
256,192,14749,1,0,0:0:0:0:
256,192,14817,1,0,0:0:0:0:
256,192,14954,1,12,0:0:0:0:
256,192,15227,1,0,0:0:0:0:
256,192,15363,1,0,0:0:0:0:
256,192,15499,1,8,0:0:0:0:
256,192,15636,1,8,0:0:0:0:
256,192,15772,1,0,0:0:0:0:
256,192,15908,1,8,0:0:0:0:
256,192,16045,1,0,0:0:0:0:
256,192,16181,1,0,0:0:0:0:
256,192,16317,1,8,0:0:0:0:
256,192,16454,1,0,0:0:0:0:
256,192,16590,1,4,0:0:0:0:
256,192,16863,1,0,0:0:0:0:
256,192,16999,1,8,0:0:0:0:
256,192,17136,1,0,0:0:0:0:
256,192,17272,1,8,0:0:0:0:
256,192,17408,1,8,0:0:0:0:
256,192,17545,1,0,0:0:0:0:
256,192,17681,1,8,0:0:0:0:
256,192,17817,1,0,0:0:0:0:
256,192,17954,1,8,0:0:0:0:
256,192,18090,1,8,0:0:0:0:
256,192,18227,1,0,0:0:0:0:
256,192,18499,1,0,0:0:0:0:
256,192,18636,1,8,0:0:0:0:
256,192,18772,1,0,0:0:0:0:
256,192,18908,1,8,0:0:0:0:
256,192,19045,1,8,0:0:0:0:
256,192,19317,1,8,0:0:0:0:
256,192,19454,1,0,0:0:0:0:
256,192,19590,1,8,0:0:0:0:
256,192,19727,1,8,0:0:0:0:
256,192,19863,1,0,0:0:0:0:
256,192,19931,1,0,0:0:0:0:
256,192,19999,1,0,0:0:0:0:
256,192,20136,1,8,0:0:0:0:
256,192,20204,1,8,0:0:0:0:
256,192,20272,1,8,0:0:0:0:
256,192,20340,1,8,0:0:0:0:
256,192,20408,1,0,0:0:0:0:
256,192,20545,1,8,0:0:0:0:
256,192,20681,1,0,0:0:0:0:
256,192,20749,1,0,0:0:0:0:
256,192,20817,1,0,0:0:0:0:
256,192,20954,1,8,0:0:0:0:
256,192,21022,1,0,0:0:0:0:
256,192,21090,1,8,0:0:0:0:
256,192,21158,1,0,0:0:0:0:
256,192,21227,1,8,0:0:0:0:
256,192,21363,1,0,0:0:0:0:
256,192,21499,1,12,0:0:0:0:
256,192,21772,1,0,0:0:0:0:
256,192,21908,1,0,0:0:0:0:
256,192,22045,1,0,0:0:0:0:
256,192,22181,1,0,0:0:0:0:
256,192,22317,1,12,0:0:0:0:
256,192,22590,1,0,0:0:0:0:
256,192,22727,1,0,0:0:0:0:
256,192,22863,1,0,0:0:0:0:
256,192,22999,1,0,0:0:0:0:
256,192,23136,1,4,0:0:0:0:
256,192,23408,1,0,0:0:0:0:
256,192,23545,1,0,0:0:0:0:
256,192,23681,1,0,0:0:0:0:
256,192,23817,1,0,0:0:0:0:
256,192,23954,1,8,0:0:0:0:
256,192,24090,1,0,0:0:0:0:
256,192,24363,1,8,0:0:0:0:
256,192,24499,1,8,0:0:0:0:
256,192,24636,1,8,0:0:0:0:
256,192,24772,1,4,0:0:0:0:
256,192,25045,1,0,0:0:0:0:
256,192,25181,1,0,0:0:0:0:
256,192,25317,1,0,0:0:0:0:
256,192,25454,1,0,0:0:0:0:
256,192,25590,1,12,0:0:0:0:
256,192,25863,1,0,0:0:0:0:
256,192,25999,1,0,0:0:0:0:
256,192,26136,1,0,0:0:0:0:
256,192,26272,1,0,0:0:0:0:
256,192,26408,1,8,0:0:0:0:
256,192,27227,1,0,0:0:0:0:
256,192,27499,1,0,0:0:0:0:
256,192,27772,1,0,0:0:0:0:
256,192,28045,1,12,0:0:0:0:
256,192,28317,1,0,0:0:0:0:
256,192,28454,1,8,0:0:0:0:
256,192,28727,1,0,0:0:0:0:
256,192,28863,1,8,0:0:0:0:
256,192,28999,1,8,0:0:0:0:
256,192,29272,1,0,0:0:0:0:
256,192,29545,1,0,0:0:0:0:
256,192,29681,1,8,0:0:0:0:
256,192,29954,1,8,0:0:0:0:
256,192,30090,1,0,0:0:0:0:
256,192,30363,1,0,0:0:0:0:
256,192,30499,1,8,0:0:0:0:
256,192,30636,1,0,0:0:0:0:
256,192,30908,1,0,0:0:0:0:
256,192,31181,1,0,0:0:0:0:
256,192,31317,1,4,0:0:0:0:
256,192,31590,1,8,0:0:0:0:
256,192,31727,1,0,0:0:0:0:
256,192,31999,1,0,0:0:0:0:
256,192,32136,1,8,0:0:0:0:
256,192,32204,1,8,0:0:0:0:
256,192,32272,1,0,0:0:0:0:
256,192,32408,1,0,0:0:0:0:
256,192,32545,1,0,0:0:0:0:
256,192,32613,1,0,0:0:0:0:
256,192,32681,1,0,0:0:0:0:
256,192,32817,1,0,0:0:0:0:
256,192,32954,1,8,0:0:0:0:
256,192,33227,1,0,0:0:0:0:
256,192,33363,1,8,0:0:0:0:
256,192,33636,1,0,0:0:0:0:
256,192,33772,1,8,0:0:0:0:
256,192,33840,1,0,0:0:0:0:
256,192,33908,1,8,0:0:0:0:
256,192,34045,1,0,0:0:0:0:
256,192,34181,1,0,0:0:0:0:
256,192,34317,1,8,0:0:0:0:
256,192,34386,1,8,0:0:0:0:
256,192,34454,1,0,0:0:0:0:
256,192,34522,1,0,0:0:0:0:
256,192,34590,1,12,0:0:0:0:
256,192,34863,1,0,0:0:0:0:
256,192,34999,1,0,0:0:0:0:
256,192,35272,1,0,0:0:0:0:
256,192,35408,1,8,0:0:0:0:
256,192,35545,1,8,0:0:0:0:
256,192,35817,1,8,0:0:0:0:
256,192,35954,1,0,0:0:0:0:
256,192,36090,1,0,0:0:0:0:
256,192,36227,1,8,0:0:0:0:
256,192,36499,1,0,0:0:0:0:
256,192,36636,1,0,0:0:0:0:
256,192,36908,1,0,0:0:0:0:
256,192,37045,1,8,0:0:0:0:
256,192,37181,1,0,0:0:0:0:
256,192,37454,1,0,0:0:0:0:
256,192,37727,1,8,0:0:0:0:
256,192,37863,1,4,0:0:0:0:
256,192,38136,1,0,0:0:0:0:
256,192,38272,1,0,0:0:0:0:
256,192,38545,1,0,0:0:0:0:
256,192,38681,1,8,0:0:0:0:
256,192,38749,1,8,0:0:0:0:
256,192,38817,1,0,0:0:0:0:
256,192,38954,1,8,0:0:0:0:
256,192,39090,1,0,0:0:0:0:
256,192,39158,1,0,0:0:0:0:
256,192,39227,1,8,0:0:0:0:
256,192,39363,1,8,0:0:0:0:
256,192,39499,1,0,0:0:0:0:
256,192,39772,1,8,0:0:0:0:
256,192,39908,1,8,0:0:0:0:
256,192,40181,1,0,0:0:0:0:
256,192,40317,1,8,0:0:0:0:
256,192,40386,1,0,0:0:0:0:
256,192,40454,1,8,0:0:0:0:
256,192,40590,1,0,0:0:0:0:
256,192,40658,1,0,0:0:0:0:
256,192,40727,1,0,0:0:0:0:
256,192,40863,1,8,0:0:0:0:
256,192,40931,1,8,0:0:0:0:
256,192,40999,1,0,0:0:0:0:
256,192,41067,1,0,0:0:0:0:
256,192,41136,1,12,0:0:0:0:
256,192,41954,1,8,0:0:0:0:
256,192,42022,1,8,0:0:0:0:
256,192,42090,1,8,0:0:0:0:
256,192,42227,1,0,0:0:0:0:
256,192,42295,1,0,0:0:0:0:
256,192,42363,1,0,0:0:0:0:
256,192,42431,1,0,0:0:0:0:
256,192,42499,1,0,0:0:0:0:
256,192,42636,1,0,0:0:0:0:
256,192,42772,1,8,0:0:0:0:
256,192,42908,1,4,0:0:0:0:
256,192,43181,1,4,0:0:0:0:
256,192,43454,1,0,0:0:0:0:
256,192,43590,1,8,0:0:0:0:
256,192,43727,1,4,0:0:0:0:
256,192,43999,1,4,0:0:0:0:
256,192,44272,1,0,0:0:0:0:
256,192,44408,1,12,0:0:0:0:
256,192,44612,1,0,0:0:0:0:
256,192,44919,1,0,0:0:0:0:
256,192,45226,1,8,0:0:0:0:
256,192,45430,1,8,0:0:0:0:
256,192,45635,1,0,0:0:0:0:
256,192,45839,1,0,0:0:0:0:
256,192,46044,1,8,0:0:0:0:
256,192,46248,1,0,0:0:0:0:
256,192,46555,1,0,0:0:0:0:
256,192,46862,1,8,0:0:0:0:
256,192,47067,1,0,0:0:0:0:
256,192,47373,1,0,0:0:0:0:
256,192,47476,1,0,0:0:0:0:
256,192,47680,1,8,0:0:0:0:
256,192,47987,1,0,0:0:0:0:
256,192,48089,1,8,0:0:0:0:
256,192,48294,1,0,0:0:0:0:
256,192,48601,1,0,0:0:0:0:
256,192,48907,1,8,0:0:0:0:
256,192,49317,1,0,0:0:0:0:
256,192,49623,1,0,0:0:0:0:
256,192,49726,1,0,0:0:0:0:
256,192,49930,1,0,0:0:0:0:
256,192,50135,1,8,0:0:0:0:
256,192,50237,1,8,0:0:0:0:
256,192,50339,1,0,0:0:0:0:
256,192,50544,1,8,0:0:0:0:
256,192,50953,1,8,0:0:0:0:
256,192,51055,1,8,0:0:0:0:
256,192,51157,1,8,0:0:0:0:
256,192,51362,1,0,0:0:0:0:
256,192,51430,1,0,0:0:0:0:
256,192,51498,1,0,0:0:0:0:
256,192,51567,1,0,0:0:0:0:
256,192,51771,1,8,0:0:0:0:
256,192,51976,1,4,0:0:0:0:
256,192,52180,1,12,0:0:0:0:
256,192,52385,1,12,0:0:0:0:
256,192,52589,1,4,0:0:0:0:
256,192,52794,1,8,0:0:0:0:
256,192,53101,1,0,0:0:0:0:
256,192,53407,1,8,0:0:0:0:
256,192,53612,1,0,0:0:0:0:
256,192,53919,1,0,0:0:0:0:
256,192,54021,1,0,0:0:0:0:
256,192,54226,1,8,0:0:0:0:
256,192,54532,1,0,0:0:0:0:
256,192,54635,1,8,0:0:0:0:
256,192,54839,1,0,0:0:0:0:
256,192,55146,1,0,0:0:0:0:
256,192,55453,1,8,0:0:0:0:
256,192,55862,1,8,0:0:0:0:
256,192,55964,1,0,0:0:0:0:
256,192,56067,1,0,0:0:0:0:
256,192,56169,1,8,0:0:0:0:
256,192,56373,1,0,0:0:0:0:
256,192,56476,1,8,0:0:0:0:
256,192,56680,1,0,0:0:0:0:
256,192,56782,1,8,0:0:0:0:
256,192,56987,1,0,0:0:0:0:
256,192,57089,1,8,0:0:0:0:
256,192,57192,1,8,0:0:0:0:
256,192,57294,1,8,0:0:0:0:
256,192,57396,1,8,0:0:0:0:
256,192,57498,1,4,0:0:0:0:
256,192,58726,1,0,0:0:0:0:
256,192,58828,1,0,0:0:0:0:
256,192,58930,1,0,0:0:0:0:
256,192,59032,1,0,0:0:0:0:
256,192,59135,1,12,0:0:0:0:
256,192,59953,1,8,0:0:0:0:
256,192,60021,1,8,0:0:0:0:
256,192,60089,1,8,0:0:0:0:
256,192,60225,1,0,0:0:0:0:
256,192,60294,1,0,0:0:0:0:
256,192,60362,1,0,0:0:0:0:
256,192,60430,1,0,0:0:0:0:
256,192,60498,1,8,0:0:0:0:
256,192,60635,1,0,0:0:0:0:
256,192,60771,1,12,0:0:0:0:
256,192,61044,1,8,0:0:0:0:
256,192,61112,1,8,0:0:0:0:
256,192,61180,1,8,0:0:0:0:
256,192,61248,1,8,0:0:0:0:
256,192,61316,1,0,0:0:0:0:
256,192,61453,1,0,0:0:0:0:
256,192,61589,1,12,0:0:0:0:
256,192,61862,1,0,0:0:0:0:
256,192,61930,1,0,0:0:0:0:
256,192,61998,1,8,0:0:0:0:
256,192,62066,1,8,0:0:0:0:
256,192,62135,1,0,0:0:0:0:
256,192,62271,1,0,0:0:0:0:
256,192,62407,1,12,0:0:0:0:
256,192,62680,1,0,0:0:0:0:
256,192,62816,1,0,0:0:0:0:
256,192,62953,1,8,0:0:0:0:
256,192,63021,1,8,0:0:0:0:
256,192,63089,1,0,0:0:0:0:
256,192,63225,1,8,0:0:0:0:
256,192,63362,1,0,0:0:0:0:
256,192,63498,1,8,0:0:0:0:
256,192,63635,1,0,0:0:0:0:
256,192,63703,1,0,0:0:0:0:
256,192,63771,1,8,0:0:0:0:
256,192,63907,1,0,0:0:0:0:
256,192,64044,1,8,0:0:0:0:
256,192,64180,1,8,0:0:0:0:
256,192,64316,1,0,0:0:0:0:
256,192,64453,1,8,0:0:0:0:
256,192,64725,1,0,0:0:0:0:
256,192,64862,1,8,0:0:0:0:
256,192,64998,1,0,0:0:0:0:
256,192,65066,1,0,0:0:0:0:
256,192,65135,1,0,0:0:0:0:
256,192,65271,1,8,0:0:0:0:
256,192,65544,1,0,0:0:0:0:
256,192,65680,1,12,0:0:0:0:
256,192,65953,1,0,0:0:0:0:
256,192,66089,1,0,0:0:0:0:
256,192,66225,1,8,0:0:0:0:
256,192,66362,1,0,0:0:0:0:
256,192,66498,1,8,0:0:0:0:
256,192,66566,1,8,0:0:0:0:
256,192,66635,1,8,0:0:0:0:
256,192,66771,1,0,0:0:0:0:
256,192,66907,1,8,0:0:0:0:
256,192,67044,1,0,0:0:0:0:
256,192,67112,1,0,0:0:0:0:
256,192,67180,1,0,0:0:0:0:
256,192,67316,1,8,0:0:0:0:
256,192,67453,1,0,0:0:0:0:
256,192,67589,1,0,0:0:0:0:
256,192,67725,1,0,0:0:0:0:
256,192,67862,1,8,0:0:0:0:
256,192,67930,1,8,0:0:0:0:
256,192,67998,1,0,0:0:0:0:
256,192,68135,1,8,0:0:0:0:
256,192,68271,1,8,0:0:0:0:
256,192,68407,1,0,0:0:0:0:
256,192,68475,1,0,0:0:0:0:
256,192,68544,1,8,0:0:0:0:
256,192,68612,1,8,0:0:0:0:
256,192,68680,1,0,0:0:0:0:
256,192,68816,1,0,0:0:0:0:
256,192,68953,1,12,0:0:0:0:
256,192,69225,1,0,0:0:0:0:
256,192,69362,1,8,0:0:0:0:
256,192,69498,1,0,0:0:0:0:
256,192,69566,1,0,0:0:0:0:
256,192,69635,1,0,0:0:0:0:
256,192,69771,1,8,0:0:0:0:
256,192,69907,1,0,0:0:0:0:
256,192,70044,1,8,0:0:0:0:
256,192,70112,1,0,0:0:0:0:
256,192,70180,1,8,0:0:0:0:
256,192,70316,1,0,0:0:0:0:
256,192,70453,1,0,0:0:0:0:
256,192,70589,1,8,0:0:0:0:
256,192,70725,1,0,0:0:0:0:
256,192,70862,1,0,0:0:0:0:
256,192,70998,1,8,0:0:0:0:
256,192,71135,1,0,0:0:0:0:
256,192,71271,1,8,0:0:0:0:
256,192,71407,1,8,0:0:0:0:
256,192,71475,1,8,0:0:0:0:
256,192,71544,1,0,0:0:0:0:
256,192,71680,1,0,0:0:0:0:
256,192,71816,1,8,0:0:0:0:
256,192,71885,1,0,0:0:0:0:
256,192,71953,1,8,0:0:0:0:
256,192,72021,1,8,0:0:0:0:
256,192,72089,1,0,0:0:0:0:
256,192,72225,1,8,0:0:0:0:
256,192,73316,1,0,0:0:0:0:
256,192,73453,1,8,0:0:0:0:
256,192,73521,1,8,0:0:0:0:
256,192,73589,1,8,0:0:0:0:
256,192,73725,1,0,0:0:0:0:
256,192,73862,1,12,0:0:0:0:
256,192,74135,1,0,0:0:0:0:
256,192,74271,1,8,0:0:0:0:
256,192,74407,1,0,0:0:0:0:
256,192,74475,1,0,0:0:0:0:
256,192,74544,1,0,0:0:0:0:
256,192,74680,1,8,0:0:0:0:
256,192,74953,1,0,0:0:0:0:
256,192,75089,1,8,0:0:0:0:
256,192,75225,1,8,0:0:0:0:
256,192,75362,1,8,0:0:0:0:
256,192,75498,1,4,0:0:0:0:
256,192,75635,1,0,0:0:0:0:
256,192,75771,1,8,0:0:0:0:
256,192,75907,1,0,0:0:0:0:
256,192,75975,1,0,0:0:0:0:
256,192,76044,1,0,0:0:0:0:
256,192,76180,1,8,0:0:0:0:
256,192,76316,1,8,0:0:0:0:
256,192,76589,1,0,0:0:0:0:
256,192,76725,1,8,0:0:0:0:
256,192,76794,1,8,0:0:0:0:
256,192,76862,1,0,0:0:0:0:
256,192,76998,1,0,0:0:0:0:
256,192,77135,1,8,0:0:0:0:
256,192,77407,1,0,0:0:0:0:
256,192,77544,1,8,0:0:0:0:
256,192,77680,1,0,0:0:0:0:
256,192,77748,1,0,0:0:0:0:
256,192,77816,1,0,0:0:0:0:
256,192,77953,1,8,0:0:0:0:
256,192,78089,1,0,0:0:0:0:
256,192,78225,1,0,0:0:0:0:
256,192,78362,1,8,0:0:0:0:
256,192,78498,1,8,0:0:0:0:
256,192,78635,1,0,0:0:0:0:
256,192,78771,1,12,0:0:0:0:
256,192,79044,1,0,0:0:0:0:
256,192,79180,1,8,0:0:0:0:
256,192,79248,1,0,0:0:0:0:
256,192,79316,1,8,0:0:0:0:
256,192,79453,1,0,0:0:0:0:
256,192,79589,1,8,0:0:0:0:
256,192,79657,1,8,0:0:0:0:
256,192,79725,1,0,0:0:0:0:
256,192,79862,1,0,0:0:0:0:
256,192,79998,1,8,0:0:0:0:
256,192,80135,1,0,0:0:0:0:
256,192,80271,1,0,0:0:0:0:
256,192,80407,1,8,0:0:0:0:
256,192,80475,1,8,0:0:0:0:
256,192,80544,1,8,0:0:0:0:
256,192,80680,1,0,0:0:0:0:
256,192,80816,1,8,0:0:0:0:
256,192,80953,1,8,0:0:0:0:
256,192,81089,1,0,0:0:0:0:
256,192,81225,1,8,0:0:0:0:
256,192,81498,1,0,0:0:0:0:
256,192,81635,1,8,0:0:0:0:
256,192,81771,1,0,0:0:0:0:
256,192,81907,1,0,0:0:0:0:
256,192,82044,1,12,0:0:0:0:
256,192,82316,1,0,0:0:0:0:
256,192,82453,1,8,0:0:0:0:
256,192,82521,1,8,0:0:0:0:
256,192,82589,1,8,0:0:0:0:
256,192,82725,1,0,0:0:0:0:
256,192,82862,1,8,0:0:0:0:
256,192,82998,1,0,0:0:0:0:
256,192,83066,1,0,0:0:0:0:
256,192,83135,1,0,0:0:0:0:
256,192,83271,1,8,0:0:0:0:
256,192,83407,1,0,0:0:0:0:
256,192,83544,1,0,0:0:0:0:
256,192,83680,1,8,0:0:0:0:
256,192,83816,1,4,0:0:0:0:
256,192,84089,1,4,0:0:0:0:
256,192,84362,1,0,0:0:0:0:
256,192,84498,1,8,0:0:0:0:
256,192,84635,1,12,0:0:0:0:
256,192,84907,1,12,0:0:0:0:
256,192,85180,1,0,0:0:0:0:
256,192,85316,1,4,0:0:0:0:
256,192,85589,1,0,0:0:0:0:
256,192,85725,1,0,0:0:0:0:
256,192,85862,1,0,0:0:0:0:
256,192,85998,1,0,0:0:0:0:
256,192,86135,1,12,0:0:0:0:
256,192,86407,1,0,0:0:0:0:
256,192,86544,1,0,0:0:0:0:
256,192,86680,1,0,0:0:0:0:
256,192,86816,1,0,0:0:0:0:
256,192,86953,1,4,0:0:0:0:
256,192,87225,1,0,0:0:0:0:
256,192,87362,1,0,0:0:0:0:
256,192,87498,1,0,0:0:0:0:
256,192,87635,1,0,0:0:0:0:
256,192,87771,1,12,0:0:0:0:
256,192,88044,1,0,0:0:0:0:
256,192,88180,1,0,0:0:0:0:
256,192,88316,1,0,0:0:0:0:
256,192,88453,1,0,0:0:0:0:
256,192,88589,1,4,0:0:0:0:
256,192,88862,1,0,0:0:0:0:
256,192,88998,1,0,0:0:0:0:
256,192,89135,1,0,0:0:0:0:
256,192,89271,1,0,0:0:0:0:
256,192,89407,1,12,0:0:0:0:
256,192,89680,1,0,0:0:0:0:
256,192,89816,1,0,0:0:0:0:
256,192,89953,1,0,0:0:0:0:
256,192,90089,1,0,0:0:0:0:
256,192,90225,1,8,0:0:0:0:
256,192,91862,1,12,0:0:0:0:
256,192,92135,1,0,0:0:0:0:
256,192,92271,1,8,0:0:0:0:
256,192,92544,1,0,0:0:0:0:
256,192,92680,1,8,0:0:0:0:
256,192,92816,1,8,0:0:0:0:
256,192,93089,1,0,0:0:0:0:
256,192,93362,1,0,0:0:0:0:
256,192,93498,1,8,0:0:0:0:
256,192,93771,1,8,0:0:0:0:
256,192,93907,1,0,0:0:0:0:
256,192,94180,1,0,0:0:0:0:
256,192,94316,1,8,0:0:0:0:
256,192,94453,1,0,0:0:0:0:
256,192,94725,1,0,0:0:0:0:
256,192,94998,1,0,0:0:0:0:
256,192,95135,1,4,0:0:0:0:
256,192,95407,1,8,0:0:0:0:
256,192,95544,1,0,0:0:0:0:
256,192,95816,1,0,0:0:0:0:
256,192,95953,1,8,0:0:0:0:
256,192,96021,1,8,0:0:0:0:
256,192,96089,1,0,0:0:0:0:
256,192,96225,1,0,0:0:0:0:
256,192,96362,1,0,0:0:0:0:
256,192,96430,1,0,0:0:0:0:
256,192,96498,1,0,0:0:0:0:
256,192,96635,1,0,0:0:0:0:
256,192,96771,1,8,0:0:0:0:
256,192,97044,1,0,0:0:0:0:
256,192,97180,1,8,0:0:0:0:
256,192,97453,1,0,0:0:0:0:
256,192,97589,1,8,0:0:0:0:
256,192,97657,1,0,0:0:0:0:
256,192,97725,1,8,0:0:0:0:
256,192,97862,1,0,0:0:0:0:
256,192,97998,1,0,0:0:0:0:
256,192,98135,1,8,0:0:0:0:
256,192,98203,1,8,0:0:0:0:
256,192,98271,1,0,0:0:0:0:
256,192,98339,1,0,0:0:0:0:
256,192,98407,1,12,0:0:0:0:
256,192,98680,1,0,0:0:0:0:
256,192,98816,1,0,0:0:0:0:
256,192,99089,1,0,0:0:0:0:
256,192,99225,1,8,0:0:0:0:
256,192,99362,1,8,0:0:0:0:
256,192,99635,1,8,0:0:0:0:
256,192,99771,1,0,0:0:0:0:
256,192,99907,1,0,0:0:0:0:
256,192,100044,1,8,0:0:0:0:
256,192,100316,1,0,0:0:0:0:
256,192,100453,1,0,0:0:0:0:
256,192,100725,1,0,0:0:0:0:
256,192,100862,1,8,0:0:0:0:
256,192,100998,1,0,0:0:0:0:
256,192,101271,1,8,0:0:0:0:
256,192,101407,1,8,0:0:0:0:
256,192,101544,1,0,0:0:0:0:
256,192,101680,1,4,0:0:0:0:
256,192,101953,1,0,0:0:0:0:
256,192,102089,1,0,0:0:0:0:
256,192,102362,1,0,0:0:0:0:
256,192,102498,1,8,0:0:0:0:
256,192,102566,1,8,0:0:0:0:
256,192,102635,1,0,0:0:0:0:
256,192,102771,1,8,0:0:0:0:
256,192,102907,1,0,0:0:0:0:
256,192,102975,1,0,0:0:0:0:
256,192,103044,1,8,0:0:0:0:
256,192,103180,1,8,0:0:0:0:
256,192,103316,1,0,0:0:0:0:
256,192,103589,1,8,0:0:0:0:
256,192,103725,1,8,0:0:0:0:
256,192,103998,1,0,0:0:0:0:
256,192,104135,1,8,0:0:0:0:
256,192,104203,1,8,0:0:0:0:
256,192,104271,1,8,0:0:0:0:
256,192,104407,1,0,0:0:0:0:
256,192,104475,1,0,0:0:0:0:
256,192,104544,1,8,0:0:0:0:
256,192,104612,1,8,0:0:0:0:
256,192,104680,1,0,0:0:0:0:
256,192,104816,1,0,0:0:0:0:
256,192,104953,1,12,0:0:0:0:
256,192,105225,1,0,0:0:0:0:
256,192,105362,1,8,0:0:0:0:
256,192,105635,1,0,0:0:0:0:
256,192,105771,1,8,0:0:0:0:
256,192,105907,1,8,0:0:0:0:
256,192,106180,1,0,0:0:0:0:
256,192,106453,1,0,0:0:0:0:
256,192,106589,1,8,0:0:0:0:
256,192,106862,1,8,0:0:0:0:
256,192,106998,1,0,0:0:0:0:
256,192,107271,1,0,0:0:0:0:
256,192,107407,1,8,0:0:0:0:
256,192,107544,1,0,0:0:0:0:
256,192,107816,1,0,0:0:0:0:
256,192,107953,1,8,0:0:0:0:
256,192,108089,1,8,0:0:0:0:
256,192,108225,1,4,0:0:0:0:
256,192,108498,1,8,0:0:0:0:
256,192,108635,1,0,0:0:0:0:
256,192,108907,1,0,0:0:0:0:
256,192,109044,1,8,0:0:0:0:
256,192,109112,1,8,0:0:0:0:
256,192,109180,1,0,0:0:0:0:
256,192,109316,1,0,0:0:0:0:
256,192,109453,1,0,0:0:0:0:
256,192,109521,1,0,0:0:0:0:
256,192,109589,1,0,0:0:0:0:
256,192,109725,1,0,0:0:0:0:
256,192,109862,1,8,0:0:0:0:
256,192,110135,1,0,0:0:0:0:
256,192,110271,1,8,0:0:0:0:
256,192,110544,1,0,0:0:0:0:
256,192,110680,1,8,0:0:0:0:
256,192,110748,1,8,0:0:0:0:
256,192,110816,1,8,0:0:0:0:
256,192,110953,1,0,0:0:0:0:
256,192,111089,1,8,0:0:0:0:
256,192,111157,1,8,0:0:0:0:
256,192,111225,1,0,0:0:0:0:
256,192,111294,1,0,0:0:0:0:
256,192,111362,1,8,0:0:0:0:
256,192,111498,1,12,0:0:0:0:
256,192,111771,1,0,0:0:0:0:
256,192,111907,1,0,0:0:0:0:
256,192,112180,1,0,0:0:0:0:
256,192,112316,1,8,0:0:0:0:
256,192,112453,1,8,0:0:0:0:
256,192,112725,1,8,0:0:0:0:
256,192,112862,1,0,0:0:0:0:
256,192,112998,1,8,0:0:0:0:
256,192,113135,1,8,0:0:0:0:
256,192,113407,1,0,0:0:0:0:
256,192,113544,1,0,0:0:0:0:
256,192,113816,1,0,0:0:0:0:
256,192,113953,1,8,0:0:0:0:
256,192,114089,1,0,0:0:0:0:
256,192,114362,1,8,0:0:0:0:
256,192,114498,1,8,0:0:0:0:
256,192,114635,1,0,0:0:0:0:
256,192,114771,1,4,0:0:0:0:
256,192,115044,1,0,0:0:0:0:
256,192,115180,1,0,0:0:0:0:
256,192,115453,1,0,0:0:0:0:
256,192,115589,1,8,0:0:0:0:
256,192,115657,1,8,0:0:0:0:
256,192,115725,1,0,0:0:0:0:
256,192,115862,1,8,0:0:0:0:
256,192,115998,1,0,0:0:0:0:
256,192,116066,1,0,0:0:0:0:
256,192,116135,1,8,0:0:0:0:
256,192,116271,1,8,0:0:0:0:
256,192,116407,1,0,0:0:0:0:
256,192,116680,1,8,0:0:0:0:
256,192,116816,1,8,0:0:0:0:
256,192,117089,1,0,0:0:0:0:
256,192,117225,1,8,0:0:0:0:
256,192,117362,1,8,0:0:0:0:
256,192,117498,1,0,0:0:0:0:
256,192,117635,1,8,0:0:0:0:
256,192,117771,1,8,0:0:0:0:
256,192,117907,1,8,0:0:0:0:
256,192,118044,1,4,0:0:0:0:
256,192,118316,1,0,0:0:0:0:
256,192,118453,1,0,0:0:0:0:
256,192,118589,1,0,0:0:0:0:
256,192,118725,1,0,0:0:0:0:
256,192,118862,1,8,0:0:0:0:
256,192,118930,1,8,0:0:0:0:
256,192,118998,1,0,0:0:0:0:
256,192,119135,1,0,0:0:0:0:
256,192,119271,1,8,0:0:0:0:
256,192,119339,1,8,0:0:0:0:
256,192,119407,1,0,0:0:0:0:
256,192,119544,1,0,0:0:0:0:
256,192,119680,1,8,0:0:0:0:
256,192,119953,1,0,0:0:0:0:
256,192,120089,1,8,0:0:0:0:
256,192,120225,1,0,0:0:0:0:
256,192,120294,1,0,0:0:0:0:
256,192,120362,1,0,0:0:0:0:
256,192,120430,1,0,0:0:0:0:
256,192,120498,1,8,0:0:0:0:
256,192,120635,1,4,0:0:0:0:
256,192,120907,1,0,0:0:0:0:
256,192,121180,1,8,0:0:0:0:
256,192,121316,1,0,0:0:0:0:
256,192,121453,1,0,0:0:0:0:
256,192,121589,1,8,0:0:0:0:
256,192,121725,1,0,0:0:0:0:
256,192,121862,1,0,0:0:0:0:
256,192,121998,1,0,0:0:0:0:
256,192,122135,1,8,0:0:0:0:
256,192,122203,1,8,0:0:0:0:
256,192,122271,1,0,0:0:0:0:
256,192,122407,1,0,0:0:0:0:
256,192,122544,1,8,0:0:0:0:
256,192,122612,1,8,0:0:0:0:
256,192,122680,1,0,0:0:0:0:
256,192,122816,1,0,0:0:0:0:
256,192,122953,1,8,0:0:0:0:
256,192,123089,1,0,0:0:0:0:
256,192,123225,1,8,0:0:0:0:
256,192,123362,1,8,0:0:0:0:
256,192,123498,1,0,0:0:0:0:
256,192,123635,1,0,0:0:0:0:
256,192,123771,1,8,0:0:0:0:
256,192,123907,1,0,0:0:0:0:
256,192,124044,1,0,0:0:0:0:
256,192,124112,1,0,0:0:0:0:
256,192,124180,1,0,0:0:0:0:
256,192,124248,1,0,0:0:0:0:
256,192,124316,1,8,0:0:0:0:
256,192,124453,1,0,0:0:0:0:
256,192,124589,1,8,0:0:0:0:
256,192,124862,1,0,0:0:0:0:
256,192,124998,1,8,0:0:0:0:
256,192,125135,1,0,0:0:0:0:
256,192,125271,1,0,0:0:0:0:
256,192,125407,1,8,0:0:0:0:
256,192,125475,1,8,0:0:0:0:
256,192,125544,1,8,0:0:0:0:
256,192,125680,1,0,0:0:0:0:
256,192,125816,1,8,0:0:0:0:
256,192,125953,1,0,0:0:0:0:
256,192,126089,1,0,0:0:0:0:
256,192,126225,1,8,0:0:0:0:
256,192,126498,1,0,0:0:0:0:
256,192,126635,1,8,0:0:0:0:
256,192,126771,1,0,0:0:0:0:
256,192,126839,1,0,0:0:0:0:
256,192,126907,1,0,0:0:0:0:
256,192,127044,1,8,0:0:0:0:
256,192,127180,1,4,0:0:0:0:
256,192,127453,1,4,0:0:0:0:
256,192,127725,1,8,0:0:0:0:
256,192,127862,1,0,0:0:0:0:
256,192,127930,1,0,0:0:0:0:
256,192,127998,1,0,0:0:0:0:
256,192,128135,1,8,0:0:0:0:
256,192,128271,1,0,0:0:0:0:
256,192,128339,1,0,0:0:0:0:
256,192,128407,1,0,0:0:0:0:
256,192,128544,1,8,0:0:0:0:
256,192,128680,1,8,0:0:0:0:
256,192,128816,1,0,0:0:0:0:
256,192,128953,1,0,0:0:0:0:
256,192,129089,1,8,0:0:0:0:
256,192,129225,1,0,0:0:0:0:
256,192,129362,1,0,0:0:0:0:
256,192,129498,1,8,0:0:0:0:
256,192,129635,1,0,0:0:0:0:
256,192,129771,1,8,0:0:0:0:
256,192,129907,1,0,0:0:0:0:
256,192,129975,1,0,0:0:0:0:
256,192,130044,1,8,0:0:0:0:
256,192,130180,1,0,0:0:0:0:
256,192,130316,1,8,0:0:0:0:
256,192,130385,1,8,0:0:0:0:
256,192,130453,1,8,0:0:0:0:
256,192,130521,1,8,0:0:0:0:
256,192,130589,1,0,0:0:0:0:
256,192,130725,1,8,0:0:0:0:
256,192,130862,1,0,0:0:0:0:
256,192,130930,1,0,0:0:0:0:
256,192,130998,1,8,0:0:0:0:
256,192,131066,1,8,0:0:0:0:
256,192,131135,1,0,0:0:0:0:
256,192,131407,1,0,0:0:0:0:
256,192,131544,1,0,0:0:0:0:
256,192,131612,1,0,0:0:0:0:
256,192,131680,1,0,0:0:0:0:
256,192,131816,1,0,0:0:0:0:
256,192,131953,1,8,0:0:0:0:
256,192,132771,1,12,0:0:0:0:
256,192,133453,1,0,0:0:0:0:
256,192,133521,1,0,0:0:0:0:
256,192,133589,1,8,0:0:0:0:
256,192,133725,1,4,0:0:0:0:
256,192,133998,1,4,0:0:0:0:
256,192,134271,1,8,0:0:0:0:
256,192,134407,1,0,0:0:0:0:
256,192,134475,1,0,0:0:0:0:
256,192,134544,1,0,0:0:0:0:
256,192,134680,1,8,0:0:0:0:
256,192,134816,1,0,0:0:0:0:
256,192,134953,1,0,0:0:0:0:
256,192,135089,1,0,0:0:0:0:
256,192,135225,1,8,0:0:0:0:
256,192,136044,1,8,0:0:0:0:
256,192,136180,1,0,0:0:0:0:
256,192,136316,1,8,0:0:0:0:
256,192,136453,1,0,0:0:0:0:
256,192,136521,1,0,0:0:0:0:
256,192,136589,1,0,0:0:0:0:
256,192,136725,1,0,0:0:0:0:
256,192,136862,1,8,0:0:0:0:
256,192,137407,1,0,0:0:0:0:
256,192,137475,1,0,0:0:0:0:
256,192,137544,1,0,0:0:0:0:
256,192,137680,1,12,0:0:0:0:
256,192,138498,1,8,0:0:0:0:
256,192,138635,1,0,0:0:0:0:
256,192,138907,1,0,0:0:0:0:
256,192,139180,1,8,0:0:0:0:
256,192,139316,1,0,0:0:0:0:
256,192,139385,1,0,0:0:0:0:
256,192,139453,1,0,0:0:0:0:
256,192,139589,1,8,0:0:0:0:
256,192,139725,1,0,0:0:0:0:
256,192,139862,1,0,0:0:0:0:
256,192,139998,1,0,0:0:0:0:
256,192,140135,1,8,0:0:0:0:
256,192,140953,1,8,0:0:0:0:
256,192,141089,1,4,0:0:0:0:
256,192,141362,1,4,0:0:0:0:
256,192,141635,1,0,0:0:0:0:
256,192,141771,1,8,0:0:0:0:
256,192,141907,1,4,0:0:0:0:
256,192,142180,1,4,0:0:0:0:
256,192,142453,1,0,0:0:0:0:
256,192,142589,1,12,0:0:0:0:
256,192,142998,1,0,0:0:0:0:
256,192,143271,1,0,0:0:0:0:
256,192,143407,1,8,0:0:0:0:
256,192,143680,1,8,0:0:0:0:
256,192,143816,1,0,0:0:0:0:
256,192,144089,1,0,0:0:0:0:
256,192,144225,1,0,0:0:0:0:
256,192,144498,1,0,0:0:0:0:
256,192,144635,1,0,0:0:0:0:
256,192,144771,1,8,0:0:0:0:
256,192,144907,1,0,0:0:0:0:
256,192,145044,1,8,0:0:0:0:
256,192,145316,1,8,0:0:0:0:
256,192,145453,1,8,0:0:0:0:
256,192,145589,1,0,0:0:0:0:
256,192,145862,1,8,0:0:0:0:
256,192,145998,1,0,0:0:0:0:
256,192,146271,1,8,0:0:0:0:
256,192,146544,1,0,0:0:0:0:
256,192,146680,1,8,0:0:0:0:
256,192,146953,1,8,0:0:0:0:
256,192,147089,1,8,0:0:0:0:
256,192,147225,1,0,0:0:0:0:
256,192,147498,1,8,0:0:0:0:
256,192,147771,1,0,0:0:0:0:
256,192,147907,1,0,0:0:0:0:
256,192,148180,1,0,0:0:0:0:
256,192,148316,1,8,0:0:0:0:
256,192,148589,1,0,0:0:0:0:
256,192,148725,1,0,0:0:0:0:
256,192,148862,1,0,0:0:0:0:
256,192,148998,1,0,0:0:0:0:
256,192,149135,1,8,0:0:0:0:
256,192,149407,1,0,0:0:0:0:
256,192,149544,1,8,0:0:0:0:
256,192,149816,1,8,0:0:0:0:
256,192,149953,1,0,0:0:0:0:
256,192,150225,1,0,0:0:0:0:
256,192,150362,1,0,0:0:0:0:
256,192,150498,1,8,0:0:0:0:
256,192,150771,1,8,0:0:0:0:
256,192,151044,1,0,0:0:0:0:
256,192,151180,1,8,0:0:0:0:
256,192,151453,1,8,0:0:0:0:
256,192,151589,1,8,0:0:0:0:
256,192,151998,1,0,0:0:0:0:
256,192,152135,1,8,0:0:0:0:
256,192,152407,5,0,0:0:0:0:
256,192,152544,1,0,0:0:0:0:
256,192,152680,1,0,0:0:0:0:
256,192,152816,1,8,0:0:0:0:
256,192,152953,1,0,0:0:0:0:
256,192,153089,1,0,0:0:0:0:
256,192,153225,1,8,0:0:0:0:
256,192,153362,1,8,0:0:0:0:
256,192,153498,1,0,0:0:0:0:
256,192,153635,1,8,0:0:0:0:
256,192,153771,1,0,0:0:0:0:
256,192,153907,1,0,0:0:0:0:
256,192,154044,1,12,0:0:0:0:
256,192,154180,1,0,0:0:0:0:
256,192,154453,1,0,0:0:0:0:
256,192,154725,1,0,0:0:0:0:
256,192,154862,1,8,0:0:0:0:
256,192,154998,1,8,0:0:0:0:
256,192,155135,1,8,0:0:0:0:
256,192,155271,1,8,0:0:0:0:
256,192,155407,1,8,0:0:0:0:
256,192,155544,1,8,0:0:0:0:
256,192,155680,1,4,0:0:0:0:
256,192,155953,1,8,0:0:0:0:
256,192,156089,1,8,0:0:0:0:
256,192,156362,1,0,0:0:0:0:
256,192,156498,1,8,0:0:0:0:
256,192,156635,1,8,0:0:0:0:
256,192,156907,1,0,0:0:0:0:
256,192,157180,1,0,0:0:0:0:
256,192,157316,1,8,0:0:0:0:
256,192,157589,1,8,0:0:0:0:
256,192,157725,1,0,0:0:0:0:
256,192,157998,1,0,0:0:0:0:
256,192,158135,1,8,0:0:0:0:
256,192,158271,1,0,0:0:0:0:
256,192,158544,1,0,0:0:0:0:
256,192,158816,1,0,0:0:0:0:
256,192,158953,1,4,0:0:0:0:
256,192,159225,1,8,0:0:0:0:
256,192,159362,1,0,0:0:0:0:
256,192,159635,1,0,0:0:0:0:
256,192,159771,1,8,0:0:0:0:
256,192,159839,1,8,0:0:0:0:
256,192,159907,1,0,0:0:0:0:
256,192,160044,1,0,0:0:0:0:
256,192,160180,1,0,0:0:0:0:
256,192,160248,1,0,0:0:0:0:
256,192,160316,1,0,0:0:0:0:
256,192,160453,1,0,0:0:0:0:
256,192,160589,1,8,0:0:0:0:
256,192,160862,1,0,0:0:0:0:
256,192,160998,1,8,0:0:0:0:
256,192,161271,1,0,0:0:0:0:
256,192,161407,1,8,0:0:0:0:
256,192,161475,1,0,0:0:0:0:
256,192,161544,1,8,0:0:0:0:
256,192,161680,1,0,0:0:0:0:
256,192,161816,1,0,0:0:0:0:
256,192,161953,1,8,0:0:0:0:
256,192,162021,1,8,0:0:0:0:
256,192,162089,1,0,0:0:0:0:
256,192,162157,1,0,0:0:0:0:
256,192,162225,1,12,0:0:0:0:
256,192,162498,1,0,0:0:0:0:
256,192,162635,1,0,0:0:0:0:
256,192,162907,1,0,0:0:0:0:
256,192,163044,1,8,0:0:0:0:
256,192,163180,1,8,0:0:0:0:
256,192,163453,1,8,0:0:0:0:
256,192,163589,1,0,0:0:0:0:
256,192,163725,1,0,0:0:0:0:
256,192,163862,1,8,0:0:0:0:
256,192,164135,1,0,0:0:0:0:
256,192,164271,1,0,0:0:0:0:
256,192,164544,1,0,0:0:0:0:
256,192,164680,1,8,0:0:0:0:
256,192,164816,1,0,0:0:0:0:
256,192,165089,1,8,0:0:0:0:
256,192,165225,1,8,0:0:0:0:
256,192,165362,1,0,0:0:0:0:
256,192,165498,1,4,0:0:0:0:
256,192,165771,1,0,0:0:0:0:
256,192,165907,1,0,0:0:0:0:
256,192,166180,1,0,0:0:0:0:
256,192,166316,1,8,0:0:0:0:
256,192,166385,1,8,0:0:0:0:
256,192,166453,1,0,0:0:0:0:
256,192,166589,1,8,0:0:0:0:
256,192,166725,1,0,0:0:0:0:
256,192,166794,1,0,0:0:0:0:
256,192,166862,1,8,0:0:0:0:
256,192,166998,1,8,0:0:0:0:
256,192,167135,1,0,0:0:0:0:
256,192,167407,1,8,0:0:0:0:
256,192,167544,1,8,0:0:0:0:
256,192,167816,1,0,0:0:0:0:
256,192,167953,1,8,0:0:0:0:
256,192,168021,1,8,0:0:0:0:
256,192,168089,1,8,0:0:0:0:
256,192,168225,1,0,0:0:0:0:
256,192,168294,1,0,0:0:0:0:
256,192,168362,1,8,0:0:0:0:
256,192,168430,1,8,0:0:0:0:
256,192,168498,1,0,0:0:0:0:
256,192,168635,1,0,0:0:0:0:
256,192,168771,1,12,0:0:0:0:
256,192,169044,5,8,0:0:0:0:
256,192,169180,1,0,0:0:0:0:
256,192,169316,1,8,0:0:0:0:
256,192,169453,1,0,0:0:0:0:
256,192,169589,1,8,0:0:0:0:
256,192,169862,1,0,0:0:0:0:
256,192,169998,1,0,0:0:0:0:
256,192,170135,1,8,0:0:0:0:
256,192,170203,1,0,0:0:0:0:
256,192,170271,1,8,0:0:0:0:
256,192,170407,1,0,0:0:0:0:
256,192,170544,1,0,0:0:0:0:
256,192,170680,1,8,0:0:0:0:
256,192,170816,1,0,0:0:0:0:
256,192,170953,1,0,0:0:0:0:
256,192,171089,1,0,0:0:0:0:
256,192,171225,1,8,0:0:0:0:
256,192,171498,1,8,0:0:0:0:
256,192,171635,1,0,0:0:0:0:
256,192,171771,1,8,0:0:0:0:
256,192,171907,1,8,0:0:0:0:
256,192,172044,1,4,0:0:0:0:
256,192,172316,1,8,0:0:0:0:
256,192,172453,1,8,0:0:0:0:
256,192,172589,1,0,0:0:0:0:
256,192,172725,1,0,0:0:0:0:
256,192,172862,1,8,0:0:0:0:
256,192,172930,1,8,0:0:0:0:
256,192,172998,1,0,0:0:0:0:
256,192,173135,1,0,0:0:0:0:
256,192,173271,1,8,0:0:0:0:
256,192,173339,1,8,0:0:0:0:
256,192,173407,1,0,0:0:0:0:
256,192,173544,1,0,0:0:0:0:
256,192,173680,1,8,0:0:0:0:
256,192,173816,1,0,0:0:0:0:
256,192,173885,1,0,0:0:0:0:
256,192,173953,1,0,0:0:0:0:
256,192,174089,1,0,0:0:0:0:
256,192,174157,1,0,0:0:0:0:
256,192,174225,1,8,0:0:0:0:
256,192,174294,1,8,0:0:0:0:
256,192,174362,1,0,0:0:0:0:
256,192,174498,1,8,0:0:0:0:
256,192,174635,1,8,0:0:0:0:
256,192,174771,1,0,0:0:0:0:
256,192,174862,1,0,0:0:0:0:
256,192,174953,1,0,0:0:0:0:
256,192,175044,1,0,0:0:0:0:
256,192,175135,1,0,0:0:0:0:
256,192,175225,1,0,0:0:0:0:
256,192,175316,1,12,0:0:0:0:
256,192,175589,1,0,0:0:0:0:
256,192,175725,1,0,0:0:0:0:
256,192,175998,1,0,0:0:0:0:
256,192,176135,1,8,0:0:0:0:
256,192,176271,1,8,0:0:0:0:
256,192,176544,1,8,0:0:0:0:
256,192,176680,1,0,0:0:0:0:
256,192,176816,1,8,0:0:0:0:
256,192,176953,1,8,0:0:0:0:
256,192,177225,1,0,0:0:0:0:
256,192,177362,1,0,0:0:0:0:
256,192,177635,1,0,0:0:0:0:
256,192,177771,1,8,0:0:0:0:
256,192,177907,1,0,0:0:0:0:
256,192,178180,1,8,0:0:0:0:
256,192,178316,1,8,0:0:0:0:
256,192,178453,1,0,0:0:0:0:
256,192,178589,1,4,0:0:0:0:
256,192,178862,1,0,0:0:0:0:
256,192,178998,1,0,0:0:0:0:
256,192,179271,1,0,0:0:0:0:
256,192,179407,1,8,0:0:0:0:
256,192,179475,1,8,0:0:0:0:
256,192,179544,1,0,0:0:0:0:
256,192,179680,1,8,0:0:0:0:
256,192,179816,1,0,0:0:0:0:
256,192,179885,1,0,0:0:0:0:
256,192,179953,1,8,0:0:0:0:
256,192,180089,1,8,0:0:0:0:
256,192,180225,1,0,0:0:0:0:
256,192,180498,1,8,0:0:0:0:
256,192,180635,1,8,0:0:0:0:
256,192,180907,1,0,0:0:0:0:
256,192,181044,1,8,0:0:0:0:
256,192,181112,1,0,0:0:0:0:
256,192,181180,1,8,0:0:0:0:
256,192,181316,1,0,0:0:0:0:
256,192,181385,1,0,0:0:0:0:
256,192,181453,1,8,0:0:0:0:
256,192,181521,1,0,0:0:0:0:
256,192,181589,1,8,0:0:0:0:
256,192,181725,1,8,0:0:0:0:
256,192,181862,1,4,0:0:0:0:
256,192,182135,1,8,0:0:0:0:
256,192,182271,1,0,0:0:0:0:
256,192,182339,1,0,0:0:0:0:
256,192,182407,1,0,0:0:0:0:
256,192,182544,1,0,0:0:0:0:
256,192,182680,1,8,0:0:0:0:
256,192,183498,1,12,0:0:0:0:
256,192,184180,1,0,0:0:0:0:
256,192,184248,1,0,0:0:0:0:
256,192,184316,1,8,0:0:0:0:
256,192,184453,1,4,0:0:0:0:
256,192,184725,1,4,0:0:0:0:
256,192,184998,1,8,0:0:0:0:
