osu file format v14

[General]
AudioFilename: audio.mp3
AudioLeadIn: 0
PreviewTime: 25035
Countdown: 0
SampleSet: Normal
StackLeniency: 0.7
Mode: 1
LetterboxInBreaks: 0
WidescreenStoryboard: 1

[Editor]
DistanceSpacing: 0.9
BeatDivisor: 4
GridSize: 32
TimelineZoom: 3.099999

[Metadata]
Title:Sesame Kingdom
TitleUnicode:Sesame Kingdom
Artist:VeetaCrush
ArtistUnicode:VeetaCrush
Creator:Briesmas
Version:Haypzeh's Ura Oni
Source:THE BMS OF FIGHTERS : ET -Summer Dream Traveler-
Tags:future rhapsody veeta crush electronic instrumental green lingvlz BOF BOF:ET _yosh yosh issuko eloxrad faheen haypzeh
BeatmapID:4319067
BeatmapSetID:1916691

[Difficulty]
HPDrainRate:5
CircleSize:3
OverallDifficulty:7
ApproachRate:0
SliderMultiplier:1.4
SliderTickRate:1

[Events]
//Background and Video events
0,0,"bg.jpg",0,30
//Break Periods
//Storyboard Layer 0 (Background)
//Storyboard Layer 1 (Fail)
//Storyboard Layer 2 (Pass)
//Storyboard Layer 3 (Foreground)
//Storyboard Layer 4 (Overlay)
//Storyboard Sound Samples

[TimingPoints]
1300,329.67032967033,4,1,0,50,1,0
2613,-111.111111111111,4,1,0,80,0,0
2716,-111.111111111111,4,1,0,65,0,0
3602,-111.111111111111,4,1,0,80,0,0
3712,-111.111111111111,4,1,0,65,0,0
5251,-111.111111111111,4,1,0,80,0,0
5361,-111.111111111111,4,1,0,65,0,0
6240,-111.111111111111,4,1,0,80,0,0
6350,-111.111111111111,4,1,0,65,0,0
7888,-111.111111111111,4,1,0,80,0,0
7998,-111.111111111111,4,1,0,65,0,0
8877,-111.111111111111,4,1,0,80,0,0
8987,-111.111111111111,4,1,0,65,0,0
10525,-111.111111111111,4,1,0,80,0,0
10635,-111.111111111111,4,1,0,65,0,0
11515,-111.111111111111,4,1,0,80,0,0
11625,-111.111111111111,4,1,0,65,0,0
11844,-111.111111111111,4,1,0,65,0,0
12833,-89.285714285714,4,1,0,80,0,0
12838,329.67032967033,3,1,0,90,1,0
13327,-86.206896551724,4,1,0,80,0,0
13822,-83.333333333333,4,1,0,80,0,0
14316,-80.645161290323,4,1,0,80,0,0
14811,-78.125,4,1,0,80,0,0
16789,-100,4,1,0,70,0,0
20745,-83.333333333333,4,1,0,70,0,0
20827,-100,4,1,0,70,0,0
21733,-83.333333333333,4,1,0,70,0,0
21816,-100,4,1,0,70,0,0
22723,-83.333333333333,4,1,0,70,0,0
22805,-100,4,1,0,70,0,0
23717,329.67032967033,4,1,0,70,1,0
23717,-83.333333333333,4,1,0,70,0,0
23790,-100,4,1,0,70,0,0
24041,-100,4,1,0,70,0,0
24124,-98.349244232299,4,1,0,72,0,0
24206,-96.771037181996,4,1,0,73,0,0
24288,-95.242681047766,4,1,0,75,0,0
24371,-93.744075829384,4,1,0,77,0,0
24453,-92.30912824342,4,1,0,78,0,0
24536,-90.900735294118,4,1,0,80,0,0
24618,-89.550887359652,4,1,0,82,0,0
24701,-88.224799286351,4,1,0,83,0,0
24783,-86.952699138386,4,1,0,85,0,0
24865,-85.716762003813,4,1,0,87,0,0
24948,-84.501025290499,4,1,0,88,0,0
25035,329.67032967033,4,1,0,90,1,0
25035,-83.333333333333,4,1,0,90,0,0
30305,-76.923076923077,4,1,0,90,0,0
32448,-83.333333333333,4,1,0,80,0,0
46133,-83.333333333333,4,1,0,90,0,1
51408,-80,4,1,0,90,0,1
56683,329.67032967033,3,1,0,90,1,0
56683,-80,4,1,0,90,0,0
57008,-100,4,1,0,70,0,0
72507,-100,4,1,0,65,0,0
72836,-97.565487642445,4,1,0,67,0,0
73166,-95.239815082346,4,1,0,69,0,0
73496,-93.022435445181,4,1,0,71,0,0
73825,-90.912225056885,4,1,0,72,0,0
73880,-90.568759444979,4,1,0,73,0,0
74155,-88.889637969393,4,1,0,74,0,0
74485,-86.955088043263,4,1,0,76,0,0
74814,-85.10844306739,4,1,0,78,0,0
75144,-83.333333333333,4,1,0,80,0,0
76459,-100,4,1,0,65,0,0
80415,-100,4,1,0,65,0,0
80744,-97.565487642445,4,1,0,67,0,0
81074,-95.239815082346,4,1,0,69,0,0
81404,-93.022435445181,4,1,0,71,0,0
81678,-91.258305647841,4,1,0,72,0,0
81733,-90.912225056885,4,1,0,72,0,0
82063,-88.889637969393,4,1,0,74,0,0
82393,-86.955088043263,4,1,0,76,0,0
82722,-85.10844306739,4,1,0,78,0,0
83052,-83.333333333333,4,1,0,80,0,0
83386,329.67032967033,4,1,0,80,1,0
83386,-66.6666666666662,4,1,0,80,0,0
83711,-100,4,1,0,80,0,0
83794,-98.349244232299,4,1,0,81,0,0
83876,-96.771037181996,4,1,0,82,0,0
83958,-95.242681047766,4,1,0,82,0,0
84041,-93.744075829384,4,1,0,83,0,0
84123,-92.30912824342,4,1,0,84,0,0
84206,-90.900735294118,4,1,0,85,0,0
84288,-89.550887359652,4,1,0,86,0,0
84371,-88.224799286351,4,1,0,87,0,0
84453,-86.952699138386,4,1,0,88,0,0
84535,-85.716762003813,4,1,0,88,0,0
84618,-84.501025290499,4,1,0,89,0,0
84704,329.67032967033,4,1,0,90,1,0
84704,-83.333333333333,4,1,0,90,0,0
89973,-76.923076923077,4,1,0,80,0,0
92116,-83.333333333333,4,1,0,80,0,0
103160,-76.923076923077,4,1,0,80,0,0
104314,-83.333333333333,4,1,0,80,0,0
105138,-76.923076923077,4,1,0,80,0,0
105802,-83.333333333333,4,1,0,100,0,1
111076,-80,4,1,0,100,0,1
115939,-80.645161290323,4,1,0,100,0,1
116022,-81.967213114754,4,1,0,100,0,1
116104,-83.333333333333,4,1,0,100,0,1
116187,-84.745762711864,4,1,0,100,0,1
116269,-86.206896551724,4,1,0,100,0,1
116352,329.67032967033,3,1,0,65,1,0
116352,-87.719298245614,4,1,0,65,0,0
116515,-89.285714285714,4,1,0,65,0,0
116677,-90.909090909091,4,1,0,65,0,0
130363,-93.35762,3,1,0,65,0,0
130445,-94.59889,3,1,0,65,0,0
130528,-95.87211,3,1,0,66,0,0
130693,-98.454315,3,1,0,66,0,0
130857,-101.08979,3,1,0,66,0,0
130940,-102.45036,3,1,0,66,0,0
131022,-103.81253,3,1,0,67,0,0
131187,329.67032967033,4,1,0,70,1,8
131209,387.096774193549,4,1,0,70,1,0
131209,-91.08601,4,1,0,67,0,0
131401,-93.962135,4,1,0,67,0,0
131576,413.793103448276,4,1,0,70,1,8
131576,-90.3985,4,1,0,68,0,8
131782,560.747663551403,4,1,0,70,1,8
131782,-68.95847,4,1,0,68,0,8
132062,545.454545454546,4,1,0,70,1,8
132062,-74.16241,4,1,0,68,0,8
132471,545.454545454546,4,1,0,70,1,8
132471,-79.21277,4,1,0,69,0,8
132753,521.739130434783,4,1,0,70,1,8
132817,-87.57387,4,1,0,70,0,8
132883,521.739130434783,4,1,0,70,1,0
132883,-88.495575,4,1,0,70,0,0

[HitObjects]
256,192,1520,5,0,0:0:0:0:
256,192,1629,1,8,0:0:0:0:
256,192,1849,1,0,0:0:0:0:
256,192,1959,1,0,0:0:0:0:
256,192,2069,1,8,0:0:0:0:
256,192,2179,1,0,0:0:0:0:
256,192,2289,1,8,0:0:0:0:
256,192,2618,1,0,0:0:0:0:
256,192,3607,1,8,0:0:0:0:
256,192,4156,1,8,0:0:0:0:
256,192,4266,1,0,0:0:0:0:
256,192,4486,1,8,0:0:0:0:
256,192,4595,1,0,0:0:0:0:
256,192,4815,1,0,0:0:0:0:
256,192,4925,1,8,0:0:0:0:
256,192,5145,1,0,0:0:0:0:
256,192,5255,1,8,0:0:0:0:
256,192,5475,1,0,0:0:0:0:
256,192,5584,1,0,0:0:0:0:
256,192,5804,1,8,0:0:0:0:
256,192,6134,1,8,0:0:0:0:
256,192,6244,1,0,0:0:0:0:
256,192,6793,1,8,0:0:0:0:
256,192,6903,1,0,0:0:0:0:
256,192,7123,1,0,0:0:0:0:
256,192,7233,1,8,0:0:0:0:
256,192,7453,1,8,0:0:0:0:
256,192,7562,1,0,0:0:0:0:
256,192,7782,1,8,0:0:0:0:
256,192,7892,1,0,0:0:0:0:
256,192,8112,1,0,0:0:0:0:
256,192,8442,1,8,0:0:0:0:
256,192,8551,1,8,0:0:0:0:
256,192,8771,1,8,0:0:0:0:
256,192,8881,1,0,0:0:0:0:
256,192,9101,1,8,0:0:0:0:
256,192,9211,1,8,0:0:0:0:
256,192,9431,1,8,0:0:0:0:
256,192,9540,1,8,0:0:0:0:
256,192,9760,1,8,0:0:0:0:
256,192,9870,1,0,0:0:0:0:
256,192,10090,1,8,0:0:0:0:
256,192,10200,1,8,0:0:0:0:
256,192,10420,1,8,0:0:0:0:
256,192,10529,1,0,0:0:0:0:
256,192,10749,1,8,0:0:0:0:
256,192,10859,1,8,0:0:0:0:
256,192,11079,1,8,0:0:0:0:
256,192,11189,1,8,0:0:0:0:
256,192,11409,1,8,0:0:0:0:
256,192,11519,1,0,0:0:0:0:
256,192,12591,1,8,0:0:0:0:
256,192,12674,1,8,0:0:0:0:
256,192,12756,1,8,0:0:0:0:
256,192,12838,1,4,0:0:0:0:
256,192,13002,1,8,0:0:0:0:
256,192,13167,1,8,0:0:0:0:
256,192,13332,1,4,0:0:0:0:
256,192,13497,1,8,0:0:0:0:
256,192,13579,1,8,0:0:0:0:
256,192,13662,1,0,0:0:0:0:
256,192,13744,1,0,0:0:0:0:
256,192,13827,1,12,0:0:0:0:
256,192,13991,1,0,0:0:0:0:
256,192,14156,1,8,0:0:0:0:
256,192,14321,1,4,0:0:0:0:
256,192,14486,1,8,0:0:0:0:
256,192,14651,1,0,0:0:0:0:
256,192,14733,1,0,0:0:0:0:
256,192,14816,1,12,0:0:0:0:
256,192,15310,1,4,0:0:0:0:
256,192,15475,1,8,0:0:0:0:
256,192,15640,1,0,0:0:0:0:
256,192,15805,1,12,0:0:0:0:
256,192,16794,1,8,0:0:0:0:
256,192,17123,1,0,0:0:0:0:
256,192,17206,1,0,0:0:0:0:
256,192,17288,1,0,0:0:0:0:
256,192,17370,1,0,0:0:0:0:
256,192,17453,1,0,0:0:0:0:
256,192,17618,1,0,0:0:0:0:
256,192,17783,1,8,0:0:0:0:
256,192,17947,1,8,0:0:0:0:
256,192,18112,1,0,0:0:0:0:
256,192,18442,1,8,0:0:0:0:
256,192,18524,1,8,0:0:0:0:
256,192,18607,1,8,0:0:0:0:
256,192,18689,1,8,0:0:0:0:
256,192,18772,1,0,0:0:0:0:
256,192,19101,1,0,0:0:0:0:
256,192,19266,1,8,0:0:0:0:
256,192,19431,1,0,0:0:0:0:
256,192,19596,1,0,0:0:0:0:
256,192,19761,1,8,0:0:0:0:
256,192,19843,1,8,0:0:0:0:
256,192,19925,1,8,0:0:0:0:
256,192,20090,1,0,0:0:0:0:
256,192,20420,1,8,0:0:0:0:
256,192,20502,1,8,0:0:0:0:
256,192,20585,1,8,0:0:0:0:
256,192,20667,1,8,0:0:0:0:
256,192,20750,1,4,0:0:0:0:
256,192,21079,1,0,0:0:0:0:
256,192,21409,1,0,0:0:0:0:
256,192,21739,1,12,0:0:0:0:
256,192,22068,1,0,0:0:0:0:
256,192,22123,1,0,0:0:0:0:
256,192,22398,1,0,0:0:0:0:
256,192,22728,1,12,0:0:0:0:
256,192,23057,1,0,0:0:0:0:
256,192,23387,1,0,0:0:0:0:
256,192,23717,1,12,0:0:0:0:
256,192,24046,1,0,0:0:0:0:
256,192,24129,1,0,0:0:0:0:
256,192,24211,1,0,0:0:0:0:
256,192,24293,1,0,0:0:0:0:
256,192,24376,1,8,0:0:0:0:
256,192,24458,1,8,0:0:0:0:
256,192,24541,1,0,0:0:0:0:
256,192,24623,1,0,0:0:0:0:
256,192,24706,1,8,0:0:0:0:
256,192,24788,1,8,0:0:0:0:
256,192,24870,1,0,0:0:0:0:
256,192,24953,1,0,0:0:0:0:
256,192,25035,1,8,0:0:0:0:
256,192,25199,1,0,0:0:0:0:
256,192,25364,1,8,0:0:0:0:
256,192,25529,1,0,0:0:0:0:
256,192,25611,1,0,0:0:0:0:
256,192,25694,1,8,0:0:0:0:
256,192,25859,1,0,0:0:0:0:
256,192,26024,1,8,0:0:0:0:
256,192,26188,1,8,0:0:0:0:
256,192,26271,1,8,0:0:0:0:
256,192,26353,1,0,0:0:0:0:
256,192,26436,1,8,0:0:0:0:
256,192,26518,1,0,0:0:0:0:
256,192,26683,1,8,0:0:0:0:
256,192,26848,1,0,0:0:0:0:
256,192,26930,1,8,0:0:0:0:
256,192,27013,1,0,0:0:0:0:
256,192,27177,1,0,0:0:0:0:
256,192,27342,1,8,0:0:0:0:
256,192,27672,1,0,0:0:0:0:
256,192,27837,1,8,0:0:0:0:
256,192,27919,1,0,0:0:0:0:
256,192,28002,1,8,0:0:0:0:
256,192,28166,1,0,0:0:0:0:
256,192,28331,1,8,0:0:0:0:
256,192,28414,1,8,0:0:0:0:
256,192,28496,1,0,0:0:0:0:
256,192,28578,1,0,0:0:0:0:
256,192,28661,1,8,0:0:0:0:
256,192,28826,1,0,0:0:0:0:
256,192,28991,1,0,0:0:0:0:
256,192,29155,1,8,0:0:0:0:
256,192,29238,1,0,0:0:0:0:
256,192,29320,1,8,0:0:0:0:
256,192,29485,1,0,0:0:0:0:
256,192,29650,1,8,0:0:0:0:
256,192,29815,1,0,0:0:0:0:
256,192,29897,1,0,0:0:0:0:
256,192,29980,1,8,0:0:0:0:
256,192,30310,1,4,0:0:0:0:
256,192,30639,1,12,0:0:0:0:
256,192,30804,1,4,0:0:0:0:
256,192,31133,1,4,0:0:0:0:
256,192,31463,1,12,0:0:0:0:
256,192,31793,1,12,0:0:0:0:
256,192,31958,1,4,0:0:0:0:
256,192,32122,1,12,0:0:0:0:
256,192,32453,1,8,0:0:0:0:
256,192,32535,1,8,0:0:0:0:
256,192,32617,1,0,0:0:0:0:
256,192,32699,1,8,0:0:0:0:
256,192,32782,1,0,0:0:0:0:
256,192,32864,1,0,0:0:0:0:
256,192,32947,1,8,0:0:0:0:
256,192,33111,1,0,0:0:0:0:
256,192,33276,1,8,0:0:0:0:
256,192,33441,1,0,0:0:0:0:
256,192,33524,1,0,0:0:0:0:
256,192,33606,1,8,0:0:0:0:
256,192,33688,1,8,0:0:0:0:
256,192,33771,1,0,0:0:0:0:
256,192,33936,1,8,0:0:0:0:
256,192,34100,1,0,0:0:0:0:
256,192,34183,1,0,0:0:0:0:
256,192,34265,1,8,0:0:0:0:
256,192,34430,1,0,0:0:0:0:
256,192,34595,1,8,0:0:0:0:
256,192,34677,1,0,0:0:0:0:
256,192,34760,1,8,0:0:0:0:
256,192,34842,1,8,0:0:0:0:
256,192,34925,1,0,0:0:0:0:
256,192,35089,1,0,0:0:0:0:
256,192,35254,1,8,0:0:0:0:
256,192,35584,1,0,0:0:0:0:
256,192,35749,1,8,0:0:0:0:
256,192,35831,1,0,0:0:0:0:
256,192,35914,1,8,0:0:0:0:
256,192,36078,1,0,0:0:0:0:
256,192,36243,1,8,0:0:0:0:
256,192,36326,1,8,0:0:0:0:
256,192,36408,1,0,0:0:0:0:
256,192,36491,1,0,0:0:0:0:
256,192,36573,1,8,0:0:0:0:
256,192,36738,1,0,0:0:0:0:
256,192,36820,1,8,0:0:0:0:
256,192,36903,1,0,0:0:0:0:
256,192,36985,1,8,0:0:0:0:
256,192,37067,1,0,0:0:0:0:
256,192,37232,1,8,0:0:0:0:
256,192,37397,1,0,0:0:0:0:
256,192,37480,1,0,0:0:0:0:
256,192,37562,1,0,0:0:0:0:
256,192,37727,1,0,0:0:0:0:
256,192,37892,1,8,0:0:0:0:
256,192,38221,1,0,0:0:0:0:
256,192,38386,1,8,0:0:0:0:
256,192,38469,1,0,0:0:0:0:
256,192,38551,1,8,0:0:0:0:
256,192,38716,1,0,0:0:0:0:
256,192,38798,1,0,0:0:0:0:
256,192,38881,1,8,0:0:0:0:
256,192,38963,1,8,0:0:0:0:
256,192,39046,1,0,0:0:0:0:
256,192,39210,1,8,0:0:0:0:
256,192,39375,1,8,0:0:0:0:
256,192,39458,1,8,0:0:0:0:
256,192,39540,1,0,0:0:0:0:
256,192,39705,1,0,0:0:0:0:
256,192,39787,1,0,0:0:0:0:
256,192,39870,1,8,0:0:0:0:
256,192,39952,1,8,0:0:0:0:
256,192,40035,1,0,0:0:0:0:
256,192,40117,1,0,0:0:0:0:
256,192,40199,1,8,0:0:0:0:
256,192,40364,1,0,0:0:0:0:
256,192,40529,1,8,0:0:0:0:
256,192,40859,1,0,0:0:0:0:
256,192,41024,1,8,0:0:0:0:
256,192,41106,1,0,0:0:0:0:
256,192,41188,1,8,0:0:0:0:
256,192,41353,1,0,0:0:0:0:
256,192,41436,1,8,0:0:0:0:
256,192,41518,1,0,0:0:0:0:
256,192,41600,1,0,0:0:0:0:
256,192,41683,1,8,0:0:0:0:
256,192,41765,1,0,0:0:0:0:
256,192,41848,1,8,0:0:0:0:
256,192,41930,1,8,0:0:0:0:
256,192,42013,1,0,0:0:0:0:
256,192,42177,1,8,0:0:0:0:
256,192,42342,1,0,0:0:0:0:
256,192,42425,1,0,0:0:0:0:
256,192,42507,1,8,0:0:0:0:
256,192,42672,1,0,0:0:0:0:
256,192,43002,1,8,0:0:0:0:
256,192,43166,1,8,0:0:0:0:
256,192,43331,1,0,0:0:0:0:
256,192,43414,1,0,0:0:0:0:
256,192,43496,1,12,0:0:0:0:
256,192,43661,1,12,0:0:0:0:
256,192,43826,1,4,0:0:0:0:
256,192,43991,1,4,0:0:0:0:
256,192,44155,1,12,0:0:0:0:
256,192,44320,1,4,0:0:0:0:
256,192,44650,1,0,0:0:0:0:
256,192,44732,1,0,0:0:0:0:
256,192,44815,1,8,0:0:0:0:
256,192,44897,1,8,0:0:0:0:
256,192,44980,1,0,0:0:0:0:
256,192,45062,1,0,0:0:0:0:
256,192,45144,1,8,0:0:0:0:
256,192,45227,1,8,0:0:0:0:
256,192,45309,1,0,0:0:0:0:
256,192,45474,1,8,0:0:0:0:
256,192,45639,1,8,0:0:0:0:
256,192,45804,1,0,0:0:0:0:
256,192,46134,1,0,0:0:0:0:
256,192,46217,1,8,0:0:0:0:
256,192,46299,1,0,0:0:0:0:
256,192,46382,1,0,0:0:0:0:
256,192,46464,1,8,0:0:0:0:
256,192,46545,1,8,0:0:0:0:
256,192,46629,1,0,0:0:0:0:
256,192,46711,1,8,0:0:0:0:
256,192,46794,1,0,0:0:0:0:
256,192,46876,1,0,0:0:0:0:
256,192,46959,1,0,0:0:0:0:
256,192,47041,1,8,0:0:0:0:
256,192,47123,1,8,0:0:0:0:
256,192,47206,1,0,0:0:0:0:
256,192,47288,1,0,0:0:0:0:
256,192,47371,1,8,0:0:0:0:
256,192,47453,1,0,0:0:0:0:
256,192,47536,1,0,0:0:0:0:
256,192,47618,1,8,0:0:0:0:
256,192,47700,1,0,0:0:0:0:
256,192,47783,1,8,0:0:0:0:
256,192,47865,1,8,0:0:0:0:
256,192,47948,1,8,0:0:0:0:
256,192,48030,1,8,0:0:0:0:
256,192,48112,1,0,0:0:0:0:
256,192,48195,1,8,0:0:0:0:
256,192,48277,1,0,0:0:0:0:
256,192,48360,1,0,0:0:0:0:
256,192,48442,1,8,0:0:0:0:
256,192,48525,1,8,0:0:0:0:
256,192,48607,1,0,0:0:0:0:
256,192,48689,1,8,0:0:0:0:
256,192,48772,1,0,0:0:0:0:
256,192,48854,1,0,0:0:0:0:
256,192,48937,1,8,0:0:0:0:
256,192,49019,1,8,0:0:0:0:
256,192,49101,1,8,0:0:0:0:
256,192,49184,1,8,0:0:0:0:
256,192,49266,1,0,0:0:0:0:
256,192,49349,1,0,0:0:0:0:
256,192,49431,1,8,0:0:0:0:
256,192,49514,1,0,0:0:0:0:
256,192,49596,1,0,0:0:0:0:
256,192,49678,1,0,0:0:0:0:
256,192,49761,1,8,0:0:0:0:
256,192,49843,1,8,0:0:0:0:
256,192,49926,1,8,0:0:0:0:
256,192,50008,1,8,0:0:0:0:
256,192,50090,1,0,0:0:0:0:
256,192,50173,1,0,0:0:0:0:
256,192,50255,1,8,0:0:0:0:
256,192,50338,1,0,0:0:0:0:
256,192,50420,1,8,0:0:0:0:
256,192,50503,1,8,0:0:0:0:
256,192,50585,1,0,0:0:0:0:
256,192,50667,1,0,0:0:0:0:
256,192,50750,1,8,0:0:0:0:
256,192,50832,1,8,0:0:0:0:
256,192,50915,1,0,0:0:0:0:
256,192,50997,1,0,0:0:0:0:
256,192,51079,1,8,0:0:0:0:
256,192,51134,1,8,0:0:0:0:
256,192,51189,1,8,0:0:0:0:
256,192,51244,1,0,0:0:0:0:
256,192,51408,1,8,0:0:0:0:
256,192,51491,1,8,0:0:0:0:
256,192,51573,1,0,0:0:0:0:
256,192,51655,1,0,0:0:0:0:
256,192,51738,1,8,0:0:0:0:
256,192,51820,1,8,0:0:0:0:
256,192,51903,1,0,0:0:0:0:
256,192,51985,1,0,0:0:0:0:
256,192,52067,1,8,0:0:0:0:
256,192,52150,1,0,0:0:0:0:
256,192,52232,1,0,0:0:0:0:
256,192,52315,1,0,0:0:0:0:
256,192,52398,1,8,0:0:0:0:
256,192,52480,1,8,0:0:0:0:
256,192,52563,1,8,0:0:0:0:
256,192,52644,1,8,0:0:0:0:
256,192,52728,1,0,0:0:0:0:
256,192,52809,1,8,0:0:0:0:
256,192,52893,1,0,0:0:0:0:
256,192,52975,1,0,0:0:0:0:
256,192,53056,1,8,0:0:0:0:
256,192,53140,1,8,0:0:0:0:
256,192,53221,1,0,0:0:0:0:
256,192,53305,1,0,0:0:0:0:
256,192,53387,1,8,0:0:0:0:
256,192,53470,1,0,0:0:0:0:
256,192,53552,1,0,0:0:0:0:
256,192,53633,1,0,0:0:0:0:
256,192,53717,1,8,0:0:0:0:
256,192,53799,1,8,0:0:0:0:
256,192,53881,1,0,0:0:0:0:
256,192,53964,1,0,0:0:0:0:
256,192,54046,1,8,0:0:0:0:
256,192,54129,1,0,0:0:0:0:
256,192,54211,1,8,0:0:0:0:
256,192,54293,1,8,0:0:0:0:
256,192,54376,1,8,0:0:0:0:
256,192,54458,1,8,0:0:0:0:
256,192,54541,1,0,0:0:0:0:
256,192,54623,1,0,0:0:0:0:
256,192,54706,1,8,0:0:0:0:
256,192,54788,1,0,0:0:0:0:
256,192,54870,1,0,0:0:0:0:
256,192,54953,1,0,0:0:0:0:
256,192,55035,1,8,0:0:0:0:
256,192,55118,1,8,0:0:0:0:
256,192,55200,1,0,0:0:0:0:
256,192,55282,1,0,0:0:0:0:
256,192,55365,1,8,0:0:0:0:
256,192,55447,1,8,0:0:0:0:
256,192,55530,1,0,0:0:0:0:
256,192,55612,1,0,0:0:0:0:
256,192,55695,1,8,0:0:0:0:
256,192,55777,1,8,0:0:0:0:
256,192,55859,1,0,0:0:0:0:
256,192,55942,1,0,0:0:0:0:
256,192,56024,1,8,0:0:0:0:
256,192,56107,1,8,0:0:0:0:
256,192,56189,1,8,0:0:0:0:
256,192,56271,1,8,0:0:0:0:
256,192,56354,1,0,0:0:0:0:
256,192,56436,1,0,0:0:0:0:
256,192,56519,1,8,0:0:0:0:
256,192,56601,1,8,0:0:0:0:
256,192,56684,1,0,0:0:0:0:
256,192,57013,1,8,0:0:0:0:
256,192,57177,1,0,0:0:0:0:
256,192,57342,1,8,0:0:0:0:
256,192,57425,1,8,0:0:0:0:
256,192,57507,1,0,0:0:0:0:
256,192,57672,1,8,0:0:0:0:
256,192,58002,1,8,0:0:0:0:
256,192,58166,1,0,0:0:0:0:
256,192,58331,1,8,0:0:0:0:
256,192,58414,1,8,0:0:0:0:
256,192,58496,1,8,0:0:0:0:
256,192,58578,1,8,0:0:0:0:
256,192,58661,1,0,0:0:0:0:
256,192,58991,1,0,0:0:0:0:
256,192,59155,1,0,0:0:0:0:
256,192,59320,1,8,0:0:0:0:
256,192,59403,1,8,0:0:0:0:
256,192,59485,1,0,0:0:0:0:
256,192,59650,1,0,0:0:0:0:
256,192,59980,1,0,0:0:0:0:
256,192,60144,1,8,0:0:0:0:
256,192,60309,1,0,0:0:0:0:
256,192,60392,1,0,0:0:0:0:
256,192,60474,1,8,0:0:0:0:
256,192,60639,1,0,0:0:0:0:
256,192,60969,1,8,0:0:0:0:
256,192,61133,1,0,0:0:0:0:
256,192,61298,1,8,0:0:0:0:
256,192,61381,1,8,0:0:0:0:
256,192,61463,1,0,0:0:0:0:
256,192,61628,1,8,0:0:0:0:
256,192,61958,1,8,0:0:0:0:
256,192,62122,1,0,0:0:0:0:
256,192,62287,1,8,0:0:0:0:
256,192,62370,1,8,0:0:0:0:
256,192,62452,1,0,0:0:0:0:
256,192,62617,1,0,0:0:0:0:
256,192,62947,1,0,0:0:0:0:
256,192,63111,1,0,0:0:0:0:
256,192,63276,1,8,0:0:0:0:
256,192,63359,1,8,0:0:0:0:
256,192,63441,1,0,0:0:0:0:
256,192,63606,1,0,0:0:0:0:
256,192,63936,1,0,0:0:0:0:
256,192,64100,1,0,0:0:0:0:
256,192,64265,1,8,0:0:0:0:
256,192,64348,1,8,0:0:0:0:
256,192,64430,1,8,0:0:0:0:
256,192,64513,1,8,0:0:0:0:
256,192,64595,1,0,0:0:0:0:
256,192,64925,1,8,0:0:0:0:
256,192,65089,1,0,0:0:0:0:
256,192,65254,1,8,0:0:0:0:
256,192,65419,1,0,0:0:0:0:
256,192,65502,1,0,0:0:0:0:
256,192,65584,1,8,0:0:0:0:
256,192,65749,1,0,0:0:0:0:
256,192,66078,1,0,0:0:0:0:
256,192,66243,1,8,0:0:0:0:
256,192,66326,1,8,0:0:0:0:
256,192,66408,1,8,0:0:0:0:
256,192,66491,1,8,0:0:0:0:
256,192,66573,1,0,0:0:0:0:
256,192,66903,1,0,0:0:0:0:
256,192,67067,1,8,0:0:0:0:
256,192,67232,1,0,0:0:0:0:
256,192,67397,1,8,0:0:0:0:
256,192,67480,1,0,0:0:0:0:
256,192,67562,1,8,0:0:0:0:
256,192,67727,1,0,0:0:0:0:
256,192,67892,1,0,0:0:0:0:
256,192,67974,1,0,0:0:0:0:
256,192,68056,1,8,0:0:0:0:
256,192,68221,1,0,0:0:0:0:
256,192,68304,1,8,0:0:0:0:
256,192,68386,1,8,0:0:0:0:
256,192,68469,1,8,0:0:0:0:
256,192,68551,1,0,0:0:0:0:
256,192,68881,1,0,0:0:0:0:
256,192,69045,1,8,0:0:0:0:
256,192,69210,1,0,0:0:0:0:
256,192,69375,1,8,0:0:0:0:
256,192,69458,1,0,0:0:0:0:
256,192,69540,1,8,0:0:0:0:
256,192,69705,1,0,0:0:0:0:
256,192,70034,1,0,0:0:0:0:
256,192,70199,1,8,0:0:0:0:
256,192,70282,1,8,0:0:0:0:
256,192,70364,1,8,0:0:0:0:
256,192,70447,1,8,0:0:0:0:
256,192,70529,1,0,0:0:0:0:
256,192,70859,1,0,0:0:0:0:
256,192,71023,1,8,0:0:0:0:
256,192,71188,1,0,0:0:0:0:
256,192,71353,1,8,0:0:0:0:
256,192,71436,1,0,0:0:0:0:
256,192,71518,1,8,0:0:0:0:
256,192,71683,1,0,0:0:0:0:
256,192,71848,1,0,0:0:0:0:
256,192,71930,1,0,0:0:0:0:
256,192,72012,1,8,0:0:0:0:
256,192,72177,1,0,0:0:0:0:
256,192,72260,1,0,0:0:0:0:
256,192,72342,1,8,0:0:0:0:
256,192,72425,1,8,0:0:0:0:
256,192,72507,1,4,0:0:0:0:
256,192,72836,1,0,0:0:0:0:
256,192,73166,1,0,0:0:0:0:
256,192,73496,1,12,0:0:0:0:
256,192,73825,1,0,0:0:0:0:
256,192,73880,1,0,0:0:0:0:
256,192,74155,1,0,0:0:0:0:
256,192,74485,1,12,0:0:0:0:
256,192,74814,1,0,0:0:0:0:
256,192,75144,1,0,0:0:0:0:
256,192,75474,1,8,0:0:0:0:
256,192,75556,1,0,0:0:0:0:
256,192,75639,1,8,0:0:0:0:
256,192,75721,1,0,0:0:0:0:
256,192,75804,1,8,0:0:0:0:
256,192,75886,1,0,0:0:0:0:
256,192,75969,1,8,0:0:0:0:
256,192,76051,1,0,0:0:0:0:
256,192,76133,1,8,0:0:0:0:
256,192,76463,1,8,0:0:0:0:
256,192,76683,1,0,0:0:0:0:
256,192,76793,1,8,0:0:0:0:
256,192,77013,1,0,0:0:0:0:
256,192,77122,1,8,0:0:0:0:
256,192,77342,1,8,0:0:0:0:
256,192,77452,1,0,0:0:0:0:
256,192,77782,1,8,0:0:0:0:
256,192,78111,1,0,0:0:0:0:
256,192,78331,1,8,0:0:0:0:
256,192,78441,1,0,0:0:0:0:
256,192,78661,1,8,0:0:0:0:
256,192,78771,1,0,0:0:0:0:
256,192,78991,1,0,0:0:0:0:
256,192,79100,1,8,0:0:0:0:
256,192,79320,1,8,0:0:0:0:
256,192,79430,1,0,0:0:0:0:
256,192,79760,1,0,0:0:0:0:
256,192,80089,1,8,0:0:0:0:
256,192,80419,1,4,0:0:0:0:
256,192,80748,1,0,0:0:0:0:
256,192,81078,1,0,0:0:0:0:
256,192,81408,1,12,0:0:0:0:
256,192,81682,1,0,0:0:0:0:
256,192,81737,1,0,0:0:0:0:
256,192,82067,1,0,0:0:0:0:
256,192,82397,1,12,0:0:0:0:
256,192,82726,1,0,0:0:0:0:
256,192,83056,1,0,0:0:0:0:
256,192,83386,1,12,0:0:0:0:
256,192,83716,1,0,0:0:0:0:
256,192,83799,1,0,0:0:0:0:
256,192,83881,1,0,0:0:0:0:
256,192,83963,1,0,0:0:0:0:
256,192,84046,1,8,0:0:0:0:
256,192,84128,1,8,0:0:0:0:
256,192,84211,1,0,0:0:0:0:
256,192,84293,1,0,0:0:0:0:
256,192,84376,1,8,0:0:0:0:
256,192,84458,1,8,0:0:0:0:
256,192,84540,1,0,0:0:0:0:
256,192,84623,1,0,0:0:0:0:
256,192,84705,1,8,0:0:0:0:
256,192,84868,1,0,0:0:0:0:
256,192,85032,1,8,0:0:0:0:
256,192,85197,1,0,0:0:0:0:
256,192,85279,1,0,0:0:0:0:
256,192,85362,1,8,0:0:0:0:
256,192,85527,1,0,0:0:0:0:
256,192,85692,1,8,0:0:0:0:
256,192,85856,1,8,0:0:0:0:
256,192,85939,1,8,0:0:0:0:
256,192,86021,1,0,0:0:0:0:
256,192,86104,1,8,0:0:0:0:
256,192,86186,1,0,0:0:0:0:
256,192,86351,1,8,0:0:0:0:
256,192,86516,1,0,0:0:0:0:
256,192,86598,1,8,0:0:0:0:
256,192,86681,1,0,0:0:0:0:
256,192,86763,1,0,0:0:0:0:
256,192,86845,1,8,0:0:0:0:
256,192,86928,1,0,0:0:0:0:
256,192,87010,1,8,0:0:0:0:
256,192,87175,1,0,0:0:0:0:
256,192,87340,1,0,0:0:0:0:
256,192,87505,1,8,0:0:0:0:
256,192,87587,1,0,0:0:0:0:
256,192,87670,1,8,0:0:0:0:
256,192,87834,1,0,0:0:0:0:
256,192,87999,1,8,0:0:0:0:
256,192,88082,1,8,0:0:0:0:
256,192,88164,1,0,0:0:0:0:
256,192,88246,1,0,0:0:0:0:
256,192,88329,1,8,0:0:0:0:
256,192,88494,1,0,0:0:0:0:
256,192,88659,1,0,0:0:0:0:
256,192,88823,1,8,0:0:0:0:
256,192,88906,1,0,0:0:0:0:
256,192,88988,1,8,0:0:0:0:
256,192,89153,1,0,0:0:0:0:
256,192,89318,1,8,0:0:0:0:
256,192,89483,1,0,0:0:0:0:
256,192,89565,1,0,0:0:0:0:
256,192,89648,1,8,0:0:0:0:
256,192,89730,1,0,0:0:0:0:
256,192,89812,1,8,0:0:0:0:
256,192,89895,1,8,0:0:0:0:
256,192,89978,1,4,0:0:0:0:
256,192,90307,1,12,0:0:0:0:
256,192,90472,1,4,0:0:0:0:
256,192,90801,1,4,0:0:0:0:
256,192,91131,1,12,0:0:0:0:
256,192,91461,1,12,0:0:0:0:
256,192,91626,1,4,0:0:0:0:
256,192,91790,1,12,0:0:0:0:
256,192,92121,1,8,0:0:0:0:
256,192,92203,1,8,0:0:0:0:
256,192,92285,1,0,0:0:0:0:
256,192,92367,1,8,0:0:0:0:
256,192,92450,1,0,0:0:0:0:
256,192,92532,1,0,0:0:0:0:
256,192,92615,1,8,0:0:0:0:
256,192,92779,1,0,0:0:0:0:
256,192,92944,1,8,0:0:0:0:
256,192,93109,1,0,0:0:0:0:
256,192,93192,1,0,0:0:0:0:
256,192,93274,1,8,0:0:0:0:
256,192,93356,1,8,0:0:0:0:
256,192,93439,1,0,0:0:0:0:
256,192,93604,1,8,0:0:0:0:
256,192,93768,1,0,0:0:0:0:
256,192,93851,1,0,0:0:0:0:
256,192,93933,1,8,0:0:0:0:
256,192,94098,1,0,0:0:0:0:
256,192,94181,1,0,0:0:0:0:
256,192,94263,1,0,0:0:0:0:
256,192,94345,1,0,0:0:0:0:
256,192,94428,1,8,0:0:0:0:
256,192,94510,1,8,0:0:0:0:
256,192,94593,1,0,0:0:0:0:
256,192,94675,1,0,0:0:0:0:
256,192,94757,1,8,0:0:0:0:
256,192,94840,1,8,0:0:0:0:
256,192,94922,1,0,0:0:0:0:
256,192,95005,1,0,0:0:0:0:
256,192,95087,1,8,0:0:0:0:
256,192,95252,1,0,0:0:0:0:
256,192,95417,1,8,0:0:0:0:
256,192,95499,1,0,0:0:0:0:
256,192,95582,1,8,0:0:0:0:
256,192,95746,1,0,0:0:0:0:
256,192,95911,1,8,0:0:0:0:
256,192,95994,1,8,0:0:0:0:
256,192,96076,1,0,0:0:0:0:
256,192,96159,1,0,0:0:0:0:
256,192,96241,1,8,0:0:0:0:
256,192,96406,1,0,0:0:0:0:
256,192,96488,1,8,0:0:0:0:
256,192,96571,1,0,0:0:0:0:
256,192,96653,1,8,0:0:0:0:
256,192,96735,1,0,0:0:0:0:
256,192,96900,1,8,0:0:0:0:
256,192,97065,1,0,0:0:0:0:
256,192,97148,1,0,0:0:0:0:
256,192,97230,1,0,0:0:0:0:
256,192,97395,1,0,0:0:0:0:
256,192,97560,1,8,0:0:0:0:
256,192,97889,1,0,0:0:0:0:
256,192,98054,1,8,0:0:0:0:
256,192,98137,1,0,0:0:0:0:
256,192,98219,1,8,0:0:0:0:
256,192,98384,1,0,0:0:0:0:
256,192,98466,1,0,0:0:0:0:
256,192,98549,1,8,0:0:0:0:
256,192,98631,1,8,0:0:0:0:
256,192,98714,1,0,0:0:0:0:
256,192,98878,1,8,0:0:0:0:
256,192,99043,1,8,0:0:0:0:
256,192,99126,1,8,0:0:0:0:
256,192,99208,1,0,0:0:0:0:
256,192,99373,1,8,0:0:0:0:
256,192,99455,1,0,0:0:0:0:
256,192,99538,1,8,0:0:0:0:
256,192,99620,1,8,0:0:0:0:
256,192,99703,1,0,0:0:0:0:
256,192,99785,1,0,0:0:0:0:
256,192,99867,1,8,0:0:0:0:
256,192,99950,1,8,0:0:0:0:
256,192,100033,1,0,0:0:0:0:
256,192,100115,1,0,0:0:0:0:
256,192,100197,1,8,0:0:0:0:
256,192,100252,1,0,0:0:0:0:
256,192,100307,1,0,0:0:0:0:
256,192,100362,1,8,0:0:0:0:
256,192,100527,1,0,0:0:0:0:
256,192,100692,1,8,0:0:0:0:
256,192,100774,1,8,0:0:0:0:
256,192,100856,1,8,0:0:0:0:
256,192,101021,1,0,0:0:0:0:
256,192,101104,1,0,0:0:0:0:
256,192,101186,1,8,0:0:0:0:
256,192,101268,1,0,0:0:0:0:
256,192,101351,1,8,0:0:0:0:
256,192,101433,1,0,0:0:0:0:
256,192,101516,1,8,0:0:0:0:
256,192,101598,1,8,0:0:0:0:
256,192,101681,1,0,0:0:0:0:
256,192,101846,1,0,0:0:0:0:
256,192,102010,1,8,0:0:0:0:
256,192,102093,1,0,0:0:0:0:
256,192,102175,1,8,0:0:0:0:
256,192,102257,1,8,0:0:0:0:
256,192,102340,1,0,0:0:0:0:
256,192,102670,1,8,0:0:0:0:
256,192,102834,1,8,0:0:0:0:
256,192,102999,1,0,0:0:0:0:
256,192,103082,1,0,0:0:0:0:
256,192,103165,1,12,0:0:0:0:
256,192,103329,1,12,0:0:0:0:
256,192,103494,1,4,0:0:0:0:
256,192,103659,1,4,0:0:0:0:
256,192,103823,1,12,0:0:0:0:
256,192,103988,1,4,0:0:0:0:
256,192,104319,1,0,0:0:0:0:
256,192,104401,1,0,0:0:0:0:
256,192,104483,1,8,0:0:0:0:
256,192,104565,1,8,0:0:0:0:
256,192,104648,1,0,0:0:0:0:
256,192,104730,1,0,0:0:0:0:
256,192,104812,1,8,0:0:0:0:
256,192,104895,1,8,0:0:0:0:
256,192,104977,1,0,0:0:0:0:
256,192,105143,1,12,0:0:0:0:
256,192,105307,1,12,0:0:0:0:
256,192,105472,1,4,0:0:0:0:
256,192,105802,1,0,0:0:0:0:
256,192,105885,1,8,0:0:0:0:
256,192,105967,1,0,0:0:0:0:
256,192,106050,1,0,0:0:0:0:
256,192,106132,1,8,0:0:0:0:
256,192,106213,1,8,0:0:0:0:
256,192,106297,1,0,0:0:0:0:
256,192,106379,1,8,0:0:0:0:
256,192,106462,1,0,0:0:0:0:
256,192,106544,1,0,0:0:0:0:
256,192,106627,1,0,0:0:0:0:
256,192,106709,1,8,0:0:0:0:
256,192,106791,1,8,0:0:0:0:
256,192,106874,1,0,0:0:0:0:
256,192,106956,1,0,0:0:0:0:
256,192,107039,1,8,0:0:0:0:
256,192,107121,1,0,0:0:0:0:
256,192,107204,1,0,0:0:0:0:
256,192,107286,1,8,0:0:0:0:
256,192,107368,1,0,0:0:0:0:
256,192,107451,1,8,0:0:0:0:
256,192,107533,1,8,0:0:0:0:
256,192,107616,1,8,0:0:0:0:
256,192,107698,1,8,0:0:0:0:
256,192,107780,1,0,0:0:0:0:
256,192,107863,1,8,0:0:0:0:
256,192,107945,1,0,0:0:0:0:
256,192,108028,1,0,0:0:0:0:
256,192,108110,1,8,0:0:0:0:
256,192,108193,1,8,0:0:0:0:
256,192,108275,1,0,0:0:0:0:
256,192,108357,1,8,0:0:0:0:
256,192,108440,1,0,0:0:0:0:
256,192,108522,1,0,0:0:0:0:
256,192,108605,1,8,0:0:0:0:
256,192,108687,1,8,0:0:0:0:
256,192,108769,1,8,0:0:0:0:
256,192,108852,1,8,0:0:0:0:
256,192,108934,1,0,0:0:0:0:
256,192,109017,1,0,0:0:0:0:
256,192,109099,1,8,0:0:0:0:
256,192,109182,1,0,0:0:0:0:
256,192,109264,1,0,0:0:0:0:
256,192,109346,1,0,0:0:0:0:
256,192,109429,1,8,0:0:0:0:
256,192,109511,1,8,0:0:0:0:
256,192,109594,1,8,0:0:0:0:
256,192,109676,1,8,0:0:0:0:
256,192,109758,1,0,0:0:0:0:
256,192,109841,1,0,0:0:0:0:
256,192,109923,1,8,0:0:0:0:
256,192,110006,1,0,0:0:0:0:
256,192,110088,1,8,0:0:0:0:
256,192,110171,1,8,0:0:0:0:
256,192,110253,1,0,0:0:0:0:
256,192,110335,1,0,0:0:0:0:
256,192,110418,1,8,0:0:0:0:
256,192,110500,1,8,0:0:0:0:
256,192,110583,1,0,0:0:0:0:
256,192,110665,1,0,0:0:0:0:
256,192,110747,1,8,0:0:0:0:
256,192,110802,1,8,0:0:0:0:
256,192,110857,1,8,0:0:0:0:
256,192,110912,1,0,0:0:0:0:
256,192,111077,1,8,0:0:0:0:
256,192,111160,1,8,0:0:0:0:
256,192,111242,1,0,0:0:0:0:
256,192,111323,1,0,0:0:0:0:
256,192,111407,1,8,0:0:0:0:
256,192,111488,1,8,0:0:0:0:
256,192,111571,1,0,0:0:0:0:
256,192,111654,1,0,0:0:0:0:
256,192,111735,1,8,0:0:0:0:
256,192,111819,1,0,0:0:0:0:
256,192,111900,1,0,0:0:0:0:
256,192,111984,1,0,0:0:0:0:
256,192,112066,1,8,0:0:0:0:
256,192,112148,1,8,0:0:0:0:
256,192,112231,1,8,0:0:0:0:
256,192,112312,1,8,0:0:0:0:
256,192,112396,1,0,0:0:0:0:
256,192,112477,1,8,0:0:0:0:
256,192,112561,1,0,0:0:0:0:
256,192,112643,1,0,0:0:0:0:
256,192,112724,1,8,0:0:0:0:
256,192,112808,1,8,0:0:0:0:
256,192,112889,1,0,0:0:0:0:
256,192,112973,1,0,0:0:0:0:
256,192,113055,1,8,0:0:0:0:
256,192,113138,1,0,0:0:0:0:
256,192,113220,1,0,0:0:0:0:
256,192,113301,1,0,0:0:0:0:
256,192,113385,1,8,0:0:0:0:
256,192,113467,1,8,0:0:0:0:
256,192,113549,1,0,0:0:0:0:
256,192,113632,1,0,0:0:0:0:
256,192,113714,1,8,0:0:0:0:
256,192,113797,1,0,0:0:0:0:
256,192,113879,1,8,0:0:0:0:
256,192,113961,1,8,0:0:0:0:
256,192,114044,1,8,0:0:0:0:
256,192,114126,1,8,0:0:0:0:
256,192,114209,1,0,0:0:0:0:
256,192,114291,1,0,0:0:0:0:
256,192,114374,1,8,0:0:0:0:
256,192,114456,1,0,0:0:0:0:
256,192,114538,1,0,0:0:0:0:
256,192,114621,1,0,0:0:0:0:
256,192,114703,1,8,0:0:0:0:
256,192,114786,5,8,0:0:0:0:
256,192,114868,1,0,0:0:0:0:
256,192,114950,1,0,0:0:0:0:
256,192,115033,1,8,0:0:0:0:
256,192,115115,1,8,0:0:0:0:
256,192,115198,1,0,0:0:0:0:
256,192,115280,1,0,0:0:0:0:
256,192,115363,1,8,0:0:0:0:
256,192,115445,1,8,0:0:0:0:
256,192,115527,1,0,0:0:0:0:
256,192,115610,1,0,0:0:0:0:
256,192,115692,1,8,0:0:0:0:
256,192,115775,1,8,0:0:0:0:
256,192,115857,1,8,0:0:0:0:
256,192,115939,1,8,0:0:0:0:
256,192,116022,1,0,0:0:0:0:
256,192,116104,1,0,0:0:0:0:
256,192,116187,1,8,0:0:0:0:
256,192,116269,1,8,0:0:0:0:
256,192,116352,1,0,0:0:0:0:
256,192,116516,5,0,0:0:0:0:
256,192,116681,1,8,0:0:0:0:
256,192,116847,1,0,0:0:0:0:
256,192,117012,1,0,0:0:0:0:
256,192,117342,1,0,0:0:0:0:
256,192,117506,1,8,0:0:0:0:
256,192,117588,1,0,0:0:0:0:
256,192,117671,1,8,0:0:0:0:
256,192,117835,1,0,0:0:0:0:
256,192,118000,1,0,0:0:0:0:
256,192,118330,1,0,0:0:0:0:
256,192,118495,1,8,0:0:0:0:
256,192,118577,1,0,0:0:0:0:
256,192,118660,1,8,0:0:0:0:
256,192,118824,1,0,0:0:0:0:
256,192,118989,1,0,0:0:0:0:
256,192,119319,1,0,0:0:0:0:
256,192,119484,1,8,0:0:0:0:
256,192,119566,1,0,0:0:0:0:
256,192,119649,1,8,0:0:0:0:
256,192,119813,1,0,0:0:0:0:
256,192,119978,1,0,0:0:0:0:
256,192,120308,1,8,0:0:0:0:
256,192,120473,1,0,0:0:0:0:
256,192,120555,1,0,0:0:0:0:
256,192,120638,1,8,0:0:0:0:
256,192,120802,1,0,0:0:0:0:
256,192,120967,1,0,0:0:0:0:
256,192,121297,1,8,0:0:0:0:
256,192,121462,1,0,0:0:0:0:
256,192,121544,1,0,0:0:0:0:
256,192,121627,1,8,0:0:0:0:
256,192,121791,1,0,0:0:0:0:
256,192,121956,1,0,0:0:0:0:
256,192,122286,1,8,0:0:0:0:
256,192,122451,1,0,0:0:0:0:
256,192,122533,1,0,0:0:0:0:
256,192,122616,1,8,0:0:0:0:
256,192,122780,1,0,0:0:0:0:
256,192,122945,1,0,0:0:0:0:
256,192,123275,1,8,0:0:0:0:
256,192,123440,1,0,0:0:0:0:
256,192,123522,1,0,0:0:0:0:
256,192,123605,1,8,0:0:0:0:
256,192,123769,1,0,0:0:0:0:
256,192,123934,1,0,0:0:0:0:
256,192,124264,1,0,0:0:0:0:
256,192,124429,1,8,0:0:0:0:
256,192,124511,1,0,0:0:0:0:
256,192,124594,1,8,0:0:0:0:
256,192,124758,1,0,0:0:0:0:
256,192,124923,1,0,0:0:0:0:
256,192,125253,1,0,0:0:0:0:
256,192,125418,1,8,0:0:0:0:
256,192,125500,1,0,0:0:0:0:
256,192,125583,1,8,0:0:0:0:
256,192,125747,1,0,0:0:0:0:
256,192,125912,1,0,0:0:0:0:
256,192,126242,1,8,0:0:0:0:
256,192,126407,1,0,0:0:0:0:
256,192,126489,1,0,0:0:0:0:
256,192,126572,1,8,0:0:0:0:
256,192,126736,1,0,0:0:0:0:
256,192,126901,1,0,0:0:0:0:
256,192,127231,1,8,0:0:0:0:
256,192,127396,1,0,0:0:0:0:
256,192,127478,1,0,0:0:0:0:
256,192,127561,1,8,0:0:0:0:
256,192,127725,1,0,0:0:0:0:
256,192,127890,1,0,0:0:0:0:
256,192,128220,1,8,0:0:0:0:
256,192,128385,1,0,0:0:0:0:
256,192,128467,1,0,0:0:0:0:
256,192,128550,1,8,0:0:0:0:
256,192,128714,1,0,0:0:0:0:
256,192,128879,1,0,0:0:0:0:
256,192,129209,1,8,0:0:0:0:
256,192,129374,1,0,0:0:0:0:
256,192,129456,1,0,0:0:0:0:
256,192,129539,1,8,0:0:0:0:
256,192,129703,1,0,0:0:0:0:
256,192,129868,1,0,0:0:0:0:
256,192,130198,1,8,0:0:0:0:
256,192,130363,1,0,0:0:0:0:
256,192,130445,1,0,0:0:0:0:
256,192,130528,1,8,0:0:0:0:
256,192,130693,1,0,0:0:0:0:
256,192,130857,1,0,0:0:0:0:
256,192,130940,1,0,0:0:0:0:
256,192,131022,1,0,0:0:0:0:
256,192,131209,1,8,0:0:0:0:
256,192,131402,1,8,0:0:0:0:
256,192,131576,1,0,0:0:0:0:
256,192,131782,1,0,0:0:0:0:
256,192,132062,1,8,0:0:0:0:
256,192,132471,1,0,0:0:0:0:
256,192,132818,1,0,0:0:0:0:
256,192,132883,1,8,0:0:0:0:
