osu file format v14

[General]
AudioFilename: audio.mp3
AudioLeadIn: 0
PreviewTime: 23076
Countdown: 0
SampleSet: Soft
StackLeniency: 0.7
Mode: 0
LetterboxInBreaks: 0
WidescreenStoryboard: 1

[Editor]
Bookmarks: 809,11971,23134,45460,67785,78948,90111,112436,134762,157088
DistanceSpacing: 1.6
BeatDivisor: 4
GridSize: 16
TimelineZoom: 1.399999

[Metadata]
Title:Mole
TitleUnicode:Mole
Artist:VeetaCrush
ArtistUnicode:VeetaCrush
Creator:JeZag
Version:Normal
Source:
Tags:Future Challenge 2 Diverse Direct DVSP-0254 bass dance EDM Electronic Instrumental NM4 no mod tech NCT Neko's Club Tournament oriental ancul Kyutei Anya Melfissa Shingyouji Yuni
BeatmapID:3436087
BeatmapSetID:1574603

[Difficulty]
HPDrainRate:3
CircleSize:3.3
OverallDifficulty:4
ApproachRate:5
SliderMultiplier:1
SliderTickRate:1

[Events]
//Background and Video events
0,0,"7d9d0490d8dfd7786fb9972de0e47d7314c4bba9.jpg",0,0
//Break Periods
2,67985,77748
//Storyboard Layer 0 (Background)
//Storyboard Layer 1 (Fail)
//Storyboard Layer 2 (Pass)
//Storyboard Layer 3 (Foreground)
//Storyboard Layer 4 (Overlay)
//Storyboard Sound Samples

[TimingPoints]
809,348.837209302326,4,2,1,80,1,0
11971,-125,4,2,1,50,0,0
23134,-100,4,2,1,70,0,0
45460,-90.9090909090909,4,2,1,90,0,1
67785,-125,4,2,1,50,0,0
90111,-111.111111111111,4,2,1,60,0,0
112436,-100,4,2,1,80,0,0
134762,-90.9090909090909,4,2,1,90,0,1
157088,-90.9090909090909,4,2,1,80,0,0

[Colours]
Combo1 : 255,132,197
Combo2 : 255,221,222

[HitObjects]
180,81,11971,6,0,B|90:73|90:73|57:41,2,120,2|2|2,3:2|3:2|3:2,0:0:0:0:
212,57,13192,1,0,3:2:0:0:
357,154,14762,6,0,B|446:146|446:146|479:114,2,120,2|2|2,3:2|3:2|3:2,0:0:0:0:
149,247,17553,6,0,B|59:239|59:239|26:207,2,120,2|2|2,3:2|3:2|3:2,0:0:0:0:
181,223,18774,1,2,3:2:0:0:
339,327,20168,5,0,3:2:0:0:
371,350,20343,2,0,B|460:342|460:342|482:321,2,120,2|2|2,3:2|3:2|3:2,0:0:0:0:
339,327,21564,2,0,L|273:309,1,40
261,246,22088,1,2,0:2:0:0:
317,189,22436,1,8,0:2:0:0:
493,94,23134,5,4,1:2:0:0:
465,190,23483,2,0,L|418:175,1,50,2|2,0:2|0:2,0:0:0:0:
386,135,23832,1,8,3:2:0:0:
303,88,24181,1,4,3:3:0:0:
303,88,24355,2,0,B|276:204|276:204|266:241|211:254|191:208,1,200,2|2,1:2|0:2,0:0:0:0:
182,192,25227,2,0,L|171:63,1,100,8|0,3:2|0:0,0:0:0:0:
79,56,25925,5,0,1:0:0:0:
14,132,26274,1,0,3:0:0:0:
41,228,26622,2,0,L|104:243,1,50,8|0,0:0|0:0,0:0:0:0:
129,279,26971,1,0,3:2:0:0:
129,279,27146,2,0,B|232:246|232:246|265:238|300:274|273:310,1,200,0|2,1:2|0:2,0:0:0:0:
306,344,28018,2,0,L|421:365,1,100,8|0,0:0|0:0,0:0:0:0:
484,301,28715,5,6,1:2:0:0:
433,214,29064,2,0,L|452:139,1,50,0|2,3:2|0:2,0:0:0:0:
459,117,29413,1,8,0:2:0:0:
402,41,29762,1,4,3:3:0:0:
402,40,29936,2,0,B|291:63|291:63|264:68|247:89|255:123|287:134,1,200,2|2,1:2|0:2,0:0:0:0:
322,141,30809,1,8,0:2:0:0:
420,155,31157,1,0,3:2:0:0:
442,250,31506,6,0,L|302:267,1,100,0|2,1:0|1:2,0:0:0:0:
289,346,32204,1,8,0:2:0:0:
209,294,32553,1,4,3:3:0:0:
209,294,32727,1,0,1:2:0:0:
109,297,33076,2,0,P|98:322|92:380,1,50,2|0,0:3|1:2,0:0:0:0:
56,378,33425,1,0,3:2:0:0:
56,378,33599,2,0,L|43:171,1,200,8|4,0:2|3:2,0:0:0:0:
110,43,34820,6,0,P|123:37|157:45,1,50,2|8,0:2|0:2,0:0:0:0:
195,77,35169,1,2,3:2:0:0:
255,163,35518,1,0,1:2:0:0:
255,163,35692,2,0,L|379:152,1,100,2|2,3:2|0:2,0:0:0:0:
402,140,36215,1,2,0:2:0:0:
443,111,36390,2,0,P|353:30|263:5,1,200,10|0,0:2|1:2,0:0:0:0:
208,77,37436,6,0,L|125:92,2,50,0|0|8,1:2|3:2|3:2,0:0:0:0:
308,110,38134,1,4,0:3:0:0:
307,110,38309,2,0,B|284:218|284:218|279:244|259:261|225:253|215:221,1,200,0|2,1:2|0:2,0:0:0:0:
187,190,39181,2,0,P|135:160|88:158,1,100,8|0,3:2|3:2,3:0:0:0:
62,251,39878,6,0,P|113:280|161:283,1,100,0|0,1:2|3:2,3:0:0:0:
244,325,40576,2,0,L|287:391,2,50,8|0|4,0:2|3:2|1:3,0:0:0:0:
244,274,41099,2,0,B|269:154|269:154|275:124|298:106|335:115|346:150,1,200,2|2,1:2|0:2,0:0:0:0:
366,155,41971,2,0,L|449:140,2,50,10|2|0,0:2|3:2|0:0,0:0:0:0:
343,252,42669,6,0,P|379:287|431:297,1,100,0|0,1:2|1:2,0:0:0:0:
486,216,43367,1,8,0:2:0:0:
503,121,43715,1,4,0:3:0:0:
503,121,43890,2,0,L|371:141,1,100,0|0,1:0|3:0,0:0:0:0:
354,142,44413,1,0,1:0:0:0:
266,184,44762,2,0,P|186:144|145:78,1,150,8|0,0:2|3:2,0:0:0:0:
102,72,45460,5,4,1:2:0:0:
36,160,45809,1,8,1:2:0:0:
111,247,46157,1,8,0:1:0:0:
111,247,46332,1,8,1:2:0:0:
67,350,46681,1,0,3:3:0:0:
67,350,46855,2,0,P|137:353|187:386,1,110.000003356934,12|0,1:2|0:2,0:0:0:0:
222,347,47378,1,8,1:2:0:0:
222,347,47553,2,0,P|273:360|310:390,2,55.0000016784668,8|0|0,0:1|3:2|0:0,0:0:0:0:
193,299,48076,1,0,0:0:0:0:
200,244,48250,5,12,1:2:0:0:
304,210,48599,1,8,1:2:0:0:
284,106,48948,1,8,0:1:0:0:
284,106,49122,1,8,1:2:0:0:
374,41,49471,1,0,3:2:0:0:
374,41,49646,2,0,P|442:63|493:66,1,110.000003356934,12|0,1:2|3:2,3:0:0:0:
507,120,50169,1,8,1:2:0:0:
507,120,50343,2,0,P|514:146|508:183,2,55.0000016784668,10|2|0,0:0|0:2|3:0,0:0:0:0:
398,138,51041,5,12,1:2:0:0:
429,243,51390,1,8,1:2:0:0:
332,291,51739,1,8,0:1:0:0:
332,291,51913,1,8,1:2:0:0:
282,197,52262,1,0,3:2:0:0:
282,197,52437,2,0,P|238:139|220:86,1,110.000003356934,12|0,1:2|0:2,3:0:0:0:
255,60,52960,1,8,1:2:0:0:
255,60,53134,2,0,P|245:-3|256:-32,2,55.0000016784668,8|0|0,0:1|0:3|3:0,3:0:0:0:
146,7,53832,5,14,1:2:0:0:
44,48,54181,1,10,1:2:0:0:
111,141,54529,1,8,0:1:0:0:
111,141,54704,2,0,P|147:123|161:87,1,55.0000016784668,10|2,1:2|0:2,3:0:0:0:
167,57,55053,1,2,0:3:0:0:
146,7,55227,2,0,L|126:233,1,220.000006713867,12|8,1:2|0:1,0:0:0:0:
201,307,56274,2,0,L|283:286,1,55.0000016784668,2|0,0:0|0:0,0:0:0:0:
312,280,56622,5,0,1:2:0:0:
312,280,56797,1,12,0:2:0:0:
392,352,57146,1,8,0:2:0:0:
487,295,57495,1,0,0:0:0:0:
487,295,57669,1,8,0:2:0:0:
451,196,58018,1,0,1:2:0:0:
451,196,58192,2,0,P|390:227|318:223,1,110.000003356934,12|0,0:2|1:2,0:0:0:0:
295,218,58715,1,8,3:1:0:0:
271,110,59064,2,0,L|347:126,1,55.0000016784668,0|0,3:2|3:2,0:0:0:0:
362,81,59413,5,0,1:2:0:0:
362,81,59588,2,0,L|501:108,1,110.000003356934,12|8,0:2|0:2,0:0:0:0:
503,206,60285,2,0,L|470:350,1,110.000003356934,0|4,1:2|3:3,0:0:0:0:
435,346,60809,1,0,1:2:0:0:
435,346,60983,2,0,P|362:338|331:272,1,110.000003356934,12|0,0:2|1:2,0:0:0:0:
301,274,61506,2,0,P|240:255|187:285,1,110.000003356934,8|2,0:1|1:2,0:0:0:0:
121,350,62204,5,0,1:2:0:0:
121,350,62378,1,12,0:2:0:0:
69,252,62727,1,8,0:2:0:0:
154,181,63076,1,0,1:2:0:0:
154,181,63250,1,8,0:2:0:0:
168,72,63599,1,0,1:2:0:0:
168,72,63774,2,0,P|95:47|37:70,1,110.000003356934,12|0,0:2|1:2,0:0:0:0:
38,101,64297,1,8,0:1:0:0:
49,210,64646,1,0,3:2:0:0:
145,273,64995,5,0,1:2:0:0:
145,273,65169,2,0,L|270:258,1,110.000003356934,12|8,0:2|0:2,0:0:0:0:
288,216,65692,2,0,L|364:207,1,55.0000016784668,8|0,0:1|1:2,0:0:0:0:
389,237,66041,2,0,L|398:314,1,55.0000016784668,8|0,0:2|1:2,0:0:0:0:
416,342,66390,6,0,L|290:326,1,110.000003356934,4|4,0:2|0:2,0:0:0:0:
198,351,67088,2,0,L|238:127,1,220.000006713867,4|2,0:2|0:2,0:0:0:0:
363,56,78948,6,0,P|439:49|496:117,2,160,4|2|2,0:2|0:2|0:2,0:0:0:0:
332,81,80518,2,0,L|190:45,1,120,2|0,0:2|0:2,0:0:0:0:
180,70,81215,2,0,L|141:214,1,120,2|0,0:2|0:2,0:0:0:0:
247,311,82436,5,2,0:2:0:0:
320,342,82785,1,2,0:2:0:0:
374,282,83134,2,0,L|349:184,1,80,2|0,3:2|0:2,0:0:0:0:
343,165,83657,1,0,3:0:0:0:
356,86,84006,2,0,L|471:118,1,120,2|0,0:2|0:2,0:0:0:0:
465,278,85227,5,2,0:2:0:0:
392,240,85576,1,2,0:2:0:0:
327,287,85925,1,2,0:2:0:0:
252,258,86274,1,2,0:2:0:0:
195,313,86622,2,0,P|150:328|113:329,1,80,2|2,0:2|0:2,0:0:0:0:
50,286,87320,6,0,L|54:173,1,80,2|2,0:2|0:2,0:0:0:0:
70,127,88018,1,2,0:2:0:0:
135,81,88367,1,2,0:2:0:0:
200,126,88715,2,0,L|217:301,2,160,2|0|12,3:2|3:2|0:2,0:0:0:0:
257,56,90460,5,8,0:2:0:0:
347,55,90809,1,8,0:2:0:0:
436,53,91157,1,10,0:2:0:0:
439,142,91506,1,8,0:2:0:0:
441,232,91855,1,8,0:2:0:0:
445,321,92204,1,8,0:2:0:0:
354,321,92553,1,8,0:2:0:0:
263,319,92902,1,8,0:2:0:0:
173,319,93250,1,10,0:2:0:0:
82,317,93599,1,10,0:2:0:0:
80,226,93948,1,8,0:2:0:0:
76,136,94297,1,8,0:2:0:0:
76,45,94646,6,0,P|139:54|167:105,1,89.9999972534181,12|8,0:2|0:2,0:0:0:0:
183,106,95169,2,0,P|227:106|262:80,1,89.9999972534181,12|8,0:2|0:2,0:0:0:0:
288,42,95692,5,12,0:2:0:0:
378,39,96041,1,8,0:2:0:0:
379,129,96390,1,8,0:2:0:0:
380,219,96739,1,10,0:2:0:0:
380,309,97088,1,8,0:2:0:0:
290,308,97436,1,8,0:2:0:0:
199,308,97785,1,8,0:2:0:0:
109,304,98133,1,8,0:2:0:0:
110,213,98483,1,8,0:2:0:0:
109,122,98832,1,10,0:2:0:0:
199,122,99181,1,10,0:2:0:0:
289,119,99530,1,8,0:2:0:0:
291,208,99878,1,8,0:2:0:0:
201,211,100227,6,0,P|184:160|196:123,1,89.9999972534181,12|8,0:2|0:2,0:0:0:0:
151,110,100750,2,0,P|160:66|143:25,1,89.9999972534181,12|0,0:2|0:2,0:0:0:0:
99,14,101274,5,12,0:2:0:0:
58,93,101622,1,8,0:2:0:0:
98,173,101971,1,8,0:2:0:0:
67,257,102320,1,10,0:2:0:0:
117,331,102669,5,8,0:1:0:0:
154,249,103018,1,8,0:2:0:0:
108,171,103367,1,10,0:2:0:0:
128,83,103715,1,8,0:2:0:0:
213,53,104064,6,0,L|377:68,2,134.999995880127,12|0|8,0:2|1:2|1:2,0:0:0:0:
155,122,105459,5,8,0:1:0:0:
206,195,105809,1,8,0:2:0:0:
172,278,106157,1,10,0:2:0:0:
211,358,106506,1,8,1:2:0:0:
300,345,106855,6,0,L|320:248,1,89.9999972534181,12|8,1:2|1:2,0:0:0:0:
297,168,107553,2,0,L|317:71,1,89.9999972534181,12|8,1:2|1:2,0:0:0:0:
395,39,108250,6,0,L|445:48,1,44.999998626709,8|0,1:2|3:2,0:0:0:0:
470,79,108599,2,0,L|461:129,1,44.999998626709,8|0,1:2|3:2,0:0:0:0:
423,146,108948,2,0,L|410:222,1,44.999998626709,12|8,1:2|0:2,0:0:0:0:
442,226,109297,2,0,L|433:276,1,44.999998626709,8|0,1:2|3:2,0:0:0:0:
404,304,109646,1,0,1:2:0:0:
56,86,112436,6,0,L|130:73,1,50,4|0,0:0|0:0,0:0:0:0:
147,103,112785,2,0,L|160:177,1,50,0|0,3:0|3:0,0:0:0:0:
118,185,113134,2,0,L|105:273,1,75,8|0,1:2|1:0,0:0:0:0:
196,346,113832,2,0,L|270:356,1,75,8|0,1:2|1:0,0:0:0:0:
382,302,114529,2,0,L|412:95,1,200,8|0,1:2|1:0,0:0:0:0:
353,21,115576,5,0,1:0:0:0:
273,81,115925,1,8,0:0:0:0:
173,66,116274,1,0,3:0:0:0:
173,66,116448,2,0,L|209:219,1,150,0|0,1:0|1:0,0:0:0:0:
131,277,117320,1,2,0:3:0:0:
65,201,117669,2,0,L|75:138,1,50,0|0,3:0|3:0,0:0:0:0:
106,114,118018,6,0,L|262:135,1,150,0|0,1:0|0:0,0:0:0:0:
265,85,118715,2,0,L|355:63,1,75,8|0,1:2|1:0,0:0:0:0:
430,150,119413,2,0,L|452:240,1,75,8|0,1:2|1:0,0:0:0:0:
383,330,120111,1,2,0:3:0:0:
289,294,120460,2,0,L|231:292,1,50,0|0,3:0|3:0,3:0:0:0:
203,327,120809,6,0,L|83:337,1,100,0|0,1:0|1:0,0:0:0:0:
44,254,121506,1,2,0:3:0:0:
90,167,121855,1,0,3:0:0:0:
90,167,122029,2,0,B|259:155,1,150,0|0,1:0|1:0,0:0:0:0:
289,69,122902,1,2,0:3:0:0:
213,3,123250,1,0,3:0:0:0:
133,63,123599,5,2,0:0:0:0:
88,257,124297,2,0,L|162:267,1,75,8|0,1:2|1:0,0:0:0:0:
272,208,124995,2,0,L|261:133,1,75,8|0,1:2|1:0,0:0:0:0:
370,73,125692,2,0,P|354:193|362:282,1,200,2|0,0:0|1:0,0:0:0:0:
448,319,126739,5,0,1:0:0:0:
508,239,127088,2,0,L|503:176,1,50,8|0,0:0|0:0,0:0:0:0:
471,158,127436,1,0,3:0:0:0:
471,158,127611,2,0,L|313:151,1,150,0|0,1:0|1:0,0:0:0:0:
232,198,128483,1,2,0:3:0:0:
261,293,128832,1,0,3:0:0:0:
187,360,129181,6,0,L|31:322,1,150,0|0,1:0|0:0,0:0:0:0:
18,280,129878,2,0,L|8:189,1,75,8|0,1:2|1:0,0:0:0:0:
129,168,130576,2,0,L|119:77,1,75,8|0,1:2|1:0,0:0:0:0:
223,21,131274,1,2,0:3:0:0:
289,95,131622,2,0,L|296:155,1,50,0|0,3:0|3:0,3:0:0:0:
313,191,131971,6,0,L|203:191,1,100,0|0,1:0|1:0,0:0:0:0:
119,228,132669,1,8,0:0:0:0:
50,155,133018,1,0,1:0:0:0:
50,155,133192,2,0,P|43:121|71:63,1,100,0|0,1:0|0:0,0:0:0:0:
116,44,133715,1,0,1:0:0:0:
215,47,134064,2,0,L|189:173,1,100,2|0,0:3|0:0,0:0:0:0:
185,194,134588,1,0,0:0:0:0:
182,249,134762,6,2,P|244:298|396:308,1,220.000006713867,4|0,1:2|0:0,0:1:0:0:
424,279,135634,2,0,L|447:187,1,55.0000016784668,0|0,1:0|0:0,0:0:0:0:
448,174,135983,1,0,3:0:0:0:
448,174,136157,2,0,P|391:134|266:138,1,165.000005035401,0|8,1:0|1:2,0:0:0:0:
256,160,136855,1,8,0:1:0:0:
176,80,137204,1,0,3:2:0:0:
71,114,137553,6,2,P|42:241|64:339,1,220.000006713867,12|0,1:2|3:0,3:1:0:0:
104,359,138425,2,0,L|189:338,1,55.0000016784668,0|0,1:0|0:0,0:0:0:0:
207,319,138774,1,0,3:0:0:0:
207,319,138948,2,0,P|235:229|220:134,1,165.000005035401,0|8,1:2|1:2,0:0:0:0:
247,107,139646,1,8,0:1:0:0:
340,49,139995,1,2,0:2:0:0:
434,105,140343,6,2,P|436:234|371:324,1,220.000006713867,12|8,1:2|3:1,0:1:0:0:
344,339,141215,2,0,L|326:283,1,55.0000016784668,10|2,1:2|0:2,0:0:0:0:
301,237,141564,6,2,P|167:144|72:137,1,220.000006713867,2|0,0:2|3:1,0:1:0:0:
59,142,142436,1,8,0:1:0:0:
2,228,142785,2,0,L|14:286,1,55.0000016784668,0|0,3:2|3:2,0:0:0:0:
53,319,143134,6,0,P|132:315|189:277,1,110.000003356934,4|10,1:2|1:2,0:0:0:0:
174,196,143832,1,8,0:1:0:0:
174,196,144006,2,0,P|243:158|278:155,1,110.000003356934,10|2,1:2|3:3,0:0:0:0:
324,136,144529,2,0,L|310:276,1,110.000003356934,8|0,1:2|0:2,0:0:0:0:
302,355,145227,2,0,L|237:341,1,55.0000016784668,8|2,0:1|0:2,0:0:0:0:
195,326,145576,2,0,L|211:253,1,55.0000016784668,2|2,0:2|0:2,0:0:0:0:
221,222,145925,5,0,1:2:0:0:
221,222,146099,1,12,0:2:0:0:
175,121,146448,1,8,0:2:0:0:
125,28,146797,1,0,3:0:0:0:
125,28,146971,2,0,L|55:6,1,55.0000016784668,8|4,0:2|3:3,0:0:0:0:
32,47,147320,5,0,1:2:0:0:
32,47,147495,2,0,P|34:119|73:185,1,110.000003356934,12|0,0:2|0:0,0:0:0:0:
93,184,148018,1,8,0:1:0:0:
181,119,148367,1,0,3:2:0:0:
275,62,148715,6,0,L|300:6,2,55.0000016784668,2|12|0,1:1|0:2|1:2,0:0:0:0:
303,109,149239,1,8,0:2:0:0:
392,173,149588,2,0,L|448:155,1,55.0000016784668,0|8,1:2|0:2,0:0:0:0:
441,101,149936,2,2,P|406:225|449:330,1,220.000006713867,2|0,3:2|0:0,0:1:0:0:
404,355,150809,2,0,L|340:350,1,55.0000016784668,8|0,0:1|0:0,0:0:0:0:
294,342,151157,1,0,3:0:0:0:
238,253,151506,5,0,1:2:0:0:
238,253,151681,1,12,0:2:0:0:
155,325,152029,1,8,0:2:0:0:
62,264,152378,2,2,P|85:130|123:91,1,165.000005035401,4|0,3:3|1:2,0:1:0:0:
142,74,153076,2,0,P|76:29|17:38,1,110.000003356934,12|0,0:2|1:2,0:0:0:0:
5,64,153599,1,8,0:1:0:0:
13,173,153948,2,0,P|59:166|76:150,1,55.0000016784668,0|2,3:0|0:3,0:0:0:0:
112,176,154297,6,2,L|320:205,1,165.000005035401,0|2,1:2|0:2,0:1:0:0:
319,164,154995,2,0,P|369:184|377:209,1,55.0000016784668,8|2,0:1|1:2,0:0:0:0:
419,165,155343,2,8,P|435:216|421:238,1,55.0000016784668,8|10,0:1|1:2,0:0:0:0:
451,266,155692,6,0,L|311:281,1,110.000003356934,4|4,1:2|0:2,0:0:0:0:
238,317,156390,2,0,L|219:73,1,220.000006713867,4|2,0:2|0:2,0:0:0:0:
