osu file format v14

[General]
AudioFilename: audio.mp3
AudioLeadIn: 0
PreviewTime: 23076
Countdown: 0
SampleSet: Soft
StackLeniency: 0
Mode: 0
LetterboxInBreaks: 0
WidescreenStoryboard: 1

[Editor]
Bookmarks: 809,23134,45460,56361,67785,90111,112436,134762,157088
DistanceSpacing: 1.3
BeatDivisor: 8
GridSize: 32
TimelineZoom: 3.599998

[Metadata]
Title:Mole
TitleUnicode:Mole
Artist:VeetaCrush
ArtistUnicode:VeetaCrush
Creator:JeZag
Version:Kyutei's Insane
Source:
Tags:Future Challenge 2 Diverse Direct DVSP-0254 bass dance EDM Electronic Instrumental NM4 no mod tech NCT Neko's Club Tournament oriental ancul Kyutei Anya Melfissa Shingyouji Yuni
BeatmapID:3291796
BeatmapSetID:1574603

[Difficulty]
HPDrainRate:5.2
CircleSize:3.8
OverallDifficulty:8.6
ApproachRate:9
SliderMultiplier:1.6
SliderTickRate:1

[Events]
//Background and Video events
0,0,"7d9d0490d8dfd7786fb9972de0e47d7314c4bba9.jpg",0,0
//Break Periods
2,67985,78348
//Storyboard Layer 0 (Background)
//Storyboard Layer 1 (Fail)
//Storyboard Layer 2 (Pass)
//Storyboard Layer 3 (Foreground)
//Storyboard Layer 4 (Overlay)
//Storyboard Sound Samples

[TimingPoints]
809,348.837209302326,4,2,1,50,1,0
11971,-100,4,2,1,50,0,0
13192,-62.5,4,2,1,50,0,0
13715,-100,4,2,1,50,0,0
14064,-125,4,2,1,50,0,0
14413,-166.666666666667,4,2,1,50,0,0
14762,-100,4,2,1,50,0,0
15809,-76.9230769230769,4,2,1,50,0,0
17553,-100,4,2,1,50,0,0
18774,-62.5,4,2,1,50,0,0
19297,-71.4285714285714,4,2,1,50,0,0
19646,-83.3333333333333,4,2,1,50,0,0
19995,-100,4,2,1,50,0,0
20343,-100,4,2,1,50,0,0
21390,-55.5555555555556,4,2,1,50,0,0
23134,-55.5555555555556,4,2,1,70,0,0
23832,-41.6666666666667,4,2,1,70,0,0
24529,-45.4545454545455,4,2,1,70,0,0
25402,-62.5,4,2,1,70,0,0
26622,-41.6666666666667,4,2,1,70,0,0
27146,-45.4545454545455,4,2,1,70,0,0
28018,-100,4,2,1,70,0,0
28715,-55.5555555555556,4,2,1,70,0,0
29064,-100,4,2,1,70,0,0
29413,-71.4285714285714,4,2,1,70,0,0
30111,-41.6666666666667,4,2,1,70,0,0
30809,-41.6666666666667,4,2,1,70,0,0
31506,-50,4,2,1,70,0,0
31855,-62.5,4,2,1,70,0,0
32204,-100,4,2,1,70,0,0
33076,-45.4545454545455,4,2,1,70,0,0
33599,-90.9090909090909,4,2,1,70,0,0
34297,-38.4615384615385,4,2,1,70,0,0
34995,-62.5,4,2,1,70,0,0
35692,-55.5555555555556,4,2,1,70,0,0
36390,-41.6666666666667,4,2,1,70,0,0
37262,-83.3333333333333,4,2,1,70,0,0
38483,-45.4545454545455,4,2,1,70,0,0
39529,-62.5,4,2,1,70,0,0
40576,-41.6666666666667,4,2,1,70,0,0
40925,-142.857142857143,4,2,1,70,0,0
41274,-55.5555555555556,4,2,1,70,0,0
41971,-41.6666666666667,4,2,1,70,0,0
43367,-250,4,2,1,70,0,0
43715,-62.5,4,2,1,70,0,0
45111,-100,4,2,1,70,0,0
45460,-55.5555555555556,4,2,1,90,0,1
46332,-71.4285714285714,4,2,1,90,0,1
46855,-55.5555555555556,4,2,1,90,0,1
47553,-100,4,2,1,90,0,1
47902,-62.5,4,2,1,90,0,1
48250,-55.5555555555556,4,2,1,90,0,1
49122,-71.4285714285714,4,2,1,90,0,1
49646,-55.5555555555556,4,2,1,90,0,1
50169,-62.5,4,2,1,90,0,1
50692,-100,4,2,1,90,0,1
51041,-55.5555555555556,4,2,1,90,0,1
51913,-71.4285714285714,4,2,1,90,0,1
52436,-55.5555555555556,4,2,1,90,0,1
53134,-100,4,2,1,90,0,1
53483,-62.5,4,2,1,90,0,1
53831,-55.5555555555556,4,2,1,90,0,1
55227,-35.7142857142857,4,2,1,90,0,1
55750,-62.5,4,2,1,90,0,1
55925,-50,4,2,1,90,0,1
56273,-100,4,2,1,90,0,1
56797,-55.5555555555556,4,2,1,90,0,1
57146,-62.5,4,2,1,90,0,1
57669,-62.5,4,2,1,90,0,1
58018,-45.4545454545455,4,2,1,90,0,1
58192,-41.6666666666667,4,2,1,90,0,1
58715,-83.3333333333333,4,2,1,90,0,1
59064,-50,4,2,1,90,0,1
59588,-55.5555555555556,4,2,1,90,0,1
59936,-62.5,4,2,1,90,0,1
60285,-35.7142857142857,4,2,1,90,0,1
60460,-62.5,4,2,1,90,0,1
60809,-45.4545454545455,4,2,1,90,0,1
60983,-41.6666666666667,4,2,1,90,0,1
61506,-83.3333333333333,4,2,1,90,0,1
61855,-50,4,2,1,90,0,1
62902,-100,4,2,1,90,0,1
63599,-66.6666666666667,4,2,1,90,0,1
64297,-33.3333333333333,4,2,1,90,0,1
64471,-66.6666666666667,4,2,1,90,0,1
66390,-250,4,2,1,50,0,0
67436,-100,4,2,1,50,0,0
67698,-100,4,2,1,5,0,0
67785,-100,4,2,1,50,0,0
78948,-125,4,2,1,50,0,0
80343,-62.5,4,2,1,50,0,0
81215,-166.666666666667,4,2,1,50,0,0
83715,-100,4,2,1,50,0,0
84442,-100,4,2,1,5,0,0
84529,-100,4,2,1,50,0,0
90111,-83.3333333333333,4,2,1,70,0,0
94646,-166.666666666667,4,2,1,70,0,0
95169,-83.3333333333333,4,2,1,70,0,0
95692,-33.3333333333333,4,2,1,70,0,0
96041,-83.3333333333333,4,2,1,70,0,0
100227,-166.666666666667,4,2,1,70,0,0
100750,-83.3333333333333,4,2,1,70,0,0
101273,-33.3333333333333,4,2,1,70,0,0
101622,-83.3333333333333,4,2,1,70,0,0
107204,-125,4,2,1,70,0,0
111390,-76.9230769230769,4,2,1,70,0,0
111739,-100,4,2,1,70,0,0
112088,-200,4,2,1,70,0,0
112436,-50,4,2,1,80,0,0
112785,-35.7142857142857,4,2,1,80,0,0
114529,-38.4615384615385,4,2,1,80,0,0
115402,-38.4615384615385,4,2,1,80,0,0
117320,-100,4,2,1,80,0,0
118018,-71.4285714285714,4,2,1,80,0,0
120809,-100,4,2,1,80,0,0
122029,-62.5,4,2,1,80,0,0
123250,-100,4,2,1,80,0,0
126041,-71.4285714285714,4,2,1,80,0,0
126564,-38.4615384615385,4,2,1,80,0,0
128483,-100,4,2,1,80,0,0
129181,-71.4285714285714,4,2,1,80,0,0
131274,-50,4,2,1,80,0,0
131971,-41.6666666666667,4,2,1,80,0,0
132669,-250,4,2,1,80,0,0
133017,-62.5,4,2,1,80,0,0
134413,-100,4,2,1,80,0,0
134762,-55.5555555555556,4,2,1,90,0,1
135634,-71.4285714285714,4,2,1,90,0,1
136157,-55.5555555555556,4,2,1,90,0,1
136855,-100,4,2,1,90,0,1
137204,-62.5,4,2,1,90,0,1
137552,-55.5555555555556,4,2,1,90,0,1
138424,-71.4285714285714,4,2,1,90,0,1
138948,-55.5555555555556,4,2,1,90,0,1
139471,-62.5,4,2,1,90,0,1
139994,-100,4,2,1,90,0,1
140343,-55.5555555555556,4,2,1,90,0,1
141215,-71.4285714285714,4,2,1,90,0,1
141738,-55.5555555555556,4,2,1,90,0,1
142436,-100,4,2,1,90,0,1
142785,-62.5,4,2,1,90,0,1
143133,-55.5555555555556,4,2,1,90,0,1
144529,-35.7142857142857,4,2,1,90,0,1
145052,-62.5,4,2,1,90,0,1
145227,-50,4,2,1,90,0,1
145575,-100,4,2,1,90,0,1
146099,-55.5555555555556,4,2,1,90,0,1
146448,-62.5,4,2,1,90,0,1
146971,-62.5,4,2,1,90,0,1
147320,-45.4545454545455,4,2,1,90,0,1
147494,-41.6666666666667,4,2,1,90,0,1
148017,-83.3333333333333,4,2,1,90,0,1
148366,-50,4,2,1,90,0,1
148890,-55.5555555555556,4,2,1,90,0,1
149238,-62.5,4,2,1,90,0,1
149587,-35.7142857142857,4,2,1,90,0,1
149762,-62.5,4,2,1,90,0,1
150111,-45.4545454545455,4,2,1,90,0,1
150285,-41.6666666666667,4,2,1,90,0,1
150808,-83.3333333333333,4,2,1,90,0,1
151157,-50,4,2,1,90,0,1
152204,-100,4,2,1,90,0,1
152901,-66.6666666666667,4,2,1,90,0,1
153599,-33.3333333333333,4,2,1,90,0,1
153773,-66.6666666666667,4,2,1,90,0,1
155692,-250,4,2,1,90,0,0
156738,-100,4,2,1,50,0,0
157000,-100,4,2,1,5,0,0
157088,-100,4,2,1,50,0,0

[Colours]
Combo1 : 255,132,197
Combo2 : 255,221,222

[HitObjects]
512,367,11971,6,0,P|456:332|361:334,1,160,2|0,3:2|0:2,0:0:0:0:
299,377,12495,1,0,0:0:0:0:
299,377,12843,5,0,3:2:0:0:
360,237,13018,1,2,3:2:0:0:
165,157,13192,6,0,B|114:180|104:123|107:63|278:87|239:219,1,256,0|0,3:2|0:2,0:0:0:0:
406,69,13715,6,0,P|421:125|428:156,1,80
310,55,14064,6,0,P|325:111|332:142,1,64
480,2,14413,5,0,0:0:0:0:
0,336,14762,6,0,P|29:262|30:183,1,160,2|0,3:2|0:2,0:0:0:0:
102,356,15285,2,0,P|102:279|137:194,1,160,2|0,3:2|3:2,0:0:0:0:
194,151,15809,6,0,B|219:81|276:55|335:66|431:204|330:279|286:249|161:137|43:164|33:356|237:529|341:464|385:399|360:341|233:221|299:52|531:37|651:294|574:352|420:378|444:271,1,987.999954772951,2|0,3:2|0:0,0:0:0:0:
437,278,17553,6,0,P|452:183|512:115,1,160,2|0,3:2|0:2,0:0:0:0:
450,64,18076,2,0,P|406:68|389:111,1,80,2|0,3:2|0:0,0:0:0:0:
309,122,18425,5,0,3:2:0:0:
309,122,18599,1,2,3:2:0:0:
137,75,18774,6,0,B|82:87|83:29|98:-28|261:27|197:149,1,256,2|0,3:2|0:2,0:0:0:0:
129,179,19297,6,0,P|96:162|21:142,1,111.999996582031,0|0,3:2|0:2,0:0:0:0:
150,271,19646,6,0,P|124:293|80:356,1,95.9999970703126,0|0,3:2|0:2,0:0:0:0:
254,306,19995,6,0,P|260:323|286:359,1,40,0|0,3:2|0:0,0:0:0:0:
269,359,20169,1,0,3:2:0:0:
486,315,20343,6,0,P|431:289|322:290,1,160,2|2,3:2|0:2,0:0:0:0:
502,205,20867,2,0,P|423:208|350:178,1,160,2|0,3:2|0:2,0:0:0:0:
280,221,21390,6,0,B|160:151|213:129|314:-10|252:-91|-40:-15|-106:145|-20:182|325:177|259:197|227:353|140:382|65:403|-29:343|56:290|31:245|91:257,1,791.999975830079,2|0,3:2|0:0,0:0:0:0:
89,263,22436,5,8,0:2:0:0:
252,355,23134,6,0,P|318:318|462:322,1,215.999993408203,4|0,1:2|0:2,0:0:0:0:
498,252,23483,2,0,P|510:206|420:180,1,143.999995605469,2|2,0:2|0:2,0:0:0:0:
275,86,23832,6,0,P|293:51|344:31,1,95.9999970703126,8|0,3:2|0:2,0:0:0:0:
352,51,24006,6,0,P|372:84|364:138,1,95.9999970703126,0|0,3:2|0:2,0:0:0:0:
340,134,24181,6,0,P|300:135|258:101,1,95.9999970703126,4|0,3:3|0:2,0:0:0:0:
323,90,24355,5,2,1:2:0:0:
67,53,24529,6,0,P|107:48|137:110,1,88.000002685547,2|0,0:2|0:2,0:0:0:0:
154,81,24704,6,0,P|172:117|123:166,1,88.000002685547,2|0,0:2|0:2,0:0:0:0:
171,192,24878,6,0,P|143:221|80:192,1,88.000002685547,2|0,0:2|0:2,3:0:0:0:
51,283,25053,6,0,P|13:267|19:197,1,88.000002685547,2|0,0:2|0:2,3:0:0:0:
49,156,25227,5,8,0:2:0:0:
147,300,25402,5,0,3:2:0:0:
155,306,25489,1,0,3:2:0:0:
163,314,25576,2,0,L|237:294,1,64,0|0,3:2|3:2,0:0:0:0:
291,354,25750,5,0,3:2:0:0:
301,348,25837,1,0,3:2:0:0:
316,349,25924,2,0,P|372:378|445:381,1,128,0|2,1:2|3:2,0:0:0:0:
453,306,26274,2,0,P|396:276|323:273,1,128,0|2,1:2|0:2,0:0:0:0:
259,139,26622,6,0,P|241:104|190:84,1,95.9999970703126,10|0,0:2|0:0,0:0:0:0:
182,104,26796,6,0,P|162:137|170:191,1,95.9999970703126,0|0,3:2|0:2,0:0:0:0:
194,187,26971,6,0,P|234:188|276:154,1,95.9999970703126,0|0,0:2|0:2,0:0:0:0:
404,36,27146,6,0,P|446:31|475:62,1,88.000002685547,0|0,1:2|0:2,0:0:0:0:
492,64,27321,6,0,P|510:102|491:140,1,88.000002685547,2|0,0:2|0:2,0:0:0:0:
509,175,27495,6,0,P|479:205|437:200,1,88.000002685547,2|0,0:2|0:2,3:0:0:0:
388,265,27669,6,0,P|349:247|339:206,1,88.000002685547,2|0,0:2|0:2,3:0:0:0:
387,138,27843,5,2,0:2:0:0:
498,249,28018,6,0,L|490:289,3,40,8|0|0|0,0:2|3:2|3:2|3:2,0:0:0:0:
509,307,28367,6,0,L|500:346,3,40,0|0|0|0,3:2|3:2|3:2|3:2,0:0:0:0:
506,367,28715,6,0,P|429:300|305:313,1,215.999993408203,6|0,1:2|0:2,0:0:0:0:
325,295,29064,2,0,P|312:318|327:297,1,80,0|2,3:2|0:2,0:0:0:0:
250,231,29413,6,0,P|221:221|183:209,1,55.9999982910157,8|0,0:2|0:2,0:0:0:0:
249,130,29588,5,0,3:2:0:0:
243,137,29675,1,0,0:2:0:0:
236,144,29762,2,0,P|183:163|128:174,1,111.999996582031,4|2,3:3|1:2,0:0:0:0:
38,266,30111,6,0,P|18:299|26:353,1,95.9999970703126,2|0,0:2|0:2,0:0:0:0:
50,349,30285,6,0,P|90:350|132:316,1,95.9999970703126,2|0,0:2|0:2,0:0:0:0:
115,301,30460,6,0,P|97:266|46:246,1,95.9999970703126,2|0,1:2|0:2,0:0:0:0:
67,305,30634,5,2,0:2:0:0:
194,334,30809,6,0,P|271:263|465:277,1,287.999991210938,8|0,0:2|0:2,0:0:0:0:
457,342,31157,2,0,P|402:356|383:297,3,95.9999970703126,0|0|4|0,3:2|3:2|3:3|3:2,0:0:0:0:
302,233,31506,6,0,B|320:64|384:195|401:20,1,240,0|0,1:2|0:2,0:0:0:0:
325,3,31855,2,0,P|283:-7|263:71,1,128,2|0,1:2|0:2,0:0:0:0:
198,115,32117,1,0,0:2:0:0:
183,114,32204,6,0,P|149:130|110:61,1,120,8|0,0:2|0:2,0:0:0:0:
11,31,32553,5,4,3:3:0:0:
20,39,32640,1,0,3:2:0:0:
30,47,32727,2,0,L|22:87,1,40,0|0,1:2|0:2,0:0:0:0:
69,150,32902,2,0,L|61:190,1,40,0|0,0:2|0:0,0:0:0:0:
0,251,33076,6,0,B|-17:197|36:192|74:153|144:232|112:258|48:305|119:376|194:390|310:327|257:211|191:206|173:244,1,440.000013427735,2|0,0:3|0:2,0:0:0:0:
176,224,33599,6,0,L|187:179,3,44.0000013427735,8|0|2|2,0:2|3:3|3:2|3:2,0:0:0:0:
258,154,33948,2,0,L|262:132,6,22.0000006713867,2|0|2|0|2|0|2,3:2|0:2|3:2|0:2|3:2|0:2|3:2,0:0:0:0:
405,54,34297,6,0,B|380:27|331:31|303:79|317:107|317:107|333:135|389:146|425:118|442:78|427:43|427:43|395:-16|316:-13|272:27|273:90|295:124|295:124|321:167|382:175|432:145|456:113,1,727.999966674806,4|0,3:2|0:2,0:0:0:0:
503,96,34995,1,8,0:2:0:0:
459,296,35169,6,0,P|403:264|341:248,1,128,2|4,3:2|0:3,0:0:0:0:
418,225,35518,1,0,1:2:0:0:
185,344,35692,6,0,P|225:350|270:321,1,95.9999970703126,2|0,3:2|0:0,0:0:0:0:
255,304,35867,6,0,P|242:267|194:241,1,95.9999970703126,2|0,0:2|0:0,0:0:0:0:
183,260,36041,6,0,P|159:290|161:345,1,95.9999970703126,2|0,0:2|0:0,0:0:0:0:
207,302,36215,5,2,0:2:0:0:
28,193,36390,6,0,B|56:248|144:214|125:154|125:154|88:28|157:59|200:3|224:135|224:135|233:198|329:203|341:122,1,575.999982421876,10|4,0:2|0:3,0:0:0:0:
395,72,37000,1,2,0:2:0:0:
391,61,37088,1,0,1:2:0:0:
507,188,37262,5,2,0:2:0:0:
460,252,37436,1,0,1:2:0:0:
387,217,37611,1,0,3:2:0:0:
270,290,37785,6,0,L|222:277,3,47.9999985351563,8|0|0|0,3:2|3:2|3:2|3:2,0:0:0:0:
207,291,38134,6,0,L|159:278,3,47.9999985351563,4|0|0|0,0:3|0:2|1:2|0:2,0:0:0:0:
81,266,38483,6,0,P|122:266|144:200,1,88.000002685547,2|0,0:2|0:2,0:0:0:0:
218,192,38658,6,0,P|232:154|177:111,1,88.000002685547,2|0,0:2|0:2,0:0:0:0:
184,42,38832,6,0,P|153:15|93:52,1,88.000002685547,2|0,0:2|0:2,0:0:0:0:
35,0,39006,5,2,0:2:0:0:
0,85,39181,6,0,L|96:113,3,88.000002685547,8|0|0|0,3:2|3:2|3:2|3:2,0:0:0:0:
61,190,39529,6,0,L|0:209,3,64,0|0|0|0,3:2|3:2|3:2|3:2,0:0:0:0:
51,283,39878,6,0,P|141:307|230:365,1,192,4|0,1:2|0:2,0:0:0:0:
297,328,40227,2,0,P|316:308|248:248,1,128,0|0,3:2|0:2,0:0:0:0:
170,131,40576,6,0,B|203:171|189:221|189:221|204:172|260:157,1,191.999994140625,8|0,0:2|3:2,0:0:0:0:
269,240,40925,6,0,L|305:233,1,27.9999991455078,4|0,1:3|0:0,0:0:0:0:
318,247,41099,6,0,L|354:240,1,27.9999991455078,2|0,1:2|0:2,0:0:0:0:
450,91,41274,6,0,P|473:121|472:175,1,95.9999970703126,2|0,0:2|0:0,0:0:0:0:
449,175,41448,6,0,P|409:180|363:152,1,95.9999970703126,2|0,0:2|0:0,0:0:0:0:
378,135,41622,6,0,P|391:98|439:72,1,95.9999970703126,2|0,1:2|0:0,0:0:0:0:
426,133,41797,5,2,0:2:0:0:
369,1,41971,5,10,0:2:0:0:
312,56,42146,1,2,3:2:0:0:
241,20,42320,1,0,3:2:0:0:
183,87,42495,5,4,3:3:0:0:
177,93,42582,1,0,3:2:0:0:
173,101,42669,2,0,B|143:160|87:35|-31:66|-29:120|-27:222|15:273|39:242|113:152|222:154|304:207|321:294|226:376|144:372|136:349|106:245|42:323,1,671.999979492188,0|0,1:2|0:2,0:0:0:0:
60,313,43367,6,0,L|70:370,1,47.9999985351563,8|0,0:2|0:2,0:0:0:0:
61,370,43715,5,4,0:3:0:0:
125,228,43890,1,0,1:2:0:0:
204,347,44064,6,0,L|270:330,1,64,2|0,3:2|0:2,0:0:0:0:
310,265,44239,1,2,3:3:0:0:
312,257,44326,1,0,0:2:0:0:
313,248,44413,5,0,1:2:0:0:
380,372,44588,1,2,3:2:0:0:
434,264,44762,6,0,L|420:201,3,64,8|8|4|4,0:2|0:3|0:3|0:3,0:0:0:0:
503,193,45111,6,0,L|493:147,3,40,4|0|0|0,3:3|3:2|3:2|3:2,0:0:0:0:
426,89,45460,6,0,P|396:109|354:112,1,71.9999978027344,4|0,1:2|0:2,0:0:0:0:
312,177,45634,5,0,0:2:0:0:
304,184,45721,1,0,0:2:0:0:
293,187,45809,2,0,P|264:165|246:127,1,71.9999978027344,8|0,1:2|0:2,0:0:0:0:
178,95,45983,6,0,P|188:59|218:30,1,71.9999978027344,0|0,3:2|0:2,0:0:0:0:
288,42,46157,1,8,0:1:0:0:
205,223,46332,6,0,P|156:201|37:184,1,167.999994873047,8|0,1:2|0:0,0:0:0:0:
38,174,46681,1,0,3:3:0:0:
0,259,46855,6,0,P|108:269|210:308,1,215.999993408203,12|0,1:2|0:0,0:0:0:0:
212,318,47204,1,0,0:2:0:0:
304,373,47378,6,0,P|347:351|395:343,1,95.9999970703126,8|0,1:2|0:0,0:0:0:0:
498,270,47553,6,0,L|506:224,3,40,8|0|0|0,0:1|3:2|3:2|3:2,0:0:0:0:
418,264,47902,6,0,L|430:198,3,64,0|0|0|0,3:2|3:2|3:2|3:2,0:0:0:0:
441,65,48250,6,0,P|414:89|373:97,1,71.9999978027344,12|0,1:2|0:2,0:0:0:0:
339,167,48424,5,0,3:2:0:0:
332,175,48511,1,0,0:2:0:0:
322,179,48599,2,0,P|291:161|269:126,1,71.9999978027344,8|0,1:2|0:2,0:0:0:0:
197,91,48773,6,0,P|203:55|229:22,1,71.9999978027344,0|0,3:2|0:2,0:0:0:0:
301,36,48947,1,8,0:1:0:0:
226,212,49122,6,0,P|151:162|98:87,1,167.999994873047,8|0,1:2|0:0,0:0:0:0:
93,98,49471,1,0,3:2:0:0:
143,181,49646,6,0,P|48:250|13:344,1,215.999993408203,12|0,1:2|0:0,0:0:0:0:
23,349,49995,1,0,0:2:0:0:
110,357,50169,6,0,P|157:356|159:282,1,128,8|8,1:2|0:0,0:0:0:0:
226,212,50518,5,2,0:2:0:0:
231,223,50605,1,2,0:2:0:0:
236,234,50692,2,0,L|288:248,1,40,2|0,1:2|0:2,0:0:0:0:
335,360,50867,6,0,L|387:346,1,40,2|0,3:2|3:2,0:0:0:0:
507,295,51041,6,0,P|473:282|446:249,1,71.9999978027344,12|0,1:2|0:2,0:0:0:0:
373,257,51215,5,0,3:2:0:0:
362,255,51302,1,0,0:2:0:0:
354,248,51390,2,0,P|355:212|375:176,1,71.9999978027344,8|0,1:2|0:2,0:0:0:0:
359,101,51564,6,0,P|393:89|434:96,1,71.9999978027344,0|0,0:2|0:2,0:0:0:0:
451,169,51738,1,8,0:1:0:0:
218,90,51913,6,0,P|133:100|54:131,1,167.999994873047,8|0,1:2|0:0,0:0:0:0:
47,125,52262,1,0,3:2:0:0:
50,225,52436,6,0,P|151:186|258:176,1,215.999993408203,12|0,1:2|0:0,0:0:0:0:
267,184,52785,1,0,0:2:0:0:
437,69,52960,6,0,P|456:66|491:119,1,71.9999978027344,8|0,1:2|0:2,0:0:0:0:
451,169,53134,6,0,L|459:215,3,40,8|0|0|0,0:1|3:2|3:2|3:2,0:0:0:0:
368,166,53483,6,0,L|380:232,3,64,8|8|4|4,0:3|0:3|0:3|0:3,0:0:0:0:
500,323,53832,6,0,P|472:314|436:274,1,71.9999978027344,14|0,1:2|0:2,0:0:0:0:
418,347,54006,6,0,P|390:356|354:396,1,71.9999978027344,2|0,0:2|0:2,0:0:0:0:
305,264,54181,6,0,P|280:248|255:200,1,71.9999978027344,10|0,1:2|0:2,0:0:0:0:
204,317,54355,6,0,P|179:332|154:380,1,71.9999978027344,2|0,0:2|0:2,0:0:0:0:
44,217,54529,5,8,0:1:0:0:
0,133,54704,6,0,P|28:124|64:84,1,71.9999978027344,10|0,1:2|0:2,0:0:0:0:
57,131,54878,6,0,P|85:140|121:180,1,71.9999978027344,2|0,0:2|0:2,0:0:0:0:
129,71,55053,6,0,P|154:55|179:7,1,71.9999978027344,2|0,0:3|0:2,0:0:0:0:
228,141,55227,6,0,B|251:132|257:211|372:148|324:89|324:89|246:-23|484:-35|433:218|349:119,1,447.999986328125,12|0,1:2|0:2,0:0:0:0:
358,165,55663,5,0,0:2:0:0:
360,178,55750,2,0,L|366:209,2,32,2|2|2,1:2|0:2|0:2,0:0:0:0:
476,259,55925,6,0,B|476:278|476:278|435:297|435:297|417:283,1,80,8|0,0:1|3:2,0:0:0:0:
370,367,56099,6,0,B|370:348|370:348|329:329|329:329|311:343,1,80,2|0,3:2|3:2,0:0:0:0:
238,372,56274,6,0,L|228:330,1,40,2|0,1:2|3:2,0:0:0:0:
147,267,56448,6,0,L|137:309,1,40,2|0,3:2|3:2,0:0:0:0:
45,338,56622,5,0,1:2:0:0:
93,180,56797,6,0,B|111:185|111:185|120:135|146:131|151:197|102:209|73:191,1,143.999995605469,12|0,0:2|1:2,0:0:0:0:
5,132,57059,5,0,3:2:0:0:
16,146,57146,2,0,P|143:123|195:69,1,192,8|0,0:2|0:0,0:0:0:0:
290,198,57495,6,0,P|266:193|255:148,1,64,4|0,1:2|0:0,0:0:0:0:
257,152,57669,2,0,P|314:163|373:205,1,128,8|4,0:2|3:3,0:0:0:0:
398,278,57931,1,0,3:2:0:0:
405,282,58018,2,0,P|429:288|468:227,1,88.000002685547,0|0,1:2|3:2,0:0:0:0:
512,155,58192,6,0,B|502:187|502:187|358:201|324:341,1,287.999991210938,12|0,0:2|0:2,0:0:0:0:
253,372,58541,1,0,1:2:0:0:
182,283,58715,6,0,B|168:283|148:300|148:300|153:268|198:268,1,95.9999970703126,8|0,3:1|3:2,0:0:0:0:
56,266,59064,6,0,B|45:295|62:326|62:326|14:300|42:233,1,160,0|0,3:2|3:2,0:0:0:0:
116,209,59413,5,0,1:2:0:0:
69,111,59588,6,0,B|22:104|10:140|10:140|36:158|69:115,1,143.999995605469,12|0,0:2|1:2,0:0:0:0:
38,18,59849,5,0,3:2:0:0:
33,35,59936,2,0,P|102:96|213:118,1,192,8|0,0:2|0:0,0:0:0:0:
237,50,60285,2,0,P|257:21|326:30,1,111.999996582031,0|0,1:2|0:2,0:0:0:0:
401,144,60460,5,8,0:2:0:0:
456,89,60634,2,0,L|444:51,2,32,4|0|0,3:3|3:2|3:2,0:0:0:0:
457,46,60809,5,0,1:2:0:0:
298,118,60983,6,0,B|308:150|308:150|452:164|486:304,1,287.999991210938,12|0,0:2|0:2,0:0:0:0:
426,356,61332,2,0,P|389:343|394:278,1,95.9999970703126,0|0,1:2|0:2,0:0:0:0:
461,206,61506,6,0,L|457:232,6,23.9999992675781,8|2|2|2|2|2|2,0:1|0:2|0:2|0:2|0:2|0:2|0:2,0:0:0:0:
511,146,61855,6,0,L|482:329,1,160,2|8,1:2|0:2,0:0:0:0:
320,370,62204,5,0,1:2:0:0:
171,258,62378,1,12,0:2:0:0:
161,347,62553,5,0,1:2:0:0:
83,381,62727,1,8,0:2:0:0:
15,321,62902,6,0,L|26:271,1,40,8|0,0:1|0:2,0:0:0:0:
101,213,63076,5,0,1:2:0:0:
96,205,63163,1,0,3:2:0:0:
90,195,63250,2,0,L|101:145,1,40,8|0,0:2|0:2,0:0:0:0:
0,97,63425,5,0,3:2:0:0:
199,10,63599,6,0,P|215:32|244:49,1,60.0000022888184,0|0,1:2|0:2,0:0:0:0:
176,113,63774,6,0,P|249:82|359:75,1,180.000006866455,12|0,0:2|0:2,0:0:0:0:
399,135,64122,1,0,1:2:0:0:
405,143,64210,1,0,3:2:0:0:
409,152,64297,2,0,P|381:191|306:177,1,120.000004577637,8|0,0:1|0:2,0:0:0:0:
301,198,64471,2,0,P|279:187|279:148,5,60.0000022888184,0|8|0|8|4|4,3:2|0:3|3:2|0:3|3:3|3:3,0:0:0:0:
348,73,64995,5,0,1:2:0:0:
499,172,65169,1,12,0:2:0:0:
499,172,65343,1,0,1:2:0:0:
426,220,65518,5,8,0:2:0:0:
496,48,65692,1,8,0:1:0:0:
496,48,65867,1,0,1:2:0:0:
420,87,66041,5,8,0:2:0:0:
494,306,66215,1,0,1:2:0:0:
494,306,66390,2,0,L|480:372,2,64,4|4|4,0:2|0:2|0:2,0:0:0:0:
176,113,67436,6,0,P|132:109|114:184,1,120
35,233,67785,5,2,0:2:0:0:
70,354,78948,6,0,P|59:280|24:218,1,128,4|0,0:2|0:0,0:0:0:0:
83,170,79646,2,0,P|126:164|154:221,1,106.666666666667,2|0,0:2|0:0,0:0:0:0:
168,224,79995,1,0,0:2:0:0:
16,53,80227,5,2,0:2:0:0:
16,131,80343,2,0,P|59:124|86:79,1,85.3333333333333,2|0,0:2|0:0,0:0:0:0:
109,0,80518,6,0,P|182:67|346:94,1,256,2|0,0:2|0:2,0:0:0:0:
379,35,80954,1,0,0:2:0:0:
386,24,81041,1,0,0:2:0:0:
475,105,81215,6,0,B|479:116|479:116|474:105|474:105|453:190,1,95.9999970703126,2|0,0:2|0:0,0:0:0:0:
510,234,81739,1,0,0:2:0:0:
343,336,82320,5,2,0:2:0:0:
368,261,82436,1,2,0:2:0:0:
250,165,82669,5,2,0:2:0:0:
285,273,82785,1,2,0:2:0:0:
140,370,83018,5,2,0:2:0:0:
203,230,83134,1,2,3:2:0:0:
203,230,83483,5,0,0:2:0:0:
47,96,83715,2,0,B|37:88|36:69|36:69|43:86|60:88,1,53.3333333333333,2|0,0:2|3:2,0:0:0:0:
26,182,84006,6,0,P|99:113|223:85,1,213.333333333333,2|0,0:2|0:0,0:0:0:0:
217,67,84529,1,0,0:2:0:0:
459,158,85184,5,2,0:2:0:0:
467,171,85227,5,2,0:2:0:0:
407,308,85576,1,2,0:2:0:0:
482,361,85882,5,2,0:2:0:0:
490,348,85925,5,2,0:2:0:0:
367,175,86274,1,2,0:2:0:0:
224,274,86622,6,0,L|183:264,3,40,2|0|0|0,0:2|0:2|0:2|0:2,0:0:0:0:
140,360,86971,6,0,L|181:350,3,40,2|2|2|2,0:2|0:2|0:2|0:2,0:0:0:0:
272,372,87320,5,2,0:2:0:0:
70,279,87553,5,2,0:2:0:0:
75,291,87669,1,2,0:2:0:0:
35,186,87902,5,2,0:2:0:0:
40,198,88018,1,2,0:2:0:0:
260,83,88251,5,2,0:2:0:0:
283,158,88367,1,2,0:2:0:0:
344,101,88599,5,2,0:2:0:0:
367,175,88715,1,2,0:2:0:0:
506,318,89297,5,0,3:2:0:0:
474,248,89413,2,0,P|346:280|229:374,1,280,0|0,3:2|0:2,0:0:0:0:
213,376,90111,6,0,P|168:381|152:297,1,143.999995605469,12|0,0:2|0:2,0:0:0:0:
141,292,90460,6,0,P|123:257|186:220,1,95.9999970703126,8|2,0:2|0:2,0:0:0:0:
225,267,90809,5,8,0:2:0:0:
351,144,91157,2,0,L|339:89,1,47.9999985351563,10|0,0:2|0:2,0:0:0:0:
222,159,91506,5,8,0:2:0:0:
394,275,91681,2,0,L|382:330,1,47.9999985351563,2|0,0:2|0:2,0:0:0:0:
306,220,91855,5,8,0:2:0:0:
306,220,92204,5,8,0:2:0:0:
476,125,92378,2,0,L|464:70,1,47.9999985351563,2|0,0:2|0:2,0:0:0:0:
351,144,92553,5,8,0:2:0:0:
492,247,92727,2,0,L|480:302,1,47.9999985351563,2|0,0:2|0:2,0:0:0:0:
424,193,92902,5,8,0:2:0:0:
180,367,93250,6,0,L|168:312,1,47.9999985351563,10|0,0:2|0:2,0:0:0:0:
96,216,93599,6,0,L|84:271,1,47.9999985351563,10|0,0:2|0:2,0:0:0:0:
12,330,93948,5,8,0:2:0:0:
191,219,94122,2,0,L|179:164,1,47.9999985351563,2|0,0:2|0:2,0:0:0:0:
86,263,94297,5,8,0:2:0:0:
357,128,94646,6,0,L|336:235,1,95.9999970703126,12|8,0:2|0:2,0:0:0:0:
446,105,95169,6,0,L|404:314,1,191.999994140625,4|0,0:2|0:2,0:0:0:0:
426,380,95692,6,0,L|352:3,1,360.000013732911,12|0,0:2|0:2,0:0:0:0:
334,14,96041,5,8,0:2:0:0:
204,137,96215,2,0,L|216:192,1,47.9999985351563,2|0,0:2|0:2,0:0:0:0:
284,109,96390,5,8,0:2:0:0:
284,109,96564,1,0,3:2:0:0:
124,47,96739,2,0,L|136:-8,1,47.9999985351563,10|0,0:2|0:2,0:0:0:0:
222,38,96913,5,0,3:2:0:0:
222,38,97088,1,8,0:2:0:0:
53,175,97262,2,0,L|65:230,1,47.9999985351563,2|0,0:2|0:2,0:0:0:0:
119,126,97436,5,8,0:2:0:0:
185,368,97786,5,8,0:2:0:0:
168,290,97960,2,0,L|156:235,1,47.9999985351563,2|0,0:2|0:2,0:0:0:0:
306,186,98134,5,8,0:2:0:0:
289,264,98308,2,0,L|277:319,1,47.9999985351563,2|0,0:2|0:2,0:0:0:0:
342,373,98483,5,8,0:2:0:0:
342,373,98657,1,0,3:2:0:0:
442,304,98832,2,0,L|430:249,1,47.9999985351563,10|0,0:2|0:2,0:0:0:0:
508,154,99181,6,0,L|496:209,1,47.9999985351563,10|0,0:2|0:2,0:0:0:0:
328,13,99529,5,8,0:2:0:0:
202,118,99704,2,0,L|214:173,1,47.9999985351563,2|0,0:2|0:2,0:0:0:0:
79,48,99878,5,8,0:2:0:0:
357,128,100227,6,0,L|336:235,1,95.9999970703126,12|8,0:2|0:2,0:0:0:0:
446,105,100750,6,0,L|404:314,1,191.999994140625,4|0,0:2|0:2,0:0:0:0:
426,380,101274,6,0,L|352:3,1,360.000013732911,12|0,0:2|0:2,0:0:0:0:
344,18,101622,5,8,0:2:0:0:
245,81,101797,2,0,L|197:68,1,47.9999985351563,2|0,0:2|0:2,0:0:0:0:
303,161,101971,5,8,0:2:0:0:
303,161,102146,1,0,3:2:0:0:
140,200,102320,6,0,L|188:187,1,47.9999985351563,10|0,0:2|0:2,0:0:0:0:
243,245,102495,1,0,3:2:0:0:
134,119,102669,5,8,0:1:0:0:
59,93,102843,2,0,L|11:80,1,47.9999985351563,2|0,0:2|0:2,0:0:0:0:
128,24,103018,5,8,0:2:0:0:
128,24,103192,1,0,3:2:0:0:
59,93,103367,6,0,L|11:80,1,47.9999985351563,10|0,0:2|0:2,0:0:0:0:
128,24,103541,5,0,3:2:0:0:
128,24,103715,1,8,0:2:0:0:
140,200,103890,6,0,L|188:187,1,47.9999985351563,2|0,0:2|0:2,0:0:0:0:
316,289,104064,6,0,B|331:232|331:232|296:325,1,143.999995605469,12|0,0:2|0:2,0:0:0:0:
313,326,104413,1,8,0:2:0:0:
237,253,104588,1,0,1:2:0:0:
410,348,104762,6,0,L|395:292,1,47.9999985351563,10|0,0:2|0:2,0:0:0:0:
455,247,104936,1,0,3:2:0:0:
455,247,105111,1,8,1:2:0:0:
391,172,105285,6,0,L|406:116,1,47.9999985351563,2|0,0:2|0:2,0:0:0:0:
352,64,105460,1,8,0:1:0:0:
293,192,105634,6,0,L|308:136,1,47.9999985351563,2|0,0:2|0:2,0:0:0:0:
254,84,105809,1,8,0:2:0:0:
254,84,105983,1,0,3:2:0:0:
148,226,106157,6,0,L|94:210,1,47.9999985351563,10|0,0:2|0:2,0:0:0:0:
41,262,106332,1,0,3:2:0:0:
142,355,106506,6,0,L|249:326,1,95.9999970703126,8|2,1:2|0:2,0:0:0:0:
331,228,106855,2,0,L|238:202,1,95.9999970703126,12|0,1:2|0:0,0:0:0:0:
375,372,107204,6,0,L|360:300,1,64,8|2,1:2|3:2,0:0:0:0:
490,215,107553,2,0,L|475:287,1,64,8|0,1:2|3:2,0:0:0:0:
368,142,107902,5,8,1:2:0:0:
368,142,108250,1,8,1:2:0:0:
490,215,108599,6,0,L|475:287,1,64,8|8,1:2|0:2,0:0:0:0:
375,372,108948,2,0,L|360:300,1,64,12|8,1:2|0:2,0:0:0:0:
238,202,109297,1,12,1:2:0:0:
459,354,109646,5,0,1:2:0:0:
42,82,111390,6,0,P|100:80|178:30,1,138.666660319011,2|2,0:2|0:2,0:0:0:0:
121,124,111739,6,0,P|142:124|171:143,2,53.3333333333333,8|0|0,0:2|0:2|0:2,0:0:0:0:
58,175,112088,6,0,P|44:186|59:176,1,53.3333333333333,2|2,0:1|0:2,0:0:0:0:
237,286,112436,6,0,B|228:262|242:241|242:241|219:259|224:286,1,80,4|0,1:2|0:2,0:0:0:0:
319,319,112611,6,0,B|310:342|324:363|324:363|301:345|306:318,1,80,2|0,0:2|0:2,0:0:0:0:
365,201,112785,6,0,B|354:170|372:141|372:141|342:165|348:202,1,111.999996582031,2|0,0:2|0:2,0:0:0:0:
485,276,112960,6,0,B|474:307|492:336|492:336|462:312|468:275,1,111.999996582031,2|0,0:2|0:2,0:0:0:0:
497,174,113134,5,8,1:2:0:0:
497,174,113396,1,2,1:2:0:0:
274,46,113657,1,0,3:2:0:0:
429,79,113832,5,8,1:2:0:0:
429,79,114093,1,2,1:2:0:0:
234,212,114355,1,0,3:3:0:0:
48,22,114529,6,0,B|63:163|117:53|131:201,1,207.999990478516,4|0,1:2|0:2,0:0:0:0:
95,268,114791,1,0,0:2:0:0:
87,281,114878,2,0,P|41:277|34:204,3,103.999995239258,2|2|2|2,0:2|0:2|0:2|0:2,0:0:0:0:
10,148,115227,5,4,0:3:0:0:
283,292,115402,6,0,B|272:321|289:350|289:350|260:326|266:291,1,103.999995239258,2|0,0:2|0:2,0:0:0:0:
375,267,115576,6,0,B|400:286|432:278|432:278|401:298|369:282,1,103.999995239258,2|0,1:2|0:2,0:0:0:0:
379,182,115750,6,0,B|405:164|407:131|407:131|417:166|391:192,1,103.999995239258,2|0,0:2|0:2,0:0:0:0:
296,144,115925,6,0,B|286:113|256:101|256:101|293:102|309:135,1,103.999995239258,10|0,0:2|0:2,0:0:0:0:
233,212,116099,6,0,B|201:211|179:236|179:236|193:201|228:196,1,103.999995239258,2|0,0:2|0:2,0:0:0:0:
311,219,116274,5,4,3:3:0:0:
9,247,116448,6,0,B|61:281|106:344|-3:365|39:283|39:283|72:245,1,207.999990478516,2|0,1:2|0:0,0:0:0:0:
39,140,116797,6,0,B|7:134|-7:105|-7:105|-2:141|31:154,1,103.999995239258,2|0,0:2|0:2,0:0:0:0:
67,64,116971,6,0,B|87:39|120:40|120:40|86:27|57:50,1,103.999995239258,2|0,0:2|0:2,0:0:0:0:
119,125,117146,6,0,B|129:154|112:183|112:183|141:159|135:124,1,103.999995239258,2|0,0:2|0:2,0:0:0:0:
221,83,117320,6,0,L|230:38,3,40,8|8|8|4,0:2|3:3|3:3|3:3,0:0:0:0:
296,144,117669,6,0,L|305:99,3,40,6|2|2|2,3:3|3:2|3:2|3:2,0:0:0:0:
375,20,118018,6,0,P|408:182|444:357,1,335.999989746094,6|0,1:2|0:0,0:0:0:0:
434,359,118715,6,0,P|392:377|365:311,1,111.999996582031,8|0,1:2|0:2,0:0:0:0:
282,306,118977,2,0,P|239:260|311:195,1,167.999994873047,2|0,1:2|0:2,0:0:0:0:
248,32,119413,6,0,P|206:14|179:80,1,111.999996582031,8|0,1:2|0:2,0:0:0:0:
96,85,119675,2,0,P|53:130|125:195,1,167.999994873047,2|0,1:2|3:2,0:0:0:0:
54,304,120111,6,0,P|135:276|219:255,1,167.999994873047,12|0,1:2|0:2,0:0:0:0:
219,239,120460,1,0,3:2:0:0:
147,361,120634,1,0,3:2:0:0:
304,257,120809,6,0,P|301:217|276:168,1,80,4|2,0:3|0:2,0:0:0:0:
392,233,121157,2,0,P|376:196|373:156,1,80,2|2,1:2|0:2,0:0:0:0:
512,61,121506,6,0,P|424:46|360:-5,1,160,10|2,0:2|0:2,0:0:0:0:
423,89,122029,6,0,P|322:109|202:201,1,256,2|2,1:2|0:2,0:0:0:0:
265,255,122553,6,0,P|325:247|324:166,1,128,2|2,1:2|0:2,0:0:0:0:
235,115,122902,6,0,L|247:46,3,64,8|8|4|0,0:2|3:3|3:3|3:2,0:0:0:0:
160,85,123250,6,0,L|168:36,3,40,0|0|0|0,3:2|3:2|3:2|3:2,0:0:0:0:
100,2,123599,5,2,0:2:0:0:
32,192,124297,5,8,1:2:0:0:
32,192,124559,1,2,1:2:0:0:
299,354,124820,1,0,3:2:0:0:
112,340,124995,5,8,1:2:0:0:
112,340,125256,1,2,1:2:0:0:
339,188,125518,1,0,3:2:0:0:
400,243,125692,6,0,L|394:273,6,20,2|2|2|2|2|2|2,0:2|0:2|0:2|0:2|0:2|0:2|0:2,0:0:0:0:
465,342,126041,6,0,L|411:114,1,223.999993164063,0|4,3:2|0:3,0:0:0:0:
145,77,126564,6,0,B|153:47|133:19|133:19|164:41|162:76,1,103.999995239258,2|0,0:2|0:2,0:0:0:0:
55,109,126738,6,0,B|28:92|-2:103|-2:103|26:80|59:93,1,103.999995239258,2|0,1:2|0:2,0:0:0:0:
58,194,126912,6,0,B|33:214|34:247|34:247|21:213|45:185,1,103.999995239258,2|0,0:2|0:2,0:0:0:0:
144,225,127087,6,0,B|156:255|187:264|187:264|150:266|131:235,1,103.999995239258,8|0,3:2|3:2,0:0:0:0:
201,152,127261,6,0,B|232:150|252:123|252:123|241:159|207:167,1,103.999995239258,0|0,3:2|3:2,0:0:0:0:
123,151,127436,5,4,3:3:0:0:
420,272,127611,6,0,B|368:306|323:369|432:390|390:308|390:308|357:270,1,207.999990478516,2|0,1:2|0:0,0:0:0:0:
452,158,127960,6,0,B|484:152|498:123|498:123|493:159|460:172,1,103.999995239258,2|0,0:2|0:2,0:0:0:0:
424,82,128134,6,0,B|404:57|371:58|371:58|405:45|434:68,1,103.999995239258,2|0,0:2|0:2,0:0:0:0:
372,143,128309,6,0,B|362:172|379:201|379:201|350:177|356:142,1,103.999995239258,2|0,0:2|0:2,0:0:0:0:
278,93,128483,6,0,L|269:48,3,40,8|0|0|0,0:2|3:2|3:2|3:2,0:0:0:0:
201,152,128832,6,0,L|192:107,3,40,0|0|0|0,3:2|3:2|3:2|3:2,0:0:0:0:
128,16,129181,6,0,P|95:178|59:353,1,335.999989746094,4|0,1:2|0:0,0:0:0:0:
72,357,129878,6,0,P|114:375|141:309,1,111.999996582031,8|0,1:2|0:2,0:0:0:0:
224,304,130140,2,0,P|267:258|195:193,1,167.999994873047,2|0,1:2|3:2,0:0:0:0:
264,32,130576,6,0,P|306:14|333:80,1,111.999996582031,8|0,1:2|0:2,0:0:0:0:
416,85,130838,2,0,P|459:130|387:195,1,167.999994873047,2|0,1:2|3:2,0:0:0:0:
342,260,131274,6,0,P|338:274|346:262,6,40,4|0|0|0|0|0|0,3:2|3:2|3:2|3:2|3:2|3:2|3:2,0:0:0:0:
242,333,131622,6,0,P|215:334|242:334,3,80,0|0|0|0,3:2|3:2|3:2|3:2,0:0:0:0:
232,336,131971,6,0,B|202:277|146:402|28:371|30:317|32:215|74:164|98:195|172:285|281:283|363:230|380:143|285:61|203:65|195:88|165:192|101:114,1,671.999979492188,0|0,1:2|0:2,0:0:0:0:
120,127,132669,6,0,L|130:70,1,47.9999985351563,8|0,0:2|0:2,0:0:0:0:
122,73,133018,5,4,0:3:0:0:
186,215,133193,1,0,1:2:0:0:
248,20,133367,6,0,L|314:37,1,64,2|0,3:2|0:2,0:0:0:0:
354,102,133542,1,2,0:3:0:0:
356,110,133629,1,0,0:2:0:0:
357,119,133716,5,0,1:2:0:0:
433,16,133891,1,2,3:2:0:0:
512,134,134065,6,0,L|498:197,3,64,8|8|8|4,0:2|0:3|0:3|0:3,0:0:0:0:
421,172,134414,6,0,L|413:211,3,40,4|0|0|0,0:3|3:2|3:2|3:2,0:0:0:0:
430,330,134762,6,0,P|400:310|358:307,1,71.9999978027344,4|0,1:2|0:0,0:0:0:0:
334,217,134936,5,0,0:0:0:0:
326,210,135023,1,0,0:0:0:0:
315,207,135111,2,0,P|286:229|268:267,1,71.9999978027344,8|0,1:2|0:0,0:0:0:0:
196,301,135285,6,0,P|206:337|236:366,1,71.9999978027344,0|0,3:0|0:0,0:0:0:0:
309,369,135460,1,8,0:1:0:0:
198,219,135634,6,0,P|114:227|36:258,1,167.999994873047,8|0,1:2|0:0,0:0:0:0:
0,186,135983,1,0,3:0:0:0:
16,5,136157,6,0,P|116:44|223:53,1,215.999993408203,4|0,1:2|0:0,0:0:0:0:
251,129,136506,1,2,3:2:0:0:
390,2,136680,6,0,P|433:16|452:63,1,95.9999970703126,8|0,1:2|0:0,0:0:0:0:
505,126,136855,6,0,L|513:172,3,40,8|0|0|0,0:1|3:2|3:2|3:2,0:0:0:0:
426,155,137204,6,0,L|438:221,3,64,0|0|0|0,3:2|3:2|3:2|3:2,0:0:0:0:
459,338,137552,6,0,P|432:314|391:306,1,71.9999978027344,12|0,1:2|0:0,0:0:0:0:
355,233,137726,5,0,0:0:0:0:
348,225,137813,1,0,0:0:0:0:
338,221,137901,2,0,P|307:239|285:274,1,71.9999978027344,8|0,1:2|0:0,0:0:0:0:
211,305,138075,6,0,P|217:341|243:374,1,71.9999978027344,0|0,3:0|0:0,0:0:0:0:
317,358,138249,1,8,0:1:0:0:
219,208,138424,6,0,P|148:253|91:333,1,167.999994873047,8|0,1:2|0:0,0:0:0:0:
148,379,138773,1,0,3:0:0:0:
129,227,138948,6,0,P|34:158|2:52,1,215.999993408203,4|0,1:2|0:2,0:0:0:0:
55,10,139297,1,0,3:2:0:0:
111,104,139471,6,0,P|151:122|173:51,1,128,8|8,1:2|0:1,0:0:0:0:
241,0,139820,5,2,0:2:0:0:
246,11,139907,1,2,0:2:0:0:
251,22,139994,2,0,L|303:36,1,40,2|2,0:2|0:2,0:0:0:0:
364,81,140169,6,0,L|416:67,1,40,2|0,3:2|3:2,0:0:0:0:
506,224,140343,6,0,P|471:213|429:221,1,71.9999978027344,12|0,1:2|0:0,0:0:0:0:
378,167,140517,5,0,0:0:0:0:
369,162,140604,1,0,0:0:0:0:
358,162,140692,2,0,P|335:191|327:231,1,71.9999978027344,8|0,1:2|0:0,0:0:0:0:
267,278,140866,6,0,P|285:310|321:331,1,71.9999978027344,0|0,3:0|0:2,0:0:0:0:
382,285,141040,1,8,3:1:0:0:
224,365,141215,6,0,P|145:334|62:325,1,167.999994873047,10|0,1:2|0:2,0:0:0:0:
28,253,141564,1,2,3:2:0:0:
0,58,141738,6,0,P|101:97|208:107,1,215.999993408203,4|0,1:2|0:0,0:0:0:0:
263,166,142087,1,0,3:0:0:0:
370,0,142262,6,0,P|389:-3|424:50,1,71.9999978027344,0|0,1:0|0:2,0:0:0:0:
495,87,142436,6,0,L|487:133,3,40,8|0|0|0,0:1|0:0|0:2|0:3,0:0:0:0:
389,104,142785,6,0,L|377:170,3,64,0|8|4|12,3:2|0:3|3:3|3:3,0:0:0:0:
492,283,143134,6,0,P|464:274|428:234,1,71.9999978027344,4|0,1:2|0:0,0:0:0:0:
426,347,143308,6,0,P|398:356|362:396,1,71.9999978027344,2|0,0:2|0:2,0:0:0:0:
322,279,143483,6,0,P|297:263|272:215,1,71.9999978027344,10|0,1:2|0:2,0:0:0:0:
226,333,143657,6,0,P|201:348|176:396,1,71.9999978027344,2|0,0:2|0:2,0:0:0:0:
44,217,143831,5,8,0:1:0:0:
0,133,144006,6,0,P|28:124|64:84,1,71.9999978027344,10|0,1:2|0:2,0:0:0:0:
57,131,144180,6,0,P|85:140|121:180,1,71.9999978027344,2|0,0:2|0:2,0:0:0:0:
129,71,144355,6,0,P|154:55|179:7,1,71.9999978027344,2|0,3:3|0:2,0:0:0:0:
295,140,144529,6,0,B|262:173|157:136|205:-14|374:49|337:148|337:148|343:142|311:224|396:231|461:185|374:108,1,447.999986328125,8|0,1:2|0:2,0:0:0:0:
480,106,144965,5,0,0:2:0:0:
476,94,145052,2,0,L|470:63,2,32,0|0|0,1:2|0:2|0:2,0:0:0:0:
512,273,145227,6,0,B|512:254|512:254|471:235|471:235|453:249,1,80,8|0,0:1|0:2,0:0:0:0:
387,307,145401,6,0,B|387:326|387:326|346:345|346:345|328:331,1,80,2|0,0:2|0:2,0:0:0:0:
254,280,145576,6,0,L|244:322,1,40,2|2,0:2|0:2,0:0:0:0:
156,384,145750,6,0,L|146:342,1,40,2|2,0:2|0:2,0:0:0:0:
77,286,145924,5,0,1:2:0:0:
104,173,146099,6,0,B|122:178|122:178|131:128|157:124|162:190|113:202|84:184,1,143.999995605469,12|0,0:2|1:2,0:0:0:0:
9,126,146361,5,0,0:2:0:0:
20,140,146448,2,0,P|143:118|200:64,1,192,8|0,0:2|0:0,0:0:0:0:
378,188,146797,6,2,P|356:219|316:216,1,64,4|0,1:2|0:2,0:0:0:0:
328,232,146971,2,0,P|275:193|213:180,1,128,8|4,0:2|3:3,0:0:0:0:
136,302,147233,1,0,3:2:0:0:
146,310,147320,2,0,P|170:316|203:255,1,88.000002685547,0|0,1:2|3:2,0:0:0:0:
104,173,147494,6,0,B|114:205|114:205|258:219|292:359,1,287.999991210938,12|0,0:2|0:0,0:0:0:0:
371,374,147843,1,0,1:0:0:0:
460,246,148017,6,0,B|474:246|494:229|494:229|489:261|444:261,1,95.9999970703126,8|0,0:1|3:1,0:0:0:0:
255,46,148366,6,0,B|244:17|261:-14|261:-14|213:12|241:79,1,160,0|4,3:2|3:3,0:0:0:0:
484,26,148715,5,0,1:1:0:0:
98,176,148890,6,0,B|68:149|46:180|39:147|39:147|88:126|98:172,1,143.999995605469,12|0,0:2|1:2,0:0:0:0:
48,278,149151,5,0,0:2:0:0:
38,270,149239,2,0,P|105:210|212:188,1,192,8|0,0:2|0:2,0:0:0:0:
244,256,149587,2,0,P|223:289|154:280,1,111.999996582031,0|0,1:2|0:2,0:0:0:0:
161,102,149762,5,8,0:2:0:0:
321,211,149936,2,0,L|331:248,2,32,0|0|0,3:2|0:0|0:0,0:0:0:0:
367,142,150111,5,0,1:0:0:0:
269,0,150285,6,0,P|303:70|518:89,1,287.999991210938,4|0,0:2|0:0,0:0:0:0:
484,26,150634,2,0,P|440:12|402:52,1,95.9999970703126,0|0,1:0|0:0,0:0:0:0:
417,253,150808,6,0,L|412:278,6,23.9999992675781,2|0|0|0|0|0|0,0:0|0:0|0:0|0:0|0:0|0:0|0:0,0:0:0:0:
472,194,151157,6,0,L|442:352,1,160
361,382,151506,5,0,1:2:0:0:
157,283,151680,1,12,0:2:0:0:
367,142,151855,5,0,1:2:0:0:
321,211,152029,1,8,0:2:0:0:
18,21,152204,6,0,L|29:71,1,40,8|0,0:1|0:0,0:0:0:0:
95,118,152378,5,4,3:3:0:0:
100,126,152465,1,0,0:0:0:0:
106,136,152552,2,0,L|95:186,1,40,0|0,3:0|0:0,0:0:0:0:
10,207,152727,5,4,3:3:0:0:
138,37,152901,6,0,P|149:54|136:39,1,60.0000022888184,0|0,1:2|0:0,0:0:0:0:
142,46,153076,6,0,P|213:89|325:84,1,180.000006866455,12|0,0:2|0:2,0:0:0:0:
353,156,153424,1,0,1:2:0:0:
347,164,153512,1,0,3:2:0:0:
343,173,153599,2,0,P|371:212|446:198,1,120.000004577637,8|0,0:1|0:2,0:0:0:0:
450,214,153773,2,0,P|472:203|472:164,5,60.0000022888184,0|0|0|0|2|2,3:2|0:0|0:0|0:2|0:3|0:3,0:0:0:0:
512,98,154297,5,0,1:2:0:0:
272,245,154471,1,6,0:2:0:0:
272,245,154645,1,2,1:2:0:0:
432,376,154820,5,2,0:2:0:0:
157,283,154994,1,8,0:1:0:0:
157,283,155169,1,2,1:2:0:0:
266,378,155343,5,2,0:2:0:0:
419,105,155517,1,10,0:2:0:0:
419,105,155692,2,0,L|405:39,2,64,4|4|4,1:2|0:2|0:2,0:0:0:0:
134,364,156738,6,0,P|90:368|72:293,1,120,0|0,0:2|0:0,0:0:0:0:
0,246,157087,5,2,0:2:0:0:
