osu file format v14

[General]
AudioFilename: audio.mp3
AudioLeadIn: 0
PreviewTime: 23076
Countdown: 0
SampleSet: Soft
StackLeniency: 0.4
Mode: 0
LetterboxInBreaks: 0
WidescreenStoryboard: 1

[Editor]
Bookmarks: 809,23134,45460,67785,90111,112436,134762,157088
DistanceSpacing: 0.5
BeatDivisor: 8
GridSize: 8
TimelineZoom: 3.599998

[Metadata]
Title:Mole
TitleUnicode:Mole
Artist:VeetaCrush
ArtistUnicode:VeetaCrush
Creator:JeZag
Version:Blossom
Source:
Tags:Future Challenge 2 Diverse Direct DVSP-0254 bass dance EDM Electronic Instrumental NM4 no mod tech NCT Neko's Club Tournament oriental ancul Kyutei Anya Melfissa Shingyouji Yuni
BeatmapID:3215025
BeatmapSetID:1574603

[Difficulty]
HPDrainRate:5
CircleSize:4.2
OverallDifficulty:9
ApproachRate:9.5
SliderMultiplier:1.9
SliderTickRate:1

[Events]
//Background and Video events
0,0,"7d9d0490d8dfd7786fb9972de0e47d7314c4bba9.jpg",0,0
//Break Periods
2,67985,77028
//Storyboard Layer 0 (Background)
//Storyboard Layer 1 (Fail)
//Storyboard Layer 2 (Pass)
//Storyboard Layer 3 (Foreground)
//Storyboard Layer 4 (Overlay)
//Storyboard Sound Samples

[TimingPoints]
809,348.837209302326,4,2,1,50,1,0
11971,-142.857142857143,4,2,1,50,0,0
14762,-117.647058823529,4,2,1,50,0,0
17553,-90.9090909090909,4,2,1,50,0,0
18774,-83.3333333333333,4,2,1,50,0,0
20169,-55.5555555555556,4,2,1,60,0,0
20343,-71.4285714285714,4,2,1,60,0,0
21564,-71.4285714285714,4,2,1,70,0,0
23134,-50,4,2,1,80,0,0
23483,-50,4,2,1,80,0,0
23657,-66.6666666666667,4,2,1,80,0,0
23832,-166.666666666667,4,2,1,80,0,0
24355,-83.3333333333333,4,2,1,80,0,0
24529,-111.111111111111,4,2,1,80,0,0
24704,-71.4285714285714,4,2,1,80,0,0
24878,-52.6315789473684,4,2,1,80,0,0
25053,-41.6666666666667,4,2,1,80,0,0
25227,-166.666666666667,4,2,1,80,0,0
25402,-50,4,2,1,80,0,0
25489,-58.8235294117647,4,2,1,80,0,0
25576,-71.4285714285714,4,2,1,80,0,0
25663,-90.9090909090909,4,2,1,80,0,0
25750,-142.857142857143,4,2,1,80,0,0
25838,-250,4,2,1,80,0,0
25925,-166.666666666667,4,2,1,80,0,0
26274,-66.6666666666667,4,2,1,80,0,0
26448,-50,4,2,1,80,0,0
26622,-41.6666666666667,4,2,1,80,0,0
27146,-166.666666666667,4,2,1,80,0,0
27320,-100,4,2,1,80,0,0
27495,-71.4285714285714,4,2,1,80,0,0
27669,-55.5555555555556,4,2,1,80,0,0
27843,-45.4545454545455,4,2,1,80,0,0
28715,-43.4782608695652,4,2,1,80,0,0
29064,-45.4545454545455,4,2,1,80,0,0
29413,-66.6666666666667,4,2,1,80,0,0
29936,-45.4545454545455,4,2,1,80,0,0
30111,-111.111111111111,4,2,1,80,0,0
30285,-71.4285714285714,4,2,1,80,0,0
30460,-52.6315789473684,4,2,1,80,0,0
30634,-41.6666666666667,4,2,1,80,0,0
30809,-45.4545454545455,4,2,1,80,0,0
31157,-100,4,2,1,80,0,0
31506,-76.9230769230769,4,2,1,80,0,0
31855,-50,4,2,1,80,0,0
32204,-45.4545454545455,4,2,1,80,0,0
32553,-50,4,2,1,80,0,0
34253,-71.4285714285714,4,2,1,80,0,0
34297,-28.5714285714286,4,2,1,80,0,0
34820,-50,4,2,1,80,0,0
35692,-111.111111111111,4,2,1,80,0,0
35867,-71.4285714285714,4,2,1,80,0,0
36041,-52.6315789473684,4,2,1,80,0,0
36215,-41.6666666666667,4,2,1,80,0,0
36390,-50,4,2,1,80,0,0
36739,-50,4,2,1,80,0,0
37262,-100,4,2,1,80,0,0
37611,-50,4,2,1,80,0,0
38483,-111.111111111111,4,2,1,80,0,0
38657,-71.4285714285714,4,2,1,80,0,0
38832,-52.6315789473684,4,2,1,80,0,0
39006,-41.6666666666667,4,2,1,80,0,0
39181,-50,4,2,1,80,0,0
39878,-50,4,2,1,80,0,0
40227,-58.8235294117647,4,2,1,80,0,0
40402,-50,4,2,1,80,0,0
40576,-50,4,2,1,80,0,0
41099,-66.6666666666667,4,2,1,80,0,0
41274,-111.111111111111,4,2,1,80,0,0
41448,-71.4285714285714,4,2,1,80,0,0
41622,-52.6315789473684,4,2,1,80,0,0
41797,-41.6666666666667,4,2,1,80,0,0
41971,-50,4,2,1,80,0,0
42669,-50,4,2,1,80,0,0
42843,-50,4,2,1,80,0,0
43018,-100,4,2,1,80,0,0
43192,-50,4,2,1,80,0,0
43367,-45.4545454545455,4,2,1,80,0,0
44413,-66.6666666666667,4,2,1,80,0,0
44588,-45.4545454545455,4,2,1,80,0,0
45460,-41.6666666666667,4,2,1,90,0,1
45983,-100,4,2,1,90,0,1
46157,-50,4,2,1,90,0,1
46332,-41.6666666666667,4,2,1,90,0,1
46681,-50,4,2,1,90,0,1
46855,-38.4615384615385,4,2,1,90,0,1
47204,-41.6666666666667,4,2,1,90,0,1
48250,-41.6666666666667,4,2,1,90,0,1
48774,-66.6666666666667,4,2,1,90,0,1
48948,-41.6666666666667,4,2,1,90,0,1
49471,-55.5555555555556,4,2,1,90,0,1
49646,-41.6666666666667,4,2,1,90,0,1
50169,-45.4545454545455,4,2,1,90,0,1
50518,-41.6666666666667,4,2,1,90,0,1
50605,-50,4,2,1,90,0,1
50692,-62.5,4,2,1,90,0,1
50779,-83.3333333333333,4,2,1,90,0,1
50867,-125,4,2,1,90,0,1
50954,-250,4,2,1,90,0,1
51041,-41.6666666666667,4,2,1,90,0,1
51564,-66.6666666666667,4,2,1,90,0,1
51739,-41.6666666666667,4,2,1,90,0,1
51913,-38.4615384615385,4,2,1,90,0,1
52262,-41.6666666666667,4,2,1,90,0,1
52960,-41.6666666666667,4,2,1,90,0,1
54006,-125,4,2,1,90,0,1
54181,-100,4,2,1,90,0,1
54355,-83.3333333333333,4,2,1,90,0,1
54529,-71.4285714285714,4,2,1,90,0,1
54704,-62.5,4,2,1,90,0,1
54878,-55.5555555555556,4,2,1,90,0,1
55053,-50,4,2,1,90,0,1
55227,-41.6666666666667,4,2,1,90,0,1
55663,-41.6666666666667,4,2,1,90,0,1
55925,-83.3333333333333,4,2,1,90,0,1
56099,-62.5,4,2,1,90,0,1
56274,-50,4,2,1,90,0,1
56448,-41.6666666666667,4,2,1,90,0,1
56622,-43.4782608695652,4,2,1,90,0,1
57451,-37.037037037037,4,2,1,90,0,1
57669,-43.4782608695652,4,2,1,90,0,1
58192,-40,4,2,1,90,0,1
58541,-50,4,2,1,90,0,1
58715,-45.4545454545455,4,2,1,90,0,1
60634,-62.5,4,2,1,90,0,1
60983,-41.6666666666667,4,2,1,90,0,1
61506,-50,4,2,1,90,0,1
61593,-62.5,4,2,1,90,0,1
61681,-83.3333333333333,4,2,1,90,0,1
61768,-125,4,2,1,90,0,1
61855,-250,4,2,1,90,0,1
62029,-40,4,2,1,90,0,1
62204,-40,4,2,1,90,0,1
62902,-50,4,2,1,90,0,1
63250,-40,4,2,1,90,0,1
63599,-55.5555555555556,4,2,1,90,0,1
63774,-40,4,2,1,90,0,1
65169,-166.666666666667,4,2,1,90,0,1
65343,-111.111111111111,4,2,1,90,0,1
65518,-83.3333333333333,4,2,1,90,0,1
65692,-66.6666666666667,4,2,1,90,0,1
65867,-55.5555555555556,4,2,1,90,0,1
66041,-47.6190476190476,4,2,1,90,0,1
66215,-41.6666666666667,4,2,1,90,0,1
66390,-58.8235294117647,4,2,1,90,0,1
66739,-83.3333333333333,4,2,1,80,0,1
67088,-125,4,2,1,70,0,1
67785,-58.8235294117647,4,2,1,60,0,0
78832,-58.8235294117647,4,2,1,20,0,0
78948,-125,4,2,1,60,0,0
89413,-166.666666666667,4,2,1,60,0,0
90111,-166.666666666667,4,2,1,70,0,0
90634,-83.3333333333333,4,2,1,70,0,0
94646,-125,4,2,1,70,0,0
96215,-52.6315789473684,4,2,1,70,0,0
100227,-100,4,2,1,70,0,0
101797,-45.4545454545455,4,2,1,70,0,0
104064,-83.3333333333333,4,2,1,70,0,0
104588,-41.6666666666667,4,2,1,70,0,0
106855,-71.4285714285714,4,2,1,70,0,0
107204,-38.4615384615385,4,2,1,70,0,0
108250,-35.7142857142857,4,2,1,70,0,0
109995,-35.7142857142857,4,2,1,70,0,0
111390,-100,4,2,1,70,0,0
112436,-100,4,2,1,70,0,0
112611,-66.6666666666667,4,2,1,80,0,0
112785,-50,4,2,1,80,0,0
112960,-40,4,2,1,80,0,0
113134,-41.6666666666667,4,2,1,80,0,0
113657,-100,4,2,1,80,0,0
113832,-41.6666666666667,4,2,1,80,0,0
114355,-66.6666666666667,4,2,1,80,0,0
114529,-41.6666666666667,4,2,1,80,0,0
114878,-35.7142857142857,4,2,1,80,0,0
114965,-43.4782608695652,4,2,1,80,0,0
115053,-55.5555555555556,4,2,1,80,0,0
115140,-76.9230769230769,4,2,1,80,0,0
115227,-125,4,2,1,80,0,0
115402,-55.5555555555556,4,2,1,80,0,0
116448,-52.6315789473684,4,2,1,80,0,0
116797,-55.5555555555556,4,2,1,80,0,0
118018,-45.4545454545455,4,2,1,80,0,0
118715,-41.6666666666667,4,2,1,80,0,0
120111,-38.4615384615385,4,2,1,80,0,0
120809,-100,4,2,1,80,0,0
121506,-76.9230769230769,4,2,1,80,0,0
122029,-62.5,4,2,1,80,0,0
122553,-52.6315789473684,4,2,1,80,0,0
122902,-100,4,2,1,80,0,0
123599,-1000,4,2,1,80,0,0
124297,-41.6666666666667,4,2,1,80,0,0
124820,-100,4,2,1,80,0,0
124995,-41.6666666666667,4,2,1,80,0,0
126041,-90.9090909090909,4,2,1,80,0,0
126390,-55.5555555555556,4,2,1,80,0,0
127611,-52.6315789473684,4,2,1,80,0,0
127960,-55.5555555555556,4,2,1,80,0,0
129181,-50,4,2,1,80,0,0
129878,-38.4615384615385,4,2,1,80,0,0
131274,-33.3333333333333,4,2,1,80,0,0
131971,-50,4,2,1,80,0,0
132146,-50,4,2,1,80,0,0
132320,-100,4,2,1,80,0,0
132495,-50,4,2,1,80,0,0
132669,-45.4545454545455,4,2,1,80,0,0
133018,-50,4,2,1,80,0,0
133367,-38.4615384615385,4,2,1,80,0,0
133715,-50,4,2,1,80,0,0
133890,-76.9230769230769,4,2,1,80,0,0
134064,-50,4,2,1,80,0,0
134762,-45.4545454545455,4,2,1,90,0,1
136506,-41.6666666666667,4,2,1,90,0,1
136681,-43.4782608695652,4,2,1,90,0,1
136855,-41.6666666666667,4,2,1,90,0,1
137553,-43.4782608695652,4,2,1,90,0,1
138948,-38.4615384615385,4,2,1,90,0,1
139297,-41.6666666666667,4,2,1,90,0,1
139471,-43.4782608695652,4,2,1,90,0,1
139646,-38.4615384615385,4,2,1,90,0,1
139820,-41.6666666666667,4,2,1,90,0,1
139907,-50,4,2,1,90,0,1
139995,-62.5,4,2,1,90,0,1
140082,-83.3333333333333,4,2,1,90,0,1
140169,-125,4,2,1,90,0,1
140256,-250,4,2,1,90,0,1
140343,-41.6666666666667,4,2,1,90,0,1
141215,-41.6666666666667,4,2,1,90,0,1
141564,-45.4545454545455,4,2,1,90,0,1
143309,-125,4,2,1,90,0,1
143483,-100,4,2,1,90,0,1
143657,-83.3333333333333,4,2,1,90,0,1
143832,-71.4285714285714,4,2,1,90,0,1
144006,-62.5,4,2,1,90,0,1
144181,-55.5555555555556,4,2,1,90,0,1
144355,-50,4,2,1,90,0,1
144529,-40,4,2,1,90,0,1
145053,-41.6666666666667,4,2,1,90,0,1
145227,-41.6666666666667,4,2,1,90,0,1
145402,-52.6315789473684,4,2,1,90,0,1
145576,-166.666666666667,4,2,1,90,0,1
145663,-100,4,2,1,90,0,1
145750,-71.4285714285714,4,2,1,90,0,1
145838,-55.5555555555556,4,2,1,90,0,1
145925,-41.6666666666667,4,2,1,90,0,1
146099,-43.4782608695652,4,2,1,90,0,1
146753,-37.037037037037,4,2,1,90,0,1
146971,-43.4782608695652,4,2,1,90,0,1
147146,-41.6666666666667,4,2,1,90,0,1
147320,-41.6666666666667,4,2,1,90,0,1
147495,-41.6666666666667,4,2,1,90,0,1
149588,-45.4545454545455,4,2,1,90,0,1
149936,-43.4782608695652,4,2,1,90,0,1
151506,-41.6666666666667,4,2,1,90,0,1
152378,-43.4782608695652,4,2,1,90,0,1
152902,-41.6666666666667,4,2,1,90,0,1
153774,-43.4782608695652,4,2,1,90,0,1
154122,-41.6666666666667,4,2,1,90,0,1
154471,-142.857142857143,4,2,1,90,0,1
154646,-100,4,2,1,90,0,1
154820,-76.9230769230769,4,2,1,90,0,1
154995,-62.5,4,2,1,90,0,1
155169,-52.6315789473684,4,2,1,90,0,1
155343,-45.4545454545455,4,2,1,90,0,1
155518,-40,4,2,1,90,0,1
155692,-40,4,2,1,90,0,1
156041,-50,4,2,1,80,0,1
156390,-125,4,2,1,70,0,1
157088,-41.6666666666667,4,2,1,60,0,0

[Colours]
Combo1 : 255,132,197
Combo2 : 255,221,222

[HitObjects]
0,124,11971,6,0,B|10:106|10:106|65:98|65:98|80:133|122:145,1,132.999995941162,2|0,3:2|0:2,0:2:0:0:
142,65,12495,2,0,L|151:0,1,66.4999979705811,2|0,3:2|0:2,0:2:0:0:
187,132,12843,1,0,3:2:0:0:
333,58,13018,1,2,3:2:0:0:
228,59,13192,2,0,B|291:68|291:68|295:75|295:75|375:88,1,132.999995941162,0|0,3:2|0:2,0:2:0:0:
502,48,13715,5,0,3:2:0:0:
512,94,13889,1,0,0:2:0:0:
467,106,14064,1,0,3:2:0:0:
391,179,14239,5,0,0:2:0:0:
378,159,14413,1,0,3:2:0:0:
397,146,14588,1,0,0:2:0:0:
481,197,14762,6,0,L|381:179,1,80.750001540184,2|0,3:2|0:2,0:2:0:0:
478,286,15111,1,0,0:2:0:0:
405,338,15285,2,0,B|393:276|393:276|400:259,1,80.750001540184,2|0,3:2|0:2,0:2:0:0:
318,236,15634,1,0,3:2:0:0:
325,345,15809,2,0,B|262:333|238:272|238:272|211:272|211:272|206:353|206:353|178:385,1,242.250004620552,2|0,3:2|0:2,0:2:0:0:
126,318,16506,5,0,3:2:0:0:
126,318,16593,1,0,3:2:0:0:
126,318,16680,1,0,3:2:0:0:
27,280,16855,1,0,0:2:0:0:
37,196,17029,5,0,3:2:0:0:
7,201,17203,1,0,0:2:0:0:
3,171,17378,1,0,0:2:0:0:
29,83,17553,6,0,B|31:73|31:73|99:49|99:49|118:60,1,104.500003189087,2|0,3:2|0:2,0:2:0:0:
93,135,17902,1,0,0:2:0:0:
188,17,18076,2,0,B|210:57|195:96|195:96|234:112|234:112|249:99|269:94,1,156.750004783631,2|0,3:2|0:2,0:2:0:0:
275,14,18425,1,0,3:2:0:0:
296,170,18599,1,2,3:2:0:0:
395,17,18774,2,0,B|358:25|341:67|341:67|390:137|377:210,1,227.999993041992,2|0,3:2|0:2,0:2:0:0:
457,242,19297,5,0,3:2:0:0:
495,203,19471,1,0,0:2:0:0:
461,163,19646,1,0,3:2:0:0:
296,170,19820,5,0,0:2:0:0:
229,218,19995,1,0,3:2:0:0:
314,358,20169,2,0,B|326:366|326:366|369:345|369:345|372:294,1,85.4999973907472,0|0,3:2|0:2,0:2:0:0:
395,293,20343,6,0,B|287:282|287:282|263:292|238:329,1,132.999995941162,2|0,3:2|0:2,0:2:0:0:
96,337,20692,1,2,0:2:0:0:
195,384,20867,2,0,B|202:368|202:368|175:328|173:284|173:284|150:272,1,132.999995941162,2|0,3:2|0:2,0:2:0:0:
40,243,21215,1,0,0:2:0:0:
72,61,21390,1,2,3:2:0:0:
213,106,21564,5,2,0:2:0:0:
291,85,21739,1,0,0:2:0:0:
270,8,21913,1,0,0:2:0:0:
154,34,22088,5,2,0:2:0:0:
200,206,22262,1,2,3:2:0:0:
446,113,22436,5,8,0:2:0:0:
446,113,23134,6,0,B|469:114|492:138|492:138|498:118|463:54|395:43|359:61|359:61|343:93|292:110,1,285,4|0,1:2|0:2,3:1:0:0:
234,138,23483,6,2,B|262:146|262:146|299:120|344:113,1,95,2|0,0:2|0:2,0:1:0:0:
505,240,23657,2,2,B|518:260|518:260|515:297|505:305,1,71.2500027179719,2|0,0:2|0:2,0:1:0:0:
429,192,23832,6,0,L|415:217,1,28.4999991302491,8|0,3:2|0:2,0:2:0:0:
394,249,24006,2,0,L|398:221,1,28.4999991302491,0|0,3:2|0:2,0:2:0:0:
326,201,24181,2,0,L|312:226,1,28.4999991302491,4|0,3:3|0:2,0:2:0:0:
122,370,24355,1,2,1:2:0:0:
204,373,24529,6,0,B|221:356|221:356|222:340|222:340|211:338,1,42.7499986953736,2|0,0:2|0:2,0:2:0:0:
254,326,24704,6,0,B|259:290|259:290|244:271|244:271|228:279,1,66.4999979705811,2|0,0:2|0:2,0:2:0:0:
305,201,24878,6,0,B|274:166|274:166|243:164|243:164|238:187,1,90.2499975900651,2|0,0:2|0:2,0:2:0:0:
201,50,25053,6,0,B|147:51|147:51|123:77|123:77|139:98,1,113.999996520996,2|0,0:2|0:2,0:2:0:0:
0,56,25227,5,8,0:2:0:0:
143,263,25402,6,0,P|131:282|107:289,1,47.5,0|0,3:2|0:2,0:2:0:0:
76,274,25489,2,0,P|54:281|31:270,1,40.375000770092,0|0,3:2|0:2,0:2:0:0:
35,254,25576,2,0,P|13:245|3:222,1,33.2499989852906,0|0,3:2|0:2,0:2:0:0:
17,228,25663,2,0,P|7:211|11:191,1,26.1250007972718,0|0,3:2|0:2,0:2:0:0:
15,202,25750,2,0,P|15:189|27:181,1,16.6249994926453,0|0,3:2|0:2,0:2:0:0:
23,192,25838,2,0,P|27:186|35:187,1,9.5,0|0,3:2|0:2,0:2:0:0:
102,203,25925,5,0,1:2:0:0:
259,112,26099,1,2,3:2:0:0:
77,71,26274,2,0,B|66:108|66:108|104:131,1,71.2500027179719,0|0,1:2|0:2,0:2:0:0:
169,162,26448,6,0,P|215:138|274:135,1,95,2|0,0:2|0:2,0:2:0:0:
455,70,26622,5,10,0:2:0:0:
371,15,26797,6,2,P|345:26|380:101,1,113.999996520996,0|0,0:2|0:2,1:1:0:0:
483,313,26971,2,2,P|513:307|469:245,1,113.999996520996,0|0,0:2|0:2,0:1:0:0:
446,157,27146,6,0,P|421:163|413:171,1,28.4999991302491,0|0,1:2|0:2,0:2:0:0:
413,262,27320,6,0,P|395:246|372:241,1,47.5,2|0,0:2|0:2,0:2:0:0:
301,178,27495,6,0,P|269:187|244:208,1,66.4999979705811,2|0,0:2|0:2,0:2:0:0:
334,349,27669,6,0,P|299:324|257:321,1,85.4999973907472,2|0,0:2|0:2,0:2:0:0:
94,214,27843,6,0,P|42:218|0:247,1,104.500003189087,2|0,0:2|0:2,0:2:0:0:
174,333,28018,5,8,0:2:0:0:
175,359,28105,1,0,3:2:0:0:
162,376,28192,1,0,3:2:0:0:
145,362,28279,1,0,3:2:0:0:
133,337,28367,1,0,3:2:0:0:
139,294,28454,1,0,3:2:0:0:
178,251,28541,1,0,3:2:0:0:
246,232,28628,1,0,3:2:0:0:
326,253,28715,6,0,B|364:187|345:30|345:30|353:84|405:107,1,327.750006251335,6|0,1:2|0:2,0:1:0:0:
512,78,29064,6,2,P|466:29|404:28,1,104.500003189087,0|0,3:2|0:2,1:1:0:0:
262,93,29239,2,2,P|239:139|247:189,1,104.500003189087,2|0,0:2|0:2,0:1:0:0:
409,309,29413,6,0,B|428:315|446:305|446:305|430:299|411:268,1,71.2500027179719,8|0,0:2|0:2,0:2:0:0:
512,237,29588,2,0,B|507:217|490:206|490:206|492:223|475:255,1,71.2500027179719,0|0,3:2|0:2,0:2:0:0:
398,183,29762,2,0,B|383:196|382:217|382:217|396:206|432:205,1,71.2500027179719,4|0,3:3|0:2,0:2:0:0:
333,286,29936,5,2,1:2:0:0:
319,310,30111,6,0,P|308:327|287:332,1,42.7499986953736,2|0,0:2|0:2,0:2:0:0:
235,266,30285,6,0,P|214:267|185:232,1,66.4999979705811,2|0,0:2|0:2,0:2:0:0:
110,298,30460,6,0,P|89:297|50:240,1,90.2499975900651,2|0,1:2|0:2,0:2:0:0:
101,162,30634,6,0,P|85:148|99:62,1,113.999996520996,2|0,0:2|0:2,0:2:0:0:
208,45,30809,6,2,B|228:167|377:217|421:159|424:109|396:52|353:98,1,313.500009567261,8|0,0:2|0:2,0:2:0:0:
367,4,31157,5,0,3:2:0:0:
354,6,31245,1,0,3:2:0:0:
297,54,31332,1,4,3:3:0:0:
336,92,31419,1,0,3:2:0:0:
385,77,31506,2,0,B|428:73|508:132|472:194|404:199|409:160,1,185.249991519928,0|0,1:2|0:2,0:2:0:0:
507,23,31855,2,0,P|442:92|401:177,1,190,2|0,1:2|0:2,0:2:0:0:
261,138,32117,1,0,0:2:0:0:
245,63,32204,6,2,B|350:197|320:303|320:303|298:322|296:348|296:348,1,313.500009567261,8|0,0:2|0:2,0:1:0:0:
376,369,32553,5,4,3:3:0:0:
376,369,32640,1,0,3:2:0:0:
440,322,32727,2,0,B|458:298|450:277|450:277|427:273|408:292,2,95,0|0|0,1:2|0:2|0:2,0:2:0:0:
217,376,33076,6,0,P|169:369|112:318,1,95,2|0,0:3|0:2,0:2:0:0:
51,360,33250,2,0,P|33:314|48:240,1,95,0|0,1:2|0:2,0:2:0:0:
90,127,33425,2,0,B|101:102|89:81|89:81|66:81|50:106,1,95,0|0,3:2|0:2,0:2:0:0:
36,185,33599,5,8,0:2:0:0:
107,226,33686,1,0,3:3:0:0:
174,182,33774,2,0,P|171:167|173:124,1,47.5,2|0,3:2|0:2,0:2:0:0:
196,133,33861,2,0,P|208:100|224:86,1,47.5,2|0,3:2|0:2,0:2:0:0:
236,110,33948,2,0,P|255:94|286:96,1,47.5,2|0,3:2|0:2,0:2:0:0:
280,114,34035,2,0,P|310:106|327:127,1,47.5,2|0,3:2|0:2,0:2:0:0:
302,129,34122,2,0,P|325:138|324:161,1,47.5,2|0,3:2|0:2,0:2:0:0:
310,147,34210,2,0,P|308:171|290:164,1,47.5,2|0,3:2|0:2,0:2:0:0:
360,236,34297,6,2,B|359:239|359:239|362:243|362:243|361:246|361:246|363:247|363:247|362:250|362:250|365:250|365:250|363:255|363:255|368:254|368:254|369:258|369:258|372:258|372:258|372:261|372:261|378:257|378:257|376:268|376:268|382:265|382:265|382:270|382:270|387:267|387:267|386:272|386:272|391:268|391:268|389:276|389:276|395:270|395:270|396:276|396:276|399:272|399:272|401:278|401:278|404:272|404:272|406:282|406:282|408:268|408:268|412:279|412:279|416:271|416:271|420:280|420:280|420:270|420:270|427:284|427:284|426:270|426:270|433:279|433:279|431:268|431:268|440:278|440:278|435:262|435:262|447:277|447:277|443:263|443:263|452:271|452:271|448:259|448:259|458:267|458:267|452:256|452:256|466:265|466:265|455:253|455:253|467:258|467:258|457:249|457:249|470:252|470:252|463:243|463:243|478:245|478:245|458:236|458:236|476:237|476:237|464:231|464:231|477:229|477:229|466:226|466:226|480:220|480:220|466:220|466:220|476:214|476:214|465:215|465:215|475:207|475:207|466:207|466:207|475:200|475:200|464:203|464:203|470:196|470:196|457:201|457:201|468:193|468:193|460:194|460:194|468:187|468:187|458:192|458:192|462:186|462:186|456:187|456:187|458:182|458:182|454:182|454:182|456:175|456:175|450:179|450:179|451:174|451:174|446:175|446:175|446:171|446:171|438:178|438:178|443:167|443:167|439:171|439:171|439:167|439:167|435:169|435:169|433:166|433:166|429:168|429:168|427:163|427:163|425:167|425:167|422:164|422:164|421:166|421:166|417:165|417:165|415:168|415:168|411:166|411:166|409:168|409:168|407:168|407:168|403:171|403:171,1,831.250007927418,4|0,3:2|0:2,1:2:0:0:
225,168,34820,6,0,P|270:177|315:162,1,95,2|0,0:2|0:2,0:2:0:0:
447,10,34995,1,8,0:2:0:0:
208,6,35169,2,0,P|271:51|409:80,1,190,2|4,3:2|0:3,0:2:0:0:
90,122,35518,2,0,P|44:112|-1:127,1,95,0|0,1:2|0:2,0:2:0:0:
163,75,35692,6,0,P|173:108|174:122,1,42.7499986953736,2|0,3:2|0:2,0:2:0:0:
249,202,35867,6,0,P|252:169|264:138,1,66.4999979705811,2|0,0:2|0:2,0:2:0:0:
119,198,36041,6,0,P|148:247|154:290,1,90.2499975900651,2|0,0:2|0:2,0:2:0:0:
243,384,36215,6,0,P|249:339|305:294,1,113.999996520996,2|0,0:2|0:2,0:2:0:0:
33,247,36390,6,2,P|167:290|309:285,1,285,10|0,0:2|0:2,1:2:0:0:
388,242,36739,6,0,B|401:232|401:232|416:194,2,47.5,4|2|2,3:3|0:2|0:2,0:2:0:0:
388,327,36913,2,0,B|403:333|403:333|444:328,2,47.5,4|2|2,0:3|0:2|0:2,0:2:0:0:
310,285,37088,1,0,1:2:0:0:
293,116,37262,6,0,P|311:72|318:25,1,95,2|0,0:2|1:2,0:2:0:0:
211,156,37611,2,0,B|211:197|211:197|237:209|237:209|255:192,1,95,0|0,3:2|0:2,0:2:0:0:
236,49,37785,5,8,3:2:0:0:
182,4,37872,1,0,3:2:0:0:
110,0,37959,1,0,3:2:0:0:
45,33,38046,1,0,3:2:0:0:
16,97,38134,6,2,B|41:82|41:82|79:78|79:78|112:111,1,95,4|0,0:3|0:2,0:1:0:0:
176,282,38309,2,2,B|151:297|151:297|113:301|113:301|80:268,1,95,0|0,1:2|0:2,0:1:0:0:
16,173,38483,6,0,P|50:168|72:159,1,42.7499986953736,2|0,0:2|0:2,0:2:0:0:
69,189,38657,6,0,P|103:194|134:212,1,66.4999979705811,2|0,0:2|0:2,0:2:0:0:
200,136,38832,6,0,P|234:131|294:93,1,90.2499975900651,2|0,0:2|0:2,0:2:0:0:
317,238,39006,6,0,P|351:243|451:306,1,113.999996520996,2|0,0:2|0:2,0:2:0:0:
435,60,39181,5,8,3:2:0:0:
417,67,39268,1,0,3:2:0:0:
397,64,39355,1,0,3:2:0:0:
379,48,39442,1,0,3:2:0:0:
402,32,39529,1,0,3:2:0:0:
450,35,39617,1,0,3:2:0:0:
492,73,39704,1,0,3:2:0:0:
512,137,39791,1,0,3:2:0:0:
485,209,39878,6,0,B|430:163|282:155|282:155|333:156|363:112,1,285,4|0,1:2|0:2,0:1:0:0:
286,73,40227,6,2,P|249:43|212:40,1,80.750001540184,0|0,3:2|0:2,0:1:0:0:
0,179,40402,2,2,P|46:175|82:145,1,95,0|0,0:2|0:2,0:1:0:0:
220,118,40576,1,8,0:2:0:0:
134,0,40750,6,0,P|131:25|155:118,1,95,0|0,3:2|0:2,0:2:0:0:
77,261,40925,1,4,1:3:0:0:
81,181,41099,6,0,P|115:177|137:204,1,71.2500027179719,2|0,1:2|0:2,0:2:0:0:
25,327,41274,6,0,P|4:341|12:372,1,42.7499986953736,2|0,0:2|0:2,0:2:0:0:
157,323,41448,6,0,P|136:343|94:335,1,66.4999979705811,2|0,0:2|0:2,0:2:0:0:
264,208,41622,6,0,P|217:225|219:284,1,90.2499975900651,2|0,1:2|0:2,0:2:0:0:
432,258,41797,6,0,P|411:278|326:259,1,113.999996520996,2|0,0:2|0:2,0:2:0:0:
203,78,41971,6,0,P|187:62|193:99,1,95,10|0,0:2|0:2,0:2:0:0:
259,131,42146,2,0,B|340:120|340:120|349:111,1,95,2|0,3:2|0:2,0:2:0:0:
491,44,42320,5,0,3:2:0:0:
494,32,42407,1,0,3:2:0:0:
420,10,42495,1,4,3:3:0:0:
403,54,42582,1,0,3:2:0:0:
434,103,42669,2,0,B|468:117|468:117|474:136,2,47.5,0|0|0,1:2|3:2|3:2,0:2:0:0:
349,111,42843,6,0,B|380:185|380:185|372:221,1,95,2|0,0:3|0:2,0:2:0:0:
303,358,43018,2,0,L|255:352,1,47.5,0|0,1:2|0:2,0:2:0:0:
227,361,43192,2,0,B|240:347|240:347|335:339,1,95,4|0,0:3|0:2,0:2:0:0:
489,322,43367,6,2,B|457:326|457:326|382:292|382:292|380:283|380:283|232:226|232:226|229:221|229:221|177:224,1,313.500009567261,8|0,0:2|0:2,0:1:0:0:
46,224,43715,1,4,0:3:0:0:
46,224,43890,1,0,1:2:0:0:
31,307,44064,6,0,B|89:296|89:296|95:289|95:289|152:277,1,104.500003189087,2|0,3:2|0:2,0:2:0:0:
203,222,44239,2,0,B|261:211|261:211|267:204|267:204|324:192,1,104.500003189087,2|0,3:3|0:2,0:2:0:0:
375,149,44413,6,0,P|418:157|432:189,1,71.2500027179719,0|0,1:2|0:2,0:2:0:0:
381,61,44588,2,0,P|330:62|300:103,1,104.500003189087,2|0,3:2|0:2,0:2:0:0:
212,103,44762,5,8,0:2:0:0:
167,160,44849,1,8,0:3:0:0:
99,172,44936,1,4,0:3:0:0:
48,137,45024,1,4,0:3:0:0:
82,65,45111,5,4,3:3:0:0:
81,56,45198,1,0,3:2:0:0:
76,47,45285,1,0,3:2:0:0:
69,44,45372,1,0,3:2:0:0:
0,71,45460,6,0,B|11:87|11:87|60:80|120:129,1,113.999996520996,4|0,1:2|0:2,0:2:0:0:
252,4,45634,1,0,0:2:0:0:
252,4,45721,1,0,0:2:0:0:
159,15,45809,6,0,B|155:34|155:34|194:64|202:142,1,113.999996520996,8|0,1:2|0:2,0:2:0:0:
184,224,45983,2,0,P|173:242|139:240,1,47.5,0|0,3:2|0:2,0:2:0:0:
123,237,46157,6,0,B|128:209|147:191|147:191|165:201|204:205,1,95,8|0,0:1|0:2,0:2:0:0:
288,78,46332,6,0,B|298:95|298:95|272:136|290:213,1,113.999996520996,8|0,1:2|0:2,0:2:0:0:
323,357,46506,1,0,3:2:0:0:
413,256,46681,6,0,B|392:236|368:232|368:232|357:250|327:274,1,95,0|0,3:3|0:2,0:2:0:0:
155,249,46855,6,2,B|176:253|176:253|254:201|341:240|341:240|343:250|343:250|405:280|418:368|418:368|412:371|412:371|425:380|425:380|509:341|490:273,1,493.999977386476,12|0,1:2|0:2,0:1:0:0:
512,198,47378,6,0,B|491:201|491:201|459:165|381:162,1,113.999996520996,8|0,1:2|0:2,0:2:0:0:
202,49,47553,5,8,0:1:0:0:
286,64,47640,1,0,3:2:0:0:
329,130,47727,1,0,3:2:0:0:
319,185,47814,1,0,3:2:0:0:
280,197,47902,5,0,3:2:0:0:
263,147,47989,1,0,3:2:0:0:
227,140,48076,1,0,3:2:0:0:
204,151,48163,1,0,3:2:0:0:
212,232,48250,6,0,B|168:227|131:205|131:205|125:223|148:239,1,113.999996520996,12|0,1:2|0:2,0:2:0:0:
36,262,48425,1,0,3:2:0:0:
36,262,48512,1,0,0:2:0:0:
12,335,48599,6,0,B|0:345|8:361|8:361|41:333|84:322,1,113.999996520996,8|0,1:2|0:2,0:2:0:0:
270,336,48774,2,0,P|282:341|306:370,2,35.625001358986,0|0|0,3:2|3:2|3:2,3:2:0:0:
296,257,48948,5,8,0:1:0:0:
176,372,49122,2,0,B|176:288|209:219|209:219|186:258|137:265,1,227.999993041992,8|0,1:2|0:2,0:2:0:0:
140,258,49471,6,0,P|118:221|121:173,1,85.4999973907472,0|0,3:2|0:2,0:2:0:0:
91,8,49646,6,2,B|56:-18|-28:15|-12:115|71:123|116:79|116:79|128:85|128:85|162:16|232:-2|280:22|297:57,1,455.999986083985,12|0,1:2|0:2,0:1:0:0:
309,132,50169,6,0,B|319:141|304:160|304:160|278:130|237:115,1,104.500003189087,8|0,1:2|0:2,0:2:0:0:
28,188,50343,1,8,0:1:0:0:
173,167,50518,6,2,P|125:170|114:183,1,56.9999982604981,2|2,0:2|0:2,0:2:0:0:
116,219,50605,2,2,P|88:254|90:271,1,47.5,2|2,0:2|0:2,0:2:0:0:
115,287,50692,2,2,P|124:330|137:337,1,38,2|2,1:2|0:2,0:2:0:0:
152,320,50779,2,0,P|181:335|194:331,1,28.4999991302491,0|0,0:2|0:2,0:2:0:0:
186,322,50867,2,0,P|204:314|207:307,1,19,2|0,3:2|0:2,0:2:0:0:
203,310,50954,2,0,P|206:299|205:294,1,9.5,0|0,3:2|0:2,0:2:0:0:
273,343,51041,6,0,B|287:295|273:252|273:252|290:240|298:210,1,113.999996520996,12|0,1:2|0:2,0:2:0:0:
437,147,51215,1,0,3:2:0:0:
437,147,51303,1,0,0:2:0:0:
357,190,51390,6,0,B|394:223|437:229|437:229|443:249|466:269,1,113.999996520996,8|0,1:2|0:2,0:2:0:0:
478,338,51564,2,0,B|473:357|473:357|457:377|457:377|422:380,1,71.2500027179719,0|0,0:2|0:2,0:2:0:0:
225,173,51739,5,8,0:1:0:0:
354,333,51913,2,0,B|301:227|321:138|321:138|297:128|285:105,1,246.999988693238,8|0,1:2|0:2,0:2:0:0:
219,164,52262,6,0,B|192:206|194:250|194:250|175:258|176:263,1,113.999996520996,0|0,3:2|0:2,0:2:0:0:
32,284,52436,6,2,B|55:290|55:290|216:191|384:217|384:217|399:171|441:147,1,455.999986083985,12|0,1:2|0:2,0:1:0:0:
466,52,52960,6,0,B|416:45|377:65|377:65|362:51|358:54,1,113.999996520996,8|0,1:2|0:2,0:2:0:0:
98,151,53134,5,8,0:1:0:0:
114,69,53221,1,0,3:2:0:0:
167,18,53308,1,0,3:2:0:0:
227,24,53396,1,0,3:2:0:0:
243,64,53483,5,8,0:3:0:0:
238,88,53570,1,8,0:3:0:0:
200,110,53657,5,4,0:3:0:0:
189,90,53744,1,4,0:3:0:0:
277,66,53832,6,0,B|294:94|294:94|301:137|261:182,1,113.999996520996,14|0,1:2|0:2,0:2:0:0:
244,348,54006,6,0,P|252:365|253:384,1,38,2|0,0:2|0:2,0:2:0:0:
296,297,54181,6,0,P|284:317|279:341,1,47.5,10|0,1:2|0:2,0:2:0:0:
190,235,54355,6,0,P|209:255|219:281,1,56.9999982604981,2|0,0:2|0:2,0:2:0:0:
344,171,54529,6,0,P|321:194|311:226,1,66.4999979705811,8|0,0:1|0:2,0:2:0:0:
127,116,54704,6,0,P|153:125|188:169,1,76,10|0,1:2|0:2,0:2:0:0:
439,45,54878,6,0,P|412:54|369:111,1,85.4999973907472,2|0,0:2|0:2,0:2:0:0:
45,0,55053,6,0,P|72:0|133:53,1,95,2|0,0:3|0:2,0:2:0:0:
271,257,55227,6,2,B|321:304|344:398|235:455|145:381|125:271|262:214|314:232|218:221|250:215|250:215|278:174|259:112,1,455.999986083985,12|0,1:2|0:2,0:1:0:0:
261,44,55663,1,0,0:2:0:0:
261,44,55750,2,2,B|267:31|267:31|296:39|296:39|303:52,2,56.9999982604981,2|2|2,1:2|0:2|0:2,0:2:0:0:
404,21,55925,6,0,B|408:20|408:20|429:44|429:44|424:63,1,56.9999982604981,8|0,0:1|3:2,0:2:0:0:
375,129,56099,2,0,B|379:134|379:134|370:176|370:176|345:186,1,76,2|0,3:2|3:2,3:2:0:0:
246,163,56274,6,0,B|247:151|247:151|212:112|212:112|181:117,1,95,2|0,1:2|3:2,0:2:0:0:
90,170,56448,2,0,B|77:156|77:156|18:159|18:159|-1:190,1,113.999996520996,2|0,3:2|3:2,0:2:0:0:
0,323,56622,5,0,1:2:0:0:
176,196,56797,6,0,P|135:260|161:332,1,109.250002083778,12|0,0:2|0:2,0:2:0:0:
280,384,56971,5,0,1:2:0:0:
280,384,57059,1,0,3:2:0:0:
171,384,57146,2,0,P|248:308|408:328,1,218.500004167557,8|8,0:2|0:1,0:2:0:0:
452,237,57451,6,0,P|474:186|418:154,2,128.250000489235,2|2|0,0:2|0:2|0:2,0:2:0:0:
367,221,57669,6,0,P|243:160|165:174,1,218.500004167557,8|4,0:2|3:3,0:2:0:0:
42,84,57931,1,0,3:2:0:0:
63,163,58018,6,0,P|49:175|7:184,1,54.6250010418892,0|0,1:2|0:2,0:2:0:0:
75,173,58105,2,0,P|70:190|37:218,1,54.6250010418892,0|0,3:2|0:2,0:2:0:0:
120,108,58192,6,2,P|217:16|462:34,1,356.25,12|0,0:2|0:2,0:1:0:0:
488,71,58541,6,0,P|506:95|469:82,1,95,0|0,1:2|3:2,3:2:0:0:
228,115,58715,5,8,3:1:0:0:
213,122,58803,1,0,3:2:0:0:
200,140,58890,1,0,3:2:0:0:
197,167,58977,1,0,3:2:0:0:
212,206,59064,5,0,3:2:0:0:
243,162,59152,1,0,3:2:0:0:
300,135,59239,1,0,3:2:0:0:
374,135,59326,1,0,3:2:0:0:
445,178,59413,1,0,1:2:0:0:
310,230,59588,6,0,P|352:217|377:270,1,104.500003189087,12|0,0:2|0:2,0:2:0:0:
188,354,59762,5,0,1:2:0:0:
188,354,59849,1,0,3:2:0:0:
248,292,59936,2,0,P|142:279|102:381,1,209.000006378174,8|8,0:2|0:1,0:2:0:0:
469,259,60285,6,0,B|496:279|496:279|497:322|497:322|469:340,1,104.500003189087,0|0,1:2|0:2,0:2:0:0:
390,337,60460,6,0,P|343:341|284:384,1,104.500003189087,8|0,0:2|0:2,0:2:0:0:
148,297,60634,6,0,B|135:286|135:286|97:273,1,38,4|0,3:3|3:2,3:2:0:0:
165,284,60721,2,0,B|158:268|158:268|158:228,1,38,0|0,3:2|3:2,3:2:0:0:
207,362,60809,5,0,1:2:0:0:
29,301,60983,2,2,B|40:330|17:374|17:374|78:296|163:279|163:279|178:287|178:287|215:277|276:302,1,341.999989562989,12|0,0:2|0:2,0:1:0:0:
333,258,61332,1,0,1:2:0:0:
333,258,61419,1,0,0:2:0:0:
231,203,61506,6,2,P|234:171|250:154,1,47.5,8|2,0:1|0:2,0:2:0:0:
285,153,61593,2,2,P|306:137|326:134,1,38,2|2,0:2|0:2,0:2:0:0:
338,154,61681,2,2,P|355:152|371:157,1,28.4999991302491,2|2,0:2|0:2,0:2:0:0:
370,175,61768,2,2,P|383:176|393:180,1,19,2|2,0:2|0:2,0:2:0:0:
380,192,61855,2,2,P|387:196|389:199,1,9.5,2|2,1:2|0:2,0:2:0:0:
496,104,62029,6,0,B|515:107|522:127|522:127|481:149|461:210,1,118.75,8|0,0:2|0:2,0:2:0:0:
446,264,62204,1,0,1:2:0:0:
330,317,62378,6,0,B|349:313|356:293|356:293|315:271|295:210,1,118.75,12|0,0:2|0:2,0:2:0:0:
143,124,62553,1,0,1:2:0:0:
230,109,62727,6,0,B|249:112|256:132|256:132|215:154|195:215,1,118.75,8|0,0:2|0:2,0:2:0:0:
2,289,62902,6,0,P|41:264|88:269,1,95,8|0,0:1|0:2,0:2:0:0:
218,280,63076,1,0,1:2:0:0:
218,280,63163,1,0,3:2:0:0:
245,356,63250,6,0,B|245:375|226:386|226:386|197:349|133:340,1,118.75,8|0,0:2|0:2,0:2:0:0:
27,190,63425,1,0,3:2:0:0:
67,350,63599,6,0,P|86:311|87:267,1,85.4999973907472,0|0,1:2|0:2,0:2:0:0:
16,105,63774,2,2,B|-8:61|30:33|30:33|59:146|173:197|268:162,1,356.25,12|0,0:2|0:2,0:1:0:0:
314,116,64122,1,0,1:2:0:0:
314,116,64210,1,0,3:2:0:0:
313,228,64297,6,0,B|313:209|332:198|332:198|361:235|425:244,1,118.75,8|0,0:1|0:2,0:2:0:0:
481,82,64471,5,0,3:2:0:0:
466,77,64558,1,8,0:3:0:0:
404,139,64646,5,0,3:2:0:0:
407,154,64733,1,8,0:3:0:0:
491,179,64820,5,4,3:3:0:0:
502,168,64907,1,4,3:3:0:0:
459,131,64995,5,0,1:2:0:0:
452,57,65169,6,0,P|420:69|418:83,1,28.4999991302491,12|0,0:2|0:2,0:2:0:0:
387,136,65343,6,0,P|369:124|365:103,1,42.7499986953736,0|0,1:2|0:2,0:2:0:0:
310,25,65518,6,0,P|288:66|303:99,1,56.9999982604981,8|0,0:2|0:2,0:2:0:0:
368,219,65692,6,0,P|330:206|309:166,1,71.2500027179719,8|0,0:1|0:2,0:2:0:0:
137,112,65867,6,0,P|149:155|204:176,1,85.4999973907472,0|0,1:2|0:2,0:2:0:0:
390,307,66041,6,0,P|343:321|296:303,1,99.7499969558717,8|0,0:2|0:2,0:2:0:0:
53,335,66215,6,0,P|91:364|176:316,1,113.999996520996,0|0,1:2|0:2,0:2:0:0:
476,321,66390,6,2,P|417:220|300:208,1,242.250004620552,4|0,0:2|0:2,0:1:0:0:
46,168,66739,6,2,P|155:207|233:159,1,170.999994781494,4|0,0:2|0:2,0:1:0:0:
228,1,67088,6,0,B|157:105|255:179|355:105|284:1,1,304,4|2,0:2|0:2,0:2:0:0:
256,192,77553,12,0,78832,0:2:0:0:
256,192,78948,5,4,0:2:0:0:
170,209,79646,2,0,P|106:170|69:105,1,152,2|0,0:2|0:2,0:2:0:0:
62,253,80227,1,2,0:2:0:0:
84,277,80343,2,0,P|84:295|75:313,1,38,2|0,0:2|0:2,0:2:0:0:
185,293,80518,6,0,P|263:268|351:293,1,152,2|0,0:2|0:2,0:2:0:0:
402,211,80954,1,0,0:2:0:0:
402,211,81041,1,0,0:2:0:0:
468,337,81215,2,0,P|368:289|306:181,1,228,2|0,0:2|0:2,0:2:0:0:
309,192,82320,5,2,0:2:0:0:
317,209,82436,1,2,0:2:0:0:
333,102,82669,1,2,0:2:0:0:
373,123,82785,1,2,0:2:0:0:
477,17,83018,1,2,0:2:0:0:
512,107,83134,2,0,P|478:60|380:37,1,152,2|0,3:2|0:2,0:2:0:0:
298,12,83715,2,0,P|274:32|247:40,1,50.6666666666667,2|0,0:2|3:2,0:2:0:0:
1,30,84006,6,0,P|111:38|186:121,1,228,2|0,0:2|0:2,0:2:0:0:
186,121,85184,5,2,0:2:0:0:
190,136,85227,5,2,0:2:0:0:
96,214,85576,1,2,0:2:0:0:
74,295,85881,5,2,0:2:0:0:
86,299,85925,5,2,0:2:0:0:
141,359,86274,1,2,0:2:0:0:
220,351,86622,6,0,P|232:337|251:333,3,38,2|0|0|0,0:2|0:2|0:2|0:2,0:2:0:0:
250,313,86971,1,2,0:2:0:0:
254,297,87059,1,2,0:2:0:0:
249,280,87146,1,2,0:2:0:0:
237,264,87233,1,2,0:2:0:0:
245,240,87320,6,0,P|281:207|345:200,1,101.333333333333,2|2,0:2|0:2,0:2:0:0:
413,177,87669,1,2,0:2:0:0:
484,239,87902,1,2,0:2:0:0:
486,259,88018,1,2,0:2:0:0:
391,262,88250,5,2,0:2:0:0:
368,299,88367,1,2,0:2:0:0:
207,178,88599,1,2,0:2:0:0:
274,237,88715,2,0,P|166:279|79:279,1,202.666666666667,2|0,3:2|0:2,0:2:0:0:
42,160,89297,1,0,3:2:0:0:
18,171,89413,2,0,P|116:246|199:259,1,199.499993911743,0|0,3:2|0:2,0:2:0:0:
274,237,90111,6,0,B|290:218|290:218|283:176|299:141,1,85.4999973907472,12|0,0:2|0:2,0:2:0:0:
354,97,90460,5,8,0:2:0:0:
374,188,90634,2,0,P|392:190|374:187,1,56.9999982604981,2|0,0:2|0:2,0:2:0:0:
446,117,90809,5,8,0:2:0:0:
391,188,91157,2,0,P|373:190|391:187,1,56.9999982604981,10|0,0:2|0:2,0:2:0:0:
472,202,91506,5,8,0:2:0:0:
374,188,91681,2,0,P|392:190|374:187,1,56.9999982604981,2|0,0:2|0:2,0:2:0:0:
409,280,91855,5,8,0:2:0:0:
315,260,92204,5,8,0:2:0:0:
391,188,92378,2,0,P|373:190|391:187,1,56.9999982604981,2|0,0:2|0:2,0:2:0:0:
289,175,92553,5,8,0:2:0:0:
374,188,92727,2,0,P|392:190|374:187,1,56.9999982604981,2|0,0:2|0:2,0:2:0:0:
354,97,92902,5,8,0:2:0:0:
391,188,93250,2,0,P|373:190|391:187,1,56.9999982604981,10|0,0:2|0:2,0:2:0:0:
374,188,93599,2,0,P|392:190|374:187,1,56.9999982604981,10|0,0:2|0:2,0:2:0:0:
446,117,93948,5,8,0:2:0:0:
391,188,94122,2,0,P|373:190|391:187,1,56.9999982604981,2|0,0:2|0:2,0:2:0:0:
472,202,94297,5,8,0:2:0:0:
201,338,94646,6,0,B|189:319|189:319|140:329|86:294,1,114,12|0,0:2|0:2,0:2:0:0:
36,361,94995,1,8,0:2:0:0:
234,230,95169,6,0,B|246:211|246:211|295:221|349:186,1,114,4|0,0:2|0:2,0:2:0:0:
397,259,95518,1,0,0:2:0:0:
184,120,95692,6,0,B|172:101|172:101|123:111|69:76,1,114,12|0,0:2|0:2,0:2:0:0:
19,153,96041,5,8,0:2:0:0:
130,183,96215,2,0,P|127:212|128:183,1,90.2499975900651,2|0,0:2|0:2,0:2:0:0:
29,267,96390,5,8,0:2:0:0:
29,267,96564,1,0,3:2:0:0:
130,211,96739,2,0,P|127:182|128:211,1,90.2499975900651,10|0,0:2|0:2,0:2:0:0:
146,313,96913,5,0,3:2:0:0:
146,313,97087,1,8,0:2:0:0:
130,183,97262,2,0,P|127:212|128:183,1,90.2499975900651,2|0,0:2|0:2,0:2:0:0:
239,239,97436,5,8,0:2:0:0:
226,124,97785,5,8,0:2:0:0:
130,211,97960,2,0,P|127:182|128:211,1,90.2499975900651,2|0,0:2|0:2,0:2:0:0:
109,79,98134,5,8,0:2:0:0:
130,183,98309,2,0,P|127:212|128:183,1,90.2499975900651,2|0,0:2|0:2,0:2:0:0:
19,153,98483,5,8,0:2:0:0:
19,153,98657,1,0,3:2:0:0:
130,211,98832,2,0,P|127:182|128:211,1,90.2499975900651,10|0,0:2|0:2,0:2:0:0:
130,183,99181,2,0,P|127:212|128:183,1,90.2499975900651,10|0,0:2|0:2,0:2:0:0:
29,267,99355,5,0,3:2:0:0:
29,267,99529,1,8,0:2:0:0:
130,211,99704,2,0,P|127:182|128:211,1,90.2499975900651,2|0,0:2|0:2,0:2:0:0:
146,313,99878,5,8,0:2:0:0:
362,190,100227,6,0,B|382:181|382:181|376:100|426:56,1,142.5,12|0,0:2|0:2,0:2:0:0:
299,131,100576,1,8,0:2:0:0:
291,344,100750,6,0,B|270:335|270:335|276:254|226:210,1,142.5,4|0,0:2|0:2,0:2:0:0:
354,285,101099,1,0,0:2:0:0:
113,149,101274,6,0,B|102:129|102:129|159:70|149:5,1,142.5,12|0,0:2|0:2,0:2:0:0:
199,144,101623,1,8,0:2:0:0:
37,31,101797,6,0,P|60:54|36:33,1,104.500003189087,2|0,0:2|0:2,0:2:0:0:
19,138,101971,1,8,0:2:0:0:
19,138,102146,1,0,3:2:0:0:
131,251,102320,6,0,P|154:228|130:249,1,104.500003189087,10|0,0:2|0:2,0:2:0:0:
113,149,102494,1,0,3:2:0:0:
211,28,102669,5,8,0:1:0:0:
211,28,102843,2,0,P|234:51|210:30,1,104.500003189087,2|0,0:2|0:2,0:2:0:0:
210,133,103017,1,8,0:2:0:0:
210,133,103192,1,0,3:2:0:0:
322,259,103367,6,0,P|345:236|321:257,1,104.500003189087,10|0,0:2|0:2,0:2:0:0:
303,162,103541,1,0,3:2:0:0:
303,162,103715,1,8,0:2:0:0:
419,29,103890,6,0,P|442:52|418:31,1,104.500003189087,2|0,0:2|0:2,0:2:0:0:
512,212,104064,6,0,B|505:190|505:190|423:189|369:115,1,170.999994781494,12|0,0:2|0:2,0:2:0:0:
512,104,104413,1,8,0:2:0:0:
373,291,104588,5,0,1:2:0:0:
493,307,104762,6,0,P|458:320|494:310,1,113.999996520996,10|0,0:2|0:2,0:2:0:0:
429,218,104936,1,0,3:2:0:0:
429,218,105111,1,8,1:2:0:0:
358,131,105285,6,0,P|323:118|359:128,1,113.999996520996,2|0,0:2|0:2,0:2:0:0:
198,271,105460,5,8,0:1:0:0:
286,345,105634,2,0,P|251:358|287:348,1,113.999996520996,2|0,0:2|0:2,0:2:0:0:
291,257,105809,1,8,0:2:0:0:
291,257,105983,1,0,3:2:0:0:
150,175,106157,6,0,P|115:162|151:172,1,113.999996520996,10|0,0:2|0:2,0:2:0:0:
238,181,106332,1,0,3:2:0:0:
238,181,106506,1,8,1:2:0:0:
75,269,106681,6,0,P|40:282|76:272,1,113.999996520996,2|0,0:2|0:2,0:2:0:0:
341,238,106855,6,0,B|319:230|319:230|244:291|146:272,1,199.499993911743,12|0,1:2|0:2,0:2:0:0:
120,356,107204,5,8,1:2:0:0:
32,127,107378,6,0,P|-6:124|31:129,1,123.499994346619,2|0,3:2|0:2,0:2:0:0:
96,183,107553,5,8,1:2:0:0:
300,116,107727,1,0,3:2:0:0:
145,67,107902,6,0,P|107:82|144:64,1,123.499994346619,8|0,1:2|0:2,0:2:0:0:
221,36,108076,5,0,3:2:0:0:
428,137,108250,1,8,1:2:0:0:
227,188,108425,6,0,P|183:181|225:193,1,132.999995941162,0|0,3:2|0:2,0:2:0:0:
297,234,108599,5,8,1:2:0:0:
510,103,108774,1,8,0:2:0:0:
374,301,108948,6,0,P|362:343|377:302,1,132.999995941162,12|0,1:2|0:2,0:2:0:0:
427,50,109122,1,8,0:2:0:0:
491,268,109297,6,0,P|522:298|493:266,1,132.999995941162,12|0,1:2|0:2,0:2:0:0:
355,102,109471,1,8,0:2:0:0:
401,179,109646,6,0,P|420:187|405:177,8,66.4999979705811,0|0|0|0|0|0|0|0|0,1:2|3:2|3:2|3:2|3:2|3:2|3:2|3:2|0:2,3:2:0:0:
324,181,111390,6,0,P|277:191|238:218,1,95,2|0,0:2|0:2,0:2:0:0:
216,121,111622,1,2,0:2:0:0:
82,189,111739,2,0,P|50:183|24:166,2,63.3333333333333,8|0|0,0:2|0:2|0:2,0:2:0:0:
158,176,112088,5,2,0:1:0:0:
164,185,112320,1,2,0:2:0:0:
29,260,112436,6,0,P|14:292|23:318,1,47.5,4|0,1:2|0:2,0:2:0:0:
72,350,112611,6,0,P|117:318|116:275,1,71.2500027179719,2|0,0:2|0:2,0:2:0:0:
207,290,112785,6,0,P|225:347|261:368,1,95,2|0,0:2|0:2,0:2:0:0:
379,341,112960,6,0,P|395:287|362:209,1,118.75,2|0,0:2|0:2,0:2:0:0:
477,95,113134,6,0,B|467:103|467:103|430:98|398:122|398:122|371:125|352:95,1,113.999996520996,8|0,1:2|0:2,0:2:0:0:
188,113,113309,1,0,0:2:0:0:
166,16,113396,2,0,B|176:24|176:24|213:19|245:43|245:43|272:46|291:16,1,113.999996520996,2|0,1:2|0:2,0:2:0:0:
284,26,113657,6,0,L|295:72,1,47.5,0|0,3:2|0:2,0:2:0:0:
303,180,113832,6,0,B|293:188|293:188|256:183|224:207|224:207|197:210|178:180,1,113.999996520996,8|0,1:2|0:2,0:2:0:0:
0,244,114006,1,0,0:2:0:0:
10,135,114093,2,0,B|22:136|22:136|52:114|91:118|91:118|116:107|118:72,1,113.999996520996,2|0,1:2|0:2,0:2:0:0:
107,199,114355,6,0,B|100:228|100:228|90:230|90:230|77:196,1,71.2500027179719,0|0,3:3|0:2,0:2:0:0:
0,29,114529,6,2,B|18:52|18:52|103:55|164:120|164:120|224:139|277:79,1,227.999993041992,4|0,1:2|0:2,0:1:0:0:
214,46,114791,1,0,0:2:0:0:
278,106,114878,6,2,P|295:132|280:159,1,66.4999979705811,2|2,0:2|0:2,0:2:0:0:
271,157,114965,2,2,P|289:174|314:167,1,54.6250010418892,2|2,0:2|0:2,0:2:0:0:
323,157,115053,2,2,P|335:172|335:193,1,42.7499986953736,2|2,0:2|0:2,0:2:0:0:
327,200,115140,2,2,P|336:212|350:214,1,30.8749985866547,2|2,0:2|0:2,0:2:0:0:
355,208,115227,2,0,P|361:215|362:224,1,19,4|0,0:3|0:2,0:2:0:0:
460,233,115402,6,0,P|438:270|464:321,1,85.4999973907472,2|0,0:2|0:2,0:2:0:0:
347,307,115576,2,0,P|350:348|382:374,1,85.4999973907472,2|0,1:2|0:2,0:2:0:0:
159,359,115750,6,0,P|136:323|138:281,1,85.4999973907472,2|0,0:2|0:2,0:2:0:0:
222,298,115925,2,0,P|234:257|268:232,1,85.4999973907472,10|0,0:2|0:2,0:2:0:0:
55,326,116099,2,0,P|21:300|8:260,1,85.4999973907472,2|0,0:2|0:2,0:2:0:0:
172,200,116274,1,4,3:3:0:0:
0,384,116448,6,0,P|74:353|57:187,1,270.749992770195,2|0,1:2|0:2,0:2:0:0:
47,185,116797,6,0,P|21:219|36:275,1,85.4999973907472,2|0,0:2|0:2,0:2:0:0:
131,312,116971,6,0,P|170:297|208:314,1,85.4999973907472,2|0,0:2|0:2,0:2:0:0:
204,280,117146,2,0,P|243:294|262:331,1,85.4999973907472,2|0,0:2|0:2,0:2:0:0:
338,294,117320,5,8,0:2:0:0:
361,284,117407,1,8,3:3:0:0:
374,264,117495,1,8,3:3:0:0:
373,237,117582,1,4,3:3:0:0:
349,201,117669,5,6,3:3:0:0:
404,209,117756,1,2,3:2:0:0:
446,262,117843,1,2,3:2:0:0:
433,334,117931,1,2,3:2:0:0:
374,384,118018,6,2,B|318:310|324:221|532:128|469:17|408:8|408:8|356:-1|295:53|326:120|393:184|359:241|269:273,1,731.500022323609,6|0,1:2|0:2,0:1:0:0:
221,229,118715,6,0,B|172:237|138:263|138:263|95:261,1,113.999996520996,8|0,1:2|0:2,0:2:0:0:
137,97,118890,1,0,0:2:0:0:
30,157,118977,2,0,B|37:176|37:176|104:162|222:181|273:265,1,227.999993041992,2|0,1:2|0:2,0:2:0:0:
125,276,119239,1,0,0:2:0:0:
306,151,119413,6,0,B|355:159|389:185|389:185|432:183,1,113.999996520996,8|0,1:2|0:2,0:2:0:0:
390,19,119588,1,0,0:2:0:0:
497,79,119675,2,0,B|490:98|490:98|423:84|305:103|254:187,1,227.999993041992,2|0,1:2|0:2,0:2:0:0:
402,198,119937,1,0,3:2:0:0:
233,7,120111,6,2,B|263:29|303:36|303:36|307:55|282:59|282:59|343:101|362:202|362:202|380:219|380:219|354:251|365:304,1,370.499983039857,12|0,1:2|0:2,1:2:0:0:
404,383,120460,6,0,P|386:366|411:365,2,61.7499971733095,0|0|0,3:2|3:2|3:2,3:2:0:0:
444,275,120634,2,0,P|467:266|457:289,2,61.7499971733095,0|0|0,3:2|3:2|3:2,3:2:0:0:
504,368,120809,1,4,0:3:0:0:
362,280,120983,6,0,P|348:256|341:229,1,47.5,2|0,0:2|0:2,0:2:0:0:
301,333,121157,2,0,P|276:319|257:299,1,47.5,2|0,1:2|0:2,0:2:0:0:
306,359,121332,2,0,P|278:363|250:361,1,47.5,2|0,0:2|0:2,0:2:0:0:
113,384,121506,6,0,P|79:362|37:352,1,61.7499971733095,10|0,0:2|0:2,0:2:0:0:
177,333,121681,2,0,P|165:294|135:260,1,61.7499971733095,2|0,0:2|0:2,0:2:0:0:
56,269,121855,1,2,0:2:0:0:
2,151,122029,6,0,P|39:155|68:179,1,76,2|0,1:2|0:2,0:2:0:0:
118,50,122203,2,0,P|138:81|138:118,1,76,2|0,0:2|0:2,0:2:0:0:
253,114,122378,2,0,P|241:149|213:174,1,76,2|0,0:2|0:2,0:2:0:0:
368,285,122553,6,0,P|342:258|321:207,1,90.2499975900651,2|0,1:2|0:2,0:2:0:0:
447,245,122727,2,0,P|450:207|476:158,1,90.2499975900651,2|0,0:2|0:2,0:2:0:0:
458,30,122902,5,8,0:2:0:0:
424,72,122989,1,8,3:3:0:0:
378,89,123076,1,4,3:3:0:0:
347,79,123163,1,0,3:2:0:0:
321,61,123250,5,0,3:2:0:0:
360,69,123338,1,0,3:2:0:0:
378,89,123425,1,0,3:2:0:0:
386,109,123512,1,0,3:2:0:0:
385,120,123599,6,0,P|371:123|354:124,1,28.5,2|0,0:2|0:2,0:2:0:0:
479,63,124297,6,0,B|432:50|408:23|408:23|386:21|377:39,1,113.999996520996,8|0,1:2|0:2,0:2:0:0:
190,119,124471,1,0,0:2:0:0:
182,217,124559,2,0,B|229:204|253:177|253:177|275:175|284:193,1,113.999996520996,2|0,1:2|0:2,0:2:0:0:
294,196,124820,6,0,L|283:150,1,47.5,0|0,3:2|0:2,0:2:0:0:
285,61,124995,6,0,B|238:48|214:21|214:21|192:19|183:37,1,113.999996520996,8|0,1:2|0:2,0:2:0:0:
9,76,125169,1,0,0:2:0:0:
0,171,125256,2,0,B|47:183|81:171|81:171|101:181|100:201,1,113.999996520996,2|0,1:2|0:2,0:2:0:0:
203,119,125518,5,0,3:2:0:0:
203,119,125605,1,0,3:2:0:0:
100,91,125692,6,2,B|105:79|103:63|103:63|106:78|115:87,6,56.9999982604981,2|2|2|2|2|2|2,0:2|0:2|0:2|0:2|0:2|0:2|0:2,0:2:0:0:
113,175,126041,2,0,P|122:211|137:174,2,104.500003189087,0|0|4,3:2|3:2|0:3,3:2:0:0:
4,338,126564,6,0,P|21:299|55:274,1,85.4999973907472,2|0,0:2|0:2,0:2:0:0:
141,383,126739,2,0,P|150:341|140:301,1,85.4999973907472,2|0,1:2|0:2,0:2:0:0:
239,189,126913,6,0,P|223:221|249:283,1,85.4999973907472,2|0,0:2|0:2,0:2:0:0:
355,368,127088,5,8,3:2:0:0:
416,343,127175,1,0,3:2:0:0:
440,283,127262,1,0,3:2:0:0:
413,222,127349,1,0,3:2:0:0:
331,208,127436,5,4,3:3:0:0:
319,216,127524,1,0,3:2:0:0:
315,230,127611,2,0,P|443:217|512:325,1,270.749992770195,2|0,1:2|0:2,0:2:0:0:
505,346,127960,6,0,P|463:342|432:313,1,85.4999973907472,2|0,0:2|0:2,0:2:0:0:
291,309,128134,6,0,P|255:305|196:327,1,85.4999973907472,2|0,0:2|0:2,0:2:0:0:
258,284,128309,2,0,P|228:262|166:253,1,85.4999973907472,2|0,0:2|0:2,0:2:0:0:
11,278,128483,5,8,0:2:0:0:
0,344,128570,1,0,3:2:0:0:
28,381,128657,1,0,3:2:0:0:
56,384,128745,1,0,3:2:0:0:
87,369,128832,1,0,3:2:0:0:
107,332,128919,1,0,3:2:0:0:
111,284,129006,1,0,3:2:0:0:
102,220,129093,1,0,3:2:0:0:
64,155,129181,6,2,B|13:34|51:-100|251:-30|227:103|109:160|71:118|72:86|2:123|-49:218|1:292|1:292|-16:257|3:213,1,665,4|0,1:2|0:2,0:1:0:0:
75,256,129878,6,0,B|107:234|151:237|151:237|180:227|193:200,1,123.499994346619,8|0,1:2|0:2,0:2:0:0:
290,256,130053,1,0,0:2:0:0:
271,83,130140,2,0,B|205:162|200:276|200:276|222:299|230:323,1,246.999988693238,2|0,1:2|0:2,0:2:0:0:
302,343,130402,1,0,3:2:0:0:
249,159,130576,6,0,B|281:181|325:178|325:178|354:188|367:215,1,123.499994346619,8|0,1:2|0:2,0:2:0:0:
470,166,130751,1,0,0:2:0:0:
445,332,130838,2,0,B|379:253|374:139|374:139|396:116|404:92,1,246.999988693238,2|0,1:2|0:2,0:2:0:0:
478,71,131100,1,0,3:2:0:0:
293,64,131274,6,0,B|294:55|294:55|303:45|316:42|316:42|326:51|326:65|326:65|321:74,6,71.2500027179719,4|0|0|0|0|0|0,3:2|3:2|3:2|3:2|3:2|3:2|3:2,3:2:0:0:
277,145,131622,5,0,3:2:0:0:
264,150,131710,1,0,3:2:0:0:
191,108,131797,1,0,3:2:0:0:
193,62,131884,1,0,3:2:0:0:
148,40,131971,2,0,B|118:62|118:62|117:82,2,47.5,0|0|0,1:2|3:3|3:3,0:2:0:0:
81,82,132146,6,0,B|107:105|107:105|122:172,1,95,2|0,0:3|0:2,0:2:0:0:
158,341,132320,2,0,B|139:356|139:356|101:351,1,47.5,0|0,1:2|0:2,0:2:0:0:
98,367,132495,2,0,L|74:248,1,95,4|0,0:3|0:2,0:2:0:0:
1,224,132669,6,2,B|77:239|77:239|83:248|83:248|222:272|222:272|227:278|227:278|250:267|250:267|311:280,1,313.500009567261,8|0,0:2|0:2,0:1:0:0:
440,253,133018,1,4,0:3:0:0:
440,253,133192,1,0,1:2:0:0:
402,335,133367,6,0,B|376:366|339:360|339:360|368:348|380:318,1,123.499994346619,2|0,3:2|0:2,0:2:0:0:
373,188,133541,2,0,B|366:148|331:135|331:135|350:159|346:191,1,123.499994346619,2|0,0:3|0:2,0:2:0:0:
218,260,133715,6,0,P|223:214|263:190,1,95,0|0,1:2|0:2,0:2:0:0:
449,140,133890,2,0,P|471:160|502:163,1,61.7499971733095,2|0,3:2|0:2,0:2:0:0:
512,18,134064,5,8,0:2:0:0:
439,0,134152,1,8,0:3:0:0:
390,25,134239,1,8,0:3:0:0:
371,68,134326,1,4,0:3:0:0:
302,44,134413,5,4,0:3:0:0:
292,59,134500,1,0,3:2:0:0:
281,67,134588,1,0,3:2:0:0:
272,68,134675,1,0,3:2:0:0:
204,28,134762,6,2,B|167:-28|11:-71|-117:-88|-197:222|120:518|319:-38|171:103|181:70|49:-165|526:-307|715:-37|702:408|325:300|302:321|191:344|182:208|272:60|44:-4|-21:37|-191:211|-233:487|75:606|292:561|355:443|110:14|273:-92|799:130|599:449|385:392|296:296,1,1985.50006059265,4|0,1:2|0:0,0:1:0:0:
263,382,136506,5,2,3:2:0:0:
161,320,136681,2,0,P|161:254|192:212,1,109.250002083778,8|0,1:2|0:0,0:0:0:0:
139,93,136855,5,8,0:1:0:0:
145,74,136942,1,0,3:2:0:0:
137,47,137029,1,0,3:2:0:0:
109,22,137117,1,0,3:2:0:0:
67,22,137204,1,0,3:2:0:0:
24,52,137291,1,0,3:2:0:0:
0,122,137378,1,0,3:2:0:0:
9,208,137465,1,0,3:2:0:0:
64,291,137553,6,2,B|143:362|352:396|606:421|629:299|579:181|555:-6|312:57|184:163|318:290|447:306|205:415|74:410|-49:271|-66:87|117:-6|316:-93|499:-61|509:46|497:155|419:194|267:236|210:186,1,1638.75003125668,12|0,1:2|0:2,0:1:0:0:
138,147,138948,2,0,B|124:136|124:136|117:103|117:103|123:94,6,61.7499971733095,0|0|0|0|0|0|0,1:2|0:2|0:2|0:2|0:2|0:2|0:2,0:2:0:0:
216,104,139297,6,2,B|248:69|267:16|228:-7,1,113.999996520996,0|0,0:2|0:2,0:1:0:0:
419,55,139471,2,2,B|391:28|336:55|316:109,1,109.250002083778,8|0,1:2|0:2,0:1:0:0:
430,249,139646,2,2,B|460:226|441:172|404:131,1,123.499994346619,8|0,0:1|0:2,0:1:0:0:
267,359,139820,6,2,P|224:341|218:325,1,56.9999982604981,2|2,0:2|0:2,0:2:0:0:
229,290,139907,2,2,P|215:247|222:232,1,47.5,2|2,0:2|0:2,0:2:0:0:
246,227,139995,2,0,P|270:187|285:183,1,38,2|0,0:2|0:2,0:2:0:0:
292,205,140082,2,0,P|326:198|337:204,1,28.4999991302491,2|0,0:2|0:2,0:2:0:0:
326,213,140169,2,0,P|343:225|344:231,1,19,2|0,3:2|0:2,0:2:0:0:
338,229,140256,2,0,P|339:239|337:243,1,9.5,0|0,3:2|0:2,0:2:0:0:
365,320,140343,6,2,B|328:329|157:349|-84:266|-114:18|72:-104|216:-29|212:74|169:168|89:192,1,797.999975646973,12|0,1:2|0:2,0:1:0:0:
0,259,141041,1,8,3:1:0:0:
48,345,141215,6,2,B|56:319|88:282|138:302,1,113.999996520996,10|0,1:2|0:2,0:1:0:0:
211,204,141390,2,2,B|243:188|297:200|301:243,1,113.999996520996,2|0,0:2|0:2,0:1:0:0:
415,112,141564,6,2,B|414:127|412:226|552:249|686:167|598:-92|406:-116|287:68|269:146|173:105|151:71|152:41|152:41|152:12|176:-16|222:-28|330:5|241:135|356:140,1,940.500028701783,2|0,0:2|0:2,0:1:0:0:
373,212,142436,1,8,0:1:0:0:
509,303,142611,5,0,3:2:0:0:
512,318,142698,1,8,0:3:0:0:
450,380,142786,5,0,3:2:0:0:
435,375,142873,1,8,0:3:0:0:
414,289,142960,5,4,3:3:0:0:
425,278,143047,1,12,3:3:0:0:
457,326,143135,5,4,1:2:0:0:
384,359,143309,6,0,P|350:353|342:344,1,38,2|0,0:2|0:2,0:2:0:0:
344,317,143483,2,0,P|318:295|314:269,1,47.5,10|0,1:2|0:2,0:2:0:0:
261,353,143657,2,0,P|227:347|206:318,1,56.9999982604981,2|0,0:2|0:2,0:2:0:0:
240,236,143832,6,0,P|238:203|218:177,1,66.4999979705811,8|0,0:1|0:2,0:2:0:0:
44,178,144006,2,0,P|81:183|107:210,1,76,10|0,1:2|0:2,0:2:0:0:
88,332,144181,6,0,P|52:311|35:273,1,85.4999973907472,2|0,0:2|0:2,0:2:0:0:
140,115,144355,2,0,P|172:80|177:34,1,95,2|0,3:3|0:2,0:2:0:0:
25,16,144529,6,0,B|168:154|177:338|177:338|179:266|221:229,1,475,8|0,1:2|0:2,0:2:0:0:
247,157,144965,1,0,0:2:0:0:
247,157,145053,2,0,P|276:157|300:171,2,56.9999982604981,0|0|0,1:2|0:2|0:2,0:2:0:0:
362,107,145227,6,0,B|379:116|379:116|396:182|396:182|375:207,1,113.999996520996,8|0,0:1|0:2,0:2:0:0:
506,185,145402,2,0,B|511:208|511:208|474:245|474:245|460:245,1,90.2499975900651,2|0,0:2|0:2,0:2:0:0:
411,312,145576,6,2,L|389:309,1,14.2499995651245,2|2,0:2|0:2,0:2:0:0:
385,291,145663,2,2,P|368:292|346:303,1,23.75,2|2,0:2|0:2,0:2:0:0:
330,280,145750,2,2,P|311:295|294:322,1,33.2499989852906,2|2,0:2|0:2,0:2:0:0:
263,312,145838,2,2,P|258:335|263:361,1,42.7499986953736,2|2,0:2|0:2,0:2:0:0:
343,380,145925,5,0,1:2:0:0:
84,373,146099,6,0,B|134:377|157:359|157:359|176:346|178:314,1,109.250002083778,12|0,0:2|0:2,0:2:0:0:
120,169,146274,5,0,1:2:0:0:
120,169,146361,1,0,0:2:0:0:
196,220,146448,2,2,B|181:246|134:254|134:254|75:263|-8:203,1,218.500004167557,8|8,0:2|0:1,0:1:0:0:
13,115,146753,6,0,P|-5:58|45:27,2,128.250000489235,2|2|0,0:2|0:2|0:2,0:2:0:0:
101,88,146971,6,2,B|139:54|175:50|231:67,1,109.250002083778,8|0,0:2|0:2,1:1:0:0:
274,101,147146,5,4,3:3:0:0:
287,112,147233,1,0,3:2:0:0:
373,71,147320,6,0,P|406:44|408:16,1,56.9999982604981,0|0,1:2|0:2,0:2:0:0:
373,53,147407,2,0,P|376:11|358:-10,1,56.9999982604981,0|0,3:2|0:2,0:2:0:0:
292,24,147495,6,2,B|288:194|424:278|424:278|364:228|353:137|434:86|505:149|472:201,1,569.999982604981,12|0,0:2|0:2,0:1:0:0:
512,271,148018,1,8,0:1:0:0:
273,241,148191,5,2,3:1:0:0:
253,252,148279,1,0,3:2:0:0:
244,279,148366,1,0,3:2:0:0:
255,311,148453,1,0,3:2:0:0:
304,344,148540,1,4,3:3:0:0:
376,362,148627,1,0,3:2:0:0:
462,352,148715,6,2,P|451:326|356:284,1,113.999996520996,2|0,1:1|0:2,0:1:0:0:
244,324,148890,2,2,B|233:351|192:379|149:375,1,113.999996520996,12|0,0:2|0:2,0:1:0:0:
131,287,149064,2,2,P|80:276|40:218,1,113.999996520996,0|0,1:2|0:2,0:1:0:0:
25,127,149239,6,2,B|116:63|206:149|140:190|242:254|318:198,1,341.999989562989,8|0,0:2|0:2,0:1:0:0:
416,209,149588,6,2,P|405:158|422:109,1,104.500003189087,0|0,1:2|0:2,0:1:0:0:
257,130,149762,2,2,P|304:109|335:67,1,104.500003189087,8|0,0:2|0:2,0:1:0:0:
426,4,149936,6,2,B|339:6|65:39|67:462|263:389|461:491|716:381|693:21|542:5|291:-48|-31:177|482:277|238:403|159:378|134:365|134:365|109:353|37:315|7:47|409:404|273:-193|-18:-22|27:108|75:153,1,1857.25003542423,0|0,3:2|0:2,0:1:0:0:
26,218,151506,5,0,1:2:0:0:
0,319,151681,2,0,B|17:332|32:324|32:324|49:294|96:281,1,113.999996520996,12|0,0:2|0:2,0:2:0:0:
226,152,151855,5,0,1:2:0:0:
145,184,152029,2,0,B|137:204|150:216|150:216|184:221|222:256,1,113.999996520996,8|0,0:2|0:2,0:2:0:0:
223,371,152204,5,8,0:1:0:0:
512,279,152378,6,2,B|456:399|318:435|230:330|274:261|361:226|428:279,1,437.000008335114,4|4,3:3|3:3,0:1:0:0:
469,199,152902,5,0,1:2:0:0:
226,152,153076,2,2,B|251:179|271:174|271:174|370:91|486:112|486:112|513:103|515:67,1,341.999989562989,12|0,0:2|0:2,0:1:0:0:
442,10,153425,1,0,1:2:0:0:
442,10,153512,1,0,3:2:0:0:
354,43,153599,6,0,P|353:99|379:149,1,113.999996520996,8|0,0:1|0:2,0:1:0:0:
469,199,153774,2,2,P|385:95|181:64,1,327.750006251335,0|0,0:2|0:2,0:1:0:0:
24,89,154122,6,0,P|-23:80|-33:69,1,56.9999982604981,2|0,0:3|0:2,0:2:0:0:
28,103,154210,2,0,P|1:113|-15:136,1,56.9999982604981,2|0,0:3|0:2,0:2:0:0:
45,14,154297,5,0,1:2:0:0:
134,24,154471,6,0,P|126:39|126:59,1,33.2499989852906,6|0,0:2|0:2,0:2:0:0:
98,80,154646,6,0,P|111:83|130:121,1,47.5,2|0,1:2|0:2,0:2:0:0:
208,137,154820,6,0,P|211:168|241:216,1,61.7499971733095,2|0,0:2|0:2,0:2:0:0:
38,185,154995,6,0,P|83:188|125:207,1,76,8|0,0:1|0:2,0:2:0:0:
335,217,155169,6,0,P|320:259|326:303,1,90.2499975900651,2|0,1:2|0:2,0:2:0:0:
105,348,155343,6,0,P|136:326|204:315,1,104.500003189087,2|0,0:2|0:2,0:2:0:0:
511,283,155518,6,2,P|467:291|429:370,1,118.75,10|0,0:2|0:2,0:1:0:0:
52,270,155692,6,2,P|124:124|304:139,1,356.25,4|0,1:2|0:2,0:1:0:0:
416,359,156041,6,2,P|358:238|210:247,1,285,4|0,0:2|0:2,0:1:0:0:
190,384,156390,6,0,P|213:337|308:357,2,152,4|0|2,0:2|0:2|0:2,0:2:0:0:
