osu file format v14

[General]
AudioFilename: audio.mp3
AudioLeadIn: 0
PreviewTime: 39287
Countdown: 0
SampleSet: Soft
StackLeniency: 0.7
Mode: 0
LetterboxInBreaks: 0
WidescreenStoryboard: 1

[Editor]
DistanceSpacing: 1
BeatDivisor: 4
GridSize: 32
TimelineZoom: 1.6

[Metadata]
Title:Omokage -self cover-
TitleUnicode:おもかげ -self cover-
Artist:Vaundy
ArtistUnicode:Vaundy
Creator:alevi
Version:Normal
Source:
Tags:japanese pop jpop j-pop male vocalist hadaka no yuusha 裸の勇者 crysisters midorijeon kumocha shirokumocha yuuma ogura yui ogura_yui
BeatmapID:3606076
BeatmapSetID:1752322

[Difficulty]
HPDrainRate:4
CircleSize:3
OverallDifficulty:4
ApproachRate:5
SliderMultiplier:0.999999999999999
SliderTickRate:1

[Events]
//Background and Video events
0,0,"anime-boy-umbrella-underwater-fantasy-hd-3840x2160 (1).jpg",0,0
//Break Periods
//Storyboard Layer 0 (Background)
//Storyboard Layer 1 (Fail)
//Storyboard Layer 2 (Pass)
//Storyboard Layer 3 (Foreground)
//Storyboard Layer 4 (Overlay)
//Storyboard Sound Samples

[TimingPoints]
209,315.789473684211,4,2,7,40,1,0
209,-111.111111111111,4,2,7,40,0,0
998,-111.111111111111,4,2,1,40,0,0
1472,-111.111111111111,4,2,1,50,0,0
1787,-111.111111111111,4,2,1,50,0,0
3366,-111.111111111111,4,2,1,50,0,0
3682,-111.111111111111,4,2,1,50,0,0
3998,-111.111111111111,4,2,1,50,0,0
4314,-111.111111111111,4,2,1,50,0,0
6524,-111.111111111111,4,2,1,50,0,0
6840,-111.111111111111,4,2,1,50,0,0
9051,-111.111111111111,4,2,1,50,0,0
9366,-111.111111111111,4,2,1,50,0,0
11261,-111.111111111111,4,2,1,50,0,0
11577,-111.111111111111,4,2,1,45,0,0
31787,-111.111111111111,4,2,1,55,0,0
34314,-111.111111111111,4,2,1,55,0,0
34630,-111.111111111111,4,2,1,55,0,0
39366,-111.111111111111,4,2,1,65,0,0
41893,-100,4,2,1,75,0,0
59577,-100,4,2,2,75,0,0
59893,-100,4,2,1,75,0,0
60050,-100,4,2,3,75,0,0
60366,-100,4,2,1,75,0,0
60524,-100,4,2,4,75,0,0
61314,-100,4,2,1,75,0,0
61471,-100,4,2,5,75,0,0
61629,-100,4,2,1,75,0,0
62103,-111.111111111111,4,2,1,65,0,0
72209,-111.111111111111,4,2,1,45,0,0
92419,-111.111111111111,4,2,1,55,0,0
94945,-111.111111111111,4,2,1,55,0,0
95261,-111.111111111111,4,2,1,55,0,0
102209,-111.111111111111,4,2,1,55,0,0
102524,-111.111111111111,4,2,1,60,0,0
105051,-111.111111111111,4,2,1,60,0,0
105366,-111.111111111111,4,2,1,60,0,0
110103,-111.111111111111,4,2,1,65,0,0
112630,-99.9999999999999,4,2,1,75,0,0
130314,-100,4,2,2,75,0,0
130630,-100,4,2,1,75,0,0
130787,-100,4,2,3,75,0,0
131103,-100,4,2,1,75,0,0
131261,-100,4,2,4,75,0,0
132051,-100,4,2,1,75,0,0
132208,-100,4,2,5,75,0,0
132366,-100,4,2,1,75,0,0
132840,-111.111111111111,4,2,1,65,0,0
142945,-111.111111111111,4,2,1,55,0,0
150525,-111.111111111111,4,2,2,55,0,0
150840,-111.111111111111,4,2,1,55,0,0
150998,-111.111111111111,4,2,5,55,0,0
151156,-111.111111111111,4,2,3,55,0,0
151314,-111.111111111111,4,2,1,55,0,0
151472,-111.111111111111,4,2,4,55,0,0
152419,-111.111111111111,4,2,5,55,0,0
152735,-111.111111111111,4,2,1,55,0,0
160630,-111.111111111111,4,2,1,45,0,0
162840,-111.111111111111,4,2,1,45,0,0
163156,-111.111111111111,4,2,2,65,0,0
163472,-111.111111111111,4,2,1,65,0,0
163630,-111.111111111111,4,2,3,65,0,0
163945,-111.111111111111,4,2,1,65,0,0
164103,-111.111111111111,4,2,4,65,0,0
165051,-111.111111111111,4,2,6,65,0,0
165366,-111.111111111111,4,2,1,65,0,0
165682,-99.9999999999999,4,2,1,75,0,0
183366,-100,4,2,2,75,0,0
183682,-100,4,2,1,75,0,0
183839,-100,4,2,3,75,0,0
184155,-100,4,2,1,75,0,0
184313,-100,4,2,4,75,0,0
185260,-100,4,2,5,75,0,0
185418,-100,4,2,1,75,0,0
185893,-111.111111111111,4,2,1,70,0,0

[Colours]
Combo1 : 86,163,239
Combo2 : 245,146,196
Combo3 : 142,142,244

[HitObjects]
105,238,1472,6,0,P|149:218|205:198,1,89.999997253418,10|10,2:1|2:2,0:0:0:0:
240,130,2103,1,8,2:1:0:0:
240,130,2261,2,0,P|262:141|289:151,1,44.999998626709,10|8,2:1|2:2,0:0:0:0:
314,179,2577,2,0,P|334:204|321:258,1,89.999997253418,10|10,2:1|2:1,0:0:0:0:
290,289,3051,1,10,2:2:0:0:
333,367,3366,1,10,2:1:0:0:
422,354,3682,1,10,2:2:0:0:
465,274,3998,6,0,P|449:231|434:178,1,89.999997253418,10|10,2:1|2:2,0:0:0:0:
379,126,4630,1,8,2:1:0:0:
379,126,4787,2,0,P|387:104|394:78,1,44.999998626709,10|8,2:1|2:2,0:0:0:0:
377,40,5103,2,0,P|348:12|288:17,1,89.999997253418,10|10,2:1|2:1,0:0:0:0:
269,43,5577,1,10,2:2:0:0:
179,50,5893,2,0,P|158:38|147:19,2,44.999998626709,10|2|10,2:1|2:2|2:2,0:0:0:0:
102,98,6524,6,0,P|123:141|135:189,1,89.999997253418,10|10,2:1|2:2,0:0:0:0:
154,274,7156,1,8,2:1:0:0:
154,274,7314,2,0,P|175:261|204:251,1,44.999998626709,10|8,2:1|2:2,0:0:0:0:
221,217,7630,2,0,P|263:235|311:249,1,89.999997253418,10|10,2:1|2:1,0:0:0:0:
347,261,8103,1,10,2:2:0:0:
425,305,8419,1,10,2:1:0:0:
489,242,8735,1,10,2:2:0:0:
466,154,9051,6,0,B|426:142|426:142|421:134|421:134|369:114,1,89.999997253418,10|10,2:1|2:2,0:0:0:0:
329,56,9682,1,8,2:1:0:0:
329,56,9840,2,0,P|296:42|272:34,1,44.999998626709,10|8,2:1|2:2,0:0:0:0:
243,26,10156,2,0,P|217:60|227:111,1,89.999997253418,10|10,2:1|2:1,0:0:0:0:
200,144,10630,1,10,2:2:0:0:
135,206,10945,1,10,2:1:0:0:
58,159,11261,1,10,2:2:0:0:
4,231,11577,6,0,B|17:268|17:268|14:278|14:278|31:324,2,89.999997253418,10|10|10,2:1|2:2|2:1,0:0:0:0:
58,159,12524,2,0,P|64:135|78:109,1,44.999998626709,8|8,2:2|2:1,0:0:0:0:
110,90,12840,2,0,B|97:52|97:52|100:42|100:42|84:-3,2,89.999997253418,2|10|10,2:2|2:2|2:1,0:0:0:0:
198,106,13787,1,10,2:2:0:0:
267,48,14103,6,0,P|313:34|355:18,1,89.999997253418,10|10,2:1|2:2,0:0:0:0:
404,92,14735,2,0,P|395:113|389:143,1,44.999998626709,10|8,2:1|2:1,0:0:0:0:
374,176,15051,1,10,2:2:0:0:
288,202,15366,2,0,P|304:247|312:294,1,89.999997253418,2|10,2:2|2:2,0:0:0:0:
354,368,15998,2,0,P|399:373|429:342,1,89.999997253418,10|8,2:1|2:2,0:0:0:0:
498,286,16630,6,0,P|457:266|415:251,1,89.999997253418,8|8,2:1|2:2,0:0:0:0:
349,190,17261,2,0,P|354:161|377:146,1,44.999998626709,10|8,2:1|2:1,0:0:0:0:
407,135,17577,1,10,2:2:0:0:
375,50,17893,2,0,P|333:68|287:90,1,89.999997253418,2|10,2:2|2:2,0:0:0:0:
230,152,18524,2,0,P|189:132|147:115,1,89.999997253418,10|8,2:1|2:2,0:0:0:0:
69,159,19156,6,0,P|51:191|64:240,1,89.999997253418,8|8,2:1|2:2,0:0:0:0:
153,253,19787,2,0,P|161:270|163:297,1,44.999998626709,10|8,2:1|2:1,0:0:0:0:
193,329,20103,1,10,2:2:0:0:
272,371,20419,2,0,P|314:348|357:329,2,89.999997253418,2|10|10,2:2|2:2|2:1,0:0:0:0:
193,329,21366,1,10,2:2:0:0:
118,379,21682,6,0,P|76:356|33:337,1,89.999997253418,10|8,2:1|2:2,0:0:0:0:
0,257,22314,2,0,P|28:246|46:234,1,44.999998626709,8|8,2:1|2:1,0:0:0:0:
77,211,22630,1,8,2:2:0:0:
143,150,22945,2,0,P|130:102|109:64,1,89.999997253418,2|10,2:2|2:2,0:0:0:0:
176,4,23577,2,0,P|212:21|272:30,1,89.999997253418,10|8,2:1|2:2,0:0:0:0:
335,81,24209,6,0,B|312:113|312:113|334:173,2,89.999997253418,10|10|10,2:1|2:2|2:1,0:0:0:0:
418,115,25156,1,10,2:2:0:0:
496,158,25472,2,0,P|485:184|468:261,1,89.999997253418,2|10,2:2|2:2,0:0:0:0:
409,310,26103,2,0,P|374:286|321:268,1,89.999997253418,10|8,2:1|2:2,0:0:0:0:
249,310,26735,6,0,P|216:279|231:231,1,89.999997253418,8|8,2:1|2:2,0:0:0:0:
294,183,27366,2,0,P|308:162|308:135,1,44.999998626709,10|8,2:1|2:1,0:0:0:0:
305,97,27682,1,10,2:2:0:0:
231,44,27998,1,2,2:2:0:0:
150,83,28314,1,10,2:2:0:0:
85,23,28630,2,0,P|43:40|0:52,1,89.999997253418,10|10,2:1|2:2,0:0:0:0:
10,142,29261,6,0,P|31:182|49:237,1,89.999997253418,8|8,2:1|2:2,0:0:0:0:
127,184,29893,2,0,P|148:176|168:166,1,44.999998626709,8|8,2:1|2:1,0:0:0:0:
210,150,30209,1,10,2:2:0:0:
270,216,30524,2,0,P|251:250|244:301,2,89.999997253418,2|10|10,2:2|2:2|2:1,0:0:0:0:
349,259,31472,1,10,2:2:0:0:
412,195,31787,6,0,P|455:173|500:157,1,89.999997253418,10|10,2:1|2:2,0:0:0:0:
506,69,32419,2,0,P|471:59|448:49,1,44.999998626709,10|8,2:1|2:1,0:0:0:0:
436,19,32735,1,10,2:2:0:0:
368,78,33051,2,0,P|346:85|325:91,1,44.999998626709,2|8,2:2|2:1,0:0:0:0:
291,117,33366,1,10,2:2:0:0:
203,96,33682,1,10,2:1:0:0:
125,142,33998,6,0,P|147:184|159:240,1,89.999997253418,10|8,2:2|2:1,0:0:0:0:
241,258,34630,2,0,P|219:300|207:356,1,89.999997253418,10|8,2:2|2:1,0:0:0:0:
169,358,35103,1,8,2:1:0:0:
169,358,35261,2,0,P|85:337|86:247,1,179.999994506836,10|10,2:2|2:2,0:0:0:0:
157,208,36209,1,10,2:1:0:0:
125,127,36524,1,10,2:2:0:0:
183,58,36840,6,0,P|227:78|279:93,1,89.999997253418,10|10,2:1|2:2,0:0:0:0:
344,146,37472,1,10,2:1:0:0:
344,146,37630,2,0,P|381:132|403:126,1,44.999998626709,10|8,2:1|2:2,0:0:0:0:
425,152,37945,2,0,P|456:210|429:268,1,134.999995880127,10|10,2:1|2:2,0:0:0:0:
385,347,38735,2,0,P|361:335|331:326,1,44.999998626709,10|2,2:1|2:2,0:0:0:0:
304,306,39051,2,0,P|280:318|250:327,1,44.999998626709,10|2,2:2|2:2,0:0:0:0:
221,341,39366,6,0,P|201:282|182:245,1,89.999997253418,10|8,2:1|2:2,0:0:0:0:
103,228,39998,2,0,P|121:187|135:144,1,89.999997253418,10|8,2:1|2:2,0:0:0:0:
163,109,40472,1,8,2:1:0:0:
163,109,40630,1,10,2:2:0:0:
130,25,40945,1,10,2:2:0:0:
220,0,41261,1,10,2:2:0:0:
220,0,41419,2,0,P|255:20|305:35,1,89.999997253418,10|10,2:1|2:1,0:0:0:0:
339,68,41893,6,0,P|392:75|421:125,1,99.9999999999999,14|10,2:1|2:2,0:0:0:0:
390,206,42524,1,8,2:1:0:0:
390,206,42682,2,0,P|362:216|333:235,1,50,10|8,2:1|2:2,0:0:0:0:
296,211,42998,2,0,P|245:192|183:175,1,99.9999999999999,10|8,2:1|2:1,0:0:0:0:
177,134,43472,1,10,2:2:0:0:
85,95,43787,1,10,2:1:0:0:
85,95,43945,2,0,B|75:147|60:191,1,99.9999999999999,2|2,2:2|2:2,0:0:0:0:
37,236,44419,6,0,P|86:251|130:273,1,99.9999999999999,10|10,2:1|2:2,0:0:0:0:
227,311,45051,1,8,2:1:0:0:
227,311,45209,2,0,P|260:295|288:287,1,50,10|8,2:1|2:2,0:0:0:0:
316,263,45524,2,0,P|341:211|308:177,1,99.9999999999999,10|8,2:1|2:1,0:0:0:0:
271,165,45998,1,10,2:2:0:0:
281,69,46314,1,10,2:2:0:0:
281,69,46472,2,0,P|339:52|386:33,1,99.9999999999999,10|10,2:1|2:1,0:0:0:0:
423,51,46945,6,0,B|456:82|456:82|433:148,1,99.9999999999999,14|10,2:1|2:2,0:0:0:0:
390,223,47577,1,8,2:1:0:0:
390,223,47735,2,0,P|400:248|407:282,1,50,10|8,2:1|2:2,0:0:0:0:
380,314,48051,2,0,P|328:343|279:318,1,99.9999999999999,10|8,2:1|2:1,0:0:0:0:
264,289,48524,1,10,2:2:0:0:
168,284,48840,1,10,2:1:0:0:
168,284,48998,2,0,P|114:302|58:325,1,99.9999999999999,2|0,2:2|0:0,0:0:0:0:
32,289,49472,6,0,P|52:222|65:183,1,99.9999999999999,10|8,2:1|2:2,0:0:0:0:
83,150,49945,1,8,2:2:0:0:
83,150,50103,1,10,2:1:0:0:
47,56,50419,2,0,P|22:65|-7:72,2,50,8|10|2,2:2|2:1|2:2,0:0:0:0:
81,19,50893,1,8,2:1:0:0:
81,19,51051,2,0,P|107:28|132:38,1,50,10|8,2:2|2:2,0:0:0:0:
172,58,51366,1,10,2:1:0:0:
263,16,51682,1,10,2:2:0:0:
361,35,51998,6,0,P|394:71|386:127,1,99.9999999999999,14|10,2:1|2:2,0:0:0:0:
327,196,52630,1,8,2:1:0:0:
327,196,52787,2,0,P|337:223|342:259,1,50,10|8,2:1|2:2,0:0:0:0:
385,269,53103,2,0,P|438:289|485:316,1,99.9999999999999,10|10,2:1|2:1,0:0:0:0:
510,346,53577,1,10,2:2:0:0:
416,382,53893,1,10,2:1:0:0:
416,382,54051,2,0,P|372:358|325:341,1,99.9999999999999,2|2,2:2|2:2,0:0:0:0:
293,302,54524,6,0,P|247:321|199:336,1,99.9999999999999,10|10,2:1|2:2,0:0:0:0:
109,376,55156,1,8,2:1:0:0:
109,376,55314,2,0,P|86:367|62:359,1,50,10|8,2:1|2:2,0:0:0:0:
35,316,55630,2,0,P|56:270|59:212,1,99.9999999999999,10|10,2:1|2:1,0:0:0:0:
82,176,56103,1,10,2:2:0:0:
169,223,56419,1,10,2:2:0:0:
169,223,56577,2,0,P|217:206|271:181,1,99.9999999999999,10|10,2:1|2:1,0:0:0:0:
307,165,57051,6,0,B|334:131|334:131|308:70,1,99.9999999999999,14|10,2:1|2:2,0:0:0:0:
237,21,57682,1,8,2:1:0:0:
237,21,57840,2,0,P|206:6|172:-5,1,50,10|8,2:1|2:2,0:0:0:0:
146,23,58156,2,0,P|99:45|47:62,1,99.9999999999999,10|10,2:1|2:1,0:0:0:0:
16,94,58630,1,10,2:2:0:0:
68,178,58945,1,10,2:1:0:0:
68,178,59103,2,0,P|82:221|95:278,1,99.9999999999999,2|0,2:2|0:0,0:0:0:0:
132,307,59577,5,10,2:1:0:0:
219,355,59893,2,0,P|242:346|266:338,1,50,8|8,2:2|2:2,0:0:0:0:
304,305,60209,2,0,P|350:323|397:339,1,99.9999999999999,10|8,2:1|2:2,0:0:0:0:
449,359,60682,1,10,2:1:0:0:
449,359,60840,1,2,2:2:0:0:
498,272,61156,2,0,P|490:248|483:216,1,50,10|8,2:2|2:2,0:0:0:0:
443,194,61472,1,10,2:1:0:0:
480,101,61787,1,10,2:2:0:0:
401,40,62103,5,14,2:1:0:0:
320,80,62419,2,0,P|276:67|236:47,2,89.999997253418,10|10|8,2:2|2:1|2:2,0:0:0:0:
342,125,63209,1,8,2:1:0:0:
342,125,63366,2,0,P|324:162|311:214,1,89.999997253418,2|10,2:2|2:2,0:0:0:0:
230,248,63998,1,10,2:1:0:0:
141,232,64314,2,0,P|130:203|129:182,1,44.999998626709,10|0,2:2|0:0,0:0:0:0:
100,154,64630,6,0,P|58:144|30:102,2,89.999997253418,10|10|10,2:1|2:2|2:1,0:0:0:0:
124,118,65419,1,8,2:1:0:0:
124,118,65577,1,10,2:2:0:0:
184,51,65893,2,0,P|209:60|240:68,1,44.999998626709,2|8,2:2|2:1,0:0:0:0:
243,107,66209,2,0,P|285:90|340:77,1,89.999997253418,10|10,2:2|2:2,0:0:0:0:
417,65,66840,1,10,2:2:0:0:
472,137,67156,5,14,2:1:0:0:
411,204,67472,2,0,P|369:220|325:232,2,89.999997253418,10|10|8,2:2|2:1|2:2,0:0:0:0:
449,227,68261,1,8,2:1:0:0:
449,227,68419,2,0,P|471:260|464:313,1,89.999997253418,2|10,2:2|2:2,0:0:0:0:
414,382,69051,1,10,2:1:0:0:
329,342,69366,6,0,P|304:331|235:306,1,89.999997253418,10|10,2:2|2:1,0:0:0:0:
165,358,69998,2,0,P|140:369|109:378,1,44.999998626709,10|8,2:2|2:2,0:0:0:0:
81,357,70314,1,8,2:1:0:0:
124,283,70630,1,10,2:2:0:0:
124,283,70787,2,0,P|115:234|135:197,1,89.999997253418,8|8,2:1|2:1,0:0:0:0:
154,160,71261,2,0,P|150:134|140:107,2,44.999998626709,10|10|10,2:2|2:2|2:1,0:0:0:0:
234,201,71893,1,10,2:2:0:0:
303,147,72209,6,0,P|348:163|394:177,1,89.999997253418,10|10,2:1|2:2,0:0:0:0:
429,193,72682,1,2,2:2:0:0:
501,139,72998,2,0,P|509:115|497:88,1,44.999998626709,10|10,2:1|2:2,0:0:0:0:
477,60,73314,2,0,P|409:38|342:13,1,134.999995880127,10|10,2:1|2:2,0:0:0:0:
281,75,74103,1,10,2:1:0:0:
338,143,74419,1,10,2:2:0:0:
427,131,74735,6,0,P|413:176|401:235,1,89.999997253418,10|10,2:1|2:2,0:0:0:0:
427,256,75209,1,2,2:2:0:0:
351,304,75524,2,0,P|323:293|293:280,1,44.999998626709,10|8,2:1|2:2,0:0:0:0:
273,258,75840,2,0,P|208:287|133:309,1,134.999995880127,10|10,2:1|2:2,0:0:0:0:
83,241,76630,1,10,2:1:0:0:
131,165,76945,1,10,2:2:0:0:
105,78,77261,5,10,2:1:0:0:
178,26,77577,2,0,P|224:44|274:60,1,89.999997253418,10|8,2:2|2:1,0:0:0:0:
308,78,78051,1,8,2:1:0:0:
308,78,78209,1,10,2:2:0:0:
388,118,78524,2,0,P|439:98|487:82,2,89.999997253418,2|10|10,2:2|2:2|2:1,0:0:0:0:
351,200,79472,1,10,2:2:0:0:
305,277,79787,6,0,P|258:262|210:250,1,89.999997253418,8|10,2:1|2:2,0:0:0:0:
177,254,80261,1,0,0:0:0:0:
177,254,80419,2,0,P|168:277|173:306,2,44.999998626709,8|8|10,2:1|2:1|2:2,0:0:0:0:
215,172,81051,2,0,P|229:125|205:83,1,89.999997253418,2|10,2:2|2:2,0:0:0:0:
228,47,81524,1,2,2:2:0:0:
313,19,81840,2,0,P|337:31|359:39,1,44.999998626709,2|8,2:2|2:2,0:0:0:0:
389,68,82156,6,0,P|371:112|360:166,1,89.999997253418,2|2,2:2|2:2,0:0:0:0:
356,198,82630,1,10,2:2:0:0:
356,198,82787,1,2,2:2:0:0:
276,239,83103,2,0,P|286:261|296:294,1,44.999998626709,10|10,2:1|2:2,0:0:0:0:
325,312,83419,2,0,P|386:285|456:265,1,134.999995880127,10|10,2:1|2:2,0:0:0:0:
505,193,84209,1,10,2:1:0:0:
441,129,84524,1,10,2:2:0:0:
487,52,84840,6,0,P|428:36|383:20,1,89.999997253418,10|10,2:1|2:2,0:0:0:0:
358,42,85314,1,2,2:2:0:0:
292,103,85630,2,0,P|300:127|306:157,1,44.999998626709,10|8,2:1|2:2,0:0:0:0:
339,174,85945,2,0,P|319:233|304:307,1,134.999995880127,10|10,2:1|2:2,0:0:0:0:
238,365,86735,1,10,2:1:0:0:
166,310,87051,1,10,2:2:0:0:
212,233,87366,5,10,2:1:0:0:
146,171,87682,2,0,P|107:190|61:205,2,89.999997253418,10|10|10,2:2|2:1|2:2,0:0:0:0:
180,87,88630,2,0,P|191:40|205:-3,1,89.999997253418,2|10,2:2|2:2,0:0:0:0:
272,57,89261,1,10,2:1:0:0:
360,39,89577,1,10,2:2:0:0:
424,104,89893,6,0,P|410:142|398:208,1,89.999997253418,8|10,2:1|2:2,0:0:0:0:
368,222,90366,1,0,0:0:0:0:
368,222,90524,2,0,P|381:249|387:276,2,44.999998626709,8|8|10,2:1|2:1|2:2,0:0:0:0:
296,166,91156,1,2,2:2:0:0:
296,166,91314,2,0,P|256:184|208:200,1,89.999997253418,10|2,2:1|2:2,0:0:0:0:
168,188,91787,1,8,2:1:0:0:
191,100,92103,2,0,P|178:69|174:47,1,44.999998626709,8|2,2:2|2:2,0:0:0:0:
133,40,92419,6,0,P|86:59|36:73,1,89.999997253418,12|10,2:1|2:2,0:0:0:0:
1,145,93051,2,0,P|10:167|18:197,1,44.999998626709,10|8,2:1|2:1,0:0:0:0:
39,225,93366,1,10,2:2:0:0:
115,272,93682,2,0,P|142:279|169:290,1,44.999998626709,2|8,2:2|2:1,0:0:0:0:
198,305,93998,1,10,2:2:0:0:
282,274,94314,1,10,2:1:0:0:
327,196,94630,1,10,2:2:0:0:
412,222,94945,5,8,2:1:0:0:
485,169,95261,2,0,P|495:122|509:79,1,89.999997253418,10|8,2:2|2:1,0:0:0:0:
442,20,95893,2,0,P|419:31|391:40,1,44.999998626709,10|8,2:2|2:1,0:0:0:0:
366,72,96209,2,0,P|324:52|274:36,1,89.999997253418,0|10,0:0|2:2,0:0:0:0:
202,78,96840,1,10,2:1:0:0:
237,160,97156,1,10,2:2:0:0:
169,220,97472,5,14,2:1:0:0:
84,189,97787,2,0,P|64:199|34:211,1,44.999998626709,10|2,2:2|2:2,0:0:0:0:
17,245,98103,1,10,2:1:0:0:
17,245,98261,2,0,P|30:272|41:305,1,44.999998626709,10|8,2:1|2:2,0:0:0:0:
58,324,98577,2,0,P|105:307|157:292,1,89.999997253418,10|8,2:1|2:1,0:0:0:0:
160,253,99051,1,10,2:2:0:0:
230,309,99366,2,0,P|277:326|329:341,1,89.999997253418,10|10,2:1|2:2,0:0:0:0:
388,285,99998,6,0,P|404:238|381:202,2,89.999997253418,10|10|10,2:1|2:2|2:1,0:0:0:0:
303,252,100945,2,0,P|293:227|283:205,1,44.999998626709,10|8,2:2|2:1,0:0:0:0:
253,178,101261,2,0,P|272:129|292:86,1,89.999997253418,0|10,0:0|2:2,0:0:0:0:
240,17,101893,1,10,2:1:0:0:
166,68,102209,1,10,2:2:0:0:
81,38,102524,6,0,P|33:62|-5:76,1,89.999997253418,12|10,2:1|2:2,0:0:0:0:
21,162,103156,2,0,P|37:198|49:253,1,89.999997253418,10|10,2:1|2:2,0:0:0:0:
113,309,103787,1,2,2:2:0:0:
186,256,104103,1,10,2:2:0:0:
242,326,104419,1,10,2:1:0:0:
303,265,104735,6,0,P|344:283|385:300,1,89.999997253418,10|8,2:2|2:1,0:0:0:0:
470,269,105366,2,0,P|490:229|466:186,1,89.999997253418,10|8,2:2|2:1,0:0:0:0:
389,153,105998,2,0,P|412:109|422:64,1,89.999997253418,10|0,2:2|0:0,0:0:0:0:
359,4,106630,1,10,2:2:0:0:
295,67,106945,1,10,2:1:0:0:
218,19,107261,1,10,2:2:0:0:
153,81,107577,5,14,2:1:0:0:
209,151,107893,2,0,P|197:183|191:209,1,44.999998626709,10|2,2:2|2:2,0:0:0:0:
155,217,108209,1,10,2:1:0:0:
155,217,108366,2,0,P|175:265|185:316,1,89.999997253418,10|10,2:1|2:1,0:0:0:0:
306,358,109156,1,10,2:2:0:0:
383,311,109472,2,0,P|411:301|437:294,1,44.999998626709,10|2,2:1|2:2,0:0:0:0:
454,262,109787,2,0,P|438:230|436:213,1,44.999998626709,10|2,2:2|2:2,0:0:0:0:
457,180,110103,6,0,P|471:138|445:93,1,89.999997253418,10|8,2:1|2:2,0:0:0:0:
380,43,110735,2,0,P|330:63|285:75,1,89.999997253418,10|10,2:1|2:2,0:0:0:0:
274,114,111209,1,10,2:1:0:0:
274,114,111366,1,8,2:2:0:0:
184,104,111682,1,10,2:2:0:0:
140,179,111998,1,10,2:2:0:0:
140,179,112156,2,0,P|158:227|164:281,1,89.999997253418,10|10,2:1|2:1,0:0:0:0:
133,305,112630,6,0,P|86:286|36:275,1,99.9999999999999,14|10,2:1|2:2,0:0:0:0:
0,198,113261,1,8,2:1:0:0:
0,198,113419,2,0,P|15:170|13:141,1,50,10|8,2:1|2:2,0:0:0:0:
52,117,113735,2,0,P|106:99|157:72,1,99.9999999999999,10|8,2:1|2:1,0:0:0:0:
191,62,114209,1,10,2:2:0:0:
276,122,114524,1,10,2:1:0:0:
276,122,114682,2,0,P|292:162|302:223,1,99.9999999999999,2|2,2:2|2:2,0:0:0:0:
335,255,115156,6,0,P|384:270|429:235,1,99.9999999999999,10|10,2:1|2:2,0:0:0:0:
495,176,115788,1,8,2:1:0:0:
495,176,115946,2,0,P|486:151|484:122,1,50,10|8,2:1|2:2,0:0:0:0:
456,85,116261,2,0,P|401:67|353:41,1,99.9999999999999,10|8,2:1|2:1,0:0:0:0:
326,33,116735,1,10,2:2:0:0:
234,8,117051,1,10,2:2:0:0:
234,8,117209,2,0,P|190:32|143:48,1,99.9999999999999,10|10,2:1|2:1,0:0:0:0:
136,98,117682,6,0,P|155:142|164:204,1,99.9999999999999,14|10,2:1|2:2,0:0:0:0:
253,248,118314,1,8,2:1:0:0:
253,248,118472,2,0,P|243:273|236:307,1,50,10|8,2:1|2:2,0:0:0:0:
194,321,118788,2,0,P|146:331|106:303,1,99.9999999999999,10|8,2:1|2:1,0:0:0:0:
84,258,119261,1,10,2:2:0:0:
163,193,119577,1,10,2:1:0:0:
163,193,119735,2,0,P|211:177|256:157,1,99.9999999999999,2|0,2:2|0:0,0:0:0:0:
290,120,120209,6,0,P|330:137|385:153,1,99.9999999999999,10|8,2:1|2:2,0:0:0:0:
437,163,120682,1,8,2:2:0:0:
437,163,120840,1,10,2:1:0:0:
489,77,121156,2,0,P|499:55|518:21,2,50,8|10|2,2:2|2:1|2:2,0:0:0:0:
402,25,121787,2,0,P|376:34|345:40,1,50,10|8,2:2|2:2,0:0:0:0:
311,66,122103,1,10,2:1:0:0:
223,17,122419,1,10,2:2:0:0:
135,59,122735,6,0,P|108:99|131:147,1,99.9999999999999,14|10,2:1|2:2,0:0:0:0:
218,193,123367,1,8,2:1:0:0:
218,193,123524,2,0,P|208:220|203:256,1,50,10|8,2:1|2:2,0:0:0:0:
178,284,123840,2,0,P|125:304|78:331,1,99.9999999999999,10|10,2:1|2:1,0:0:0:0:
46,354,124314,1,10,2:2:0:0:
9,260,124630,1,10,2:1:0:0:
9,260,124787,2,0,P|20:208|32:154,1,99.9999999999999,2|2,2:2|2:2,0:0:0:0:
56,119,125261,6,0,P|103:104|149:84,1,99.9999999999999,10|10,2:1|2:2,0:0:0:0:
252,101,125893,1,8,2:1:0:0:
252,101,126051,2,0,P|243:125|238:154,1,50,10|8,2:1|2:2,0:0:0:0:
192,170,126367,2,0,P|213:216|216:274,1,99.9999999999999,10|10,2:1|2:1,0:0:0:0:
231,312,126840,1,10,2:2:0:0:
318,371,127156,1,10,2:2:0:0:
318,371,127314,2,0,P|361:352|416:335,1,99.9999999999999,10|10,2:1|2:1,0:0:0:0:
460,324,127787,6,0,P|485:272|457:226,1,99.9999999999999,14|10,2:1|2:2,0:0:0:0:
392,181,128419,1,8,2:1:0:0:
392,181,128577,2,0,P|361:166|327:155,1,50,10|8,2:1|2:2,0:0:0:0:
316,120,128893,2,0,P|269:142|217:159,1,99.9999999999999,10|10,2:1|2:1,0:0:0:0:
179,182,129367,1,10,2:2:0:0:
101,128,129682,1,10,2:1:0:0:
101,128,129840,2,0,P|131:79|118:31,1,99.9999999999999,2|0,2:2|0:0,0:0:0:0:
158,3,130314,5,10,2:1:0:0:
257,8,130630,2,0,P|287:23|321:33,1,50,8|8,2:2|2:2,0:0:0:0:
322,74,130946,2,0,P|351:64|421:42,1,99.9999999999999,10|8,2:1|2:2,0:0:0:0:
468,29,131419,1,10,2:1:0:0:
468,29,131577,1,2,2:2:0:0:
510,120,131893,2,0,P|502:144|495:176,1,50,10|8,2:2|2:2,0:0:0:0:
456,199,132209,1,10,2:1:0:0:
499,288,132524,1,10,2:2:0:0:
417,347,132840,5,14,2:1:0:0:
328,328,133156,2,0,P|288:349|244:365,2,89.999997253418,10|10|10,2:2|2:1|2:2,0:0:0:0:
346,289,133945,1,8,2:1:0:0:
346,289,134103,1,2,2:2:0:0:
287,220,134419,2,0,P|246:240|204:256,1,89.999997253418,10|8,2:2|2:1,0:0:0:0:
107,260,135051,2,0,P|111:234|118:210,1,44.999998626709,10|0,2:2|0:0,0:0:0:0:
150,186,135366,6,0,P|142:136|129:90,1,89.999997253418,10|10,2:1|2:2,0:0:0:0:
162,13,135998,1,8,2:1:0:0:
251,6,136314,2,0,P|276:17|302:24,1,44.999998626709,10|8,2:2|2:1,0:0:0:0:
319,58,136630,2,0,P|363:38|409:25,1,89.999997253418,2|10,2:2|2:2,0:0:0:0:
450,19,137103,1,8,2:2:0:0:
450,19,137261,1,10,2:2:0:0:
495,96,137577,2,0,P|486:120|480:152,1,44.999998626709,10|8,2:2|2:1,0:0:0:0:
459,178,137893,5,14,2:1:0:0:
383,227,138209,2,0,P|402:271|414:321,2,89.999997253418,10|10|10,2:2|2:1|2:2,0:0:0:0:
344,202,138998,1,8,2:1:0:0:
344,202,139156,1,2,2:2:0:0:
254,205,139472,2,0,P|211:190|158:172,1,89.999997253418,10|8,2:2|2:1,0:0:0:0:
85,209,140103,2,0,P|76:232|79:264,1,44.999998626709,10|2,2:2|2:2,0:0:0:0:
77,297,140419,6,0,P|119:311|162:326,1,89.999997253418,10|10,2:1|2:2,0:0:0:0:
198,352,140893,1,8,2:2:0:0:
283,306,141209,1,8,2:1:0:0:
283,306,141366,2,0,P|270:276|263:257,1,44.999998626709,10|8,2:2|2:1,0:0:0:0:
253,220,141682,1,2,2:2:0:0:
182,163,141998,2,0,P|192:136|198:109,1,44.999998626709,10|8,2:2|2:2,0:0:0:0:
234,96,142314,2,0,P|280:115|332:121,1,89.999997253418,10|10,2:1|2:2,0:0:0:0:
409,110,142945,5,10,2:1:0:0:
486,155,143261,2,0,P|474:194|463:254,1,89.999997253418,10|8,2:2|2:1,0:0:0:0:
425,265,143735,1,8,2:1:0:0:
425,265,143893,2,0,P|436:304|447:364,1,89.999997253418,10|0,2:2|0:0,0:0:0:0:
360,381,144524,2,0,P|315:363|264:349,1,89.999997253418,10|8,2:2|2:1,0:0:0:0:
221,278,145156,6,0,P|264:265|305:248,1,89.999997253418,10|8,2:2|2:1,0:0:0:0:
347,167,145787,2,0,P|326:121|332:74,1,89.999997253418,10|8,2:2|2:1,0:0:0:0:
293,54,146261,1,8,2:1:0:0:
293,54,146419,2,0,B|217:38|239:91|158:78,1,134.999995880127,10|8,2:2|2:1,0:0:0:0:
124,58,147051,1,10,2:2:0:0:
50,110,147366,2,0,P|71:165|92:255,1,134.999995880127,10|2,2:1|2:2,0:0:0:0:
108,285,147998,6,0,P|150:268|196:253,1,89.999997253418,8|8,2:1|2:2,0:0:0:0:
250,184,148630,2,0,P|237:152|236:130,2,44.999998626709,10|8|8,2:1|2:1|2:2,0:0:0:0:
283,214,149103,1,8,2:1:0:0:
283,214,149261,2,0,P|325:231|371:246,1,89.999997253418,2|8,2:2|2:2,0:0:0:0:
455,222,149893,1,10,2:1:0:0:
424,137,150209,1,10,2:2:0:0:
493,81,150524,6,0,P|485:55|476:27,1,44.999998626709,8|8,2:1|2:2,0:0:0:0:
443,10,150840,2,0,P|419:23|396:30,1,44.999998626709,10|8,2:2|2:2,0:0:0:0:
364,53,151156,1,8,2:1:0:0:
282,91,151472,1,10,2:2:0:0:
282,91,151630,2,0,P|231:76|180:53,1,89.999997253418,8|8,2:1|2:1,0:0:0:0:
157,82,152103,1,10,2:2:0:0:
110,159,152419,1,8,2:1:0:0:
176,219,152735,1,10,2:2:0:0:
122,291,153051,6,0,P|169:308|213:329,1,89.999997253418,8|8,2:1|2:2,0:0:0:0:
273,383,153682,1,10,2:1:0:0:
347,332,153998,2,0,P|366:285|372:238,1,89.999997253418,10|0,2:2|0:0,0:0:0:0:
409,220,154472,1,8,2:1:0:0:
409,220,154630,2,0,P|390:173|384:126,1,89.999997253418,10|8,2:2|2:1,0:0:0:0:
360,47,155261,6,0,P|320:68|271:84,1,89.999997253418,10|8,2:2|2:1,0:0:0:0:
208,140,155893,2,0,P|168:119|119:103,1,89.999997253418,10|8,2:2|2:1,0:0:0:0:
85,83,156366,1,8,2:1:0:0:
85,83,156524,2,0,P|54:164|98:247,1,179.999994506836,10|10,2:2|2:2,0:0:0:0:
183,242,157472,2,0,P|168:280|159:331,1,89.999997253418,10|8,2:1|2:2,0:0:0:0:
232,373,158103,6,0,P|272:357|325:340,2,89.999997253418,8|8|8,2:1|2:2|2:1,0:0:0:0:
142,381,159051,2,0,P|107:369|91:361,1,44.999998626709,8|8,2:2|2:1,0:0:0:0:
63,338,159366,2,0,P|48:298|73:254,1,89.999997253418,0|8,0:0|2:2,0:0:0:0:
139,209,159998,2,0,P|184:229|236:243,1,89.999997253418,10|8,2:1|2:2,0:0:0:0:
261,215,160472,1,2,2:2:0:0:
261,215,160630,6,0,P|286:207|323:201,2,44.999998626709,10|2|10,2:1|2:2|2:2,0:0:0:0:
226,132,161261,1,10,2:1:0:0:
298,78,161577,1,10,2:2:0:0:
387,84,161893,2,0,P|414:74|436:67,2,44.999998626709,2|8|8,2:2|2:1|2:2,0:0:0:0:
403,172,162524,2,0,P|419:215|429:266,1,89.999997253418,10|8,2:1|2:2,0:0:0:0:
349,303,163156,6,0,P|328:293|307:286,1,44.999998626709,10|10,2:1|2:2,0:0:0:0:
237,240,163630,1,10,2:2:0:0:
237,240,163787,2,0,P|216:249|152:272,1,89.999997253418,10|10,2:1|2:1,0:0:0:0:
110,286,164261,1,10,2:2:0:0:
43,234,164577,1,10,2:2:0:0:
43,234,164735,1,10,2:2:0:0:
104,167,165051,2,0,P|89:122|89:109,1,44.999998626709,10|2,2:2|2:2,0:0:0:0:
53,98,165366,2,0,P|66:66|72:39,1,44.999998626709,8|10,2:2|2:1,0:0:0:0:
115,38,165682,6,0,P|160:57|222:71,1,99.9999999999999,14|10,2:1|2:2,0:0:0:0:
301,108,166314,2,0,P|325:96|351:87,2,50,8|10|8,2:1|2:1|2:2,0:0:0:0:
280,153,166787,2,0,P|300:198|313:254,1,99.9999999999999,10|8,2:1|2:1,0:0:0:0:
315,297,167261,1,10,2:2:0:0:
395,365,167577,1,10,2:1:0:0:
395,365,167735,2,0,P|442:344|454:299,1,99.9999999999999,2|2,2:2|2:2,0:0:0:0:
454,248,168209,6,0,P|470:199|480:141,1,99.9999999999999,10|10,2:1|2:2,0:0:0:0:
419,78,168840,1,8,2:1:0:0:
419,78,168998,2,0,P|407:50|400:28,1,50,10|8,2:1|2:2,0:0:0:0:
355,10,169314,2,0,P|317:31|247:47,1,99.9999999999999,10|10,2:1|2:1,0:0:0:0:
230,84,169787,1,10,2:2:0:0:
290,158,170103,1,10,2:2:0:0:
290,158,170261,2,0,P|305:199|321:268,1,99.9999999999999,10|10,2:1|2:1,0:0:0:0:
293,297,170735,6,0,P|247:323|189:307,1,99.9999999999999,14|10,2:1|2:2,0:0:0:0:
145,240,171366,1,8,2:1:0:0:
145,240,171524,2,0,P|123:254|93:267,1,50,10|8,2:1|2:2,0:0:0:0:
58,237,171840,2,0,P|41:187|30:136,1,99.9999999999999,10|8,2:1|2:1,0:0:0:0:
53,96,172314,1,10,2:2:0:0:
123,24,172630,1,10,2:1:0:0:
123,24,172787,2,0,P|164:42|225:54,1,99.9999999999999,2|0,2:2|0:0,0:0:0:0:
267,62,173261,6,0,P|303:104|290:148,1,99.9999999999999,10|8,2:1|2:2,0:0:0:0:
263,184,173735,1,8,2:2:0:0:
263,184,173893,1,10,2:1:0:0:
345,241,174209,2,0,P|371:253|396:263,1,50,8|10,2:2|2:1,0:0:0:0:
439,244,174524,2,0,P|453:201|422:156,1,99.9999999999999,2|10,2:2|2:2,0:0:0:0:
448,115,174998,1,8,2:2:0:0:
448,115,175156,2,0,P|472:108|495:98,2,50,10|8|10,2:1|2:1|2:2,0:0:0:0:
363,61,175787,6,0,P|320:76|262:86,1,99.9999999999999,14|10,2:1|2:2,0:0:0:0:
196,157,176419,1,8,2:1:0:0:
196,157,176577,2,0,P|205:181|213:216,1,50,10|8,2:1|2:2,0:0:0:0:
227,252,176893,2,0,P|273:270|317:294,1,99.9999999999999,10|10,2:1|2:1,0:0:0:0:
352,329,177366,1,10,2:2:0:0:
422,258,177682,1,10,2:1:0:0:
422,258,177840,2,0,P|437:214|415:161,1,99.9999999999999,2|2,2:2|2:2,0:0:0:0:
375,141,178314,6,0,P|330:118|282:139,1,99.9999999999999,10|10,2:1|2:2,0:0:0:0:
229,218,178945,1,8,2:1:0:0:
229,218,179103,2,0,P|238:249|243:281,1,50,10|8,2:1|2:2,0:0:0:0:
232,315,179419,2,0,P|206:351|152:359,1,99.9999999999999,10|10,2:1|2:1,0:0:0:0:
111,331,179893,1,10,2:2:0:0:
41,258,180209,1,10,2:2:0:0:
41,258,180366,2,0,P|55:213|65:154,1,99.9999999999999,10|10,2:1|2:1,0:0:0:0:
93,119,180840,6,0,P|135:94|186:104,1,99.9999999999999,14|10,2:1|2:2,0:0:0:0:
276,152,181472,1,8,2:1:0:0:
276,152,181630,2,0,P|299:164|328:177,1,50,10|8,2:1|2:2,0:0:0:0:
364,148,181945,2,0,P|375:101|340:62,1,99.9999999999999,10|10,2:1|2:1,0:0:0:0:
300,41,182419,1,10,2:2:0:0:
207,17,182735,1,10,2:1:0:0:
207,17,182893,2,0,P|159:39|104:57,1,99.9999999999999,2|0,2:2|0:0,0:0:0:0:
70,77,183366,5,10,2:1:0:0:
152,133,183682,2,0,P|144:162|139:187,1,50,8|8,2:2|2:2,0:0:0:0:
108,208,183998,2,0,P|118:247|134:318,1,99.9999999999999,10|8,2:1|2:2,0:0:0:0:
165,349,184472,1,10,2:1:0:0:
165,349,184630,1,2,2:2:0:0:
260,377,184945,2,0,P|294:364|318:356,1,50,10|8,2:2|2:2,0:0:0:0:
331,315,185261,1,10,2:1:0:0:
422,354,185577,1,10,2:2:0:0:
493,286,185893,5,10,2:1:0:0:
439,213,186209,2,0,P|430:167|460:127,2,89.999997253418,14|10|8,2:2|2:1|2:2,0:0:0:0:
397,230,186998,2,0,P|355:212|302:197,1,89.999997253418,8|8,2:1|2:1,0:0:0:0:
270,183,187472,1,10,2:2:0:0:
196,130,187788,1,10,2:1:0:0:
123,76,188103,2,0,P|103:85|78:93,1,44.999998626709,10|0,2:2|0:0,0:0:0:0:
38,105,188419,6,0,P|11:74|20:25,2,89.999997253418,10|10|10,2:1|2:2|2:1,0:0:0:0:
16,146,189209,1,8,2:1:0:0:
16,146,189367,1,10,2:2:0:0:
87,200,189682,2,0,P|104:229|86:285,2,89.999997253418,2|10|10,2:2|2:2|2:2,0:0:0:0:
164,153,190630,1,10,2:2:0:0:
241,198,190946,5,14,2:1:0:0:
323,162,191262,2,0,P|366:149|407:131,2,89.999997253418,10|10|8,2:2|2:1|2:2,0:0:0:0:
330,211,192051,1,8,2:1:0:0:
330,211,192209,2,0,P|323:257|345:307,1,89.999997253418,2|10,2:2|2:2,0:0:0:0:
263,349,192841,1,10,2:1:0:0:
183,374,193156,6,0,P|156:364|86:339,1,89.999997253418,10|10,2:2|2:1,0:0:0:0:
12,315,193787,2,0,P|25:288|30:258,1,44.999998626709,10|8,2:2|2:2,0:0:0:0:
37,229,194103,1,8,2:1:0:0:
125,201,194420,1,10,2:2:0:0:
125,201,194577,2,0,P|134:152|114:115,1,89.999997253418,8|8,2:1|2:1,0:0:0:0:
91,79,195051,1,10,2:2:0:0:
160,22,195366,1,10,2:1:0:0:
233,74,195683,2,0,P|254:67|275:59,1,44.999998626709,10|2,2:2|2:2,0:0:0:0:
317,43,195998,5,14,2:1:0:0:
393,90,196314,2,0,P|380:138|371:189,2,89.999997253418,10|10|8,2:2|2:1|2:2,0:0:0:0:
427,61,197103,1,8,2:1:0:0:
427,61,197261,2,0,P|465:77|515:90,1,89.999997253418,2|10,2:2|2:2,0:0:0:0:
477,172,197893,1,10,2:1:0:0:
427,247,198209,2,0,P|401:256|372:272,1,44.999998626709,10|0,2:2|0:0,0:0:0:0:
345,283,198524,6,0,P|318:253|311:205,2,89.999997253418,10|10|10,2:1|2:2|2:1,0:0:0:0:
333,329,199314,1,8,2:1:0:0:
333,329,199472,1,10,2:2:0:0:
249,295,199787,2,0,P|190:272|151:263,2,89.999997253418,2|10|10,2:2|2:2|2:2,0:0:0:0:
298,219,200735,1,10,2:2:0:0:
251,141,201051,5,14,2:1:0:0:
170,100,201366,2,0,P|153:58|139:15,2,89.999997253418,10|10|8,2:2|2:1|2:2,0:0:0:0:
130,134,202156,1,8,2:1:0:0:
130,134,202314,2,0,P|88:152|44:164,1,89.999997253418,2|10,2:2|2:2,0:0:0:0:
7,245,202945,1,10,2:1:0:0:
76,302,203261,6,0,P|84:344|131:367,1,89.999997253418,10|10,2:2|2:1,0:0:0:0:
203,325,203893,2,0,P|229:334|254:340,1,44.999998626709,10|8,2:2|2:2,0:0:0:0:
291,348,204209,1,8,2:1:0:0:
371,313,204524,1,10,2:2:0:0:
371,313,204682,2,0,P|392:274|379:226,1,89.999997253418,8|8,2:1|2:1,0:0:0:0:
363,191,205156,1,10,2:2:0:0:
301,126,205472,1,10,2:1:0:0:
354,54,205787,6,0,L|371:6,1,44.999998626709,10|2,2:2|2:2,0:0:0:0:
