osu file format v14

[General]
AudioFilename: audio.mp3
AudioLeadIn: 0
PreviewTime: 39287
Countdown: 0
SampleSet: Soft
StackLeniency: 0.4
Mode: 0
LetterboxInBreaks: 0
WidescreenStoryboard: 1

[Editor]
Bookmarks: 55156,72209,132840,185893
DistanceSpacing: 1.4
BeatDivisor: 4
GridSize: 32
TimelineZoom: 1.6

[Metadata]
Title:Omokage -self cover-
TitleUnicode:おもかげ -self cover-
Artist:Vaundy
ArtistUnicode:Vaundy
Creator:alevi
Version:Kumocha & Yuuma's Insane
Source:
Tags:japanese pop jpop j-pop male vocalist hadaka no yuusha 裸の勇者 crysisters midorijeon kumocha shirokumocha yuuma ogura yui ogura_yui
BeatmapID:3637778
BeatmapSetID:1752322

[Difficulty]
HPDrainRate:5
CircleSize:3.6
OverallDifficulty:8
ApproachRate:9
SliderMultiplier:1.7
SliderTickRate:1

[Events]
//Background and Video events
0,0,"anime-boy-umbrella-underwater-fantasy-hd-3840x2160 (1).jpg",0,0
//Break Periods
//Storyboard Layer 0 (Background)
//Storyboard Layer 1 (Fail)
//Storyboard Layer 2 (Pass)
//Storyboard Layer 3 (Foreground)
//Storyboard Layer 4 (Overlay)
//Storyboard Sound Samples

[TimingPoints]
209,315.789473684211,4,2,7,40,1,0
209,-181.818181818181,4,2,7,40,0,0
998,-133.333333333333,4,2,1,40,0,0
1393,-133.333333333333,4,2,1,40,0,0
1472,-117.647058823529,4,2,1,50,0,0
11577,-117.647058823529,4,2,1,45,0,0
31787,-105.263157894737,4,2,1,55,0,0
39366,-117.64705882353,4,2,1,65,0,0
40630,-105.263157894737,4,2,1,65,0,0
41893,-95.2380952380952,4,2,1,75,0,0
59577,-95.2380952380952,4,2,2,75,0,0
59893,-95.2380952380952,4,2,1,75,0,0
60050,-95.2380952380952,4,2,3,75,0,0
60366,-95.2380952380952,4,2,1,75,0,0
60524,-95.2380952380952,4,2,4,75,0,0
61314,-95.2380952380952,4,2,1,75,0,0
61471,-95.2380952380952,4,2,5,75,0,0
61629,-95.2380952380952,4,2,1,75,0,0
62103,-95.2380952380952,4,2,1,65,0,0
72209,-117.647058823529,4,2,1,45,0,0
92419,-105.263157894737,4,2,1,55,0,0
102524,-105.263157894737,4,2,1,60,0,0
110103,-105.263157894737,4,2,1,65,0,0
112630,-95.2380952380954,4,2,1,75,0,0
130314,-95.2380952380954,4,2,2,75,0,0
130630,-95.2380952380954,4,2,1,75,0,0
130787,-95.2380952380954,4,2,3,75,0,0
131103,-95.2380952380954,4,2,1,75,0,0
131261,-95.2380952380954,4,2,4,75,0,0
132051,-95.2380952380954,4,2,1,75,0,0
132208,-95.2380952380954,4,2,5,75,0,0
132366,-95.2380952380954,4,2,1,75,0,0
132840,-95.2380952380954,4,2,1,65,0,0
142945,-105.263157894737,4,2,1,55,0,0
150525,-105.263157894737,4,2,2,55,0,0
150840,-105.263157894737,4,2,1,55,0,0
150998,-105.263157894737,4,2,5,55,0,0
151156,-105.263157894737,4,2,3,55,0,0
151314,-105.263157894737,4,2,1,55,0,0
151472,-105.263157894737,4,2,4,55,0,0
152419,-105.263157894737,4,2,5,55,0,0
152735,-105.263157894737,4,2,1,55,0,0
160630,-105.263157894737,4,2,1,45,0,0
163156,-95.2380952380954,4,2,2,65,0,0
163472,-95.2380952380954,4,2,1,65,0,0
163630,-95.2380952380954,4,2,3,65,0,0
163945,-95.2380952380954,4,2,1,65,0,0
164103,-95.2380952380954,4,2,4,65,0,0
164261,-66.6666666666667,4,2,4,65,0,0
165051,-66.6666666666667,4,2,6,65,0,0
165366,-66.6666666666667,4,2,1,65,0,0
165682,-95.2380952380954,4,2,1,75,0,0
183366,-95.2380952380954,4,2,2,75,0,0
183682,-95.2380952380954,4,2,1,75,0,0
183839,-95.2380952380954,4,2,3,75,0,0
184155,-95.2380952380954,4,2,1,75,0,0
184313,-95.2380952380954,4,2,4,75,0,0
185260,-95.2380952380954,4,2,5,75,0,0
185418,-95.2380952380954,4,2,1,75,0,0
185893,-95.2380952380954,4,2,1,70,0,0

[Colours]
Combo1 : 86,163,239
Combo2 : 245,146,196
Combo3 : 142,142,244

[HitObjects]
123,185,209,6,0,P|76:201|22:219,2,93.5000028533936,8|8|8,0:2|0:2|0:2,0:0:0:0:
263,125,998,5,8,2:1:0:0:
263,125,1156,2,0,P|253:178|245:237,1,95.6250036478044,8|0,2:2|0:0,0:0:0:0:
227,297,1472,6,0,P|264:255|313:262,1,108.375002067089,10|0,2:1|0:0,0:0:0:0:
375,321,1787,2,0,B|396:299|414:288|414:288|397:246|373:192,1,144.500002756119,10|8,2:2|2:1,0:0:0:0:
439,121,2261,2,0,P|476:129|524:141,1,72.2500013780594,10|8,2:1|2:2,0:0:0:0:
384,30,2577,6,0,P|319:14|266:75,1,144.500002756119,10|10,2:1|2:1,0:0:0:0:
201,145,3051,1,10,2:2:0:0:
277,220,3209,1,2,2:2:0:0:
198,295,3366,2,0,P|146:316|77:319,1,108.375002067089,10|0,2:1|0:0,0:0:0:0:
57,214,3682,2,0,P|95:227|142:239,1,72.2500013780594,10|0,2:2|0:0,0:0:0:0:
257,113,3998,6,0,P|271:167|276:234,1,108.375002067089,10|0,2:1|0:0,0:0:0:0:
351,272,4314,2,0,B|398:263|398:263|441:288|441:288|497:274,1,144.500002756119,10|8,2:2|2:1,0:0:0:0:
512,189,4787,2,0,P|502:148|495:117,1,72.2500013780594,10|8,2:1|2:2,0:0:0:0:
398,34,5103,6,0,B|351:10|351:10|240:54,1,144.500002756119,10|10,2:1|2:1,0:0:0:0:
206,117,5577,2,0,P|219:166|227:201,1,72.2500013780594,10|2,2:2|2:2,0:0:0:0:
158,286,5893,1,10,2:1:0:0:
158,286,6051,1,2,2:2:0:0:
259,352,6209,1,10,2:2:0:0:
259,352,6366,1,2,2:2:0:0:
152,194,6524,6,0,P|105:213|53:254,1,108.375002067089,10|0,2:1|0:0,0:0:0:0:
36,325,6840,2,0,P|24:266|6:169,1,144.500002756119,10|8,2:2|2:1,0:0:0:0:
65,96,7314,2,0,P|103:90|141:119,1,72.2500013780594,10|8,2:1|2:2,0:0:0:0:
281,192,7630,6,0,B|243:213|243:213|190:164|237:101,1,144.500002756119,10|10,2:1|2:1,0:0:0:0:
294,42,8103,1,10,2:2:0:0:
377,110,8261,1,2,2:2:0:0:
281,192,8419,2,0,P|295:244|311:312,1,108.375002067089,10|0,2:1|0:0,0:0:0:0:
385,355,8735,2,0,P|394:310|401:275,1,72.2500013780594,10|0,2:2|0:0,0:0:0:0:
504,152,9051,6,0,P|464:187|409:178,1,108.375002067089,10|0,2:1|0:0,0:0:0:0:
345,132,9366,2,0,P|391:177|368:271,1,144.500002756119,10|8,2:2|2:1,0:0:0:0:
294,340,9840,2,0,P|336:354|373:367,1,72.2500013780594,10|8,2:1|2:2,0:0:0:0:
308,210,10156,6,0,P|255:225|164:256,1,144.500002756119,10|10,2:1|2:1,0:0:0:0:
87,167,10630,1,10,2:2:0:0:
170,83,10787,1,2,2:2:0:0:
259,132,10945,2,0,P|313:152|389:171,1,108.375002067089,10|0,2:1|0:0,0:0:0:0:
428,52,11261,2,0,P|383:65|339:83,1,72.2500013780594,10|0,2:2|0:0,0:0:0:0:
194,29,11577,6,0,B|144:56|144:56|88:59|41:9,2,144.500002756119,10|10|10,2:1|2:2|2:1,0:0:0:0:
281,107,12366,1,8,2:1:0:0:
281,107,12524,2,0,P|267:151|256:196,1,72.2500013780594,8|8,2:2|2:1,0:0:0:0:
187,260,12840,6,0,P|201:304|212:349,1,72.2500013780594,2|8,2:2|2:1,0:0:0:0:
331,262,13156,2,0,P|340:227|351:192,1,72.2500013780594,10|0,2:2|0:0,0:0:0:0:
281,107,13472,2,0,P|231:103|188:146,1,108.375002067089,10|0,2:1|0:0,0:0:0:0:
140,208,13787,2,0,P|102:220|65:199,1,72.2500013780594,10|0,2:2|0:0,0:0:0:0:
5,62,14103,6,0,B|52:32|52:32|151:68,2,144.500002756119,10|10|10,2:1|2:2|2:1,0:0:0:0:
70,143,14893,1,8,2:1:0:0:
70,143,15051,2,0,L|52:222,1,72.2500013780594,10|8,2:2|2:1,0:0:0:0:
143,305,15366,6,0,P|182:314|219:291,1,72.2500013780594,2|8,2:2|2:1,0:0:0:0:
206,161,15682,2,0,P|176:190|171:229,1,72.2500013780594,10|0,2:2|0:0,0:0:0:0:
280,352,15998,2,0,P|300:308|249:227,1,144.500002756119,10|8,2:1|2:2,0:0:0:0:
256,229,16630,6,0,P|265:175|278:122,1,108.375002067089,8|0,2:1|0:0,0:0:0:0:
324,57,16945,2,0,P|366:51|406:83,1,72.2500013780594,8|0,2:2|0:0,0:0:0:0:
502,30,17261,2,0,P|487:73|481:110,1,72.2500013780594,10|8,2:1|2:1,0:0:0:0:
421,171,17577,2,0,P|436:214|442:251,1,72.2500013780594,10|8,2:2|2:1,0:0:0:0:
506,333,17893,6,0,P|467:345|417:352,1,72.2500013780594,2|8,2:2|2:1,0:0:0:0:
361,296,18209,2,0,P|325:289|291:278,1,72.2500013780594,10|0,2:2|0:0,0:0:0:0:
163,208,18524,2,0,P|204:267|175:355,1,144.500002756119,10|8,2:1|2:2,0:0:0:0:
120,285,18998,1,0,0:0:0:0:
254,176,19156,6,0,P|316:190|414:211,1,144.500002756119,8|8,2:1|2:2,0:0:0:0:
470,140,19630,1,0,0:0:0:0:
470,140,19787,2,0,P|459:95|451:57,1,72.2500013780594,10|8,2:1|2:1,0:0:0:0:
366,11,20103,2,0,P|358:46|349:81,1,72.2500013780594,10|8,2:2|2:1,0:0:0:0:
252,184,20419,6,0,P|277:159|323:160,1,72.2500013780594,2|8,2:2|2:1,0:0:0:0:
354,293,20735,2,0,P|323:266|314:231,1,72.2500013780594,10|0,2:2|0:0,0:0:0:0:
203,101,21051,2,0,B|177:101|155:78|155:78|148:113|124:128,1,108.375002067089,10|0,2:1|0:0,0:0:0:0:
33,92,21366,2,0,P|56:149|60:217,1,108.375002067089,10|0,2:2|0:0,0:0:0:0:
30,269,21682,6,0,B|47:232|80:228|80:228|171:261,1,144.500002756119,10|8,2:1|2:2,0:0:0:0:
248,190,22156,1,0,0:0:0:0:
178,103,22314,1,8,2:1:0:0:
178,103,22472,1,8,2:1:0:0:
289,25,22630,2,0,P|338:37|371:47,1,72.2500013780594,8|8,2:2|2:1,0:0:0:0:
462,105,22945,6,0,P|475:60|490:22,1,72.2500013780594,2|8,2:2|2:1,0:0:0:0:
371,200,23261,2,0,P|358:155|343:117,1,72.2500013780594,10|0,2:2|0:0,0:0:0:0:
289,25,23577,2,0,P|236:39|179:76,1,108.375002067089,10|0,2:1|0:0,0:0:0:0:
117,126,23893,2,0,P|159:142|192:153,1,72.2500013780594,8|0,2:2|0:0,0:0:0:0:
336,207,24209,6,0,B|295:203|271:172|271:172|268:210|212:232,2,144.500002756119,10|10|10,2:1|2:2|2:1,0:0:0:0:
495,149,24998,1,8,2:1:0:0:
407,130,25156,2,0,P|418:172|428:224,1,72.2500013780594,10|8,2:2|2:1,0:0:0:0:
497,300,25472,6,0,P|456:314|415:326,1,72.2500013780594,2|8,2:2|2:1,0:0:0:0:
316,199,25787,2,0,P|342:227|345:271,1,72.2500013780594,10|0,2:2|0:0,0:0:0:0:
269,347,26103,2,0,P|196:362|151:308,1,144.500002756119,10|8,2:1|2:2,0:0:0:0:
129,149,26577,1,0,0:0:0:0:
215,204,26735,6,0,P|161:227|57:233,1,144.500002756119,8|8,2:1|2:2,0:0:0:0:
21,152,27209,1,0,0:0:0:0:
21,152,27366,2,0,P|13:110|4:76,1,72.2500013780594,10|8,2:1|2:1,0:0:0:0:
138,23,27682,2,0,P|129:58|122:93,1,72.2500013780594,10|8,2:2|2:1,0:0:0:0:
82,213,27998,6,0,P|91:248|98:283,1,72.2500013780594,2|8,2:2|2:1,0:0:0:0:
177,358,28314,2,0,P|219:324|288:322,1,108.375002067089,10|0,2:2|0:0,0:0:0:0:
345,368,28630,2,0,P|389:367|417:351,1,72.2500013780594,10|0,2:1|0:0,0:0:0:0:
478,233,28945,2,0,P|434:232|406:216,1,72.2500013780594,10|0,2:2|0:0,0:0:0:0:
331,136,29261,6,0,B|240:108|240:108|174:155,1,144.500002756119,8|8,2:1|2:2,0:0:0:0:
112,229,29735,1,0,0:0:0:0:
204,318,29893,1,8,2:1:0:0:
204,318,30051,1,8,2:1:0:0:
82,372,30209,2,0,P|34:357|-9:357,1,72.2500013780594,10|8,2:2|2:1,0:0:0:0:
99,202,30524,6,0,P|112:255|117:295,1,72.2500013780594,2|8,2:2|2:1,0:0:0:0:
257,143,30840,2,0,P|244:196|239:236,1,72.2500013780594,10|0,2:2|0:0,0:0:0:0:
124,125,31156,2,0,P|67:119|28:174,1,108.375002067089,10|0,2:1|0:0,0:0:0:0:
25,190,31472,2,0,P|41:241|45:324,1,108.375002067089,10|0,2:2|0:0,0:0:0:0:
126,349,31787,6,0,B|164:365|164:365|219:343,1,80.7499978437424,10|0,2:1|0:0,0:0:0:0:
203,192,32103,2,0,P|171:226|168:276,1,80.7499978437424,10|0,2:2|0:0,0:0:0:0:
297,362,32419,1,10,2:1:0:0:
249,261,32577,1,8,2:1:0:0:
373,163,32735,2,0,P|421:183|474:190,1,80.7499978437424,10|8,2:2|2:1,0:0:0:0:
373,336,33051,6,0,P|325:356|272:363,1,80.7499978437424,2|8,2:2|2:1,0:0:0:0:
195,229,33366,2,0,B|276:205|276:205|262:222|260:239,1,121.124996765614,10|0,2:2|0:0,0:0:0:0:
174,244,33682,2,0,P|160:198|148:157,1,80.7499978437424,10|0,2:1|0:0,0:0:0:0:
298,35,33998,6,0,P|384:63|472:88,1,161.499995687485,10|8,2:2|2:1,0:0:0:0:
452,82,34472,1,0,0:0:0:0:
315,197,34630,6,0,P|239:190|188:265,1,161.499995687485,10|8,2:2|2:1,0:0:0:0:
189,251,35103,1,8,2:1:0:0:
32,113,35261,6,0,P|62:184|67:292,1,161.499995687485,10|0,2:2|0:0,0:0:0:0:
69,267,35735,1,8,2:1:0:0:
204,354,35893,6,0,P|163:368|114:380,1,80.7499978437424,10|0,2:2|0:0,0:0:0:0:
159,195,36209,2,0,P|204:199|231:229,1,80.7499978437424,10|0,2:1|0:0,0:0:0:0:
327,363,36524,2,0,P|290:334|284:293,1,80.7499978437424,10|0,2:2|0:0,0:0:0:0:
400,177,36840,6,0,P|343:158|260:125,1,121.124996765614,10|0,2:1|0:0,0:0:0:0:
249,130,37156,1,10,2:2:0:0:
355,46,37314,1,2,2:2:0:0:
400,177,37472,1,10,2:1:0:0:
343,241,37630,2,0,P|357:289|366:330,1,80.7499978437424,10|8,2:1|2:2,0:0:0:0:
253,160,37945,6,0,B|137:124|137:124|150:147|148:171,1,161.499995687485,10|8,2:1|2:1,0:0:0:0:
45,322,38419,2,0,B|82:283|82:283|33:163,1,161.499995687485,10|10,2:2|2:1,0:0:0:0:
7,43,38893,1,2,2:2:0:0:
136,127,39051,1,10,2:2:0:0:
73,84,39209,1,2,2:2:0:0:
228,26,39366,6,0,P|285:26|308:124,1,144.500002756119,10|8,2:1|2:2,0:0:0:0:
284,178,39840,1,0,0:0:0:0:
413,316,39998,1,10,2:1:0:0:
459,241,40156,1,8,2:1:0:0:
309,276,40314,2,0,P|250:297|223:311,1,72.2500013780594,8|8,2:2|2:1,0:0:0:0:
107,131,40630,5,10,2:2:0:0:
169,47,40787,1,8,2:1:0:0:
242,234,40945,5,10,2:2:0:0:
186,131,41103,1,8,2:1:0:0:
119,317,41261,5,10,2:2:0:0:
154,210,41419,1,10,2:1:0:0:
29,121,41577,5,8,2:2:0:0:
81,244,41735,1,10,2:1:0:0:
170,74,41893,6,0,B|240:48|240:48|254:75|299:93,1,133.874995914459,14|0,2:1|0:0,0:0:0:0:
349,38,42209,2,0,B|393:61|393:61|356:82,1,89.2499972763062,10|0,2:2|0:0,0:0:0:0:
262,246,42524,1,8,2:1:0:0:
210,149,42682,2,0,P|152:169|100:189,1,89.2499972763062,10|8,2:1|2:2,0:0:0:0:
348,288,42998,6,0,B|391:264|438:301|417:320|454:362|523:335,1,178.499994552612,10|8,2:1|2:1,0:0:0:0:
421,142,43472,2,0,P|363:176|284:192,1,133.874995914459,10|0,2:2|0:0,0:0:0:0:
252,188,43787,1,10,2:1:0:0:
329,98,43945,1,2,2:2:0:0:
172,17,44103,2,0,P|214:14|255:54,1,89.2499972763062,8|2,2:2|2:2,0:0:0:0:
153,232,44419,6,0,B|115:142|115:142|131:158|157:162,1,133.874995914459,10|0,2:1|0:0,0:0:0:0:
151,250,44735,2,0,P|120:282|68:283,1,89.2499972763062,10|0,2:2|0:0,0:0:0:0:
266,183,45051,1,8,2:1:0:0:
231,273,45209,2,0,P|252:326|268:382,1,89.2499972763062,10|8,2:1|2:2,0:0:0:0:
406,272,45524,6,0,P|425:210|479:84,1,178.499994552612,10|8,2:1|2:1,0:0:0:0:
299,20,45998,5,10,2:2:0:0:
362,139,46156,1,8,2:2:0:0:
215,226,46314,5,10,2:2:0:0:
278,107,46472,1,10,2:1:0:0:
381,266,46630,2,0,P|341:293|288:278,1,89.2499972763062,8|10,2:2|2:1,0:0:0:0:
124,165,46945,6,0,B|155:135|198:137|198:137|212:167|250:182,1,133.874995914459,14|0,2:1|0:0,0:0:0:0:
278,107,47261,2,0,P|291:57|271:16,1,89.2499972763062,10|0,2:2|0:0,0:0:0:0:
124,165,47577,1,8,2:1:0:0:
198,231,47735,2,0,P|246:255|297:264,1,89.2499972763062,10|8,2:1|2:2,0:0:0:0:
453,147,48051,6,0,B|463:189|420:211|420:211|378:202|313:173,1,178.499994552612,10|8,2:1|2:1,0:0:0:0:
168,88,48524,2,0,P|205:31|268:38,1,133.874995914459,10|0,2:2|0:0,0:0:0:0:
303,63,48840,1,10,2:1:0:0:
197,168,48998,1,2,2:2:0:0:
343,277,49156,2,0,P|296:288|242:308,1,89.2499972763062,8|0,2:2|0:0,0:0:0:0:
66,214,49472,6,0,P|113:225|167:245,1,89.2499972763062,10|0,2:1|0:0,0:0:0:0:
317,143,49787,1,8,2:2:0:0:
146,66,49945,1,8,2:2:0:0:
251,243,50103,2,0,P|299:253|339:226,1,89.2499972763062,10|8,2:1|2:1,0:0:0:0:
376,52,50419,2,0,P|328:42|288:69,1,89.2499972763062,8|10,2:2|2:1,0:0:0:0:
160,222,50735,6,0,P|150:173|131:121,1,89.2499972763062,2|8,2:2|2:1,0:0:0:0:
111,309,51051,1,10,2:2:0:0:
241,163,51209,1,8,2:2:0:0:
262,357,51366,1,10,2:1:0:0:
160,222,51524,1,8,2:1:0:0:
336,299,51682,2,0,P|358:339|349:387,1,89.2499972763062,10|0,2:2|0:0,0:0:0:0:
148,204,51998,6,0,P|81:202|57:278,1,133.874995914459,14|0,2:1|0:0,0:0:0:0:
164,195,52314,2,0,P|182:147|164:106,1,89.2499972763062,10|0,2:2|0:0,0:0:0:0:
319,218,52630,1,8,2:1:0:0:
190,308,52787,2,0,P|137:290|96:279,1,89.2499972763062,10|8,2:1|2:2,0:0:0:0:
306,135,53103,6,0,B|349:111|396:148|375:167|412:209|481:182,1,178.499994552612,10|10,2:1|2:1,0:0:0:0:
351,375,53577,2,0,P|340:318|318:212,1,133.874995914459,10|0,2:2|0:0,0:0:0:0:
319,218,53893,1,10,2:1:0:0:
215,326,54051,1,2,2:2:0:0:
333,197,54209,2,0,P|386:198|415:238,1,89.2499972763062,8|2,2:2|2:2,0:0:0:0:
215,326,54524,6,0,P|193:215|173:161,1,133.874995914459,10|0,2:1|0:0,0:0:0:0:
139,118,54840,2,0,P|153:60|163:27,1,89.2499972763062,10|0,2:2|0:0,0:0:0:0:
371,50,55156,1,8,2:1:0:0:
291,71,55314,1,10,2:1:0:0:
453,27,55472,1,8,2:2:0:0:
371,50,55630,6,0,P|353:167|402:198,1,178.499994552612,10|10,2:1|2:1,0:0:0:0:
412,285,56103,1,10,2:2:0:0:
332,333,56261,1,8,2:2:0:0:
226,310,56419,1,10,2:2:0:0:
137,222,56577,1,10,2:1:0:0:
256,193,56735,1,8,2:2:0:0:
329,254,56893,1,10,2:1:0:0:
272,96,57051,6,0,P|235:183|219:272,2,178.499994552612,14|10|8,2:1|2:2|2:1,0:0:0:0:
174,65,57840,1,10,2:1:0:0:
89,10,57998,1,8,2:2:0:0:
32,89,58156,2,0,L|0:274,1,178.499994552612,10|10,2:1|2:1,0:0:0:0:
83,359,58630,6,0,L|178:306,1,89.2499972763062,10|0,2:2|0:0,0:0:0:0:
164,211,58945,1,10,2:1:0:0:
264,255,59103,1,2,2:2:0:0:
289,361,59261,2,0,P|345:343|368:299,1,89.2499972763062,8|0,2:2|0:0,0:0:0:0:
337,180,59577,5,10,2:1:0:0:
385,92,59735,1,8,2:2:0:0:
265,53,59893,1,8,2:2:0:0:
199,123,60051,1,8,2:2:0:0:
84,169,60209,1,10,2:1:0:0:
84,169,60366,1,8,2:1:0:0:
199,123,60524,2,0,L|274:200,1,89.2499972763062,8|10,2:2|2:1,0:0:0:0:
296,282,60840,5,2,2:2:0:0:
210,298,60998,1,8,2:1:0:0:
380,261,61156,1,10,2:2:0:0:
468,243,61314,1,8,2:2:0:0:
356,345,61472,1,10,2:1:0:0:
356,345,61630,1,8,2:1:0:0:
320,200,61787,2,0,P|322:156|347:119,1,89.2499972763062,10|0,2:2|0:0,0:0:0:0:
197,199,62103,6,0,P|132:182|5:168,2,178.499994552612,14|10|10,2:1|2:2|2:1,0:0:0:0:
21,168,62893,1,8,2:1:0:0:
76,96,63051,2,0,P|91:50|79:7,1,89.2499972763062,8|8,2:2|2:1,0:0:0:0:
6,269,63366,6,0,P|60:250|102:254,1,89.2499972763062,2|8,2:2|2:1,0:0:0:0:
197,199,63682,2,0,L|167:386,2,178.499994552612,10|10|10,2:2|2:1|2:2,0:0:0:0:
214,105,64472,1,0,0:0:0:0:
374,159,64630,6,0,L|257:175,1,89.2499972763062,10|0,2:1|0:0,0:0:0:0:
351,280,64945,2,0,L|454:263,1,89.2499972763062,10|0,2:2|0:0,0:0:0:0:
472,108,65261,2,0,P|412:53|315:78,1,178.499994552612,10|10,2:1|2:2,0:0:0:0:
390,152,65735,1,8,2:1:0:0:
382,277,65893,5,2,2:2:0:0:
292,226,66051,1,8,2:1:0:0:
201,284,66209,1,10,2:2:0:0:
163,174,66366,1,8,2:2:0:0:
281,124,66524,1,10,2:2:0:0:
281,124,66682,1,10,2:1:0:0:
166,190,66840,2,0,L|77:169,1,89.2499972763062,10|8,2:2|2:1,0:0:0:0:
99,75,67156,6,0,P|39:103|28:7,2,178.499994552612,14|10|10,2:1|2:2|2:1,0:0:0:0:
205,106,67945,1,8,2:1:0:0:
285,178,68103,2,0,P|290:223|264:264,1,89.2499972763062,8|8,2:2|2:1,0:0:0:0:
102,327,68419,6,0,P|158:307|204:305,1,89.2499972763062,2|8,2:2|2:1,0:0:0:0:
268,259,68735,2,0,P|353:286|442:292,2,178.499994552612,10|10|10,2:2|2:1|2:2,0:0:0:0:
197,199,69524,1,0,0:0:0:0:
276,285,69682,6,0,L|260:397,1,89.2499972763062,10|0,2:1|0:0,0:0:0:0:
361,209,69998,1,10,2:2:0:0:
353,112,70156,1,8,2:2:0:0:
251,89,70314,1,8,2:1:0:0:
201,178,70472,1,8,2:1:0:0:
147,54,70630,2,0,L|105:157,1,89.2499972763062,10|8,2:2|2:1,0:0:0:0:
52,251,70945,5,0,0:0:0:0:
52,251,71103,1,8,2:1:0:0:
142,314,71261,1,10,2:2:0:0:
220,246,71419,1,10,2:2:0:0:
319,227,71577,2,0,L|342:327,1,89.2499972763062,10|8,2:1|2:1,0:0:0:0:
441,210,71893,1,10,2:2:0:0:
441,210,72051,1,2,2:2:0:0:
423,364,72209,6,0,P|440:315|452:283,2,72.2500013780594,10|2|10,2:1|2:2|2:2,0:0:0:0:
334,278,72682,2,0,P|323:220|301:128,1,144.500002756119,2|10,2:2|2:1,0:0:0:0:
226,26,73156,1,10,2:2:0:0:
172,105,73314,6,0,P|120:144|22:110,1,144.500002756119,10|10,2:1|2:1,0:0:0:0:
7,232,73787,2,0,P|20:280|26:317,1,72.2500013780594,10|0,2:2|0:0,0:0:0:0:
128,227,74103,2,0,P|134:191|144:156,1,72.2500013780594,10|0,2:1|0:0,0:0:0:0:
65,39,74419,2,0,B|133:62|133:62|180:33,1,108.375002067089,10|0,2:2|0:0,0:0:0:0:
244,82,74735,6,0,P|283:132|257:212,1,144.500002756119,10|10,2:1|2:2,0:0:0:0:
328,322,75209,2,0,P|287:336|241:344,1,72.2500013780594,2|8,2:2|2:1,0:0:0:0:
368,207,75524,1,10,2:1:0:0:
445,246,75682,1,8,2:2:0:0:
413,104,75840,6,0,P|352:116|268:146,1,144.500002756119,10|8,2:1|2:1,0:0:0:0:
169,82,76314,2,0,P|181:45|189:5,1,72.2500013780594,10|0,2:2|0:0,0:0:0:0:
56,77,76630,2,0,P|66:125|76:200,1,108.375002067089,10|0,2:1|0:0,0:0:0:0:
24,250,76945,2,0,P|65:263|110:273,1,72.2500013780594,10|0,2:2|0:0,0:0:0:0:
265,302,77261,5,10,2:1:0:0:
265,302,77577,2,0,P|273:237|297:144,1,144.500002756119,10|8,2:2|2:1,0:0:0:0:
397,22,78051,1,8,2:1:0:0:
426,111,78209,2,0,P|370:102|338:88,1,72.2500013780594,10|8,2:2|2:1,0:0:0:0:
217,25,78524,6,0,P|238:62|234:99,1,72.2500013780594,2|8,2:2|2:1,0:0:0:0:
123,198,78840,2,0,P|147:168|185:160,1,72.2500013780594,10|0,2:2|0:0,0:0:0:0:
300,284,79156,2,0,P|262:247|190:246,1,108.375002067089,10|0,2:1|0:0,0:0:0:0:
170,279,79472,2,0,P|181:324|188:361,1,72.2500013780594,10|0,2:2|0:0,0:0:0:0:
340,199,79787,6,0,B|425:224|425:224|449:198|430:158,2,144.500002756119,8|10|8,2:1|2:2|2:1,0:0:0:0:
339,53,80577,1,8,2:1:0:0:
417,106,80735,2,0,P|438:144|427:185,1,72.2500013780594,10|8,2:2|2:1,0:0:0:0:
462,294,81051,6,0,P|399:307|308:349,1,144.500002756119,2|10,2:2|2:2,0:0:0:0:
213,237,81524,2,0,P|255:250|292:264,1,72.2500013780594,2|8,2:2|2:1,0:0:0:0:
158,368,81840,2,0,P|145:317|136:289,1,72.2500013780594,2|8,2:2|2:2,0:0:0:0:
48,159,82156,6,0,B|150:132|150:132|126:151|122:175,1,144.500002756119,2|2,2:2|2:2,0:0:0:0:
34,261,82630,1,10,2:2:0:0:
40,135,82787,2,0,P|27:100|16:66,1,72.2500013780594,2|8,2:2|2:1,0:0:0:0:
41,153,83103,1,10,2:1:0:0:
144,74,83261,1,10,2:2:0:0:
250,183,83419,6,0,P|202:236|113:209,1,144.500002756119,10|10,2:1|2:1,0:0:0:0:
144,74,83893,2,0,P|160:130|167:165,1,72.2500013780594,10|0,2:2|0:0,0:0:0:0:
308,23,84209,2,0,P|292:79|285:114,1,72.2500013780594,10|0,2:1|0:0,0:0:0:0:
375,207,84524,2,0,P|411:164|465:173,1,108.375002067089,10|0,2:2|0:0,0:0:0:0:
485,237,84840,6,0,P|495:179|515:75,1,144.500002756119,10|10,2:1|2:2,0:0:0:0:
375,207,85314,2,0,P|359:147|352:118,1,72.2500013780594,2|8,2:2|2:1,0:0:0:0:
295,12,85630,1,10,2:1:0:0:
397,53,85787,1,8,2:2:0:0:
261,139,85945,6,0,P|216:141|121:197,1,144.500002756119,10|8,2:1|2:1,0:0:0:0:
21,80,86419,2,0,P|57:103|82:137,1,72.2500013780594,10|0,2:2|0:0,0:0:0:0:
34,251,86735,2,0,P|24:215|4:173,1,72.2500013780594,10|0,2:1|0:0,0:0:0:0:
177,73,87051,2,0,P|159:127|141:201,1,108.375002067089,10|0,2:2|0:0,0:0:0:0:
143,256,87366,6,0,B|147:228|170:214|170:214|278:252,2,144.500002756119,10|10|10,2:1|2:2|2:1,0:0:0:0:
248,130,88156,1,8,2:1:0:0:
320,191,88314,2,0,P|342:227|336:266,1,72.2500013780594,10|8,2:2|2:1,0:0:0:0:
241,345,88630,6,0,P|262:352|338:376,1,72.2500013780594,2|8,2:2|2:1,0:0:0:0:
257,245,88945,2,0,P|236:252|160:276,1,72.2500013780594,10|0,2:2|0:0,0:0:0:0:
87,348,89261,2,0,P|64:267|39:215,1,108.375002067089,10|0,2:1|0:0,0:0:0:0:
1,178,89577,6,0,B|26:145|70:141|70:141|91:180|139:179,1,144.500002756119,10|8,2:2|2:1,0:0:0:0:
274,86,90051,1,0,0:0:0:0:
175,57,90209,2,0,P|193:128|203:216,1,144.500002756119,10|8,2:2|2:1,0:0:0:0:
269,321,90682,1,8,2:1:0:0:
329,245,90840,2,0,P|342:213|329:167,1,72.2500013780594,10|8,2:2|2:1,0:0:0:0:
262,35,91156,5,2,2:2:0:0:
394,102,91314,2,0,P|432:113|468:99,1,72.2500013780594,10|10,2:1|2:2,0:0:0:0:
423,26,91630,1,2,2:2:0:0:
304,139,91787,2,0,P|330:206|342:282,1,144.500002756119,8|8,2:1|2:2,0:0:0:0:
292,362,92261,1,2,2:2:0:0:
98,284,92419,6,0,P|162:289|233:223,2,161.499995687485,12|10|10,2:1|2:2|2:1,0:0:0:0:
142,200,93209,1,8,2:1:0:0:
0,108,93366,2,0,P|16:157|24:197,1,80.7499978437424,10|8,2:2|2:1,0:0:0:0:
166,31,93682,6,0,P|150:80|142:120,1,80.7499978437424,2|8,2:2|2:1,0:0:0:0:
268,233,93998,2,0,P|243:199|195:192,1,80.7499978437424,10|0,2:2|0:0,0:0:0:0:
85,344,94314,2,0,P|75:304|62:266,1,80.7499978437424,10|0,2:1|0:0,0:0:0:0:
20,96,94630,6,0,P|102:121|183:146,1,161.499995687485,10|8,2:2|2:1,0:0:0:0:
174,143,95103,1,0,0:0:0:0:
374,62,95261,6,0,B|332:47|280:29|280:29|254:56|273:95,1,161.499995687485,10|8,2:2|2:1,0:0:0:0:
269,86,95735,1,8,2:1:0:0:
425,247,95893,6,0,P|448:180|480:77,1,161.499995687485,10|0,2:2|0:0,0:0:0:0:
475,93,96366,1,8,2:1:0:0:
313,189,96524,6,0,P|328:231|338:280,1,80.7499978437424,10|0,2:2|0:0,0:0:0:0:
242,149,96840,2,0,P|267:115|310:110,1,80.7499978437424,10|0,2:1|0:0,0:0:0:0:
446,65,97156,2,0,P|407:56|384:24,1,80.7499978437424,10|0,2:2|0:0,0:0:0:0:
498,198,97472,6,0,P|435:217|374:239,1,121.124996765614,14|0,2:1|0:0,0:0:0:0:
359,244,97787,1,10,2:2:0:0:
506,320,97945,1,2,2:2:0:0:
391,372,98103,1,10,2:1:0:0:
447,251,98261,2,0,P|435:206|423:163,1,80.7499978437424,10|8,2:1|2:2,0:0:0:0:
292,51,98577,6,0,B|313:69|338:86|338:86|301:191,1,161.499995687485,10|8,2:1|2:1,0:0:0:0:
212,305,99051,1,10,2:2:0:0:
275,372,99209,1,0,0:0:0:0:
125,346,99366,2,0,P|72:363|26:378,1,80.7499978437424,10|0,2:1|0:0,0:0:0:0:
215,198,99682,2,0,P|268:215|314:230,1,80.7499978437424,10|0,2:2|0:0,0:0:0:0:
54,112,99998,6,0,P|70:174|92:291,2,161.499995687485,10|10|10,2:1|2:2|2:1,0:0:0:0:
113,45,100787,1,8,2:1:0:0:
199,132,100945,1,10,2:2:0:0:
88,269,101103,6,0,B|194:234|194:234|246:274,1,161.499995687485,8|8,2:1|2:1,0:0:0:0:
387,192,101577,2,0,P|329:204|303:212,1,80.7499978437424,10|0,2:2|0:0,0:0:0:0:
181,153,101893,2,0,P|194:198|204:247,1,80.7499978437424,10|0,2:1|0:0,0:0:0:0:
339,119,102209,2,0,P|347:79|359:40,1,80.7499978437424,10|0,2:2|0:0,0:0:0:0:
170,52,102524,6,0,P|118:72|12:148,2,161.499995687485,12|10|10,2:1|2:2|2:1,0:0:0:0:
331,141,103314,1,8,2:1:0:0:
248,225,103472,2,0,P|240:185|226:147,1,80.7499978437424,10|8,2:2|2:1,0:0:0:0:
362,19,103787,6,0,P|348:56|340:96,1,80.7499978437424,2|8,2:2|2:1,0:0:0:0:
233,242,104103,2,0,P|225:202|211:164,1,80.7499978437424,10|0,2:2|0:0,0:0:0:0:
344,33,104419,2,0,P|330:70|322:110,1,80.7499978437424,10|0,2:1|0:0,0:0:0:0:
483,219,104735,6,0,P|415:224|375:307,1,161.499995687485,10|8,2:2|2:1,0:0:0:0:
374,300,105209,1,0,0:0:0:0:
163,144,105366,6,0,P|231:149|271:232,1,161.499995687485,10|8,2:2|2:1,0:0:0:0:
271,225,105840,1,8,2:1:0:0:
441,47,105998,6,0,P|422:95|399:225,1,161.499995687485,10|0,2:2|0:0,0:0:0:0:
400,202,106472,1,8,2:1:0:0:
302,289,106630,6,0,P|313:335|322:372,1,80.7499978437424,10|0,2:2|0:0,0:0:0:0:
484,271,106945,2,0,P|493:231|502:192,1,80.7499978437424,10|0,2:1|0:0,0:0:0:0:
319,204,107261,2,0,P|363:219|402:229,1,80.7499978437424,10|0,2:2|0:0,0:0:0:0:
298,59,107577,6,0,P|234:52|176:94,1,121.124996765614,14|0,2:1|0:0,0:0:0:0:
164,109,107893,1,10,2:2:0:0:
299,188,108051,1,2,2:2:0:0:
145,258,108209,1,10,2:1:0:0:
238,283,108366,2,0,P|225:232|212:185,1,80.7499978437424,10|8,2:1|2:2,0:0:0:0:
87,73,108682,6,0,P|138:135|221:114,1,161.499995687485,10|8,2:1|2:1,0:0:0:0:
341,16,109156,2,0,B|290:32|236:50|236:50|270:57|284:87,1,161.499995687485,10|10,2:2|2:1,0:0:0:0:
432,163,109630,1,2,2:2:0:0:
358,106,109787,1,10,2:2:0:0:
315,188,109945,1,2,2:2:0:0:
443,274,110103,5,10,2:1:0:0:
448,263,110261,1,2,2:2:0:0:
334,343,110419,2,0,P|375:355|421:370,1,80.7499978437424,8|2,2:2|2:2,0:0:0:0:
303,172,110735,5,10,2:1:0:0:
310,191,110893,1,8,2:1:0:0:
231,311,111051,2,0,P|190:323|144:338,1,80.7499978437424,10|10,2:2|2:1,0:0:0:0:
80,120,111366,5,8,2:2:0:0:
129,41,111524,1,10,2:1:0:0:
0,143,111682,5,10,2:2:0:0:
43,223,111840,1,8,2:1:0:0:
172,129,111998,5,10,2:2:0:0:
230,22,112156,1,10,2:1:0:0:
80,120,112314,5,8,2:2:0:0:
146,269,112472,1,10,2:1:0:0:
356,171,112630,6,0,P|308:222|240:224,1,133.874995914459,14|0,2:1|0:0,0:0:0:0:
375,153,112945,2,0,P|410:184|476:178,1,89.2499972763062,10|0,2:2|0:0,0:0:0:0:
329,19,113261,1,8,2:1:0:0:
247,104,113419,2,0,P|268:155|269:210,1,89.2499972763062,10|8,2:1|2:2,0:0:0:0:
94,309,113735,6,0,B|137:285|184:322|163:341|200:383|269:356,1,178.499994552612,10|8,2:1|2:1,0:0:0:0:
430,247,114209,2,0,P|370:280|342:337,1,133.874995914459,10|0,2:2|0:0,0:0:0:0:
333,373,114524,1,10,2:1:0:0:
240,281,114682,1,2,2:2:0:0:
374,162,114840,2,0,P|321:151|281:189,1,89.2499972763062,8|2,2:2|2:2,0:0:0:0:
149,270,115156,6,0,B|135:166|135:166|121:192|101:204,1,133.874995914459,10|0,2:1|0:0,0:0:0:0:
150,296,115472,2,0,B|188:307|188:307|254:282,1,89.2499972763062,10|0,2:2|0:0,0:0:0:0:
406,201,115787,1,8,2:1:0:0:
293,168,115945,2,0,P|308:214|320:263,1,89.2499972763062,10|8,2:1|2:2,0:0:0:0:
489,369,116261,6,0,P|440:306|357:337,1,178.499994552612,10|8,2:1|2:1,0:0:0:0:
191,212,116735,5,10,2:2:0:0:
287,68,116893,1,8,2:2:0:0:
328,266,117051,5,10,2:2:0:0:
241,143,117209,1,10,2:1:0:0:
165,292,117366,2,0,P|177:338|185:381,1,89.2499972763062,8|10,2:2|2:1,0:0:0:0:
417,292,117682,6,0,P|348:339|273:338,1,133.874995914459,14|0,2:1|0:0,0:0:0:0:
247,222,117998,2,0,P|291:236|336:251,1,89.2499972763062,10|0,2:2|0:0,0:0:0:0:
476,137,118314,1,8,2:1:0:0:
416,222,118472,2,0,P|372:236|327:251,1,89.2499972763062,10|8,2:1|2:2,0:0:0:0:
202,372,118787,6,0,P|226:294|159:218,1,178.499994552612,10|8,2:1|2:1,0:0:0:0:
9,261,119261,2,0,P|39:311|128:303,1,133.874995914459,10|0,2:2|0:0,0:0:0:0:
140,306,119577,1,10,2:1:0:0:
58,184,119735,1,2,2:2:0:0:
215,241,119893,2,0,B|250:257|250:257|319:236,1,89.2499972763062,8|0,2:2|0:0,0:0:0:0:
400,71,120209,6,0,B|365:55|365:55|296:76,1,89.2499972763062,10|0,2:1|0:0,0:0:0:0:
404,255,120524,1,8,2:2:0:0:
476,115,120682,1,8,2:2:0:0:
298,194,120840,2,0,P|315:247|323:300,1,89.2499972763062,10|8,2:1|2:1,0:0:0:0:
477,351,121156,2,0,P|485:307|499:265,1,89.2499972763062,8|10,2:2|2:1,0:0:0:0:
368,90,121472,6,0,P|385:143|393:196,1,89.2499972763062,2|8,2:2|2:1,0:0:0:0:
225,311,121787,1,10,2:2:0:0:
303,147,121945,1,8,2:2:0:0:
165,45,122103,1,10,2:1:0:0:
224,206,122261,1,8,2:1:0:0:
44,325,122419,2,0,P|96:334|141:363,1,89.2499972763062,10|0,2:2|0:0,0:0:0:0:
4,171,122735,6,0,P|45:177|154:239,1,133.874995914459,14|0,2:1|0:0,0:0:0:0:
206,250,123051,2,0,B|218:229|222:208|222:208|200:186|198:165,1,89.2499972763062,10|0,2:2|0:0,0:0:0:0:
304,23,123366,1,8,2:1:0:0:
345,124,123524,2,0,P|293:114|236:102,1,89.2499972763062,10|8,2:1|2:2,0:0:0:0:
55,49,123840,6,0,B|96:20|96:20|145:50|147:107|98:154,1,178.499994552612,10|10,2:1|2:1,0:0:0:0:
51,296,124314,2,0,P|98:250|182:248,1,133.874995914459,10|0,2:2|0:0,0:0:0:0:
199,257,124630,1,10,2:1:0:0:
302,156,124787,1,2,2:2:0:0:
125,64,124945,2,0,P|145:119|152:164,1,89.2499972763062,8|2,2:2|2:2,0:0:0:0:
261,371,125261,6,0,P|282:297|317:209,1,133.874995914459,10|0,2:1|0:0,0:0:0:0:
355,173,125577,2,0,P|405:164|444:193,1,89.2499972763062,10|0,2:2|0:0,0:0:0:0:
493,313,125893,1,8,2:1:0:0:
383,248,126051,1,10,2:1:0:0:
296,340,126209,1,8,2:2:0:0:
392,226,126366,6,0,P|416:155|365:67,1,178.499994552612,10|10,2:1|2:1,0:0:0:0:
178,21,126840,5,10,2:2:0:0:
244,135,126998,1,8,2:2:0:0:
121,234,127156,1,10,2:2:0:0:
158,105,127314,1,10,2:1:0:0:
23,206,127472,1,8,2:2:0:0:
135,329,127630,1,10,2:1:0:0:
284,232,127787,6,0,P|366:248|459:318,2,178.499994552612,14|10|8,2:1|2:2|2:1,0:0:0:0:
178,150,128577,1,10,2:1:0:0:
271,44,128735,1,8,2:2:0:0:
443,150,128893,6,0,B|401:124|360:163|371:170|358:177|331:233|265:195,1,178.499994552612,10|10,2:1|2:1,0:0:0:0:
135,82,129366,2,0,P|159:133|160:235,1,133.874995914459,10|0,2:2|0:0,0:0:0:0:
166,238,129682,1,10,2:1:0:0:
332,313,129840,1,2,2:2:0:0:
260,368,129998,2,0,P|245:311|235:271,1,89.2499972763062,8|0,2:2|0:0,0:0:0:0:
311,128,130314,5,10,2:1:0:0:
232,112,130472,1,8,2:2:0:0:
362,56,130630,1,8,2:2:0:0:
439,98,130788,1,8,2:2:0:0:
253,193,130946,1,10,2:1:0:0:
253,193,131103,1,8,2:1:0:0:
389,167,131261,2,0,L|416:261,1,89.2499972763062,8|10,2:2|2:1,0:0:0:0:
316,315,131577,5,2,2:2:0:0:
402,331,131735,1,8,2:1:0:0:
232,294,131893,1,10,2:2:0:0:
144,276,132051,1,8,2:2:0:0:
256,378,132209,1,10,2:1:0:0:
256,378,132367,1,8,2:1:0:0:
296,220,132524,2,0,P|294:176|270:139,1,89.2499972763062,10|0,2:2|0:0,0:0:0:0:
112,184,132840,6,0,L|33:261,1,89.2499972763062,14|0,2:1|0:0,0:0:0:0:
141,303,133156,2,0,L|194:381,1,89.2499972763062,10|0,2:2|0:0,0:0:0:0:
316,235,133472,2,0,L|205:247,1,89.2499972763062,10|10,2:1|2:1,0:0:0:0:
196,98,133787,2,0,L|93:86,1,89.2499972763062,10|8,2:2|2:1,0:0:0:0:
322,125,134103,6,0,L|362:38,1,89.2499972763062,2|8,2:2|2:1,0:0:0:0:
467,86,134419,2,0,L|502:192,1,89.2499972763062,10|0,2:2|0:0,0:0:0:0:
442,295,134735,1,8,2:1:0:0:
442,295,134893,1,0,0:0:0:0:
321,352,135051,1,10,2:2:0:0:
321,352,135209,1,0,0:0:0:0:
211,211,135366,6,0,P|273:258|400:278,2,178.499994552612,10|10|8,2:1|2:2|2:1,0:0:0:0:
127,126,136156,1,8,2:1:0:0:
52,67,136314,2,0,P|27:121|14:169,1,89.2499972763062,10|8,2:2|2:1,0:0:0:0:
261,13,136630,6,0,P|189:29|160:37,1,89.2499972763062,2|8,2:2|2:1,0:0:0:0:
339,85,136945,1,10,2:2:0:0:
395,174,137103,1,8,2:2:0:0:
295,200,137261,1,10,2:2:0:0:
240,116,137419,1,8,2:1:0:0:
148,167,137577,1,10,2:2:0:0:
158,54,137735,1,8,2:1:0:0:
260,32,137893,6,0,L|231:212,2,178.499994552612,14|10|10,2:1|2:2|2:1,0:0:0:0:
260,32,138682,1,10,2:1:0:0:
148,62,138840,1,10,2:2:0:0:
52,104,138998,1,8,2:1:0:0:
13,270,139156,6,0,L|38:172,1,89.2499972763062,2|8,2:2|2:1,0:0:0:0:
208,252,139472,2,0,L|104:276,1,89.2499972763062,10|0,2:2|0:0,0:0:0:0:
122,165,139787,2,0,L|32:184,1,89.2499972763062,8|0,2:1|0:0,0:0:0:0:
216,272,140103,1,10,2:2:0:0:
307,249,140261,1,2,2:2:0:0:
482,261,140419,6,0,P|395:270|298:246,1,178.499994552612,10|10,2:1|2:2,0:0:0:0:
386,135,140893,1,8,2:2:0:0:
277,164,141051,1,8,2:1:0:0:
273,50,141209,1,8,2:1:0:0:
153,49,141366,1,10,2:2:0:0:
143,154,141524,1,8,2:1:0:0:
214,249,141682,6,0,L|294:190,1,89.2499972763062,2|8,2:2|2:1,0:0:0:0:
474,145,141998,2,0,L|404:81,1,89.2499972763062,10|8,2:2|2:2,0:0:0:0:
285,71,142314,1,10,2:1:0:0:
339,169,142472,1,8,2:1:0:0:
331,269,142630,1,10,2:2:0:0:
361,357,142787,1,0,0:0:0:0:
454,333,142945,6,0,P|437:256|346:237,2,161.499995687485,10|10|8,2:1|2:2|2:1,0:0:0:0:
499,206,143735,1,8,2:1:0:0:
446,126,143893,2,0,P|431:79|435:45,1,80.7499978437424,10|8,2:2|2:1,0:0:0:0:
326,28,144209,6,0,L|229:39,1,80.7499978437424,0|8,0:0|2:1,0:0:0:0:
135,75,144524,2,0,L|325:53,1,161.499995687485,10|8,2:2|2:1,0:0:0:0:
409,208,145156,2,0,L|238:162,1,161.499995687485,10|8,2:2|2:1,0:0:0:0:
69,257,145787,2,0,P|169:274|225:324,1,161.499995687485,10|8,2:2|2:1,0:0:0:0:
326,347,146261,1,8,2:1:0:0:
384,261,146419,6,0,P|301:230|252:168,1,161.499995687485,10|0,2:2|0:0,0:0:0:0:
282,70,146893,1,8,2:1:0:0:
177,34,147051,2,0,P|147:73|130:128,1,80.7499978437424,10|0,2:2|0:0,0:0:0:0:
35,171,147366,2,0,P|67:209|102:225,1,80.7499978437424,10|0,2:1|0:0,0:0:0:0:
216,259,147682,1,8,2:2:0:0:
89,325,147840,1,2,2:2:0:0:
89,325,147998,6,0,P|192:293|278:302,2,161.499995687485,8|8|10,2:1|2:2|2:1,0:0:0:0:
256,314,148787,1,8,2:1:0:0:
358,290,148945,1,8,2:2:0:0:
214,198,149103,1,8,2:1:0:0:
295,150,149261,6,0,L|308:233,1,80.7499978437424,2|8,2:2|2:1,0:0:0:0:
407,88,149577,2,0,L|423:188,1,80.7499978437424,8|0,2:2|0:0,0:0:0:0:
224,47,149893,2,0,L|203:134,1,80.7499978437424,10|0,2:1|0:0,0:0:0:0:
103,66,150209,2,0,L|76:147,1,80.7499978437424,10|0,2:2|0:0,0:0:0:0:
106,302,150524,5,8,2:1:0:0:
202,292,150682,1,8,2:2:0:0:
288,338,150840,1,10,2:2:0:0:
333,249,150998,1,8,2:2:0:0:
257,196,151156,1,8,2:1:0:0:
257,196,151314,1,8,2:1:0:0:
158,136,151472,1,10,2:2:0:0:
158,136,151630,1,8,2:1:0:0:
94,258,151787,6,0,L|187:233,1,80.7499978437424,0|8,0:0|2:1,0:0:0:0:
299,150,152103,2,0,L|208:131,1,80.7499978437424,10|0,2:2|0:0,0:0:0:0:
278,277,152419,2,0,P|375:250|452:241,1,161.499995687485,8|10,2:1|2:2,0:0:0:0:
486,25,153051,6,0,P|431:70|334:39,1,161.499995687485,8|8,2:1|2:2,0:0:0:0:
347,52,153682,2,0,P|296:69|273:81,1,80.7499978437424,10|8,2:1|2:1,0:0:0:0:
171,80,153998,1,10,2:2:0:0:
66,90,154156,2,0,P|127:100|216:161,1,161.499995687485,8|8,2:1|2:1,0:0:0:0:
354,208,154630,2,0,P|292:219|250:243,1,80.7499978437424,10|0,2:2|0:0,0:0:0:0:
173,254,154945,2,0,P|219:322|228:356,1,80.7499978437424,8|0,2:1|0:0,0:0:0:0:
329,384,155261,2,0,P|353:272|385:197,1,161.499995687485,10|8,2:2|2:1,0:0:0:0:
429,332,155735,1,0,0:0:0:0:
480,243,155893,6,0,B|311:209,1,161.499995687485,10|8,2:2|2:1,0:0:0:0:
245,145,156366,1,8,2:1:0:0:
315,85,156524,1,10,2:2:0:0:
407,82,156682,1,8,2:1:0:0:
498,79,156840,6,0,L|466:185,1,80.7499978437424,0|8,0:0|2:1,0:0:0:0:
382,219,157156,2,0,L|285:238,1,80.7499978437424,10|0,2:2|0:0,0:0:0:0:
163,302,157472,2,0,L|195:213,1,80.7499978437424,10|0,2:1|0:0,0:0:0:0:
283,134,157787,1,8,2:2:0:0:
165,136,157945,1,2,2:2:0:0:
81,211,158103,6,0,P|38:169|16:127,1,80.7499978437424,8|0,2:1|0:0,0:0:0:0:
228,256,158419,2,0,P|175:297|127:307,1,80.7499978437424,8|0,2:2|0:0,0:0:0:0:
327,181,158735,2,0,P|278:143|267:116,1,80.7499978437424,8|8,2:1|2:1,0:0:0:0:
469,97,159051,2,0,P|444:154|443:184,1,80.7499978437424,8|8,2:2|2:1,0:0:0:0:
496,278,159366,5,0,0:0:0:0:
389,279,159524,1,8,2:1:0:0:
314,356,159682,1,8,2:2:0:0:
223,325,159840,1,0,0:0:0:0:
121,266,159998,2,0,L|105:359,1,80.7499978437424,10|0,2:1|0:0,0:0:0:0:
294,266,160314,2,0,L|272:162,1,80.7499978437424,8|2,2:2|2:2,0:0:0:0:
169,42,160630,5,10,2:1:0:0:
277,46,160787,1,2,2:2:0:0:
392,76,160945,1,10,2:2:0:0:
392,76,161103,1,2,2:2:0:0:
300,137,161261,5,10,2:1:0:0:
349,260,161419,1,8,2:1:0:0:
487,224,161577,1,10,2:2:0:0:
487,224,161735,1,8,2:1:0:0:
479,356,161893,6,0,P|456:313|429:291,1,80.7499978437424,2|8,2:2|2:1,0:0:0:0:
416,168,162209,2,0,P|370:156|314:166,1,80.7499978437424,8|0,2:2|0:0,0:0:0:0:
260,46,162524,2,0,P|199:73|177:96,1,80.7499978437424,10|0,2:1|0:0,0:0:0:0:
70,291,162840,1,8,2:2:0:0:
70,291,163156,5,10,2:1:0:0:
221,274,163314,1,10,2:2:0:0:
353,331,163472,1,8,2:2:0:0:
467,243,163630,1,10,2:2:0:0:
375,182,163787,1,10,2:1:0:0:
448,85,163945,1,8,2:2:0:0:
451,101,164024,1,8,2:2:0:0:
431,93,164103,1,10,2:1:0:0:
290,34,164261,6,0,L|316:273,1,191.250007295609,10|0,2:2|0:0,0:0:0:0:
323,321,164577,1,10,2:2:0:0:
152,112,164735,6,0,L|255:331,1,191.250007295609,10|0,2:2|0:0,0:0:0:0:
181,361,165051,2,0,L|100:340,1,63.7500024318696,10|0,2:2|0:0,0:0:0:0:
277,359,165209,2,0,L|423:337,1,127.500004863739,2|8,2:2|2:2,0:0:0:0:
172,379,165524,1,10,2:1:0:0:
53,274,165682,6,0,P|34:211|46:183,1,89.2499972763062,14|0,2:1|0:0,0:0:0:0:
108,104,165998,2,0,P|159:151|276:156,1,178.499994552612,10|8,2:2|2:1,0:0:0:0:
360,84,166472,1,10,2:1:0:0:
456,140,166630,1,8,2:2:0:0:
411,234,166787,1,10,2:1:0:0:
254,249,166945,6,0,L|265:142,1,89.2499972763062,0|8,0:0|2:1,0:0:0:0:
349,0,167261,2,0,L|367:123,1,89.2499972763062,10|0,2:2|0:0,0:0:0:0:
234,34,167577,1,10,2:1:0:0:
133,79,167735,2,0,P|88:102|33:104,1,89.2499972763062,2|8,2:2|2:2,0:0:0:0:
22,222,168051,1,2,2:2:0:0:
22,222,168209,6,0,P|116:263|141:339,1,178.499994552612,10|10,2:1|2:2,0:0:0:0:
35,313,168682,1,0,0:0:0:0:
4,209,168840,1,8,2:1:0:0:
86,139,168998,1,10,2:1:0:0:
177,187,169156,2,0,P|208:226|215:267,1,89.2499972763062,8|10,2:2|2:1,0:0:0:0:
303,368,169472,6,0,P|317:300|337:276,1,89.2499972763062,0|10,0:0|2:1,0:0:0:0:
434,191,169787,1,10,2:2:0:0:
327,151,169945,1,10,2:2:0:0:
401,79,170103,1,10,2:2:0:0:
401,79,170261,1,10,2:1:0:0:
265,27,170419,1,8,2:2:0:0:
173,94,170577,1,10,2:1:0:0:
343,15,170735,6,0,L|298:209,2,178.499994552612,14|10|8,2:1|2:2|2:1,0:0:0:0:
458,47,171524,1,10,2:1:0:0:
421,150,171682,1,8,2:2:0:0:
510,210,171840,1,10,2:1:0:0:
424,303,171998,6,0,P|385:273|339:273,1,89.2499972763062,0|8,0:0|2:1,0:0:0:0:
187,361,172314,2,0,P|248:348|270:314,1,89.2499972763062,10|0,2:2|0:0,0:0:0:0:
259,150,172630,2,0,P|242:200|265:251,1,89.2499972763062,10|2,2:1|2:2,0:0:0:0:
424,303,172945,2,0,P|441:253|418:202,1,89.2499972763062,8|0,2:2|0:0,0:0:0:0:
353,49,173261,6,0,L|152:79,1,178.499994552612,10|8,2:1|2:2,0:0:0:0:
61,100,173735,1,8,2:2:0:0:
233,162,173893,2,0,L|111:190,1,89.2499972763062,10|8,2:1|2:1,0:0:0:0:
100,286,174209,1,8,2:2:0:0:
225,313,174366,1,10,2:1:0:0:
340,269,174524,6,0,L|328:159,1,89.2499972763062,2|8,2:2|2:1,0:0:0:0:
226,44,174840,2,0,L|238:157,1,89.2499972763062,10|8,2:2|2:2,0:0:0:0:
340,269,175156,1,10,2:1:0:0:
435,239,175314,1,8,2:1:0:0:
512,170,175472,1,10,2:2:0:0:
461,67,175630,1,0,0:0:0:0:
330,37,175787,6,0,P|266:66|216:74,1,89.2499972763062,14|0,2:1|0:0,0:0:0:0:
105,150,176103,2,0,P|205:165|303:211,1,178.499994552612,10|8,2:2|2:1,0:0:0:0:
336,291,176577,1,10,2:1:0:0:
236,343,176735,1,8,2:2:0:0:
141,275,176893,1,10,2:1:0:0:
245,229,177051,6,0,P|251:184|265:142,1,89.2499972763062,0|10,0:0|2:1,0:0:0:0:
135,166,177366,2,0,P|123:105|107:64,1,89.2499972763062,10|0,2:2|0:0,0:0:0:0:
212,55,177682,1,10,2:1:0:0:
380,62,177840,2,0,P|330:29|292:23,1,89.2499972763062,2|8,2:2|2:2,0:0:0:0:
306,170,178156,1,2,2:2:0:0:
406,225,178314,6,0,L|488:269,1,89.2499972763062,10|0,2:1|0:0,0:0:0:0:
240,313,178630,2,0,P|256:227|290:135,1,178.499994552612,10|8,2:2|2:1,0:0:0:0:
380,62,179103,1,10,2:1:0:0:
258,5,179261,2,0,P|214:14|176:36,1,89.2499972763062,8|10,2:2|2:1,0:0:0:0:
86,131,179577,6,0,P|30:162|-27:173,1,89.2499972763062,0|10,0:0|2:1,0:0:0:0:
6,316,179893,1,10,2:2:0:0:
123,345,180051,1,8,2:2:0:0:
89,236,180209,1,10,2:2:0:0:
189,261,180366,1,10,2:1:0:0:
236,165,180524,1,8,2:2:0:0:
236,165,180682,1,10,2:1:0:0:
298,350,180840,6,0,L|327:145,2,178.499994552612,14|10|8,2:1|2:2|2:1,0:0:0:0:
397,270,181630,1,10,2:1:0:0:
444,176,181787,1,8,2:2:0:0:
355,96,181945,1,10,2:1:0:0:
232,91,182103,6,0,L|155:164,1,89.2499972763062,0|10,0:0|2:1,0:0:0:0:
56,281,182419,2,0,L|165:257,1,89.2499972763062,10|0,2:2|0:0,0:0:0:0:
257,310,182735,1,10,2:1:0:0:
287,181,182893,2,0,P|258:139|224:110,1,89.2499972763062,2|8,2:2|2:2,0:0:0:0:
166,225,183209,1,0,0:0:0:0:
257,310,183366,5,10,2:1:0:0:
356,257,183524,1,8,2:2:0:0:
353,142,183682,1,8,2:2:0:0:
469,141,183840,1,8,2:2:0:0:
441,232,183998,2,0,L|346:259,1,89.2499972763062,10|8,2:1|2:1,0:0:0:0:
228,194,184314,2,0,L|133:164,1,89.2499972763062,8|10,2:2|2:1,0:0:0:0:
128,302,184630,5,2,2:2:0:0:
55,219,184787,1,8,2:1:0:0:
151,117,184945,1,10,2:2:0:0:
257,94,185103,1,8,2:2:0:0:
312,216,185261,1,10,2:1:0:0:
312,216,185419,1,8,2:1:0:0:
170,220,185577,1,10,2:2:0:0:
170,220,185735,1,0,0:0:0:0:
48,304,185893,6,0,L|30:168,1,133.874995914459,10|0,2:1|0:0,0:0:0:0:
26,152,186209,2,0,P|41:59|119:18,1,178.499994552612,14|10,2:2|2:1,0:0:0:0:
239,92,186682,1,8,2:1:0:0:
297,32,186840,2,0,P|324:69|318:115,1,89.2499972763062,8|8,2:2|2:1,0:0:0:0:
431,223,187156,6,0,P|385:238|340:256,1,89.2499972763062,2|8,2:2|2:1,0:0:0:0:
240,364,187472,2,0,B|261:322|228:271|206:292|180:250|207:186,2,178.499994552612,10|10|10,2:2|2:1|2:2,0:0:0:0:
280,222,188261,1,0,0:0:0:0:
160,339,188419,6,0,P|111:325|69:314,1,89.2499972763062,10|0,2:1|0:0,0:0:0:0:
5,183,188735,2,0,P|47:170|91:159,1,89.2499972763062,10|0,2:2|0:0,0:0:0:0:
236,64,189051,2,0,B|189:104|189:104|232:222,1,178.499994552612,10|10,2:1|2:2,0:0:0:0:
279,305,189524,1,8,2:1:0:0:
340,135,189682,6,0,P|388:148|435:157,1,89.2499972763062,2|8,2:2|2:1,0:0:0:0:
490,251,189998,1,10,2:2:0:0:
419,339,190156,1,8,2:2:0:0:
261,205,190314,1,10,2:2:0:0:
310,307,190472,1,10,2:1:0:0:
105,375,190630,2,0,P|155:353|206:346,1,89.2499972763062,10|8,2:2|2:1,0:0:0:0:
175,113,190945,6,0,P|99:95|-7:62,2,178.499994552612,14|10|10,2:1|2:2|2:1,0:0:0:0:
345,85,191735,1,8,2:1:0:0:
247,48,191893,2,0,P|262:100|274:154,1,89.2499972763062,8|8,2:2|2:1,0:0:0:0:
419,220,192209,6,0,P|429:176|442:133,1,89.2499972763062,2|8,2:2|2:1,0:0:0:0:
317,283,192524,2,0,P|385:308|511:357,2,178.499994552612,10|10|10,2:2|2:1|2:2,0:0:0:0:
239,352,193314,1,0,0:0:0:0:
180,219,193472,6,0,P|132:239|89:256,1,89.2499972763062,10|0,2:1|0:0,0:0:0:0:
246,94,193787,1,10,2:2:0:0:
151,42,193945,1,8,2:2:0:0:
338,91,194103,1,8,2:1:0:0:
433,39,194261,1,8,2:1:0:0:
358,177,194419,2,0,L|333:70,1,89.2499972763062,10|8,2:2|2:1,0:0:0:0:
492,185,194735,5,0,0:0:0:0:
492,185,194893,1,8,2:1:0:0:
347,273,195051,1,10,2:2:0:0:
495,343,195209,1,10,2:2:0:0:
333,254,195366,2,0,P|282:288|249:321,1,89.2499972763062,10|8,2:1|2:1,0:0:0:0:
145,111,195682,1,10,2:2:0:0:
244,197,195840,1,2,2:2:0:0:
59,295,195998,6,0,P|124:319|228:365,2,178.499994552612,14|10|10,2:1|2:2|2:1,0:0:0:0:
169,241,196787,1,8,2:1:0:0:
169,241,196945,2,0,P|186:183|193:152,1,89.2499972763062,8|8,2:2|2:1,0:0:0:0:
86,29,197261,6,0,P|132:38|189:60,1,89.2499972763062,2|8,2:2|2:1,0:0:0:0:
51,166,197577,2,0,P|71:225|99:348,2,178.499994552612,10|10|10,2:2|2:1|2:2,0:0:0:0:
124,52,198366,1,0,0:0:0:0:
213,174,198524,6,0,P|232:219|213:273,1,89.2499972763062,10|0,2:1|0:0,0:0:0:0:
90,342,198840,2,0,P|135:358|188:373,1,89.2499972763062,10|0,2:2|0:0,0:0:0:0:
319,306,199156,2,0,P|406:286|489:254,1,178.499994552612,10|10,2:1|2:2,0:0:0:0:
386,199,199630,1,8,2:1:0:0:
315,332,199787,5,2,2:2:0:0:
275,232,199945,1,8,2:1:0:0:
178,257,200103,1,10,2:2:0:0:
218,357,200261,1,8,2:2:0:0:
275,232,200419,1,10,2:2:0:0:
127,158,200577,1,10,2:1:0:0:
279,56,200735,2,0,P|331:71|397:96,1,89.2499972763062,10|8,2:2|2:1,0:0:0:0:
472,253,201051,6,0,B|413:200|353:234|353:234|384:246|394:286,2,178.499994552612,14|10|10,2:1|2:2|2:1,0:0:0:0:
331,330,201840,1,8,2:1:0:0:
262,258,201998,2,0,P|243:213|259:168,1,89.2499972763062,8|8,2:2|2:1,0:0:0:0:
383,63,202314,6,0,P|398:107|383:150,1,89.2499972763062,2|8,2:2|2:1,0:0:0:0:
243,78,202630,2,0,P|192:94|67:140,2,178.499994552612,10|10|10,2:2|2:1|2:2,0:0:0:0:
327,16,203419,1,0,0:0:0:0:
398,163,203577,6,0,P|361:190|319:185,1,89.2499972763062,10|0,2:1|0:0,0:0:0:0:
167,247,203893,1,10,2:2:0:0:
324,312,204051,1,8,2:2:0:0:
152,239,204209,1,8,2:1:0:0:
319,185,204366,1,8,2:1:0:0:
254,376,204524,2,0,P|239:313|225:267,1,89.2499972763062,10|8,2:2|2:1,0:0:0:0:
83,118,204840,6,0,P|71:160|61:204,1,89.2499972763062,0|8,0:0|2:1,0:0:0:0:
244,121,205156,1,10,2:2:0:0:
109,36,205314,1,10,2:2:0:0:
180,210,205472,1,10,2:1:0:0:
273,29,205630,1,8,2:1:0:0:
102,134,205787,1,10,2:2:0:0:
153,322,205945,1,2,2:2:0:0:
