osu file format v14

[General]
AudioFilename: audio.mp3
AudioLeadIn: 0
PreviewTime:39287
Countdown: 0
SampleSet: Soft
StackLeniency: 0.4
Mode: 0
LetterboxInBreaks: 0
WidescreenStoryboard: 1

[Editor]
Bookmarks:1472,39366,105051,206103
DistanceSpacing: 1.5
BeatDivisor: 4
GridSize: 32
TimelineZoom: 2.899999

[Metadata]
Title:Omokage -self cover-
TitleUnicode:おもかげ -self cover-
Artist:Vaundy
ArtistUnicode:Vaundy
Creator:alevi
Version:Collab Hard
Source:
Tags:japanese pop jpop j-pop male vocalist hadaka no yuusha 裸の勇者 crysisters midorijeon kumocha shirokumocha yuuma ogura yui ogura_yui
BeatmapID:3673844
BeatmapSetID:1752322

[Difficulty]
HPDrainRate:4.5
CircleSize:3.6
OverallDifficulty:6
ApproachRate:8
SliderMultiplier:1.4
SliderTickRate:1

[Events]
//Background and Video events
0,0,"anime-boy-umbrella-underwater-fantasy-hd-3840x2160 (1).jpg",0,0
//Break Periods
//Storyboard Layer 0 (Background)
//Storyboard Layer 1 (Fail)
//Storyboard Layer 2 (Pass)
//Storyboard Layer 3 (Foreground)
//Storyboard Layer 4 (Overlay)
//Storyboard Sound Samples

[TimingPoints]
209,315.789473684211,4,2,7,40,1,0
998,-100,4,2,1,40,0,0
1472,-125,4,2,1,50,0,0
11577,-133.333333333333,4,2,1,45,0,0
31787,-111.111111111111,4,2,1,55,0,0
39366,-125,4,2,1,65,0,0
40630,-111.111111111111,4,2,1,65,0,0
41893,-100,4,2,1,75,0,0
51998,-100,4,2,1,75,0,0
59577,-100,4,2,2,75,0,0
59893,-100,4,2,1,75,0,0
60050,-100,4,2,3,75,0,0
60366,-100,4,2,1,75,0,0
60524,-100,4,2,4,75,0,0
61314,-100,4,2,1,75,0,0
61471,-100,4,2,5,75,0,0
61629,-100,4,2,1,75,0,0
62103,-100,4,2,1,65,0,0
72209,-100,4,2,1,45,0,0
72682,-125,4,2,1,45,0,0
92419,-111.111111111111,4,2,1,55,0,0
102524,-111.111111111111,4,2,1,60,0,0
110103,-125,4,2,1,65,0,0
111366,-111.111111111111,4,2,1,65,0,0
112630,-99.9999999999999,4,2,1,75,0,0
130314,-99.9999999999999,4,2,2,75,0,0
130630,-99.9999999999999,4,2,1,75,0,0
130787,-99.9999999999999,4,2,3,75,0,0
131103,-99.9999999999999,4,2,1,75,0,0
131261,-99.9999999999999,4,2,4,75,0,0
132051,-99.9999999999999,4,2,1,75,0,0
132208,-99.9999999999999,4,2,5,75,0,0
132366,-99.9999999999999,4,2,1,75,0,0
132840,-111.111111111111,4,2,1,65,0,0
142945,-111.111111111111,4,2,1,55,0,0
143261,-125,4,2,1,55,0,0
150525,-125,4,2,2,55,0,0
150840,-125,4,2,1,55,0,0
150998,-125,4,2,5,55,0,0
151156,-125,4,2,3,55,0,0
151314,-125,4,2,1,55,0,0
151472,-125,4,2,4,55,0,0
152419,-125,4,2,5,55,0,0
152735,-125,4,2,1,55,0,0
160630,-125,4,2,1,45,0,0
163156,-111.111111111111,4,2,2,65,0,0
163472,-111.111111111111,4,2,1,65,0,0
163630,-111.111111111111,4,2,3,65,0,0
163945,-111.111111111111,4,2,1,65,0,0
164103,-111.111111111111,4,2,4,65,0,0
165051,-111.111111111111,4,2,6,65,0,0
165366,-111.111111111111,4,2,1,65,0,0
165682,-99.9999999999999,4,2,1,75,0,0
183366,-99.9999999999999,4,2,2,75,0,0
183682,-99.9999999999999,4,2,1,75,0,0
183839,-99.9999999999999,4,2,3,75,0,0
184155,-99.9999999999999,4,2,1,75,0,0
184313,-99.9999999999999,4,2,4,75,0,0
185260,-99.9999999999999,4,2,5,75,0,0
185418,-99.9999999999999,4,2,1,75,0,0
185893,-111.111111111111,4,2,1,70,0,0

[Colours]
Combo1 : 86,163,239
Combo2 : 245,146,196
Combo3 : 142,142,244

[HitObjects]
83,304,998,5,8,2:1:0:0:
139,241,1156,1,8,2:2:0:0:
139,241,1472,6,0,L|123:169,1,56,10|0,2:1|0:0,0:0:0:0:
72,122,1787,2,0,P|112:100|183:127,1,112,10|8,2:2|2:1,0:0:0:0:
242,164,2261,2,0,P|277:141|291:114,1,56,10|8,2:1|2:2,0:0:0:0:
348,74,2577,2,0,B|403:84|403:84|406:89|406:89|464:99,1,112,10|10,2:1|2:1,0:0:0:0:
494,173,3051,2,0,P|462:181|441:206,1,56,10|2,2:2|2:2,0:0:0:0:
379,248,3366,2,0,P|424:282|434:355,1,112,10|10,2:1|2:2,0:0:0:0:
437,333,3998,6,0,L|372:348,1,56,10|0,2:1|0:0,0:0:0:0:
310,301,4314,2,0,P|261:293|230:343,1,112,10|8,2:2|2:1,0:0:0:0:
158,372,4787,2,0,P|130:362|112:335,1,56,10|8,2:1|2:2,0:0:0:0:
57,287,5103,2,0,B|76:267|77:235|77:235|98:260|131:266,1,112,10|10,2:1|2:1,0:0:0:0:
190,208,5577,1,10,2:2:0:0:
190,208,5735,1,2,2:2:0:0:
147,126,5893,2,0,L|86:138,1,56,10|2,2:1|2:2,0:0:0:0:
211,60,6209,2,0,L|272:72,1,56,10|2,2:2|2:2,0:0:0:0:
326,128,6524,6,0,P|343:107|351:80,1,56,10|0,2:1|0:0,0:0:0:0:
423,20,6840,2,0,P|430:71|457:127,1,112,10|8,2:2|2:1,0:0:0:0:
420,202,7314,2,0,P|391:206|371:227,1,56,10|8,2:1|2:2,0:0:0:0:
329,297,7630,2,0,B|301:283|287:249|287:249|273:285|244:300,1,112,10|10,2:1|2:1,0:0:0:0:
195,344,8103,2,0,P|180:312|161:293,1,56,10|2,2:2|2:2,0:0:0:0:
82,310,8419,2,0,B|92:260|92:260|90:255|90:255|106:180,1,112,10|10,2:1|2:2,0:0:0:0:
101,200,9051,6,0,P|68:215|30:206,1,56,10|0,2:1|0:0,0:0:0:0:
157,139,9366,2,0,B|215:146|197:191|265:202,1,112,10|8,2:2|2:1,0:0:0:0:
273,123,9840,2,0,P|297:103|332:102,1,56,10|8,2:1|2:2,0:0:0:0:
333,189,10156,2,0,L|309:298,1,112,10|10,2:1|2:1,0:0:0:0:
337,383,10630,1,10,2:2:0:0:
337,383,10787,1,2,2:2:0:0:
409,341,10945,2,0,L|397:286,1,56,10|0,2:1|0:0,0:0:0:0:
478,259,11261,2,0,L|490:187,1,56,10|0,2:2|0:0,0:0:0:0:
453,126,11577,6,0,P|409:154|345:138,2,105.000004005432,10|10|10,2:1|2:2|2:1,0:0:0:0:
486,48,12366,1,8,2:1:0:0:
486,48,12524,2,0,P|459:23|422:22,1,52.5000020027161,8|8,2:2|2:1,0:0:0:0:
357,28,12840,2,0,P|332:53|297:60,1,52.5000020027161,2|8,2:2|2:1,0:0:0:0:
243,88,13156,2,0,P|233:53|245:20,1,52.5000020027161,10|0,2:2|0:0,0:0:0:0:
310,141,13472,2,0,P|293:191|280:257,1,105.000004005432,10|10,2:1|2:2,0:0:0:0:
282,241,14103,6,0,B|233:236|233:236|228:239|228:239|179:232,2,105.000004005432,10|10|10,2:1|2:2|2:1,0:0:0:0:
335,306,14893,1,8,2:1:0:0:
335,306,15051,2,0,P|358:284|364:250,1,52.5000020027161,10|8,2:2|2:1,0:0:0:0:
412,196,15366,2,0,P|381:185|339:180,1,52.5000020027161,2|8,2:2|2:1,0:0:0:0:
330,103,15682,2,0,P|304:114|277:123,1,52.5000020027161,10|0,2:2|0:0,0:0:0:0:
238,188,15998,2,0,P|213:174|199:101,1,105.000004005432,10|8,2:1|2:2,0:0:0:0:
197,104,16630,6,0,P|188:52|154:13,2,105.000004005432,8|8|10,2:1|2:2|2:1,0:0:0:0:
131,145,17419,1,8,2:1:0:0:
131,145,17577,2,0,L|114:209,1,52.5000020027161,10|8,2:2|2:1,0:0:0:0:
170,254,17893,2,0,P|198:255|227:237,1,52.5000020027161,2|8,2:2|2:1,0:0:0:0:
296,223,18209,2,0,L|309:273,1,52.5000020027161,10|0,2:2|0:0,0:0:0:0:
386,289,18524,2,0,L|413:181,1,105.000004005432,10|8,2:1|2:2,0:0:0:0:
411,187,19156,6,0,P|382:175|355:159,1,52.5000020027161,8|0,2:1|0:0,0:0:0:0:
323,96,19472,2,0,P|282:61|218:64,1,105.000004005432,8|10,2:2|2:1,0:0:0:0:
247,139,19945,1,8,2:1:0:0:
247,139,20103,2,0,L|264:205,1,52.5000020027161,10|8,2:2|2:1,0:0:0:0:
208,250,20419,2,0,L|147:234,1,52.5000020027161,2|8,2:2|2:1,0:0:0:0:
134,312,20735,2,0,L|84:299,1,52.5000020027161,10|0,2:2|0:0,0:0:0:0:
22,247,21051,2,0,P|6:196|31:150,1,105.000004005432,10|10,2:1|2:2,0:0:0:0:
28,152,21682,6,0,L|-3:35,2,105.000004005432,10|8|8,2:1|2:2|2:1,0:0:0:0:
104,188,22472,1,8,2:1:0:0:
105,188,22630,2,0,P|129:203|161:202,1,52.5000020027161,8|8,2:2|2:1,0:0:0:0:
203,143,22945,2,0,P|228:145|250:160,1,52.5000020027161,2|8,2:2|2:1,0:0:0:0:
298,222,23261,2,0,P|308:241|304:282,1,52.5000020027161,10|0,2:2|0:0,0:0:0:0:
243,317,23577,2,0,P|300:324|343:363,1,105.000004005432,10|8,2:1|2:2,0:0:0:0:
336,352,24209,6,0,P|347:328|346:287,1,52.5000020027161,10|0,2:1|0:0,0:0:0:0:
395,238,24524,2,0,P|410:217|446:197,1,52.5000020027161,10|0,2:2|0:0,0:0:0:0:
495,147,24840,1,10,2:1:0:0:
495,147,24998,1,8,2:1:0:0:
436,78,25156,2,0,L|417:15,1,52.5000020027161,10|8,2:2|2:1,0:0:0:0:
345,3,25472,2,0,P|333:12|317:48,1,52.5000020027161,2|8,2:2|2:1,0:0:0:0:
288,118,25787,2,0,P|262:110|230:103,1,52.5000020027161,10|0,2:2|0:0,0:0:0:0:
174,153,26103,2,0,P|119:170|76:131,1,105.000004005432,10|8,2:1|2:2,0:0:0:0:
82,145,26735,6,0,P|105:113|88:35,2,105.000004005432,8|8|10,2:1|2:2|2:1,0:0:0:0:
33,207,27524,1,8,2:1:0:0:
33,207,27682,2,0,P|16:235|18:276,1,52.5000020027161,10|8,2:2|2:1,0:0:0:0:
46,333,27998,2,0,P|71:323|97:321,1,52.5000020027161,2|8,2:2|2:1,0:0:0:0:
154,266,28314,2,0,P|179:275|199:291,1,52.5000020027161,10|0,2:2|0:0,0:0:0:0:
237,360,28630,2,0,P|301:337|305:298,1,105.000004005432,10|10,2:1|2:2,0:0:0:0:
306,307,29261,6,0,P|325:291|374:294,1,52.5000020027161,8|0,2:1|0:0,0:0:0:0:
415,238,29577,2,0,P|385:194|376:144,1,105.000004005432,8|8,2:2|2:1,0:0:0:0:
310,98,30051,1,8,2:1:0:0:
310,98,30209,2,0,P|282:75|270:48,1,52.5000020027161,10|8,2:2|2:1,0:0:0:0:
216,8,30524,2,0,P|186:14|163:37,1,52.5000020027161,2|8,2:2|2:1,0:0:0:0:
123,91,30840,2,0,P|151:103|168:130,1,52.5000020027161,10|0,2:2|0:0,0:0:0:0:
215,180,31156,2,0,P|190:197|178:228,1,52.5000020027161,10|0,2:1|0:0,0:0:0:0:
157,295,31472,1,10,2:2:0:0:
157,295,31787,6,0,P|189:301|231:320,1,62.9999980773926,10|0,2:1|0:0,0:0:0:0:
281,373,32103,2,0,P|310:361|341:355,1,62.9999980773926,10|0,2:2|0:0,0:0:0:0:
416,308,32419,1,10,2:1:0:0:
340,261,32577,1,8,2:1:0:0:
410,207,32735,2,0,P|435:166|437:111,1,94.499997116089,10|0,2:2|0:0,0:0:0:0:
433,103,33051,6,0,P|456:124|490:129,1,62.9999980773926,2|8,2:2|2:1,0:0:0:0:
381,39,33366,2,0,P|350:44|327:65,1,62.9999980773926,10|0,2:2|0:0,0:0:0:0:
272,135,33682,2,0,P|249:114|218:108,1,62.9999980773926,10|0,2:1|0:0,0:0:0:0:
141,63,33998,2,0,P|117:83|86:88,1,62.9999980773926,10|0,2:2|0:0,0:0:0:0:
29,156,34314,6,0,P|77:169|141:181,1,94.499997116089,8|0,2:1|0:0,0:0:0:0:
129,189,34630,2,0,P|97:209|81:236,1,62.9999980773926,10|0,2:2|0:0,0:0:0:0:
0,277,34945,1,8,2:1:0:0:
69,332,35103,1,8,2:1:0:0:
154,311,35261,2,0,P|202:283|255:284,1,94.499997116089,10|0,2:2|0:0,0:0:0:0:
247,297,35577,6,0,P|265:332|287:353,1,62.9999980773926,0|8,0:0|2:1,0:0:0:0:
338,280,35893,2,0,P|356:245|378:224,1,62.9999980773926,10|0,2:2|0:0,0:0:0:0:
465,250,36209,2,0,P|455:220|452:189,1,62.9999980773926,10|0,2:1|0:0,0:0:0:0:
407,112,36524,1,10,2:2:0:0:
244,177,36840,6,0,P|210:213|144:223,1,94.499997116089,10|0,2:1|0:0,0:0:0:0:
145,218,37156,1,10,2:2:0:0:
145,218,37314,1,2,2:2:0:0:
66,177,37472,1,10,2:1:0:0:
18,251,37630,2,0,P|30:278|41:314,1,62.9999980773926,10|8,2:1|2:2,0:0:0:0:
109,373,37945,6,0,P|168:342|246:342,1,125.999996154785,10|8,2:1|2:1,0:0:0:0:
293,278,38419,2,0,P|319:329|388:351,1,125.999996154785,10|10,2:2|2:1,0:0:0:0:
449,295,38893,1,2,2:2:0:0:
386,233,39051,1,10,2:2:0:0:
452,173,39209,1,2,2:2:0:0:
452,173,39366,6,0,P|428:143|423:59,1,112,10|8,2:1|2:2,0:0:0:0:
419,71,39998,2,0,L|483:88,2,56,10|8|8,2:1|2:1|2:2,0:0:0:0:
352,29,40472,1,8,2:1:0:0:
282,69,40630,6,0,P|247:95|213:95,1,62.9999980773926,10|8,2:2|2:1,0:0:0:0:
166,34,40945,2,0,P|143:12|112:5,1,62.9999980773926,10|8,2:2|2:1,0:0:0:0:
36,49,41261,1,10,2:2:0:0:
87,120,41419,2,0,L|68:197,1,62.9999980773926,10|8,2:1|2:2,0:0:0:0:
2,236,41735,1,10,2:1:0:0:
85,317,41893,6,0,B|136:330|117:364|180:377,1,105,14|0,2:1|0:0,0:0:0:0:
183,365,42209,2,0,P|206:334|196:293,1,70,10|0,2:2|0:0,0:0:0:0:
161,215,42524,1,8,2:1:0:0:
234,150,42682,2,0,L|253:219,1,70,10|8,2:1|2:2,0:0:0:0:
342,259,42998,6,0,P|407:247|471:303,1,140,10|8,2:1|2:1,0:0:0:0:
379,338,43472,2,0,B|329:345|329:345|325:350|325:350|261:362,1,105,10|0,2:2|0:0,0:0:0:0:
263,359,43787,1,10,2:1:0:0:
263,359,43945,1,2,2:2:0:0:
179,307,44103,2,0,P|200:278|232:265,1,70,8|2,2:2|2:2,0:0:0:0:
275,176,44419,6,0,B|268:126|268:126|263:122|263:122|251:58,1,105,10|0,2:1|0:0,0:0:0:0:
240,67,44735,2,0,P|208:87|177:83,1,70,10|0,2:2|0:0,0:0:0:0:
91,33,45051,1,8,2:1:0:0:
23,104,45209,2,0,L|38:183,1,70,10|8,2:1|2:2,0:0:0:0:
8,266,45524,2,0,B|86:279|54:335|131:343,1,140,10|8,2:1|2:1,0:0:0:0:
149,247,45998,6,0,P|173:210|209:186,1,70,10|8,2:2|2:2,0:0:0:0:
258,268,46314,1,10,2:2:0:0:
355,273,46472,1,10,2:1:0:0:
410,191,46630,2,0,P|392:160|365:138,1,70,8|10,2:2|2:1,0:0:0:0:
312,56,46945,6,0,P|276:96|214:94,1,105,14|0,2:1|0:0,0:0:0:0:
223,86,47261,2,0,P|206:46|163:32,1,70,10|0,2:2|0:0,0:0:0:0:
134,119,47577,1,8,2:1:0:0:
35,115,47735,2,0,P|40:71|78:46,1,70,10|8,2:1|2:2,0:0:0:0:
134,119,48051,2,0,L|153:291,1,140,10|8,2:1|2:1,0:0:0:0:
204,339,48524,6,0,P|236:298|286:286,1,105,10|0,2:2|0:0,0:0:0:0:
302,296,48840,1,10,2:1:0:0:
302,296,48998,1,2,2:2:0:0:
377,358,49156,2,0,P|415:382|459:381,1,70,8|0,2:2|0:0,0:0:0:0:
481,295,49472,6,0,P|472:255|461:217,1,70,10|0,2:1|0:0,0:0:0:0:
388,164,49787,1,8,2:2:0:0:
298,203,49945,1,8,2:2:0:0:
229,132,50103,2,0,P|246:94|271:-2,1,140,10|8,2:1|2:2,0:0:0:0:
362,35,50577,1,10,2:1:0:0:
459,26,50735,6,0,P|466:60|479:92,1,70,2|8,2:2|2:1,0:0:0:0:
487,191,51051,2,0,P|464:217|438:241,1,70,10|8,2:2|2:2,0:0:0:0:
388,333,51366,1,10,2:1:0:0:
285,309,51524,1,8,2:1:0:0:
304,212,51682,1,10,2:2:0:0:
304,212,51998,6,0,B|252:222|252:222|246:222|246:222|189:235,1,105,14|0,2:1|0:0,0:0:0:0:
198,243,52314,2,0,B|165:237|165:237|162:238|162:238|114:228,1,70,10|0,2:2|0:0,0:0:0:0:
31,244,52630,1,8,2:1:0:0:
3,150,52787,2,0,P|49:124|58:85,1,70,10|8,2:1|2:2,0:0:0:0:
39,12,53103,6,0,B|81:-1|116:26|116:26|137:63|181:67,1,140,10|10,2:1|2:1,0:0:0:0:
225,136,53577,2,0,P|245:86|294:33,1,105,10|0,2:2|0:0,0:0:0:0:
298,54,53893,1,10,2:1:0:0:
298,54,54051,1,2,2:2:0:0:
363,127,54209,2,0,P|396:138|430:143,1,70,8|2,2:2|2:2,0:0:0:0:
485,224,54524,6,0,P|433:231|383:247,1,105,10|0,2:1|0:0,0:0:0:0:
372,256,54840,2,0,P|337:224|295:226,1,70,10|0,2:2|0:0,0:0:0:0:
246,290,55156,1,8,2:1:0:0:
151,265,55314,2,0,P|165:232|172:198,1,70,10|8,2:1|2:2,0:0:0:0:
151,102,55630,2,0,B|118:88|108:56|108:56|83:94|103:133,1,140,10|10,2:1|2:1,0:0:0:0:
171,198,56103,6,0,P|202:185|243:184,1,70,10|8,2:2|2:2,0:0:0:0:
326,138,56419,1,10,2:2:0:0:
387,214,56577,1,10,2:1:0:0:
480,185,56735,2,0,P|467:153|466:113,1,70,8|10,2:2|2:1,0:0:0:0:
456,19,57051,6,0,B|424:12|406:-2|406:-2|404:21|379:49,1,105,14|0,2:1|0:0,0:0:0:0:
370,54,57366,2,0,P|338:37|320:1,1,70,10|0,2:2|0:0,0:0:0:0:
223,20,57682,1,8,2:1:0:0:
220,118,57840,2,0,P|250:133|268:163,1,70,10|8,2:1|2:2,0:0:0:0:
366,163,58156,2,0,L|336:309,1,140,10|10,2:1|2:1,0:0:0:0:
277,378,58630,6,0,P|254:331|207:309,1,105,10|0,2:2|0:0,0:0:0:0:
199,320,58946,1,10,2:1:0:0:
199,320,59104,1,2,2:2:0:0:
112,365,59262,2,0,P|71:384|28:379,1,70,8|0,2:2|0:0,0:0:0:0:
8,293,59577,6,0,P|17:253|28:215,1,70,10|8,2:1|2:2,0:0:0:0:
40,128,59892,1,8,2:2:0:0:
119,184,60050,1,8,2:2:0:0:
178,105,60209,2,0,P|169:65|158:27,1,70,10|8,2:1|2:1,0:0:0:0:
252,0,60524,1,8,2:2:0:0:
290,90,60682,1,10,2:1:0:0:
365,27,60840,6,0,L|466:8,1,70,2|8,2:2|2:1,0:0:0:0:
290,90,61156,2,0,L|386:124,1,70,10|8,2:2|2:2,0:0:0:0:
178,105,61472,1,10,2:1:0:0:
171,209,61630,1,8,2:1:0:0:
274,251,61787,1,10,2:2:0:0:
274,251,62103,6,0,P|329:221|411:218,2,140,14|10|10,2:1|2:2|2:1,0:0:0:0:
196,299,62893,1,8,2:1:0:0:
126,240,63051,2,0,P|91:222|48:226,1,70,8|8,2:2|2:1,0:0:0:0:
17,141,63366,6,0,P|81:127|167:116,1,140,2|10,2:2|2:2,0:0:0:0:
177,31,63840,1,0,0:0:0:0:
177,31,63998,2,0,P|212:39|261:44,1,70,10|2,2:1|2:2,0:0:0:0:
284,126,64314,2,0,P|314:116|352:113,1,70,10|0,2:2|0:0,0:0:0:0:
399,34,64630,6,0,P|440:72|431:163,2,140,10|10|10,2:1|2:2|2:1,0:0:0:0:
352,113,65419,1,8,2:1:0:0:
374,201,65577,2,0,P|394:242|388:275,1,70,10|8,2:2|2:1,0:0:0:0:
363,352,65893,6,0,L|285:336,1,70,2|8,2:2|2:1,0:0:0:0:
231,270,66209,2,0,L|162:284,1,70,10|8,2:2|2:2,0:0:0:0:
86,334,66524,2,0,P|121:355|135:384,1,70,10|10,2:2|2:1,0:0:0:0:
48,250,66840,2,0,P|17:266|0:296,1,70,10|8,2:2|2:1,0:0:0:0:
122,213,67156,6,0,B|133:174|109:142|109:142|75:123|71:83,2,140,14|10|10,2:1|2:2|2:1,0:0:0:0:
174,287,67945,1,8,2:1:0:0:
242,226,68103,2,0,P|256:192|291:172,1,70,8|8,2:2|2:1,0:0:0:0:
335,99,68419,6,0,P|372:143|454:149,1,140,2|10,2:2|2:2,0:0:0:0:
509,227,68893,1,0,0:0:0:0:
509,227,69051,2,0,P|469:228|436:247,1,70,10|2,2:1|2:2,0:0:0:0:
408,325,69366,6,0,P|385:298|353:285,1,70,10|0,2:2|0:0,0:0:0:0:
283,344,69682,1,10,2:1:0:0:
283,344,69998,6,0,P|260:371|228:384,1,70,10|8,2:2|2:2,0:0:0:0:
149,336,70314,1,8,2:1:0:0:
149,336,70630,6,0,P|126:309|94:296,1,70,10|8,2:2|2:1,0:0:0:0:
9,340,70946,1,0,0:0:0:0:
9,340,71261,6,0,L|-2:258,1,70,10|10,2:2|2:2,0:0:0:0:
10,179,71577,1,10,2:1:0:0:
93,215,71735,1,8,2:1:0:0:
181,193,71893,1,10,2:2:0:0:
181,193,72209,6,0,P|166:157|160:114,2,70,10|2|10,2:1|2:2|2:2,0:0:0:0:
244,247,72682,2,0,P|295:223|351:224,1,112,2|10,2:2|2:1,0:0:0:0:
384,300,73156,1,10,2:2:0:0:
459,337,73314,2,0,B|488:331|501:304|501:304|480:251,1,112,10|10,2:1|2:1,0:0:0:0:
426,186,73787,2,0,L|440:120,1,56,10|0,2:2|0:0,0:0:0:0:
511,90,74103,2,0,L|497:24,1,56,10|0,2:1|0:0,0:0:0:0:
418,11,74419,1,10,2:2:0:0:
418,11,74735,6,0,P|383:42|316:31,1,112,10|10,2:1|2:2,0:0:0:0:
237,31,75209,2,0,P|238:58|262:93,1,56,2|8,2:2|2:1,0:0:0:0:
311,142,75524,2,0,P|288:156|269:194,1,56,10|8,2:1|2:2,0:0:0:0:
290,263,75840,2,0,L|157:239,1,112,10|8,2:1|2:1,0:0:0:0:
103,280,76314,2,0,L|89:200,1,56,10|0,2:2|0:0,0:0:0:0:
13,196,76630,2,0,L|40:119,1,56,10|0,2:1|0:0,0:0:0:0:
68,67,76945,1,10,2:2:0:0:
220,138,77261,5,10,2:1:0:0:
220,138,77577,2,0,P|265:111|340:98,1,112,10|8,2:2|2:1,0:0:0:0:
388,45,78051,1,8,2:1:0:0:
388,45,78209,2,0,P|418:67|432:95,1,56,10|8,2:2|2:1,0:0:0:0:
500,124,78524,2,0,L|475:254,2,112,2|10|10,2:2|2:2|2:1,0:0:0:0:
362,222,79472,1,10,2:2:0:0:
362,222,79787,6,0,B|313:227|313:227|291:221|291:221|232:226,1,112,8|10,2:1|2:2,0:0:0:0:
177,194,80261,1,0,0:0:0:0:
177,194,80419,2,0,P|194:166|229:152,1,56,8|8,2:1|2:1,0:0:0:0:
284,111,80735,2,0,P|267:83|232:69,1,56,10|8,2:2|2:1,0:0:0:0:
169,39,81051,2,0,L|57:71,1,112,2|10,2:2|2:2,0:0:0:0:
1,128,81524,2,0,P|28:143|44:163,1,56,2|8,2:2|2:1,0:0:0:0:
83,230,81840,2,0,P|70:252|64:294,1,56,2|8,2:2|2:2,0:0:0:0:
146,289,82156,6,0,L|258:257,1,112,2|2,2:2|2:2,0:0:0:0:
305,191,82630,1,10,2:2:0:0:
305,191,82787,2,0,P|324:210|353:223,1,56,2|8,2:2|2:1,0:0:0:0:
376,141,83103,2,0,P|401:134|427:115,1,56,10|10,2:1|2:2,0:0:0:0:
481,53,83419,2,0,B|501:74|524:90|524:90|509:113|503:160,1,112,10|10,2:1|2:1,0:0:0:0:
443,198,83893,2,0,L|457:264,1,56,10|0,2:2|0:0,0:0:0:0:
507,318,84209,2,0,L|493:384,1,56,10|0,2:1|0:0,0:0:0:0:
418,362,84525,1,10,2:2:0:0:
418,362,84840,6,0,P|374:326|316:335,1,112,10|10,2:1|2:2,0:0:0:0:
246,369,85314,2,0,P|239:338|217:315,1,56,2|8,2:2|2:1,0:0:0:0:
139,319,85630,2,0,L|159:251,1,56,10|8,2:1|2:2,0:0:0:0:
221,214,85945,2,0,B|210:152|174:172|169:107,1,112,10|8,2:1|2:1,0:0:0:0:
186,33,86419,2,0,P|213:38|237:65,1,56,10|0,2:2|0:0,0:0:0:0:
290,119,86735,2,0,P|317:113|337:94,1,56,10|0,2:1|0:0,0:0:0:0:
379,21,87051,1,10,2:2:0:0:
469,162,87366,5,10,2:1:0:0:
469,162,87682,2,0,P|442:178|433:256,1,112,10|10,2:2|2:1,0:0:0:0:
384,323,88156,1,8,2:1:0:0:
384,323,88314,2,0,P|356:297|327:293,1,56,10|8,2:2|2:1,0:0:0:0:
286,358,88630,2,0,P|242:349|232:276,2,112,2|10|10,2:2|2:2|2:1,0:0:0:0:
416,252,89577,1,10,2:2:0:0:
416,252,89893,6,0,B|445:246|458:219|458:219|437:166,1,112,8|10,2:1|2:2,0:0:0:0:
495,106,90366,1,0,0:0:0:0:
495,106,90524,2,0,P|467:86|424:88,1,56,8|8,2:1|2:1,0:0:0:0:
428,0,90840,2,0,P|394:5|365:37,1,56,10|8,2:2|2:1,0:0:0:0:
292,13,91156,1,2,2:2:0:0:
238,73,91314,2,0,P|216:90|189:96,1,56,10|10,2:1|2:2,0:0:0:0:
115,54,91630,2,0,L|128:0,1,56,2|8,2:2|2:1,0:0:0:0:
21,37,91945,2,0,L|35:92,1,56,2|8,2:2|2:2,0:0:0:0:
101,143,92261,1,2,2:2:0:0:
42,217,92419,6,0,P|97:237|123:306,2,125.999996154785,12|10|10,2:1|2:2|2:1,0:0:0:0:
40,306,93209,1,8,2:1:0:0:
108,370,93366,2,0,P|141:377|177:358,1,62.9999980773926,10|8,2:2|2:1,0:0:0:0:
219,287,93682,6,0,P|247:259|283:250,1,62.9999980773926,2|8,2:2|2:1,0:0:0:0:
357,258,93998,2,0,L|342:175,1,62.9999980773926,10|0,2:2|0:0,0:0:0:0:
382,115,94314,2,0,P|402:138|431:150,1,62.9999980773926,10|0,2:1|0:0,0:0:0:0:
485,80,94630,2,0,L|500:-3,1,62.9999980773926,10|0,2:2|0:0,0:0:0:0:
408,25,94945,6,0,B|357:31|357:31|352:36|352:36|297:46,1,94.499997116089,8|0,2:1|0:0,0:0:0:0:
303,56,95261,2,0,B|277:52|277:52|272:48|272:48|241:43,1,62.9999980773926,10|0,2:2|0:0,0:0:0:0:
155,22,95577,1,8,2:1:0:0:
129,106,95735,1,8,2:1:0:0:
213,130,95893,2,0,L|192:231,1,94.499997116089,10|0,2:2|0:0,0:0:0:0:
190,240,96209,6,0,L|117:224,1,62.9999980773926,0|8,0:0|2:1,0:0:0:0:
61,282,96524,2,0,L|0:296,1,62.9999980773926,10|0,2:2|0:0,0:0:0:0:
102,365,96840,2,0,L|163:378,1,62.9999980773926,10|0,2:1|0:0,0:0:0:0:
224,313,97156,1,10,2:2:0:0:
399,335,97472,6,0,P|447:370|498:352,1,94.499997116089,14|0,2:1|0:0,0:0:0:0:
491,355,97787,1,10,2:2:0:0:
491,355,97945,1,2,2:2:0:0:
444,272,98103,1,10,2:1:0:0:
510,205,98261,2,0,L|494:128,1,62.9999980773926,10|8,2:1|2:2,0:0:0:0:
462,54,98577,6,0,P|414:103|355:97,1,125.999996154785,10|8,2:1|2:1,0:0:0:0:
303,31,99051,2,0,P|267:3|223:6,1,62.9999980773926,10|0,2:2|0:0,0:0:0:0:
176,47,99366,2,0,L|192:113,1,62.9999980773926,10|0,2:1|0:0,0:0:0:0:
277,128,99682,2,0,L|262:189,1,62.9999980773926,10|0,2:2|0:0,0:0:0:0:
184,232,99998,6,0,P|123:213|56:212,2,125.999996154785,10|10|10,2:1|2:2|2:1,0:0:0:0:
223,310,100787,1,8,2:1:0:0:
223,310,100945,2,0,P|237:345|263:370,1,62.9999980773926,10|8,2:2|2:1,0:0:0:0:
340,344,101261,6,0,L|410:325,1,62.9999980773926,0|8,0:0|2:1,0:0:0:0:
448,252,101577,2,0,L|378:233,1,62.9999980773926,10|0,2:2|0:0,0:0:0:0:
333,164,101893,2,0,L|403:145,1,62.9999980773926,10|0,2:1|0:0,0:0:0:0:
444,74,102209,2,0,L|374:55,1,62.9999980773926,10|0,2:2|0:0,0:0:0:0:
309,8,102524,6,0,P|266:58|194:61,1,125.999996154785,12|10,2:1|2:2,0:0:0:0:
133,108,102998,1,0,0:0:0:0:
133,108,103156,2,0,P|119:73|123:37,1,62.9999980773926,10|8,2:1|2:1,0:0:0:0:
206,147,103472,2,0,P|182:176|149:191,1,62.9999980773926,10|8,2:2|2:1,0:0:0:0:
97,249,103787,6,0,L|116:336,1,62.9999980773926,2|8,2:2|2:1,0:0:0:0:
182,363,104103,2,0,L|195:301,1,62.9999980773926,10|0,2:2|0:0,0:0:0:0:
269,252,104419,2,0,L|282:313,1,62.9999980773926,10|0,2:1|0:0,0:0:0:0:
360,356,104735,2,0,P|388:341|426:327,1,62.9999980773926,10|0,2:2|0:0,0:0:0:0:
474,262,105051,6,0,P|461:218|449:156,1,94.499997116089,8|0,2:1|0:0,0:0:0:0:
415,143,105367,2,0,P|374:131|347:99,1,62.9999980773926,10|0,2:2|0:0,0:0:0:0:
302,50,105682,1,8,2:1:0:0:
214,62,105840,1,8,2:1:0:0:
148,120,105998,2,0,P|168:157|184:223,1,94.499997116089,10|0,2:2|0:0,0:0:0:0:
204,245,106314,6,0,P|186:280|164:301,1,62.9999980773926,0|8,0:0|2:1,0:0:0:0:
86,329,106630,2,0,P|64:305|51:277,1,62.9999980773926,10|0,2:2|0:0,0:0:0:0:
1,211,106946,2,0,P|11:181|14:150,1,62.9999980773926,10|0,2:1|0:0,0:0:0:0:
17,61,107261,1,10,2:2:0:0:
187,14,107577,6,0,P|221:50|287:60,1,94.499997116089,14|0,2:1|0:0,0:0:0:0:
304,48,107893,1,10,2:2:0:0:
304,48,108051,1,2,2:2:0:0:
366,109,108209,1,10,2:1:0:0:
455,125,108367,2,0,P|443:152|432:188,1,62.9999980773926,10|8,2:1|2:2,0:0:0:0:
361,235,108682,6,0,P|298:240|243:269,1,125.999996154785,10|8,2:1|2:1,0:0:0:0:
239,358,109156,2,0,P|180:338|151:284,1,125.999996154785,10|10,2:2|2:1,0:0:0:0:
185,202,109630,1,2,2:2:0:0:
113,151,109787,2,0,P|82:166|50:177,1,62.9999980773926,10|2,2:2|2:2,0:0:0:0:
1,116,110103,5,10,2:1:0:0:
1,116,110261,2,0,P|14:72|33:1,1,112,2|2,2:2|2:2,0:0:0:0:
108,23,110735,2,0,P|138:49|210:55,1,112,10|10,2:1|2:2,0:0:0:0:
264,0,111209,1,10,2:1:0:0:
352,4,111367,6,0,P|381:5|424:28,1,62.9999980773926,8|10,2:2|2:1,0:0:0:0:
454,94,111682,2,0,P|470:124|470:164,1,62.9999980773926,10|8,2:2|2:1,0:0:0:0:
412,218,111998,1,10,2:2:0:0:
464,288,112156,2,0,L|445:365,1,62.9999980773926,10|8,2:1|2:2,0:0:0:0:
366,382,112472,1,10,2:1:0:0:
366,382,112630,6,0,B|315:369|334:335|271:322,1,105,14|0,2:1|0:0,0:0:0:0:
265,331,112946,2,0,P|236:300|234:255,1,70,10|0,2:2|0:0,0:0:0:0:
283,190,113261,1,8,2:1:0:0:
229,107,113419,2,0,L|150:90,1,70,10|8,2:1|2:2,0:0:0:0:
67,124,113735,6,0,P|27:172|55:243,1,140,10|8,2:1|2:1,0:0:0:0:
131,295,114209,2,0,B|178:286|178:286|182:281|182:281|232:274,1,105,10|0,2:2|0:0,0:0:0:0:
241,282,114524,1,10,2:1:0:0:
314,347,114682,1,2,2:2:0:0:
401,301,114840,2,0,P|414:255|418:214,1,70,8|2,2:2|2:2,0:0:0:0:
352,158,115156,6,0,B|345:108|345:108|340:104|340:104|328:40,1,105,10|0,2:1|0:0,0:0:0:0:
316,47,115472,2,0,P|284:67|253:63,1,70,10|0,2:2|0:0,0:0:0:0:
165,19,115788,1,8,2:1:0:0:
85,76,115946,2,0,L|100:155,1,70,10|8,2:1|2:2,0:0:0:0:
30,215,116261,2,0,B|108:228|76:284|153:292,1,140,10|8,2:1|2:1,0:0:0:0:
207,364,116735,6,0,P|242:354|289:344,1,70,10|8,2:2|2:2,0:0:0:0:
370,370,117051,1,10,2:2:0:0:
410,280,117209,1,10,2:1:0:0:
507,292,117367,2,0,P|501:263|490:219,1,70,8|10,2:2|2:1,0:0:0:0:
423,152,117682,6,0,P|383:173|325:190,1,105,14|0,2:1|0:0,0:0:0:0:
315,199,117998,2,0,P|300:235|321:278,1,70,10|0,2:2|0:0,0:0:0:0:
234,328,118314,1,8,2:1:0:0:
160,263,118472,2,0,P|125:271|80:247,1,70,10|8,2:1|2:2,0:0:0:0:
24,329,118788,2,0,L|1:185,1,140,10|8,2:1|2:1,0:0:0:0:
15,93,119261,6,0,P|47:52|97:40,1,105,10|0,2:2|0:0,0:0:0:0:
116,50,119577,1,10,2:1:0:0:
116,50,119735,1,2,2:2:0:0:
192,110,119893,2,0,P|230:134|274:133,1,70,8|0,2:2|0:0,0:0:0:0:
350,158,120209,6,0,P|340:191|333:225,1,70,10|0,2:1|0:0,0:0:0:0:
328,323,120524,1,8,2:2:0:0:
237,286,120682,1,8,2:2:0:0:
141,308,120840,2,0,B|63:325|127:354|18:383,1,140,10|8,2:1|2:2,0:0:0:0:
34,282,121314,1,10,2:1:0:0:
3,188,121472,6,0,P|12:154|23:121,1,70,2|8,2:2|2:1,0:0:0:0:
114,86,121787,2,0,P|154:105|196:109,1,70,10|8,2:2|2:2,0:0:0:0:
225,196,122103,1,10,2:1:0:0:
120,216,122261,1,8,2:1:0:0:
121,321,122419,1,10,2:2:0:0:
121,321,122735,6,0,B|173:311|173:311|179:311|179:311|236:298,1,105,14|0,2:1|0:0,0:0:0:0:
230,290,123051,2,0,B|263:284|263:284|266:285|266:285|314:275,1,70,10|0,2:2|0:0,0:0:0:0:
386,332,123367,1,8,2:1:0:0:
458,266,123524,2,0,P|469:234|454:194,1,70,10|8,2:1|2:2,0:0:0:0:
384,135,123840,6,0,B|342:122|307:149|307:149|286:186|242:190,1,140,10|10,2:1|2:1,0:0:0:0:
166,167,124314,2,0,P|145:118|124:58,1,105,10|0,2:2|0:0,0:0:0:0:
118,67,124630,1,10,2:1:0:0:
118,67,124788,1,2,2:2:0:0:
26,101,124946,2,0,P|9:126|17:166,1,70,8|2,2:2|2:2,0:0:0:0:
59,251,125261,6,0,P|111:258|161:274,1,105,10|0,2:1|0:0,0:0:0:0:
176,277,125577,2,0,P|211:245|253:247,1,70,10|0,2:2|0:0,0:0:0:0:
308,304,125893,1,8,2:1:0:0:
378,235,126051,2,0,P|364:202|357:168,1,70,10|8,2:1|2:2,0:0:0:0:
450,137,126366,2,0,P|380:126|307:91,1,140,10|10,2:1|2:1,0:0:0:0:
239,36,126840,6,0,P|208:49|167:50,1,70,10|8,2:2|2:2,0:0:0:0:
108,126,127156,1,10,2:2:0:0:
17,87,127314,1,10,2:1:0:0:
0,175,127472,2,0,P|11:207|22:241,1,70,8|10,2:2|2:1,0:0:0:0:
98,304,127788,6,0,B|130:297|148:283|148:283|150:306|175:334,1,105,14|0,2:1|0:0,0:0:0:0:
182,326,128103,2,0,P|214:309|232:273,1,70,10|0,2:2|0:0,0:0:0:0:
261,186,128419,1,8,2:1:0:0:
347,138,128577,2,0,P|377:153|395:183,1,70,10|8,2:1|2:2,0:0:0:0:
493,184,128893,2,0,L|463:330,1,140,10|10,2:1|2:1,0:0:0:0:
379,370,129367,6,0,P|326:356|265:334,1,105,10|0,2:2|0:0,0:0:0:0:
269,329,129683,1,10,2:1:0:0:
269,329,129841,1,2,2:2:0:0:
186,275,129999,2,0,P|145:294|102:289,1,70,8|0,2:2|0:0,0:0:0:0:
25,270,130314,6,0,P|34:230|45:192,1,70,10|8,2:1|2:2,0:0:0:0:
123,147,130629,1,8,2:2:0:0:
211,189,130787,1,8,2:2:0:0:
264,106,130946,2,0,P|255:66|244:28,1,70,10|8,2:1|2:1,0:0:0:0:
153,7,131261,2,0,P|117:26|71:41,1,70,8|10,2:2|2:1,0:0:0:0:
3,84,131577,6,0,P|17:118|26:165,1,70,2|8,2:2|2:1,0:0:0:0:
123,147,131893,2,0,P|108:180|81:220,1,70,10|8,2:2|2:2,0:0:0:0:
10,278,132209,1,10,2:1:0:0:
107,314,132366,1,8,2:1:0:0:
25,380,132524,1,10,2:2:0:0:
182,256,132840,5,14,2:1:0:0:
182,256,133156,2,0,B|264:272|224:301|307:318,2,125.999996154785,10|10|10,2:2|2:1|2:2,0:0:0:0:
235,185,133945,1,8,2:1:0:0:
299,125,134103,2,0,P|326:138|368:146,1,62.9999980773926,2|8,2:2|2:1,0:0:0:0:
446,154,134419,2,0,P|428:215|414:290,1,125.999996154785,10|8,2:2|2:1,0:0:0:0:
462,352,134893,1,0,0:0:0:0:
378,380,135051,2,0,B|335:363|301:355|300:355,1,62.9999980773926,10|0,2:2|0:0,0:0:0:0:
276,278,135366,6,0,P|223:232|249:172,2,125.999996154785,10|10|8,2:1|2:2|2:1,0:0:0:0:
276,278,136314,2,0,P|258:323|254:352,1,62.9999980773926,10|8,2:2|2:1,0:0:0:0:
178,381,136630,2,0,P|146:375|117:364,1,62.9999980773926,2|8,2:2|2:1,0:0:0:0:
53,303,136945,1,10,2:2:0:0:
124,251,137103,1,8,2:2:0:0:
62,188,137261,2,0,P|26:177|-13:162,1,62.9999980773926,10|8,2:2|2:1,0:0:0:0:
9,79,137577,2,0,P|20:41|29:1,1,62.9999980773926,10|8,2:2|2:1,0:0:0:0:
113,29,137893,5,14,2:1:0:0:
113,29,138209,2,0,P|154:22|236:3,2,125.999996154785,10|10|10,2:2|2:1|2:2,0:0:0:0:
54,95,138998,1,8,2:1:0:0:
120,149,139156,2,0,P|158:164|196:182,1,62.9999980773926,2|8,2:2|2:1,0:0:0:0:
246,229,139472,2,0,P|306:186|294:132,1,125.999996154785,10|8,2:2|2:1,0:0:0:0:
264,60,139945,1,0,0:0:0:0:
351,47,140103,2,0,P|379:60|409:72,1,62.9999980773926,10|2,2:2|2:2,0:0:0:0:
435,156,140419,6,0,P|463:197|447:268,1,125.999996154785,10|10,2:1|2:2,0:0:0:0:
384,334,140893,1,8,2:2:0:0:
303,297,141051,1,8,2:1:0:0:
303,297,141366,2,0,P|273:311|232:324,1,62.9999980773926,10|8,2:2|2:1,0:0:0:0:
165,361,141682,2,0,P|151:321|139:298,1,62.9999980773926,2|8,2:2|2:1,0:0:0:0:
58,270,141998,2,0,P|71:241|81:211,1,62.9999980773926,10|8,2:2|2:2,0:0:0:0:
144,148,142314,2,0,P|178:135|216:128,2,62.9999980773926,10|8|10,2:1|2:1|2:2,0:0:0:0:
9,34,142945,5,10,2:1:0:0:
9,34,143261,2,0,P|30:73|5:140,1,112,10|8,2:2|2:1,0:0:0:0:
5,219,143735,1,8,2:1:0:0:
62,280,143893,1,10,2:2:0:0:
62,280,144051,2,0,P|119:260|190:244,1,112,8|8,2:1|2:1,0:0:0:0:
207,172,144524,2,0,P|199:139|184:109,1,56,10|0,2:2|0:0,0:0:0:0:
270,99,144840,2,0,P|278:66|293:36,1,56,8|0,2:1|0:0,0:0:0:0:
370,24,145156,6,0,P|406:53|484:64,1,112,10|8,2:2|2:1,0:0:0:0:
469,65,145787,2,0,P|455:110|447:183,1,112,10|8,2:2|2:1,0:0:0:0:
393,239,146261,1,8,2:1:0:0:
355,307,146419,1,10,2:2:0:0:
355,307,146577,2,0,P|301:322|249:344,1,112,8|8,2:1|2:1,0:0:0:0:
197,285,147051,2,0,P|212:255|213:219,1,56,10|0,2:2|0:0,0:0:0:0:
161,174,147366,2,0,P|106:195|33:214,1,112,10|8,2:1|2:2,0:0:0:0:
54,209,147998,6,0,P|28:159|51:109,2,112,8|8|10,2:1|2:2|2:1,0:0:0:0:
108,272,148787,1,8,2:1:0:0:
186,242,148945,1,8,2:2:0:0:
186,242,149103,2,0,P|243:221|301:206,1,112,8|8,2:1|2:1,0:0:0:0:
375,189,149577,1,8,2:2:0:0:
375,189,149893,2,0,P|364:153|356:127,1,56,10|0,2:1|0:0,0:0:0:0:
305,69,150209,2,0,P|277:85|234:94,1,56,10|0,2:2|0:0,0:0:0:0:
204,160,150524,6,0,P|167:144|149:125,1,56,8|8,2:1|2:2,0:0:0:0:
234,239,150840,2,0,P|193:243|168:236,1,56,10|8,2:2|2:2,0:0:0:0:
314,281,151156,2,0,P|260:320|218:331,1,112,8|10,2:1|2:2,0:0:0:0:
145,375,151630,2,0,P|92:352|35:338,1,112,8|8,2:1|2:1,0:0:0:0:
4,262,152103,1,10,2:2:0:0:
4,262,152419,2,0,P|21:223|24:196,1,56,8|0,2:1|0:0,0:0:0:0:
89,158,152735,2,0,P|72:119|69:92,1,56,10|0,2:2|0:0,0:0:0:0:
126,42,153051,6,0,B|185:44|168:77|241:76,1,112,8|8,2:1|2:2,0:0:0:0:
230,75,153682,2,0,P|258:65|291:50,1,56,10|8,2:1|2:1,0:0:0:0:
363,76,153998,2,0,P|389:116|366:185,1,112,10|0,2:2|0:0,0:0:0:0:
299,213,154472,1,8,2:1:0:0:
232,264,154630,2,0,P|245:291|255:330,1,56,10|0,2:2|0:0,0:0:0:0:
186,367,154945,2,0,P|157:375|127:366,1,56,8|0,2:1|0:0,0:0:0:0:
73,307,155261,1,10,2:2:0:0:
73,307,155577,6,0,P|54:256|25:189,2,112,8|10|8,2:1|2:2|2:1,0:0:0:0:
144,263,156366,1,8,2:1:0:0:
187,191,156524,1,10,2:2:0:0:
187,191,156682,2,0,P|230:210|308:232,1,112,8|8,2:1|2:1,0:0:0:0:
368,191,157156,1,10,2:2:0:0:
368,191,157472,2,0,P|353:152|350:128,1,56,10|0,2:1|0:0,0:0:0:0:
322,58,157787,2,0,P|337:19|340:-5,1,56,8|2,2:2|2:2,0:0:0:0:
255,13,158103,6,0,P|200:32|121:48,2,112,8|8|8,2:1|2:2|2:1,0:0:0:0:
322,58,158893,1,8,2:1:0:0:
320,142,159051,2,0,P|307:169|298:204,1,56,8|8,2:2|2:1,0:0:0:0:
233,246,159366,2,0,P|178:227|99:211,1,112,0|8,0:0|2:2,0:0:0:0:
125,214,159998,2,0,P|88:172|120:114,1,112,10|8,2:1|2:2,0:0:0:0:
179,84,160472,1,2,2:2:0:0:
260,63,160630,6,0,P|287:74|322:82,1,56,10|2,2:1|2:2,0:0:0:0:
348,156,160945,2,0,P|375:145|410:137,1,56,10|2,2:2|2:2,0:0:0:0:
482,150,161261,2,0,P|508:97|480:48,2,112,10|10|2,2:1|2:2|2:2,0:0:0:0:
425,213,162051,1,8,2:1:0:0:
498,254,162209,1,8,2:2:0:0:
498,254,162524,2,0,P|479:301|466:365,1,112,10|8,2:1|2:2,0:0:0:0:
297,368,163156,5,10,2:1:0:0:
297,368,163314,2,0,P|237:347|168:325,1,125.999996154785,10|10,2:2|2:2,0:0:0:0:
113,267,163787,2,0,P|124:234|135:199,1,62.9999980773926,10|8,2:1|2:2,0:0:0:0:
209,162,164103,1,10,2:1:0:0:
296,148,164261,6,0,P|285:115|275:81,1,62.9999980773926,10|0,2:2|0:0,0:0:0:0:
209,29,164577,1,10,2:2:0:0:
142,87,164735,2,0,P|98:76|68:64,1,62.9999980773926,10|0,2:2|0:0,0:0:0:0:
9,122,165051,1,10,2:2:0:0:
57,195,165209,2,0,P|84:201|118:213,1,62.9999980773926,2|8,2:2|2:2,0:0:0:0:
149,294,165524,1,10,2:1:0:0:
245,275,165682,6,0,B|304:267|284:301|350:289,1,105,14|0,2:1|0:0,0:0:0:0:
364,299,165998,2,0,P|397:279|405:237,1,70,10|0,2:2|0:0,0:0:0:0:
403,151,166314,2,0,P|376:117|329:112,1,70,8|10,2:1|2:1,0:0:0:0:
255,132,166630,1,8,2:2:0:0:
172,76,166787,2,0,P|126:94|32:123,1,140,10|8,2:1|2:1,0:0:0:0:
4,213,167261,2,0,P|15:246|33:327,1,105,10|0,2:2|0:0,0:0:0:0:
45,326,167577,1,10,2:1:0:0:
124,268,167735,1,2,2:2:0:0:
203,324,167893,2,0,P|241:338|283:348,1,70,8|2,2:2|2:2,0:0:0:0:
363,313,168209,6,0,P|386:255|362:207,1,105,10|0,2:1|0:0,0:0:0:0:
358,207,168524,2,0,P|323:219|287:228,1,70,10|0,2:2|0:0,0:0:0:0:
217,161,168840,2,0,P|217:120|239:85,1,70,8|10,2:1|2:1,0:0:0:0:
288,15,169156,1,8,2:2:0:0:
374,61,169314,2,0,B|454:83|401:118|496:145,1,140,10|10,2:1|2:1,0:0:0:0:
440,229,169787,1,10,2:2:0:0:
495,309,169945,1,10,2:2:0:0:
413,363,170103,2,0,P|368:345|325:333,1,70,10|10,2:2|2:1,0:0:0:0:
277,269,170419,2,0,P|232:287|189:299,1,70,8|10,2:2|2:1,0:0:0:0:
132,353,170735,6,0,P|116:295|97:246,1,105,14|0,2:1|0:0,0:0:0:0:
85,245,171051,2,0,P|44:223|33:194,1,70,10|0,2:2|0:0,0:0:0:0:
18,106,171366,1,8,2:1:0:0:
92,41,171524,2,0,P|134:58|172:68,1,70,10|8,2:1|2:2,0:0:0:0:
215,144,171840,2,0,P|275:121|355:99,1,140,10|8,2:1|2:1,0:0:0:0:
427,158,172314,2,0,P|395:191|398:249,1,105,10|0,2:2|0:0,0:0:0:0:
417,258,172630,1,10,2:1:0:0:
417,258,172787,1,2,2:2:0:0:
338,317,172945,2,0,P|298:303|258:292,1,70,8|0,2:2|0:0,0:0:0:0:
172,298,173261,6,0,P|189:261|197:228,1,70,10|0,2:1|0:0,0:0:0:0:
248,149,173577,1,8,2:2:0:0:
194,67,173735,1,8,2:2:0:0:
274,10,173893,2,0,P|316:27|352:37,1,70,10|8,2:1|2:1,0:0:0:0:
418,92,174209,2,0,P|384:102|352:116,1,70,8|10,2:2|2:1,0:0:0:0:
336,212,174524,2,0,P|334:240|355:285,1,70,2|8,2:2|2:1,0:0:0:0:
279,348,174840,2,0,P|255:332|206:327,1,70,10|8,2:2|2:2,0:0:0:0:
143,248,175156,1,10,2:1:0:0:
230,189,175314,1,8,2:1:0:0:
181,103,175472,1,10,2:2:0:0:
181,103,175787,6,0,B|136:113|136:113|130:113|130:113|78:123,1,105,14|0,2:1|0:0,0:0:0:0:
67,139,176103,2,0,P|54:174|70:209,1,70,10|0,2:2|0:0,0:0:0:0:
2,280,176419,2,0,P|25:308|64:312,1,70,8|10,2:1|2:1,0:0:0:0:
137,245,176735,1,8,2:2:0:0:
231,300,176892,6,0,B|273:287|308:314|308:314|329:351|373:355,1,140,10|10,2:1|2:1,0:0:0:0:
440,307,177366,2,0,P|457:257|429:206,1,105,10|0,2:2|0:0,0:0:0:0:
423,203,177682,1,10,2:1:0:0:
423,203,177840,1,2,2:2:0:0:
327,180,177998,2,0,P|340:143|345:109,1,70,8|2,2:2|2:2,0:0:0:0:
321,17,178313,6,0,P|271:32|219:39,1,105,10|0,2:1|0:0,0:0:0:0:
206,53,178629,2,0,P|172:44|150:18,1,70,10|0,2:2|0:0,0:0:0:0:
63,65,178945,1,8,2:1:0:0:
21,153,179103,2,0,P|37:188|46:221,1,70,10|8,2:1|2:2,0:0:0:0:
107,294,179418,2,0,P|170:265|239:254,1,140,10|10,2:1|2:1,0:0:0:0:
302,178,179892,6,0,P|333:191|374:192,1,70,10|8,2:2|2:2,0:0:0:0:
460,230,180208,1,10,2:2:0:0:
428,322,180366,1,10,2:1:0:0:
341,367,180524,2,0,P|301:352|256:342,1,70,8|10,2:2|2:1,0:0:0:0:
199,281,180840,6,0,P|185:227|166:174,1,105,14|0,2:1|0:0,0:0:0:0:
155,170,181156,2,0,P|190:158|213:124,1,70,10|0,2:2|0:0,0:0:0:0:
255,46,181471,1,8,2:1:0:0:
348,17,181629,2,0,P|378:32|396:62,1,70,10|8,2:1|2:2,0:0:0:0:
483,108,181945,2,0,L|453:254,1,140,10|10,2:1|2:1,0:0:0:0:
414,335,182419,6,0,P|361:313|300:299,1,105,10|0,2:2|0:0,0:0:0:0:
300,313,182735,1,10,2:1:0:0:
300,313,182893,1,2,2:2:0:0:
221,372,183051,2,0,B|206:329|190:292|190:291,1,70,8|0,2:2|0:0,0:0:0:0:
102,278,183366,6,0,P|111:238|122:200,1,70,10|8,2:1|2:2,0:0:0:0:
192,144,183681,1,8,2:2:0:0:
279,187,183839,1,8,2:2:0:0:
367,142,183998,2,0,P|374:107|383:74,1,70,10|8,2:1|2:1,0:0:0:0:
300,20,184314,2,0,P|254:6|222:-6,1,70,8|10,2:2|2:1,0:0:0:0:
137,22,184630,6,0,P|120:49|120:90,1,70,2|8,2:2|2:1,0:0:0:0:
27,122,184945,2,0,P|41:150|77:170,1,70,10|8,2:2|2:2,0:0:0:0:
160,229,185261,1,10,2:1:0:0:
111,322,185419,1,8,2:1:0:0:
195,383,185576,1,10,2:2:0:0:
361,322,185893,5,10,2:1:0:0:
361,322,186209,2,0,B|382:254|337:277|357:195,2,125.999996154785,14|10|8,2:2|2:1|2:2,0:0:0:0:
283,363,186998,1,8,2:1:0:0:
224,296,187156,2,0,P|193:311|154:320,1,62.9999980773926,2|8,2:2|2:1,0:0:0:0:
76,351,187472,2,0,P|57:278|36:214,1,125.999996154785,10|10,2:2|2:1,0:0:0:0:
2,143,187945,1,2,2:2:0:0:
75,83,188103,2,0,P|107:99|146:108,1,62.9999980773926,10|0,2:2|0:0,0:0:0:0:
196,177,188419,6,0,P|250:158|334:133,2,125.999996154785,10|10|10,2:1|2:2|2:1,0:0:0:0:
156,263,189209,1,8,2:1:0:0:
231,318,189366,2,0,P|268:306|307:295,1,62.9999980773926,10|8,2:2|2:1,0:0:0:0:
382,324,189682,2,0,P|390:292|403:258,1,62.9999980773926,2|8,2:2|2:1,0:0:0:0:
473,203,189998,1,10,2:2:0:0:
421,123,190156,1,8,2:2:0:0:
475,45,190314,2,0,P|434:31|403:17,1,62.9999980773926,10|10,2:2|2:1,0:0:0:0:
321,9,190630,2,0,P|280:23|249:37,1,62.9999980773926,10|8,2:2|2:1,0:0:0:0:
217,114,190945,5,14,2:1:0:0:
217,114,191261,2,0,P|265:142|275:212,2,125.999996154785,10|10|8,2:2|2:1|2:2,0:0:0:0:
131,155,192051,1,8,2:1:0:0:
96,243,192209,2,0,P|130:257|164:274,1,62.9999980773926,2|8,2:2|2:1,0:0:0:0:
217,338,192524,2,0,P|269:316|343:296,1,125.999996154785,10|10,2:2|2:1,0:0:0:0:
398,226,192998,1,10,2:1:0:0:
480,272,193156,2,0,P|487:241|497:211,1,62.9999980773926,10|0,2:2|0:0,0:0:0:0:
442,133,193472,6,0,P|384:104|316:82,1,125.999996154785,10|10,2:1|2:2,0:0:0:0:
239,123,193945,1,8,2:2:0:0:
156,77,194103,2,0,P|169:45|173:11,1,62.9999980773926,8|8,2:1|2:1,0:0:0:0:
77,10,194419,1,10,2:2:0:0:
16,82,194577,1,8,2:1:0:0:
87,143,194735,6,0,P|100:175|104:209,1,62.9999980773926,0|8,0:0|2:1,0:0:0:0:
173,268,195051,1,10,2:2:0:0:
252,217,195209,1,10,2:2:0:0:
327,272,195366,2,0,P|365:256|398:245,1,62.9999980773926,10|8,2:1|2:1,0:0:0:0:
452,181,195682,2,0,P|409:166|378:151,1,62.9999980773926,10|2,2:2|2:2,0:0:0:0:
316,102,195998,5,14,2:1:0:0:
316,102,196314,2,0,P|258:83|247:10,2,125.999996154785,10|10|8,2:2|2:1|2:2,0:0:0:0:
276,187,197103,1,8,2:1:0:0:
193,233,197261,2,0,P|206:269|213:309,1,62.9999980773926,2|8,2:2|2:1,0:0:0:0:
159,372,197577,2,0,P|92:353|32:338,1,125.999996154785,10|10,2:2|2:1,0:0:0:0:
4,250,198051,1,10,2:1:0:0:
80,194,198209,2,0,P|65:158|57:127,1,62.9999980773926,10|0,2:2|0:0,0:0:0:0:
122,65,198524,6,0,P|171:52|248:16,2,125.999996154785,10|10|10,2:1|2:2|2:1,0:0:0:0:
188,133,199314,1,8,2:1:0:0:
275,96,199472,2,0,P|283:127|296:169,1,62.9999980773926,10|8,2:2|2:1,0:0:0:0:
371,207,199787,2,0,P|363:238|350:280,1,62.9999980773926,2|8,2:2|2:1,0:0:0:0:
261,291,200103,1,10,2:2:0:0:
187,231,200261,1,8,2:2:0:0:
129,305,200419,2,0,P|143:335|153:371,1,62.9999980773926,10|10,2:2|2:1,0:0:0:0:
244,383,200735,2,0,P|288:370|326:361,1,62.9999980773926,10|8,2:2|2:1,0:0:0:0:
389,323,201051,5,14,2:1:0:0:
389,323,201366,2,0,P|449:346|515:361,2,125.999996154785,10|10|8,2:2|2:1|2:2,0:0:0:0:
338,242,202156,1,8,2:1:0:0:
382,158,202314,2,0,P|426:145|456:134,1,62.9999980773926,2|8,2:2|2:1,0:0:0:0:
499,63,202630,2,0,P|471:12|401:7,1,125.999996154785,10|10,2:2|2:1,0:0:0:0:
334,63,203103,1,10,2:1:0:0:
256,117,203261,2,0,P|217:98|179:86,1,62.9999980773926,10|0,2:2|0:0,0:0:0:0:
111,129,203577,6,0,P|123:177|141:262,1,125.999996154785,10|10,2:1|2:2,0:0:0:0:
215,309,204051,1,8,2:2:0:0:
297,263,204209,2,0,P|307:222|318:192,1,62.9999980773926,8|8,2:1|2:1,0:0:0:0:
387,143,204524,1,10,2:2:0:0:
334,63,204682,2,0,P|279:51|195:23,1,125.999996154785,8|8,2:1|2:1,0:0:0:0:
134,84,205156,1,10,2:2:0:0:
43,56,205314,1,10,2:2:0:0:
8,143,205472,2,0,P|27:184|37:216,1,62.9999980773926,10|8,2:1|2:1,0:0:0:0:
80,282,205787,5,10,2:2:0:0:
21,355,205945,1,2,2:2:0:0:
