osu file format v14

[General]
AudioFilename: audio.mp3
AudioLeadIn: 0
PreviewTime: 39287
Countdown: 0
SampleSet: Soft
StackLeniency: 0.7
Mode: 0
LetterboxInBreaks: 0
WidescreenStoryboard: 0

[Editor]
DistanceSpacing: 1.1
BeatDivisor: 4
GridSize: 32
TimelineZoom: 1.6

[Metadata]
Title:Omokage -self cover-
TitleUnicode:おもかげ -self cover-
Artist:Vaundy
ArtistUnicode:Vaundy
Creator:alevi
Version:Cascade
Source:
Tags:japanese pop jpop j-pop male vocalist hadaka no yuusha 裸の勇者 crysisters midorijeon kumocha shirokumocha yuuma ogura yui ogura_yui
BeatmapID:3585903
BeatmapSetID:1752322

[Difficulty]
HPDrainRate:6
CircleSize:4.1
OverallDifficulty:8.7
ApproachRate:9.3
SliderMultiplier:1.9
SliderTickRate:1

[Events]
//Background and Video events
0,0,"anime-boy-umbrella-underwater-fantasy-hd-3840x2160 (1).jpg",0,0
//Break Periods
//Storyboard Layer 0 (Background)
//Storyboard Layer 1 (Fail)
//Storyboard Layer 2 (Pass)
//Storyboard Layer 3 (Foreground)
//Storyboard Layer 4 (Overlay)
//Storyboard Sound Samples

[TimingPoints]
209,315.789473684211,4,2,7,40,1,0
209,-100,4,2,7,40,0,0
998,-100,4,2,1,40,0,0
1077,-100,4,2,1,5,0,0
1156,-100,4,2,1,40,0,0
1393,-100,4,2,1,5,0,0
1472,-200,4,2,1,50,0,0
1709,-200,4,2,1,5,0,0
1787,-125,4,2,1,50,0,0
2814,-125,4,2,1,5,0,0
2893,-125,4,2,1,50,0,0
3366,-200,4,2,1,50,0,0
3603,-200,4,2,1,5,0,0
3682,-125,4,2,1,50,0,0
3998,-200,4,2,1,50,0,0
4235,-200,4,2,1,5,0,0
4314,-125,4,2,1,50,0,0
5340,-125,4,2,1,5,0,0
5419,-125,4,2,1,50,0,0
6524,-200,4,2,1,50,0,0
6761,-200,4,2,1,5,0,0
6840,-125,4,2,1,50,0,0
7866,-125,4,2,1,5,0,0
7945,-125,4,2,1,50,0,0
9051,-200,4,2,1,50,0,0
9287,-200,4,2,1,5,0,0
9366,-125,4,2,1,50,0,0
10393,-125,4,2,1,5,0,0
10472,-125,4,2,1,50,0,0
11261,-200,4,2,1,50,0,0
11498,-111.111111111111,4,2,1,5,0,0
11577,-111.111111111111,4,2,1,45,0,0
11814,-111.111111111111,4,2,1,5,0,0
11893,-111.111111111111,4,2,1,45,0,0
13709,-111.111111111111,4,2,1,5,0,0
13787,-111.111111111111,4,2,1,45,0,0
14340,-111.111111111111,4,2,1,5,0,0
14419,-111.111111111111,4,2,1,45,0,0
15919,-111.111111111111,4,2,1,5,0,0
15998,-111.111111111111,4,2,1,45,0,0
18445,-111.111111111111,4,2,1,5,0,0
18524,-111.111111111111,4,2,1,45,0,0
19393,-111.111111111111,4,2,1,5,0,0
19472,-111.111111111111,4,2,1,45,0,0
20972,-111.111111111111,4,2,1,5,0,0
21051,-111.111111111111,4,2,1,45,0,0
21287,-111.111111111111,4,2,1,5,0,0
21366,-111.111111111111,4,2,1,45,0,0
23498,-111.111111111111,4,2,1,5,0,0
23577,-111.111111111111,4,2,1,45,0,0
24445,-111.111111111111,4,2,1,5,0,0
24524,-111.111111111111,4,2,1,45,0,0
26024,-111.111111111111,4,2,1,5,0,0
26103,-111.111111111111,4,2,1,45,0,0
26340,-111.111111111111,4,2,1,5,0,0
26419,-111.111111111111,4,2,1,45,0,0
28866,-111.111111111111,4,2,1,5,0,0
28945,-111.111111111111,4,2,1,45,0,0
29182,-111.111111111111,4,2,1,5,0,0
29261,-111.111111111111,4,2,1,45,0,0
30445,-111.111111111111,4,2,1,5,0,0
30524,-111.111111111111,4,2,1,45,0,0
31393,-111.111111111111,4,2,1,5,0,0
31472,-111.111111111111,4,2,1,45,0,0
31787,-99.9999999999999,4,2,1,55,0,0
33919,-99.9999999999999,4,2,1,5,0,0
33998,-99.9999999999999,4,2,1,55,0,0
34314,-200,4,2,1,55,0,0
34551,-200,4,2,1,5,0,0
34630,-100,4,2,1,55,0,0
37077,-100,4,2,1,5,0,0
37156,-100,4,2,1,55,0,0
38656,-100,4,2,1,5,0,0
38735,-100,4,2,1,55,0,0
39366,-111.111111111111,4,2,1,65,0,0
41814,-111.111111111111,4,2,1,5,0,0
41893,-83.3333333333333,4,2,1,75,0,0
42130,-83.3333333333333,4,2,1,5,0,0
42209,-83.3333333333333,4,2,1,75,0,0
42445,-83.3333333333333,4,2,1,5,0,0
42524,-83.3333333333333,4,2,1,75,0,0
43235,-83.3333333333333,4,2,1,5,0,0
43314,-83.3333333333333,4,2,1,75,0,0
44656,-83.3333333333333,4,2,1,5,0,0
44735,-83.3333333333333,4,2,1,75,0,0
44972,-83.3333333333333,4,2,1,5,0,0
45051,-83.3333333333333,4,2,1,75,0,0
45761,-83.3333333333333,4,2,1,5,0,0
45840,-83.3333333333333,4,2,1,75,0,0
46866,-83.3333333333333,4,2,1,5,0,0
46945,-83.3333333333333,4,2,1,75,0,0
47182,-83.3333333333333,4,2,1,5,0,0
47261,-83.3333333333333,4,2,1,75,0,0
47498,-83.3333333333333,4,2,1,5,0,0
47577,-83.3333333333333,4,2,1,75,0,0
48287,-83.3333333333333,4,2,1,5,0,0
48366,-83.3333333333333,4,2,1,75,0,0
49393,-83.3333333333333,4,2,1,5,0,0
49472,-83.3333333333333,4,2,1,75,0,0
49709,-83.3333333333333,4,2,1,5,0,0
49787,-83.3333333333333,4,2,1,75,0,0
50656,-83.3333333333333,4,2,1,5,0,0
50735,-83.3333333333333,4,2,1,75,0,0
51919,-83.3333333333333,4,2,1,5,0,0
51998,-83.3333333333333,4,2,1,75,0,0
52235,-83.3333333333333,4,2,1,5,0,0
52314,-83.3333333333333,4,2,1,75,0,0
52551,-83.3333333333333,4,2,1,5,0,0
52630,-83.3333333333333,4,2,1,75,0,0
53340,-83.3333333333333,4,2,1,5,0,0
53419,-83.3333333333333,4,2,1,75,0,0
54761,-83.3333333333333,4,2,1,5,0,0
54840,-83.3333333333333,4,2,1,75,0,0
55077,-83.3333333333333,4,2,1,5,0,0
55156,-83.3333333333333,4,2,1,75,0,0
55866,-83.3333333333333,4,2,1,5,0,0
55945,-83.3333333333333,4,2,1,75,0,0
56972,-83.3333333333333,4,2,1,5,0,0
57051,-83.3333333333333,4,2,1,75,0,0
57287,-83.3333333333333,4,2,1,5,0,0
57366,-83.3333333333333,4,2,1,75,0,0
57603,-83.3333333333333,4,2,1,5,0,0
57682,-83.3333333333333,4,2,1,75,0,0
58393,-83.3333333333333,4,2,1,5,0,0
58472,-83.3333333333333,4,2,1,75,0,0
58866,-83.3333333333333,4,2,1,5,0,0
58945,-83.3333333333333,4,2,1,75,0,0
59577,-83.3333333333333,4,2,2,75,0,0
59893,-83.3333333333333,4,2,1,75,0,0
60050,-83.3333333333333,4,2,3,75,0,0
60366,-83.3333333333333,4,2,1,75,0,0
60524,-83.3333333333333,4,2,4,75,0,0
61314,-83.3333333333333,4,2,1,75,0,0
61471,-83.3333333333333,4,2,5,75,0,0
61629,-83.3333333333333,4,2,1,75,0,0
62103,-90.9090909090909,4,2,1,65,0,0
62340,-90.9090909090909,4,2,1,65,0,0
62419,-90.9090909090909,4,2,1,65,0,0
64235,-90.9090909090909,4,2,1,5,0,0
64314,-90.9090909090909,4,2,1,65,0,0
64866,-90.9090909090909,4,2,1,5,0,0
64945,-90.9090909090909,4,2,1,65,0,0
67393,-90.9090909090909,4,2,1,5,0,0
67472,-90.9090909090909,4,2,1,65,0,0
69919,-90.9090909090909,4,2,1,5,0,0
69998,-90.9090909090909,4,2,1,65,0,0
70709,-90.9090909090909,4,2,1,5,0,0
70787,-90.9090909090909,4,2,1,65,0,0
71024,-90.9090909090909,4,2,1,5,0,0
71103,-90.9090909090909,4,2,1,65,0,0
72209,-111.111111111111,4,2,1,45,0,0
72919,-111.111111111111,4,2,1,5,0,0
72998,-111.111111111111,4,2,1,45,0,0
74972,-111.111111111111,4,2,1,5,0,0
75051,-111.111111111111,4,2,1,45,0,0
77498,-111.111111111111,4,2,1,5,0,0
77577,-111.111111111111,4,2,1,45,0,0
79393,-111.111111111111,4,2,1,5,0,0
79472,-111.111111111111,4,2,1,45,0,0
79709,-111.111111111111,4,2,1,5,0,0
79787,-111.111111111111,4,2,1,45,0,0
82393,-111.111111111111,4,2,1,5,0,0
82472,-111.111111111111,4,2,1,45,0,0
84761,-111.111111111111,4,2,1,5,0,0
84840,-111.111111111111,4,2,1,45,0,0
85077,-111.111111111111,4,2,1,5,0,0
85156,-111.111111111111,4,2,1,45,0,0
87603,-111.111111111111,4,2,1,5,0,0
87682,-111.111111111111,4,2,1,45,0,0
89182,-111.111111111111,4,2,1,5,0,0
89261,-111.111111111111,4,2,1,45,0,0
89498,-111.111111111111,4,2,1,5,0,0
89577,-111.111111111111,4,2,1,45,0,0
89814,-111.111111111111,4,2,1,5,0,0
89893,-111.111111111111,4,2,1,45,0,0
92340,-111.111111111111,4,2,1,5,0,0
92419,-99.9999999999999,4,2,1,55,0,0
94551,-99.9999999999999,4,2,1,5,0,0
94630,-99.9999999999999,4,2,1,55,0,0
94945,-200,4,2,1,55,0,0
95182,-200,4,2,1,5,0,0
95261,-100,4,2,1,55,0,0
97709,-100,4,2,1,5,0,0
97787,-100,4,2,1,55,0,0
99287,-100,4,2,1,5,0,0
99366,-100,4,2,1,55,0,0
100235,-100,4,2,1,5,0,0
100314,-100,4,2,1,55,0,0
101814,-100,4,2,1,5,0,0
101893,-100,4,2,1,55,0,0
102130,-100,4,2,1,5,0,0
102209,-200,4,2,1,55,0,0
102445,-200,4,2,1,5,0,0
102524,-100,4,2,1,60,0,0
104972,-100,4,2,1,5,0,0
105051,-200,4,2,1,60,0,0
105287,-200,4,2,1,5,0,0
105366,-100,4,2,1,60,0,0
107814,-100,4,2,1,5,0,0
107893,-100,4,2,1,60,0,0
109393,-100,4,2,1,5,0,0
109472,-100,4,2,1,60,0,0
110103,-100,4,2,1,65,0,0
112551,-100,4,2,1,5,0,0
112630,-83.3333333333333,4,2,1,75,0,0
112866,-83.3333333333333,4,2,1,5,0,0
112945,-83.3333333333333,4,2,1,75,0,0
113182,-83.3333333333333,4,2,1,5,0,0
113261,-83.3333333333333,4,2,1,75,0,0
113972,-83.3333333333333,4,2,1,5,0,0
114051,-83.3333333333333,4,2,1,75,0,0
115393,-83.3333333333333,4,2,1,5,0,0
115472,-83.3333333333333,4,2,1,75,0,0
115709,-83.3333333333333,4,2,1,5,0,0
115787,-83.3333333333333,4,2,1,75,0,0
116498,-83.3333333333333,4,2,1,5,0,0
116577,-83.3333333333333,4,2,1,75,0,0
117603,-83.3333333333333,4,2,1,5,0,0
117682,-83.3333333333333,4,2,1,75,0,0
117919,-83.3333333333333,4,2,1,5,0,0
117998,-83.3333333333333,4,2,1,75,0,0
118235,-83.3333333333333,4,2,1,5,0,0
118314,-83.3333333333333,4,2,1,75,0,0
119024,-83.3333333333333,4,2,1,5,0,0
119103,-83.3333333333333,4,2,1,75,0,0
120130,-83.3333333333333,4,2,1,5,0,0
120209,-83.3333333333333,4,2,1,75,0,0
120445,-83.3333333333333,4,2,1,5,0,0
120524,-83.3333333333333,4,2,1,75,0,0
121393,-83.3333333333333,4,2,1,5,0,0
121472,-83.3333333333333,4,2,1,75,0,0
122656,-83.3333333333333,4,2,1,5,0,0
122735,-83.3333333333333,4,2,1,75,0,0
122972,-83.3333333333333,4,2,1,5,0,0
123051,-83.3333333333333,4,2,1,75,0,0
123287,-83.3333333333333,4,2,1,5,0,0
123366,-83.3333333333333,4,2,1,75,0,0
124077,-83.3333333333333,4,2,1,5,0,0
124156,-83.3333333333333,4,2,1,75,0,0
125498,-83.3333333333333,4,2,1,5,0,0
125577,-83.3333333333333,4,2,1,75,0,0
125814,-83.3333333333333,4,2,1,5,0,0
125893,-83.3333333333333,4,2,1,75,0,0
126603,-83.3333333333333,4,2,1,5,0,0
126682,-83.3333333333333,4,2,1,75,0,0
127709,-83.3333333333333,4,2,1,5,0,0
127787,-83.3333333333333,4,2,1,75,0,0
128024,-83.3333333333333,4,2,1,5,0,0
128103,-83.3333333333333,4,2,1,75,0,0
128340,-83.3333333333333,4,2,1,5,0,0
128419,-83.3333333333333,4,2,1,75,0,0
129130,-83.3333333333333,4,2,1,5,0,0
129209,-83.3333333333333,4,2,1,75,0,0
129603,-83.3333333333333,4,2,1,5,0,0
129682,-83.3333333333333,4,2,1,75,0,0
130314,-83.3333333333333,4,2,2,75,0,0
130630,-83.3333333333333,4,2,1,75,0,0
130787,-83.3333333333333,4,2,3,75,0,0
131103,-83.3333333333333,4,2,1,75,0,0
131261,-83.3333333333333,4,2,4,75,0,0
132051,-83.3333333333333,4,2,1,75,0,0
132208,-83.3333333333333,4,2,5,75,0,0
132366,-83.3333333333333,4,2,1,75,0,0
132761,-90.9090909090909,4,2,1,5,0,0
132840,-90.9090909090909,4,2,1,65,0,0
133077,-90.9090909090909,4,2,1,65,0,0
133156,-90.9090909090909,4,2,1,65,0,0
134340,-90.9090909090909,4,2,1,5,0,0
134419,-90.9090909090909,4,2,1,65,0,0
134972,-90.9090909090909,4,2,1,5,0,0
135051,-90.9090909090909,4,2,1,65,0,0
135603,-90.9090909090909,4,2,1,5,0,0
135682,-90.9090909090909,4,2,1,65,0,0
138130,-90.9090909090909,4,2,1,5,0,0
138209,-90.9090909090909,4,2,1,65,0,0
139393,-90.9090909090909,4,2,1,5,0,0
139472,-90.9090909090909,4,2,1,65,0,0
140024,-90.9090909090909,4,2,1,5,0,0
140103,-90.9090909090909,4,2,1,65,0,0
140656,-90.9090909090909,4,2,1,5,0,0
140735,-90.9090909090909,4,2,1,65,0,0
141919,-90.9090909090909,4,2,1,5,0,0
141998,-90.9090909090909,4,2,1,65,0,0
142866,-90.9090909090909,4,2,1,5,0,0
142945,-111.111111111111,4,2,1,55,0,0
150130,-111.111111111111,4,2,1,5,0,0
150209,-111.111111111111,4,2,1,55,0,0
150525,-111.111111111111,4,2,2,55,0,0
150840,-111.111111111111,4,2,1,55,0,0
150998,-111.111111111111,4,2,5,55,0,0
151156,-111.111111111111,4,2,3,55,0,0
151314,-111.111111111111,4,2,1,55,0,0
151472,-111.111111111111,4,2,4,55,0,0
152419,-111.111111111111,4,2,5,55,0,0
152656,-111.111111111111,4,2,5,5,0,0
152735,-111.111111111111,4,2,1,55,0,0
155814,-111.111111111111,4,2,1,5,0,0
155893,-111.111111111111,4,2,1,55,0,0
158340,-111.111111111111,4,2,1,5,0,0
158419,-111.111111111111,4,2,1,55,0,0
159603,-111.111111111111,4,2,1,5,0,0
159682,-111.111111111111,4,2,1,55,0,0
160630,-249.999999999999,4,2,1,45,0,0
162445,-249.999999999999,4,2,1,5,0,0
162524,-249.999999999999,4,2,1,45,0,0
162761,-249.999999999999,4,2,1,5,0,0
162840,-90.9090909090909,4,2,1,45,0,0
163156,-90.9090909090909,4,2,2,65,0,0
163472,-90.9090909090909,4,2,1,65,0,0
163630,-90.9090909090909,4,2,3,65,0,0
163945,-90.9090909090909,4,2,1,65,0,0
164103,-90.9090909090909,4,2,4,65,0,0
164182,-90.9090909090909,4,2,4,5,0,0
164261,-90.9090909090909,4,2,4,65,0,0
164498,-90.9090909090909,4,2,4,5,0,0
164577,-90.9090909090909,4,2,4,65,0,0
164656,-90.9090909090909,4,2,4,5,0,0
164735,-90.9090909090909,4,2,4,65,0,0
164972,-90.9090909090909,4,2,4,5,0,0
165051,-90.9090909090909,4,2,6,65,0,0
165366,-90.9090909090909,4,2,1,65,0,0
165603,-90.9090909090909,4,2,1,5,0,0
165682,-83.3333333333333,4,2,1,75,0,0
165919,-83.3333333333333,4,2,1,5,0,0
165998,-83.3333333333333,4,2,1,75,0,0
166235,-83.3333333333333,4,2,1,5,0,0
166314,-83.3333333333333,4,2,1,75,0,0
167024,-83.3333333333333,4,2,1,5,0,0
167103,-83.3333333333333,4,2,1,75,0,0
168445,-83.3333333333333,4,2,1,5,0,0
168524,-83.3333333333333,4,2,1,75,0,0
168761,-83.3333333333333,4,2,1,5,0,0
168840,-83.3333333333333,4,2,1,75,0,0
169393,-83.3333333333333,4,2,1,5,0,0
169472,-83.3333333333333,4,2,1,75,0,0
169709,-83.3333333333333,4,2,1,5,0,0
169787,-83.3333333333333,4,2,1,75,0,0
170340,-83.3333333333333,4,2,1,5,0,0
170419,-83.3333333333333,4,2,1,75,0,0
170656,-83.3333333333333,4,2,1,5,0,0
170735,-83.3333333333333,4,2,1,75,0,0
170972,-83.3333333333333,4,2,1,5,0,0
171051,-83.3333333333333,4,2,1,75,0,0
171287,-83.3333333333333,4,2,1,5,0,0
171366,-83.3333333333333,4,2,1,75,0,0
172077,-83.3333333333333,4,2,1,5,0,0
172156,-83.3333333333333,4,2,1,75,0,0
172551,-83.3333333333333,4,2,1,5,0,0
172630,-83.3333333333333,4,2,1,75,0,0
173182,-83.3333333333333,4,2,1,5,0,0
173261,-83.3333333333333,4,2,1,75,0,0
173498,-83.3333333333333,4,2,1,5,0,0
173577,-83.3333333333333,4,2,1,75,0,0
173656,-83.3333333333333,4,2,1,5,0,0
173735,-83.3333333333333,4,2,1,75,0,0
173814,-83.3333333333333,4,2,1,5,0,0
173893,-83.3333333333333,4,2,1,75,0,0
174445,-83.3333333333333,4,2,1,5,0,0
174524,-83.3333333333333,4,2,1,75,0,0
174761,-83.3333333333333,4,2,1,5,0,0
174840,-83.3333333333333,4,2,1,75,0,0
175709,-83.3333333333333,4,2,1,5,0,0
175787,-83.3333333333333,4,2,1,75,0,0
176024,-83.3333333333333,4,2,1,5,0,0
176103,-83.3333333333333,4,2,1,75,0,0
176340,-83.3333333333333,4,2,1,5,0,0
176419,-83.3333333333333,4,2,1,75,0,0
176972,-83.3333333333333,4,2,1,5,0,0
177051,-83.3333333333333,4,2,1,75,0,0
177287,-83.3333333333333,4,2,1,5,0,0
177366,-83.3333333333333,4,2,1,75,0,0
177603,-83.3333333333333,4,2,1,5,0,0
177682,-83.3333333333333,4,2,1,75,0,0
178551,-83.3333333333333,4,2,1,5,0,0
178630,-83.3333333333333,4,2,1,75,0,0
178866,-83.3333333333333,4,2,1,5,0,0
178945,-83.3333333333333,4,2,1,75,0,0
179656,-83.3333333333333,4,2,1,5,0,0
179735,-83.3333333333333,4,2,1,75,0,0
180445,-83.3333333333333,4,2,1,5,0,0
180524,-83.3333333333333,4,2,1,75,0,0
180761,-83.3333333333333,4,2,1,5,0,0
180840,-83.3333333333333,4,2,1,75,0,0
181077,-83.3333333333333,4,2,1,5,0,0
181156,-83.3333333333333,4,2,1,75,0,0
181393,-83.3333333333333,4,2,1,5,0,0
181472,-83.3333333333333,4,2,1,75,0,0
182182,-83.3333333333333,4,2,1,5,0,0
182261,-83.3333333333333,4,2,1,75,0,0
182656,-83.3333333333333,4,2,1,5,0,0
182735,-83.3333333333333,4,2,1,75,0,0
183366,-83.3333333333333,4,2,2,75,0,0
183682,-83.3333333333333,4,2,1,75,0,0
183839,-83.3333333333333,4,2,3,75,0,0
184155,-83.3333333333333,4,2,1,75,0,0
184313,-83.3333333333333,4,2,4,75,0,0
185260,-83.3333333333333,4,2,5,75,0,0
185418,-83.3333333333333,4,2,1,75,0,0
185814,-83.3333333333333,4,2,1,5,0,0
185893,-90.9090909090909,4,2,1,70,0,0
186130,-90.9090909090909,4,2,1,5,0,0
186209,-90.9090909090909,4,2,1,70,0,0
188340,-90.9090909090909,4,2,1,5,0,0
188419,-90.9090909090909,4,2,1,70,0,0
188656,-90.9090909090909,4,2,1,5,0,0
188735,-90.9090909090909,4,2,1,70,0,0
188972,-90.9090909090909,4,2,1,5,0,0
189051,-90.9090909090909,4,2,1,70,0,0
191182,-90.9090909090909,4,2,1,5,0,0
191261,-90.9090909090909,4,2,1,70,0,0
193393,-90.9090909090909,4,2,1,5,0,0
193472,-90.9090909090909,4,2,1,70,0,0
193709,-90.9090909090909,4,2,1,5,0,0
193787,-90.9090909090909,4,2,1,70,0,0
194340,-90.9090909090909,4,2,1,5,0,0
194419,-90.9090909090909,4,2,1,70,0,0
194498,-90.9090909090909,4,2,1,5,0,0
194577,-90.9090909090909,4,2,1,70,0,0
194656,-90.9090909090909,4,2,1,5,0,0
194735,-90.9090909090909,4,2,1,70,0,0
195130,-90.9090909090909,4,2,1,5,0,0
195209,-90.9090909090909,4,2,1,70,0,0
195287,-90.9090909090909,4,2,1,5,0,0
195366,-90.9090909090909,4,2,1,70,0,0
196235,-90.9090909090909,4,2,1,5,0,0
196314,-90.9090909090909,4,2,1,70,0,0
197814,-90.9090909090909,4,2,1,5,0,0
197893,-90.9090909090909,4,2,1,70,0,0
198761,-90.9090909090909,4,2,1,5,0,0
198840,-90.9090909090909,4,2,1,70,0,0
200972,-90.9090909090909,4,2,1,5,0,0
201051,-90.9090909090909,4,2,1,70,0,0
201287,-90.9090909090909,4,2,1,5,0,0
201366,-90.9090909090909,4,2,1,70,0,0
202866,-90.9090909090909,4,2,1,5,0,0
202945,-90.9090909090909,4,2,1,70,0,0
203814,-90.9090909090909,4,2,1,5,0,0
203893,-90.9090909090909,4,2,1,70,0,0
203972,-90.9090909090909,4,2,1,5,0,0
204051,-90.9090909090909,4,2,1,70,0,0
204130,-90.9090909090909,4,2,1,5,0,0
204209,-90.9090909090909,4,2,1,70,0,0
205235,-90.9090909090909,4,2,1,5,0,0
205314,-90.9090909090909,4,2,1,70,0,0
205393,-90.9090909090909,4,2,1,5,0,0
205472,-90.9090909090909,4,2,1,70,0,0

[Colours]
Combo1 : 86,163,239
Combo2 : 245,146,196
Combo3 : 142,142,244

[HitObjects]
473,127,209,5,8,0:2:0:0:
465,145,524,1,8,0:2:0:0:
485,141,840,1,8,0:2:0:0:
367,65,998,6,0,B|344:65|344:65|327:48,1,47.5,8|0,2:1|0:0,0:0:0:0:
419,7,1156,2,0,L|384:159,1,142.5,8|0,2:2|0:0,0:0:0:0:
321,187,1472,6,0,P|286:170|286:125,1,71.25,10|0,2:1|0:0,0:0:0:0:
330,201,1787,2,0,B|401:230|401:230|419:276|374:290,1,152,10|8,2:2|2:1,0:0:0:0:
323,347,2261,1,10,2:1:0:0:
209,254,2419,1,8,2:2:0:0:
150,306,2577,2,0,B|89:332|122:358|67:387,1,114,10|0,2:1|0:0,0:0:0:0:
71,384,2893,1,10,2:1:0:0:
0,271,3051,5,10,2:2:0:0:
62,224,3209,1,2,2:2:0:0:
95,120,3366,6,0,P|63:109|24:87,1,71.25,10|0,2:1|0:0,0:0:0:0:
108,133,3682,2,0,B|137:119|137:119|142:111|142:111|179:98,1,76,10|0,2:2|0:0,0:0:0:0:
327,190,3998,6,0,P|350:160|337:123,1,71.25,10|0,2:1|0:0,0:0:0:0:
319,199,4314,2,0,B|239:233|289:274|209:314,1,152,10|8,2:2|2:1,0:0:0:0:
158,265,4787,1,10,2:1:0:0:
42,337,4945,1,8,2:2:0:0:
0,272,5103,2,0,B|13:218|13:218|19:211|19:211|30:158,1,114,10|0,2:1|0:0,0:0:0:0:
29,162,5419,1,10,2:1:0:0:
166,59,5577,5,10,2:2:0:0:
236,92,5735,1,2,2:2:0:0:
330,106,5893,5,10,2:1:0:0:
229,174,6051,1,2,2:2:0:0:
386,302,6209,5,10,2:2:0:0:
426,179,6366,1,2,2:2:0:0:
254,320,6524,6,0,B|223:309|223:309|217:302|217:302|189:292,1,71.25,10|0,2:1|0:0,0:0:0:0:
265,331,6840,2,0,P|319:284|285:209,1,152,10|8,2:2|2:1,0:0:0:0:
229,174,7314,1,10,2:1:0:0:
346,85,7472,1,8,2:2:0:0:
406,134,7630,2,0,B|467:160|434:186|489:215,1,114,10|0,2:1|0:0,0:0:0:0:
484,212,7945,5,10,2:1:0:0:
403,265,8103,1,10,2:2:0:0:
322,313,8261,1,2,2:2:0:0:
379,374,8419,5,10,2:1:0:0:
237,91,8735,1,10,2:2:0:0:
96,262,9051,6,0,P|84:225|67:194,1,71.25,10|0,2:1|0:0,0:0:0:0:
111,274,9366,2,0,B|163:261|194:302|194:302|192:337|225:356,1,152,10|8,2:2|2:1,0:0:0:0:
289,379,9840,1,10,2:1:0:0:
396,285,9998,1,8,2:2:0:0:
466,325,10156,2,0,B|472:304|489:279|489:279|468:252|455:224,1,114,10|0,2:1|0:0,0:0:0:0:
456,226,10472,1,10,2:1:0:0:
332,107,10630,5,10,2:2:0:0:
361,37,10787,1,2,2:2:0:0:
445,136,10945,5,10,2:1:0:0:
189,282,11261,2,0,P|177:255|200:272,1,71.25,10|0,2:2|0:0,0:0:0:0:
250,327,11577,6,0,B|302:348|302:348|312:363|312:363|365:385,1,128.249996086121,10|0,2:1|0:0,0:0:0:0:
424,342,11893,2,0,B|432:323|444:306|444:306|430:290|421:267,1,85.4999973907472,10|0,2:2|0:0,0:0:0:0:
336,183,12209,1,10,2:1:0:0:
373,117,12366,1,8,2:1:0:0:
270,217,12524,2,0,B|236:203|236:203|226:193|226:193|185:177,1,85.4999973907472,8|8,2:2|2:1,0:0:0:0:
92,302,12840,2,0,B|121:279|121:279|134:275|134:275|169:248,1,85.4999973907472,2|8,2:2|2:1,0:0:0:0:
106,107,13156,2,0,B|110:143|110:143|107:157|107:157|113:200,1,85.4999973907472,10|0,2:2|0:0,0:0:0:0:
242,242,13472,6,0,B|317:215|317:215|290:223|263:215,1,128.249996086121,10|0,2:1|0:0,0:0:0:0:
232,152,13787,2,0,B|239:116|239:116|245:110|245:110|252:70,1,85.4999973907472,10|0,2:2|0:0,0:0:0:0:
118,3,14103,6,0,B|98:35|75:54|75:54|93:75|110:117,1,128.249996086121,10|0,2:1|0:0,0:0:0:0:
80,177,14419,2,0,B|61:170|61:170|-4:195,1,85.4999973907472,10|0,2:2|0:0,0:0:0:0:
91,274,14735,1,10,2:1:0:0:
155,230,14893,1,8,2:1:0:0:
253,303,15051,2,0,B|236:358|236:358|247:395,2,85.4999973907472,10|8|2,2:2|2:1|2:2,0:0:0:0:
329,280,15524,1,8,2:1:0:0:
245,164,15682,6,0,B|199:152|172:188|172:188|173:219|144:235,1,128.249996086121,10|0,2:2|0:0,0:0:0:0:
91,274,15998,2,0,B|66:234|37:210|37:210|59:184|81:132,1,170.999994781494,10|8,2:1|2:2,0:0:0:0:
294,40,16630,6,0,B|385:77|327:119|427:156,1,170.999994781494,8|8,2:1|2:2,0:0:0:0:
487,119,17103,1,0,0:0:0:0:
411,235,17261,2,0,B|373:247|373:247|366:255|366:255|333:267,1,85.4999973907472,10|8,2:1|2:1,0:0:0:0:
293,165,17577,2,0,B|260:153|260:153|253:145|253:145|215:133,1,85.4999973907472,10|8,2:2|2:1,0:0:0:0:
161,190,17893,5,2,2:2:0:0:
89,163,18051,1,8,2:1:0:0:
0,255,18209,2,0,B|26:340|26:340|22:314|35:296,1,128.249996086121,10|0,2:2|0:0,0:0:0:0:
101,271,18524,2,0,B|157:256|190:301|190:301|188:339|224:359,1,170.999994781494,10|8,2:1|2:2,0:0:0:0:
436,227,19156,6,0,B|396:213|383:167|383:167|387:204|370:213,1,128.249996086121,8|0,2:1|0:0,0:0:0:0:
315,257,19472,2,0,B|277:244|277:244|270:235|270:235|231:221,1,85.4999973907472,8|0,2:2|0:0,0:0:0:0:
143,127,19787,1,10,2:1:0:0:
204,79,19945,1,8,2:1:0:0:
307,168,20103,1,10,2:2:0:0:
376,135,20261,1,8,2:1:0:0:
490,260,20419,6,0,L|514:173,1,85.4999973907472,2|8,2:2|2:1,0:0:0:0:
399,296,20735,2,0,B|334:322|375:351|304:378,1,128.249996086121,10|0,2:2|0:0,0:0:0:0:
235,350,21051,2,0,B|216:319|194:301|194:301|211:281|227:241,1,128.249996086121,10|0,2:1|0:0,0:0:0:0:
291,204,21366,2,0,B|348:225|348:225|326:216|324:202,1,85.4999973907472,10|0,2:2|0:0,0:0:0:0:
230,66,21682,6,0,B|174:51|141:96|141:96|143:134|107:154,1,170.999994781494,10|8,2:1|2:2,0:0:0:0:
46,202,22156,1,0,0:0:0:0:
161,294,22314,1,8,2:1:0:0:
225,245,22472,1,8,2:1:0:0:
197,374,22630,1,8,2:2:0:0:
153,306,22787,1,8,2:1:0:0:
310,348,22945,6,0,B|348:363|348:363|356:373|356:373|391:386,1,85.4999973907472,2|8,2:2|2:1,0:0:0:0:
465,246,23261,2,0,B|425:260|412:306|412:306|416:269|399:260,1,128.249996086121,10|0,2:2|0:0,0:0:0:0:
380,193,23577,2,0,B|362:201|362:201|285:178,1,85.4999973907472,10|0,2:1|0:0,0:0:0:0:
182,72,23893,2,0,B|200:80|200:80|277:57,1,85.4999973907472,8|0,2:2|0:0,0:0:0:0:
209,205,24209,6,0,B|191:150|191:150|194:138|194:138|172:72,1,128.249996086121,10|0,2:1|0:0,0:0:0:0:
103,58,24524,2,0,B|61:78|78:95|39:116,1,85.4999973907472,10|0,2:2|0:0,0:0:0:0:
111,208,24840,1,10,2:1:0:0:
77,273,24998,1,8,2:1:0:0:
185,343,25156,2,0,B|205:335|205:335|267:359,2,85.4999973907472,10|8|2,2:2|2:1|2:2,0:0:0:0:
121,384,25630,1,8,2:1:0:0:
207,241,25787,6,0,B|275:267|275:267|301:248|291:219,1,128.249996086121,10|0,2:2|0:0,0:0:0:0:
247,157,26103,2,0,B|259:106|259:106|268:96|268:96|282:32,1,128.249996086121,10|0,2:1|0:0,0:0:0:0:
351,2,26419,2,0,B|400:22|376:39|422:57,1,85.4999973907472,8|0,2:2|0:0,0:0:0:0:
240,167,26735,6,0,B|184:152|151:197|151:197|153:235|117:255,1,170.999994781494,8|8,2:1|2:2,0:0:0:0:
55,216,27209,1,0,0:0:0:0:
117,120,27366,1,10,2:1:0:0:
71,58,27524,1,8,2:1:0:0:
181,0,27682,2,0,B|227:17|227:17|254:17|274:0,2,85.4999973907472,10|8|2,2:2|2:1|2:2,0:0:0:0:
208,85,28156,1,8,2:1:0:0:
95,198,28314,6,0,B|61:186|61:186|53:178|53:178|15:166,1,85.4999973907472,10|0,2:2|0:0,0:0:0:0:
145,286,28630,2,0,B|217:263|217:263|241:281|229:313,1,128.249996086121,10|0,2:1|0:0,0:0:0:0:
271,374,28945,2,0,B|354:352|354:352|322:358|304:345,1,128.249996086121,10|0,2:2|0:0,0:0:0:0:
303,276,29261,6,0,B|329:232|360:207|360:207|336:179|314:124,1,170.999994781494,8|8,2:1|2:2,0:0:0:0:
259,91,29735,1,0,0:0:0:0:
173,179,29893,1,8,2:1:0:0:
100,151,30051,1,8,2:1:0:0:
0,253,30209,2,0,B|58:270|58:270|64:280|64:280|124:298,1,128.249996086121,10|0,2:2|0:0,0:0:0:0:
179,342,30524,6,0,B|202:303|202:303|182:257,1,85.4999973907472,2|8,2:2|2:1,0:0:0:0:
326,213,30840,2,0,B|303:174|303:174|323:128,1,85.4999973907472,10|0,2:2|0:0,0:0:0:0:
191,85,31156,2,0,B|149:73|124:107|124:107|125:135|98:150,1,128.249996086121,10|0,2:1|0:0,0:0:0:0:
44,206,31472,2,0,B|80:219|80:219|90:229|90:229|127:242,1,85.4999973907472,10|0,2:2|0:0,0:0:0:0:
254,357,31787,6,0,B|267:347|267:347|346:324,1,95,10|0,2:1|0:0,0:0:0:0:
493,237,32103,2,0,B|480:227|480:227|401:204,1,95,10|0,2:2|0:0,0:0:0:0:
281,129,32419,1,10,2:1:0:0:
329,66,32577,1,8,2:1:0:0:
184,8,32735,2,0,B|197:48|197:48|196:59|196:59|211:108,1,95,10|8,2:2|2:1,0:0:0:0:
239,222,33051,6,0,B|226:212|226:212|147:189,1,95,2|8,2:2|2:1,0:0:0:0:
0,102,33367,2,0,B|13:92|13:92|92:69,1,95,10|0,2:2|0:0,0:0:0:0:
139,192,33682,2,0,B|119:251|119:251|121:267|121:267|99:339,1,142.5,10|0,2:1|0:0,0:0:0:0:
171,359,33998,2,0,B|217:382|217:382|270:356,1,95,10|0,2:2|0:0,0:0:0:0:
334,247,34314,6,0,P|301:228|293:192,1,71.25,8|0,2:1|0:0,0:0:0:0:
343,262,34630,2,0,B|387:277|387:277|395:287|395:287|439:302,1,95,10|0,2:2|0:0,0:0:0:0:
507,175,34945,1,8,2:1:0:0:
439,209,35103,1,8,2:1:0:0:
339,133,35261,2,0,B|346:93|346:93|352:86|352:86|360:33,2,95,10|8|0,2:2|2:1|0:0,0:0:0:0:
292,197,35735,1,8,2:1:0:0:
194,105,35893,6,0,B|260:81|260:81|273:57,1,95,10|0,2:2|0:0,0:0:0:0:
106,169,36209,2,0,B|40:145|40:145|27:121,1,95,10|0,2:1|0:0,0:0:0:0:
149,280,36524,2,0,B|194:226|194:226|193:198,1,95,10|0,2:2|0:0,0:0:0:0:
28,245,36840,6,0,B|38:304|38:304|47:315|47:315|59:394,1,142.5,10|0,2:1|0:0,0:0:0:0:
57,382,37156,1,10,2:2:0:0:
129,353,37314,1,2,2:2:0:0:
223,251,37472,5,10,2:1:0:0:
293,284,37630,1,10,2:1:0:0:
189,161,37787,1,8,2:2:0:0:
235,94,37945,2,0,B|135:129|208:188|104:224,1,190,10|8,2:1|2:1,0:0:0:0:
8,134,38419,2,0,B|-8:171|-28:199|-28:199|0:223|14:271,1,142.5,10|0,2:2|0:0,0:0:0:0:
8,255,38735,5,10,2:1:0:0:
74,301,38893,1,2,2:2:0:0:
183,222,39051,1,10,2:2:0:0:
245,269,39209,1,2,2:2:0:0:
340,177,39366,6,0,P|316:90|301:5,1,170.999994781494,10|8,2:1|2:2,0:0:0:0:
57,146,39998,2,0,P|69:189|76:232,1,85.4999973907472,10|8,2:1|2:1,0:0:0:0:
185,326,40314,1,8,2:2:0:0:
126,374,40472,1,8,2:1:0:0:
264,225,40630,5,10,2:2:0:0:
353,270,40787,1,8,2:1:0:0:
225,107,40945,5,10,2:2:0:0:
116,170,41102,1,8,2:1:0:0:
1,11,41261,5,10,2:2:0:0:
143,93,41419,1,10,2:1:0:0:
287,31,41577,5,8,2:2:0:0:
106,177,41735,2,0,L|57:161,1,42.7499986953736,10|0,2:1|0:0,0:0:0:0:
353,270,41893,6,0,B|440:234|440:234|454:190|408:170,1,170.999994781494,14|0,2:1|0:0,0:0:0:0:
341,269,42209,2,0,B|250:299|303:350|221:382,1,170.999994781494,10|0,2:2|0:0,0:0:0:0:
221,381,42524,1,8,2:1:0:0:
18,244,42682,2,0,P|38:298|52:359,1,113.999996520996,10|8,2:1|2:2,0:0:0:0:
206,241,42998,2,0,P|177:163|157:75,1,170.999994781494,10|0,2:1|0:0,0:0:0:0:
157,77,43314,1,8,2:1:0:0:
315,172,43472,5,10,2:2:0:0:
217,236,43630,1,0,0:0:0:0:
119,248,43787,5,10,2:1:0:0:
256,329,43945,1,2,2:2:0:0:
62,384,44103,2,0,B|106:366|106:366|118:351|118:351|164:336,1,113.999996520996,8|2,2:2|2:2,0:0:0:0:
67,162,44419,6,0,P|-5:203|29:287,1,170.999994781494,10|0,2:1|0:0,0:0:0:0:
80,170,44735,2,0,B|168:134|102:94|203:63,1,170.999994781494,10|0,2:2|0:0,0:0:0:0:
203,62,45051,1,8,2:1:0:0:
317,214,45209,2,0,P|274:181|272:119,1,113.999996520996,10|8,2:1|2:2,0:0:0:0:
418,213,45524,2,0,P|341:243|262:307,1,170.999994781494,10|0,2:1|0:0,0:0:0:0:
271,296,45840,1,8,2:1:0:0:
89,364,45998,5,10,2:2:0:0:
201,239,46156,1,8,2:2:0:0:
91,124,46314,1,10,2:2:0:0:
142,68,46472,1,10,2:1:0:0:
64,230,46630,5,8,2:2:0:0:
0,137,46787,2,0,B|-11:113|-11:113|5:88,1,56.9999982604981,10|0,2:1|0:0,0:0:0:0:
201,239,46945,6,0,B|264:220|302:272|302:272|300:314|341:337,1,170.999994781494,14|0,2:1|0:0,0:0:0:0:
195,250,47261,2,0,B|103:284|158:334|75:366,1,170.999994781494,10|0,2:2|0:0,0:0:0:0:
77,365,47577,1,8,2:1:0:0:
0,284,47735,1,10,2:1:0:0:
106,162,47893,1,8,2:2:0:0:
15,101,48051,2,0,B|102:135|102:135|143:113|124:67,1,170.999994781494,10|0,2:1|0:0,0:0:0:0:
124,69,48366,1,8,2:1:0:0:
225,220,48524,6,0,B|285:241|246:272|320:297,1,113.999996520996,10|0,2:2|0:0,0:0:0:0:
374,248,48840,1,10,2:1:0:0:
278,143,48998,1,2,2:2:0:0:
151,302,49156,1,8,2:2:0:0:
117,234,49314,2,0,L|133:176,1,56.9999982604981
304,332,49472,6,0,B|370:306|370:306|388:280|388:280|462:255,1,170.999994781494,10|0,2:1|0:0,0:0:0:0:
452,258,49787,1,8,2:2:0:0:
278,143,49945,1,8,2:2:0:0:
227,203,50103,1,10,2:1:0:0:
139,154,50261,1,8,2:1:0:0:
315,65,50419,1,8,2:2:0:0:
144,14,50577,2,0,P|155:38|165:74,1,56.9999982604981,10|0,2:1|0:0,0:0:0:0:
151,242,50735,5,2,2:2:0:0:
69,186,50893,1,8,2:1:0:0:
0,333,51051,5,10,2:2:0:0:
166,246,51209,1,8,2:2:0:0:
167,358,51366,5,10,2:1:0:0:
85,303,51524,1,8,2:1:0:0:
271,179,51682,2,0,B|379:216|379:216|343:205|320:218,1,170.999994781494,10|0,2:2|0:0,0:0:0:0:
253,259,51998,6,0,B|236:180|236:180|239:166|239:166|224:91,1,170.999994781494,14|0,2:1|0:0,0:0:0:0:
267,270,52314,2,0,B|330:251|368:303|368:303|366:345|407:368,1,170.999994781494,10|0,2:2|0:0,0:0:0:0:
387,353,52630,1,8,2:1:0:0:
477,256,52787,2,0,P|491:201|512:148,1,113.999996520996,10|8,2:1|2:2,0:0:0:0:
371,45,53103,2,0,P|348:127|316:206,1,170.999994781494,10|0,2:1|0:0,0:0:0:0:
316,206,53419,1,10,2:1:0:0:
135,275,53577,5,10,2:2:0:0:
244,197,53735,1,0,0:0:0:0:
38,172,53893,5,10,2:1:0:0:
149,269,54051,1,2,2:2:0:0:
221,63,54209,2,0,B|175:81|175:81|168:93|168:93|118:112,1,113.999996520996,8|2,2:2|2:2,0:0:0:0:
289,284,54524,6,0,B|376:318|376:318|417:296|398:250,1,170.999994781494,10|0,2:1|0:0,0:0:0:0:
278,275,54840,2,0,B|187:306|246:353|135:390,1,170.999994781494,10|0,2:2|0:0,0:0:0:0:
152,383,55156,1,8,2:1:0:0:
67,198,55314,2,0,P|125:214|159:261,1,113.999996520996,10|8,2:1|2:2,0:0:0:0:
0,292,55630,2,0,P|41:231|5:141,1,170.999994781494,10|0,2:1|0:0,0:0:0:0:
10,145,55945,1,10,2:1:0:0:
121,37,56103,5,10,2:2:0:0:
237,171,56261,1,8,2:2:0:0:
363,75,56419,1,10,2:2:0:0:
429,134,56577,1,10,2:1:0:0:
257,279,56735,5,8,2:2:0:0:
150,211,56893,2,0,P|142:181|130:154,1,56.9999982604981,10|0,2:1|0:0,0:0:0:0:
268,289,57051,6,0,B|331:270|369:322|369:322|367:364|408:387,1,170.999994781494,14|0,2:1|0:0,0:0:0:0:
465,384,57366,2,0,B|491:340|522:315|522:315|498:287|476:232,1,170.999994781494,10|0,2:2|0:0,0:0:0:0:
481,245,57682,1,8,2:1:0:0:
379,164,57840,2,0,P|429:145|491:126,1,113.999996520996,10|8,2:1|2:2,0:0:0:0:
302,57,58156,2,0,B|277:99|247:123|247:123|270:150|291:202,1,170.999994781494,10|0,2:1|0:0,0:0:0:0:
288,196,58472,1,10,2:1:0:0:
183,321,58630,6,0,P|98:288|20:263,1,170.999994781494,10|0,2:2|0:0,0:0:0:0:
22,263,58945,1,10,2:1:0:0:
113,185,59103,1,2,2:2:0:0:
0,62,59261,2,0,B|13:114|13:114|9:122|9:122|21:176,1,113.999996520996,8|0,2:2|0:0,0:0:0:0:
240,181,59577,5,10,2:1:0:0:
84,82,59735,1,8,2:2:0:0:
355,110,59893,5,8,2:2:0:0:
226,191,60051,5,8,2:2:0:0:
439,193,60209,1,10,2:1:0:0:
342,115,60366,1,8,2:1:0:0:
512,146,60524,5,8,2:2:0:0:
428,204,60682,5,10,2:1:0:0:
322,297,60840,1,2,2:2:0:0:
392,332,60998,1,8,2:1:0:0:
218,358,61156,5,10,2:2:0:0:
334,286,61314,1,8,2:2:0:0:
109,238,61472,5,10,2:1:0:0:
232,370,61630,1,8,2:1:0:0:
361,166,61787,2,0,B|349:116|349:116|351:103|351:103|336:43,1,113.999996520996,10|0,2:2|0:0,0:0:0:0:
107,250,62103,6,0,B|23:282|23:282|-15:261|2:217,1,156.750004783631,14|0,2:1|0:0,0:0:0:0:
39,165,62419,2,0,B|25:119|25:119|27:107|27:107|11:55,1,104.500003189087,10|0,2:2|0:0,0:0:0:0:
136,123,62735,1,10,2:1:0:0:
200,81,62893,1,8,2:1:0:0:
271,228,63051,2,0,B|285:182|285:182|283:170|283:170|299:118,1,104.500003189087,8|8,2:2|2:1,0:0:0:0:
185,292,63366,6,0,P|133:317|95:351,1,104.500003189087,2|8,2:2|2:1,0:0:0:0:
39,165,63682,2,0,P|86:197|135:213,1,104.500003189087,10|0,2:2|0:0,0:0:0:0:
293,87,63998,2,0,P|218:108|229:192,1,156.750004783631,10|0,2:1|0:0,0:0:0:0:
271,228,64314,2,0,B|317:213|317:213|326:201|326:201|375:187,1,104.500003189087,10|0,2:2|0:0,0:0:0:0:
265,241,64630,6,0,B|184:276|246:320|165:361,1,156.750004783631,10|0,2:1|0:0,0:0:0:0:
104,323,64945,2,0,B|98:302|81:277|81:277|102:250|115:222,1,104.500003189087,10|0,2:2|0:0,0:0:0:0:
226,139,65261,2,0,B|270:153|270:153|281:165|281:165|328:180,1,104.500003189087,10|8,2:1|2:1,0:0:0:0:
396,312,65577,2,0,B|436:299|436:299|447:287|447:287|491:273,1,104.500003189087,10|8,2:2|2:1,0:0:0:0:
413,109,65893,6,0,B|391:141|391:141|415:212,1,104.500003189087,2|8,2:2|2:1,0:0:0:0:
497,125,66209,1,10,2:2:0:0:
374,38,66366,1,8,2:2:0:0:
266,161,66524,1,10,2:2:0:0:
207,108,66682,1,10,2:1:0:0:
83,211,66840,2,0,P|134:228|187:258,1,104.500003189087,10|8,2:2|2:1,0:0:0:0:
71,201,67156,6,0,P|18:145|57:77,1,156.750004783631,14|0,2:1|0:0,0:0:0:0:
108,129,67472,2,0,B|133:136|133:136|211:106,1,104.500003189087,10|0,2:2|0:0,0:0:0:0:
340,206,67787,1,10,2:1:0:0:
292,143,67945,1,8,2:1:0:0:
365,288,68103,2,0,B|340:295|340:295|262:265,1,104.500003189087,8|8,2:2|2:1,0:0:0:0:
87,257,68419,6,0,B|80:276|80:276|106:362,1,104.500003189087,2|8,2:2|2:1,0:0:0:0:
223,207,68735,2,0,B|230:188|230:188|204:102,1,104.500003189087,10|0,2:2|0:0,0:0:0:0:
87,161,69051,1,10,2:1:0:0:
22,116,69209,1,2,2:2:0:0:
151,1,69366,2,0,B|106:18|106:18|95:31|95:31|48:47,1,104.500003189087,10|0,2:2|0:0,0:0:0:0:
223,207,69682,6,0,B|307:239|307:239|345:218|328:174,1,156.750004783631,10|0,2:1|0:0,0:0:0:0:
330,182,69998,1,10,2:2:0:0:
188,303,70156,1,8,2:2:0:0:
259,340,70314,1,8,2:1:0:0:
193,378,70472,1,8,2:1:0:0:
63,241,70630,2,0,P|55:215|42:188,1,52.2500015945435,10|0,2:2|0:0,0:0:0:0:
6,304,70787,2,0,P|62:270|149:234,1,156.750004783631,8|0,2:1|0:0,0:0:0:0:
146,235,71103,5,8,2:1:0:0:
296,147,71261,1,10,2:2:0:0:
126,65,71419,1,10,2:2:0:0:
254,218,71577,1,10,2:1:0:0:
139,317,71735,1,8,2:1:0:0:
306,154,71893,2,0,B|348:139|348:139|354:131|354:131|406:114,1,104.500003189087,10|2,2:2|2:2,0:0:0:0:
478,216,72209,5,10,2:1:0:0:
416,261,72366,1,2,2:2:0:0:
466,373,72524,1,10,2:2:0:0:
466,373,72682,2,0,B|411:354|411:354|398:337|398:337|334:317,1,128.249996086121,2|0,2:2|0:0,0:0:0:0:
284,353,72998,2,0,B|276:333|262:316|262:316|278:300|281:278,1,85.4999973907472,10|10,2:1|2:2,0:0:0:0:
184,178,73314,6,0,B|128:163|95:208|95:208|97:246|61:266,1,170.999994781494,10|10,2:1|2:1,0:0:0:0:
194,170,73787,2,0,P|219:138|209:89,1,85.4999973907472,10|0,2:2|0:0,0:0:0:0:
319,163,74103,2,0,P|334:200|381:216,1,85.4999973907472,10|0,2:1|0:0,0:0:0:0:
263,275,74419,2,0,P|222:269|185:302,1,85.4999973907472,10|2,2:2|2:2,0:0:0:0:
59,373,74735,6,0,P|38:302|15:248,1,128.249996086121,10|0,2:1|0:0,0:0:0:0:
51,187,75051,2,0,B|71:178|71:178|134:198,1,85.4999973907472,10|2,2:2|2:2,0:0:0:0:
235,122,75366,1,8,2:1:0:0:
180,67,75524,2,0,B|160:58|160:58|97:78,1,85.4999973907472,10|8,2:1|2:2,0:0:0:0:
227,215,75840,6,0,B|294:192|294:192|315:167|315:167|384:143,1,170.999994781494,10|8,2:1|2:1,0:0:0:0:
222,230,76314,2,0,P|206:269|211:316,1,85.4999973907472,10|0,2:2|0:0,0:0:0:0:
79,195,76630,2,0,P|120:189|158:161,1,85.4999973907472,10|0,2:1|0:0,0:0:0:0:
121,337,76945,2,0,P|95:303|52:284,1,85.4999973907472,10|0,2:2|0:0,0:0:0:0:
222,384,77261,6,0,P|280:359|353:339,1,128.249996086121,10|0,2:1|0:0,0:0:0:0:
409,384,77577,2,0,B|392:343|364:309|364:309|396:277|402:233,1,170.999994781494,10|8,2:2|2:1,0:0:0:0:
466,197,78051,1,8,2:1:0:0:
343,129,78209,2,0,B|305:140|305:140|299:149|299:149|262:161,2,85.4999973907472,10|8|2,2:2|2:1|2:2,0:0:0:0:
392,71,78682,1,8,2:1:0:0:
268,30,78840,2,0,B|230:19|230:19|224:10|224:10|187:-2,1,85.4999973907472,10|0,2:2|0:0,0:0:0:0:
51,68,79156,6,0,P|116:93|134:156,1,128.249996086121,10|0,2:1|0:0,0:0:0:0:
218,149,79472,2,0,P|153:174|135:237,1,128.249996086121,10|0,2:2|0:0,0:0:0:0:
187,279,79787,6,0,B|243:264|276:309|276:309|274:347|310:367,1,170.999994781494,8|10,2:1|2:2,0:0:0:0:
370,325,80261,1,0,0:0:0:0:
477,362,80419,1,8,2:1:0:0:
512,297,80577,1,8,2:1:0:0:
430,199,80735,2,0,B|437:157|437:157|441:152|441:152|448:102,1,85.4999973907472,10|8,2:2|2:1,0:0:0:0:
358,230,81051,6,0,P|314:248|278:269,1,85.4999973907472,2|8,2:2|2:1,0:0:0:0:
162,198,81366,1,10,2:2:0:0:
207,135,81524,2,0,P|244:156|283:171,1,85.4999973907472,2|8,2:2|2:1,0:0:0:0:
150,194,81840,2,0,P|119:156|122:119,1,85.4999973907472,2|8,2:2|2:2,0:0:0:0:
256,22,82156,6,0,B|338:52|338:52|308:44|291:55,1,128.249996086121,2|0,2:2|0:0,0:0:0:0:
297,51,82472,1,2,2:2:0:0:
367,165,82630,1,10,2:2:0:0:
314,220,82787,2,0,B|325:261|325:261|324:270|324:270|334:312,1,85.4999973907472,2|8,2:2|2:1,0:0:0:0:
456,271,83103,2,0,B|445:312|445:312|446:321|446:321|436:363,1,85.4999973907472,10|10,2:1|2:2,0:0:0:0:
313,375,83419,6,0,B|227:341|227:341|206:299|248:275,1,170.999994781494,10|10,2:1|2:1,0:0:0:0:
367,165,83893,2,0,B|359:131|359:131|360:122|360:122|349:81,1,85.4999973907472,10|0,2:2|0:0,0:0:0:0:
228,83,84209,2,0,B|235:49|235:49|234:40|234:40|245:0,1,85.4999973907472,10|0,2:1|0:0,0:0:0:0:
214,94,84524,2,0,B|148:122|195:154|121:186,1,128.249996086121,10|0,2:2|0:0,0:0:0:0:
59,231,84840,6,0,B|115:257|115:257|121:268|121:268|182:295,1,128.249996086121,10|0,2:1|0:0,0:0:0:0:
170,289,85156,1,10,2:2:0:0:
275,349,85314,2,0,B|297:313|297:313|276:274,1,85.4999973907472,2|8,2:2|2:1,0:0:0:0:
214,230,85630,1,10,2:1:0:0:
281,132,85787,1,8,2:2:0:0:
214,94,85945,2,0,B|129:130|129:130|84:115|97:69,1,170.999994781494,10|8,2:1|2:1,0:0:0:0:
225,10,86419,6,0,B|265:23|265:23|272:30|272:30|315:43,1,85.4999973907472,10|0,2:2|0:0,0:0:0:0:
394,143,86735,2,0,B|434:130|434:130|441:123|441:123|484:110,1,85.4999973907472,10|0,2:1|0:0,0:0:0:0:
286,225,87051,2,0,B|326:238|326:238|333:245|333:245|376:258,1,85.4999973907472,10|0,2:2|0:0,0:0:0:0:
275,233,87366,6,0,B|206:264|263:293|183:330,1,128.249996086121,10|0,2:1|0:0,0:0:0:0:
127,357,87682,2,0,B|105:321|105:321|125:281,1,85.4999973907472,10|0,2:2|0:0,0:0:0:0:
204,189,87998,1,10,2:1:0:0:
162,127,88156,1,8,2:1:0:0:
254,19,88314,2,0,B|295:32|295:32|301:38|301:38|342:50,2,85.4999973907472,10|8|2,2:2|2:1|2:2,0:0:0:0:
231,92,88787,1,8,2:1:0:0:
369,170,88945,6,0,B|438:142|438:142|455:108|421:89,1,128.249996086121,10|0,2:2|0:0,0:0:0:0:
356,84,89261,2,0,B|281:112|331:137|252:172,1,128.249996086121,10|0,2:1|0:0,0:0:0:0:
219,228,89577,2,0,B|234:285|234:285|233:293|233:293|248:356,1,128.249996086121,10|0,2:2|0:0,0:0:0:0:
319,384,89893,6,0,B|426:347|426:347|393:355|370:342,1,170.999994781494,8|10,2:1|2:2,0:0:0:0:
319,287,90366,1,0,0:0:0:0:
395,197,90524,1,8,2:1:0:0:
341,141,90682,1,8,2:1:0:0:
424,31,90840,2,0,B|466:45|466:45|471:51|471:51|515:64,1,85.4999973907472,10|8,2:2|2:1,0:0:0:0:
341,141,91156,2,0,B|383:127|383:127|388:121|388:121|432:108,1,85.4999973907472,2|10,2:2|2:1,0:0:0:0:
254,5,91472,5,10,2:2:0:0:
218,71,91630,1,2,2:2:0:0:
341,141,91787,2,0,P|326:87|313:51,1,85.4999973907472,8|2,2:1|2:2,0:0:0:0:
235,168,92103,2,0,B|172:198|217:228|150:262,1,128.249996086121,8|0,2:2|0:0,0:0:0:0:
96,318,92419,6,0,P|143:334|189:354,1,95,12|0,2:1|0:0,0:0:0:0:
252,273,92735,2,0,P|295:254|340:239,1,95,10|0,2:2|0:0,0:0:0:0:
235,168,93051,1,10,2:1:0:0:
169,202,93209,1,8,2:1:0:0:
73,111,93366,2,0,B|81:69|81:69|87:60|87:60|95:15,1,95,10|8,2:2|2:1,0:0:0:0:
213,76,93682,6,0,B|221:118|221:118|227:127|227:127|235:172,1,95,2|8,2:2|2:1,0:0:0:0:
364,9,93998,2,0,B|356:51|356:51|350:60|350:60|342:105,1,95,10|0,2:2|0:0,0:0:0:0:
443,225,94314,2,0,B|530:195|530:195|505:202|479:193,1,142.5,10|0,2:1|0:0,0:0:0:0:
435,236,94630,2,0,P|414:272|428:323,1,95,10|0,2:2|0:0,0:0:0:0:
289,375,94945,6,0,P|254:359|216:349,1,71.25,8|0,2:1|0:0,0:0:0:0:
299,368,95261,2,0,P|320:332|306:281,1,95,10|0,2:2|0:0,0:0:0:0:
236,195,95577,1,8,2:1:0:0:
282,134,95735,1,8,2:1:0:0:
189,58,95893,2,0,B|148:73|148:73|144:81|144:81|97:99,2,95,10|8|0,2:2|2:1|0:0,0:0:0:0:
242,1,96366,1,8,2:1:0:0:
362,85,96524,6,0,B|373:129|373:129|371:139|371:139|384:185,1,95,10|0,2:2|0:0,0:0:0:0:
491,92,96840,2,0,B|480:48|480:48|482:38|482:38|471:0,1,95,10|0,2:1|0:0,0:0:0:0:
354,95,97156,2,0,B|365:139|365:139|363:149|363:149|376:195,1,95,10|0,2:2|0:0,0:0:0:0:
266,301,97472,6,0,B|184:277|229:246|138:222,1,142.5,14|0,2:1|0:0,0:0:0:0:
149,225,97787,1,10,2:2:0:0:
81,264,97945,1,2,2:2:0:0:
155,120,98103,5,10,2:1:0:0:
220,166,98261,1,10,2:1:0:0:
301,50,98419,1,8,2:2:0:0:
378,162,98577,2,0,B|281:123|281:123|257:76|304:49,1,190,10|8,2:1|2:1,0:0:0:0:
387,172,99051,6,0,B|403:234|403:234|401:245|401:245|418:310,1,142.5,10|0,2:2|0:0,0:0:0:0:
341,327,99366,2,0,B|291:310|291:310|284:302|284:302|235:285,1,95,10|0,2:1|0:0,0:0:0:0:
387,172,99682,2,0,B|437:155|437:155|444:147|444:147|493:130,1,95,10|0,2:2|0:0,0:0:0:0:
296,1,99998,6,0,B|369:23|328:66|409:88,1,142.5,10|0,2:1|0:0,0:0:0:0:
471,53,100314,2,0,B|479:74|495:95|495:95|481:114|473:136,1,95,10|0,2:2|0:0,0:0:0:0:
396,250,100630,1,10,2:1:0:0:
453,306,100787,1,8,2:1:0:0:
336,384,100945,2,0,B|296:370|296:370|288:361|288:361|241:342,2,95,10|8|0,2:2|2:1|0:0,0:0:0:0:
377,324,101419,1,8,2:1:0:0:
255,227,101577,6,0,B|206:212|176:252|176:252|178:285|146:302,1,142.5,10|0,2:2|0:0,0:0:0:0:
90,345,101893,2,0,B|-1:311|-1:311|29:325|41:353,1,142.5,10|0,2:1|0:0,0:0:0:0:
83,266,102209,6,0,P|74:230|56:192,1,71.25,10|0,2:2|0:0,0:0:0:0:
108,138,102524,6,0,B|151:151|151:151|159:161|159:161|207:175,1,95,12|0,2:1|0:0,0:0:0:0:
299,294,102840,2,0,B|342:281|342:281|350:271|350:271|385:260,1,95,10|0,2:2|0:0,0:0:0:0:
475,173,103156,1,10,2:1:0:0:
407,136,103314,1,8,2:1:0:0:
476,9,103472,2,0,B|488:54|488:54|485:66|485:66|499:119,1,95,10|8,2:2|2:1,0:0:0:0:
323,152,103787,6,0,B|332:117|332:117|329:105|329:105|341:60,1,95,2|8,2:2|2:1,0:0:0:0:
490,19,104103,2,0,B|502:64|502:64|499:76|499:76|508:110,1,95,10|0,2:2|0:0,0:0:0:0:
440,210,104419,1,10,2:1:0:0:
495,269,104577,1,0,0:0:0:0:
400,359,104735,2,0,B|344:337|344:337|334:323|334:323|268:294,1,142.5,10|0,2:2|0:0,0:0:0:0:
204,315,105051,6,0,P|195:281|210:250,1,71.25,8|0,2:1|0:0,0:0:0:0:
196,324,105366,2,0,B|140:344|172:365|120:387,1,95,10|0,2:2|0:0,0:0:0:0:
39,289,105682,1,8,2:1:0:0:
75,221,105840,1,8,2:1:0:0:
18,99,105998,1,10,2:2:0:0:
79,49,106156,2,0,B|143:29|183:82|183:82|180:125|223:148,1,190,8|8,2:1|2:1,0:0:0:0:
376,200,106630,6,0,P|326:214|286:235,1,95,10|0,2:2|0:0,0:0:0:0:
171,309,106945,2,0,P|213:330|259:342,1,95,10|0,2:1|0:0,0:0:0:0:
382,190,107261,2,0,P|387:145|345:100,1,95,10|0,2:2|0:0,0:0:0:0:
191,41,107577,6,0,B|118:70|118:70|107:107|145:124,1,142.5,14|0,2:1|0:0,0:0:0:0:
141,122,107893,1,10,2:2:0:0:
199,190,108051,1,2,2:2:0:0:
124,274,108209,1,10,2:1:0:0:
162,343,108366,1,10,2:1:0:0:
28,254,108524,1,8,2:2:0:0:
173,351,108682,6,0,B|240:331|240:331|265:289|265:289|343:265,1,190,10|8,2:1|2:1,0:0:0:0:
474,376,109156,2,0,B|492:350|518:325|518:325|490:298|478:255,1,142.5,10|0,2:2|0:0,0:0:0:0:
479,261,109472,1,10,2:1:0:0:
512,192,109630,1,2,2:2:0:0:
420,96,109787,1,10,2:2:0:0:
479,45,109945,1,2,2:2:0:0:
381,168,110103,5,10,2:1:0:0:
258,13,110261,2,0,P|303:35|358:53,1,95,2|8,2:2|2:2,0:0:0:0:
165,77,110577,5,2,2:2:0:0:
288,232,110735,2,0,P|243:210|188:192,1,95,10|8,2:1|2:1,0:0:0:0:
58,281,111051,5,10,2:2:0:0:
128,243,111209,1,10,2:1:0:0:
253,125,111366,5,8,2:2:0:0:
165,77,111524,1,10,2:1:0:0:
288,232,111682,5,10,2:2:0:0:
430,151,111840,1,8,2:1:0:0:
481,347,111998,5,10,2:2:0:0:
274,233,112156,1,10,2:1:0:0:
142,382,112314,5,8,2:2:0:0:
394,258,112472,2,0,L|377:212,1,47.5,10|0,2:1|0:0,0:0:0:0:
154,69,112630,6,0,B|67:105|67:105|53:149|99:169,1,170.999994781494,14|0,2:1|0:0,0:0:0:0:
167,74,112945,2,0,B|258:104|205:155|287:187,1,170.999994781494,10|0,2:2|0:0,0:0:0:0:
348,144,113261,1,8,2:1:0:0:
242,251,113419,2,0,P|265:309|281:372,1,113.999996520996,10|8,2:1|2:2,0:0:0:0:
421,211,113735,2,0,P|387:128|363:41,1,170.999994781494,10|0,2:1|0:0,0:0:0:0:
365,49,114051,1,8,2:1:0:0:
253,158,114209,5,10,2:2:0:0:
151,100,114366,1,0,0:0:0:0:
62,191,114524,5,10,2:1:0:0:
157,116,114682,1,2,2:2:0:0:
304,271,114840,2,0,B|260:255|260:255|250:243|250:243|202:224,1,113.999996520996,8|2,2:2|2:2,0:0:0:0:
319,281,115156,6,0,P|392:241|363:165,1,170.999994781494,10|0,2:1|0:0,0:0:0:0:
301,283,115472,2,0,B|214:319|214:319|200:363|246:383,1,170.999994781494,10|0,2:2|0:0,0:0:0:0:
242,381,115787,1,8,2:1:0:0:
344,355,115945,1,10,2:1:0:0:
202,224,116103,1,8,2:2:0:0:
56,301,116261,2,0,B|116:278|116:278|141:243|141:243|207:222,1,170.999994781494,10|0,2:1|0:0,0:0:0:0:
201,223,116577,1,8,2:1:0:0:
325,113,116735,5,10,2:2:0:0:
187,11,116893,1,8,2:2:0:0:
72,150,117051,1,10,2:2:0:0:
1,112,117209,1,10,2:1:0:0:
126,227,117366,5,8,2:2:0:0:
21,317,117524,2,0,P|14:293|-1:263,1,56.9999982604981,10|0,2:1|0:0,0:0:0:0:
170,364,117682,6,0,B|222:345|239:285|239:285|234:333|256:345,1,170.999994781494,14|0,2:1|0:0,0:0:0:0:
154,355,117998,2,0,P|93:292|132:223,1,170.999994781494,10|0,2:2|0:0,0:0:0:0:
125,226,118314,1,8,2:1:0:0:
243,160,118472,1,10,2:1:0:0:
84,57,118630,1,8,2:2:0:0:
239,29,118787,2,0,B|148:59|201:110|119:142,1,170.999994781494,10|0,2:1|0:0,0:0:0:0:
119,141,119103,1,8,2:1:0:0:
0,260,119261,6,0,P|54:282|107:313,1,113.999996520996,10|0,2:2|0:0,0:0:0:0:
159,360,119577,1,10,2:1:0:0:
253,279,119735,1,2,2:2:0:0:
380,382,119893,1,8,2:2:0:0:
431,323,120051,2,0,B|421:295|421:295|421:289|421:289|412:260,1,56.9999982604981
232,160,120209,6,0,B|148:203|148:203|105:185|120:137,1,170.999994781494,10|0,2:1|0:0,0:0:0:0:
119,141,120524,1,8,2:2:0:0:
253,279,120682,1,8,2:2:0:0:
309,222,120840,1,10,2:1:0:0:
414,268,120998,1,8,2:1:0:0:
232,160,121156,1,8,2:2:0:0:
409,94,121314,2,0,P|398:120|390:155,1,56.9999982604981,10|0,2:1|0:0,0:0:0:0:
244,272,121472,5,2,2:2:0:0:
154,215,121630,1,8,2:1:0:0:
7,328,121787,5,10,2:2:0:0:
168,221,121945,1,8,2:2:0:0:
11,144,122103,5,10,2:1:0:0:
79,240,122261,1,8,2:1:0:0:
196,48,122419,2,0,B|108:13|108:13|67:35|86:81,1,170.999994781494,10|0,2:2|0:0,0:0:0:0:
132,135,122735,6,0,B|195:116|233:168|233:168|231:210|272:233,1,170.999994781494,14|0,2:1|0:0,0:0:0:0:
124,146,123051,2,0,B|33:176|86:227|4:259,1,170.999994781494,10|0,2:2|0:0,0:0:0:0:
4,258,123366,1,8,2:1:0:0:
182,325,123524,2,0,P|175:266|132:223,1,113.999996520996,10|8,2:1|2:2,0:0:0:0:
123,384,123840,2,0,P|202:343|300:327,1,170.999994781494,10|0,2:1|0:0,0:0:0:0:
281,327,124156,1,10,2:1:0:0:
467,269,124314,5,10,2:2:0:0:
363,369,124472,1,0,0:0:0:0:
315,214,124630,5,10,2:1:0:0:
456,275,124787,1,2,2:2:0:0:
512,135,124945,2,0,B|464:153|464:153|457:165|457:165|408:185,1,113.999996520996,8|2,2:2|2:2,0:0:0:0:
241,266,125261,6,0,B|151:229|151:229|137:184|184:163,1,170.999994781494,10|0,2:1|0:0,0:0:0:0:
254,273,125577,2,0,B|342:237|276:197|377:166,1,170.999994781494,10|0,2:2|0:0,0:0:0:0:
377,165,125893,1,8,2:1:0:0:
230,55,126051,2,0,P|224:110|260:159,1,113.999996520996,10|8,2:1|2:2,0:0:0:0:
296,0,126366,2,0,P|204:36|132:82,1,170.999994781494,10|0,2:1|0:0,0:0:0:0:
142,73,126682,1,10,2:1:0:0:
31,195,126840,5,10,2:2:0:0:
216,280,126998,1,8,2:2:0:0:
83,384,127156,1,10,2:2:0:0:
16,341,127314,1,10,2:1:0:0:
189,191,127472,5,8,2:2:0:0:
126,301,127630,2,0,P|102:290|62:275,1,56.9999982604981,10|0,2:1|0:0,0:0:0:0:
264,140,127787,6,0,B|327:121|365:173|365:173|363:215|404:238,1,170.999994781494,14|0,2:1|0:0,0:0:0:0:
252,130,128103,2,0,P|207:76|270:9,1,170.999994781494,10|0,2:2|0:0,0:0:0:0:
262,9,128419,1,8,2:1:0:0:
380,106,128577,2,0,B|330:123|330:123|322:134|322:134|276:152,1,113.999996520996,10|8,2:1|2:2,0:0:0:0:
101,232,128893,2,0,B|190:268|190:268|204:313|157:334,1,170.999994781494,10|0,2:1|0:0,0:0:0:0:
163,331,129209,1,10,2:1:0:0:
347,384,129366,6,0,B|331:308|331:308|332:296|332:296|313:212,1,170.999994781494,10|0,2:2|0:0,0:0:0:0:
314,216,129682,1,10,2:1:0:0:
232,146,129840,1,2,2:2:0:0:
391,46,129998,2,0,B|380:95|380:95|381:102|381:102|369:157,1,113.999996520996,8|0,2:2|0:0,0:0:0:0:
205,263,130314,5,10,2:1:0:0:
368,157,130472,1,8,2:2:0:0:
94,154,130630,5,8,2:2:0:0:
223,265,130787,5,8,2:2:0:0:
182,46,130945,1,10,2:1:0:0:
103,168,131103,1,8,2:1:0:0:
281,78,131261,5,8,2:2:0:0:
175,31,131419,5,10,2:1:0:0:
26,119,131577,1,2,2:2:0:0:
91,80,131735,1,8,2:1:0:0:
226,150,131893,5,10,2:2:0:0:
80,70,132051,1,8,2:2:0:0:
18,267,132209,5,10,2:1:0:0:
222,160,132366,1,8,2:1:0:0:
332,363,132524,2,0,B|242:326|242:326|228:281|275:260,1,170.999994781494,10|0,2:2|0:0,0:0:0:0:
350,372,132840,6,0,B|437:343|370:304|473:277,1,156.750004783631,14|0,2:1|0:0,0:0:0:0:
512,218,133156,2,0,P|515:167|476:132,1,104.500003189087,10|0,2:2|0:0,0:0:0:0:
325,154,133472,1,10,2:1:0:0:
317,163,133630,1,10,2:1:0:0:
431,16,133787,2,0,P|385:38|374:90,1,104.500003189087,10|8,2:2|2:1,0:0:0:0:
299,256,134103,2,0,P|280:179|210:144,1,156.750004783631,2|0,2:2|0:0,0:0:0:0:
162,192,134419,2,0,B|140:185|107:201|107:201|139:182|143:162,1,104.500003189087,10|0,2:2|0:0,0:0:0:0:
308,269,134735,2,0,B|400:302|345:341|434:371,1,156.750004783631,8|0,2:1|0:0,0:0:0:0:
487,325,135051,6,0,B|511:282|511:282|490:232,1,104.500003189087,10|0,2:2|0:0,0:0:0:0:
342,185,135366,2,0,B|329:147|298:121|298:121|324:93|341:45,1,156.750004783631,10|0,2:1|0:0,0:0:0:0:
399,12,135682,2,0,B|447:26|447:26|454:33|454:33|503:48,1,104.500003189087,10|0,2:2|0:0,0:0:0:0:
439,150,135998,2,0,B|391:164|391:164|384:171|384:171|335:186,1,104.500003189087,8|8,2:1|2:1,0:0:0:0:
171,234,136314,1,10,2:2:0:0:
217,157,136472,2,0,B|323:200|323:200|339:253|287:279,1,209.000006378174,8|8,2:1|2:1,0:0:0:0:
186,371,136945,5,10,2:2:0:0:
288,278,137103,1,8,2:2:0:0:
136,142,137261,1,10,2:2:0:0:
211,78,137419,1,8,2:1:0:0:
24,226,137577,2,0,B|16:181|16:181|10:174|10:174|0:124,1,104.500003189087,10|8,2:2|2:1,0:0:0:0:
35,236,137893,6,0,B|90:219|123:264|123:264|121:301|157:321,1,156.750004783631,14|0,2:1|0:0,0:0:0:0:
186,371,138209,2,0,P|219:336|207:279,1,104.500003189087,10|0,2:2|0:0,0:0:0:0:
166,136,138524,2,0,P|179:182|235:200,1,104.500003189087,10|10,2:1|2:1,0:0:0:0:
380,245,138840,2,0,P|333:233|289:272,1,104.500003189087,10|8,2:2|2:1,0:0:0:0:
186,371,139156,2,0,B|101:336|101:336|89:294|130:274,1,156.750004783631,2|0,2:2|0:0,0:0:0:0:
184,238,139472,2,0,B|174:190|174:190|176:182|176:182|163:124,1,104.500003189087,10|0,2:2|0:0,0:0:0:0:
278,53,139787,2,0,B|333:36|366:81|366:81|364:118|400:138,1,156.750004783631,8|0,2:1|0:0,0:0:0:0:
460,104,140103,6,0,B|462:88|494:69|494:69|461:85|442:78,1,104.500003189087,10|2,2:2|2:2,0:0:0:0:
363,201,140419,2,0,B|267:242|267:242|293:229|301:205,1,156.750004783631,10|0,2:1|0:0,0:0:0:0:
301,204,140735,1,10,2:2:0:0:
452,298,140893,1,8,2:2:0:0:
349,384,141051,2,0,B|358:337|358:337|364:329|364:329|374:280,1,104.500003189087,8|8,2:1|2:1,0:0:0:0:
238,287,141366,2,0,B|229:240|229:240|223:232|223:232|213:186,1,104.500003189087,10|8,2:2|2:1,0:0:0:0:
348,62,141682,6,0,B|434:88|379:131|473:159,1,156.750004783631,2|0,2:2|0:0,0:0:0:0:
465,156,141998,1,10,2:2:0:0:
355,259,142156,1,8,2:2:0:0:
285,223,142314,1,10,2:1:0:0:
238,287,142472,1,8,2:1:0:0:
148,180,142630,2,0,P|222:153|294:119,1,156.750004783631,10|0,2:2|0:0,0:0:0:0:
348,62,142945,6,0,P|302:45|258:24,1,85.4999973907472,10|0,2:1|0:0,0:0:0:0:
105,82,143261,2,0,B|68:143|105:214|159:179|188:244|150:309,1,256.499992172241,10|8,2:2|2:1,0:0:0:0:
278,384,143893,1,10,2:2:0:0:
327,326,144051,2,0,B|302:285|327:238|362:261|382:218|356:175,1,170.999994781494,8|8,2:1|2:1,0:0:0:0:
230,99,144524,2,0,B|140:134|206:172|110:215,1,170.999994781494,10|8,2:2|2:1,0:0:0:0:
50,261,144998,1,0,0:0:0:0:
10,108,145156,2,0,P|49:121|102:144,1,85.4999973907472,10|0,2:2|0:0,0:0:0:0:
235,253,145472,6,0,P|274:236|314:222,1,85.4999973907472,8|0,2:1|0:0,0:0:0:0:
213,351,145787,2,0,B|250:290|213:219|159:254|130:189|168:124,1,256.499992172241,10|8,2:2|2:1,0:0:0:0:
296,36,146419,1,10,2:2:0:0:
355,86,146577,2,0,B|413:68|448:115|448:115|445:154|483:175,1,170.999994781494,8|8,2:1|2:1,0:0:0:0:
442,285,147051,2,0,P|395:262|349:248,1,85.4999973907472,10|0,2:2|0:0,0:0:0:0:
459,298,147366,2,0,P|511:256|468:168,1,170.999994781494,10|8,2:1|2:2,0:0:0:0:
287,299,147998,6,0,B|221:325|221:325|204:358|204:358|139:385,1,170.999994781494,8|8,2:1|2:2,0:0:0:0:
26,223,148630,2,0,P|13:178|-3:137,2,85.4999973907472,10|8|8,2:1|2:1|2:2,0:0:0:0:
97,261,149103,2,0,P|159:232|262:197,1,170.999994781494,8|8,2:1|2:1,0:0:0:0:
330,61,149577,1,8,2:2:0:0:
325,71,149893,2,0,B|312:104|293:127|293:127|325:151|337:188,1,128.249996086121,10|0,2:1|0:0,0:0:0:0:
383,231,150209,2,0,B|374:273|374:273|378:285|378:285|369:326,1,85.4999973907472,10|0,2:2|0:0,0:0:0:0:
206,348,150524,5,8,2:1:0:0:
293,294,150682,1,8,2:2:0:0:
192,230,150840,5,10,2:2:0:0:
116,189,150998,1,8,2:2:0:0:
193,110,151156,5,8,2:1:0:0:
255,76,151314,1,8,2:1:0:0:
167,13,151472,5,10,2:2:0:0:
263,83,151630,2,0,B|301:96|301:96|306:103|306:103|349:119,1,85.4999973907472,8|0,2:1|0:0,0:0:0:0:
340,115,151945,1,8,2:1:0:0:
192,230,152103,2,0,B|157:242|157:242|152:249|152:249|114:262,1,85.4999973907472,10|0,2:2|0:0,0:0:0:0:
267,278,152419,2,0,B|280:245|299:222|299:222|267:198|255:161,1,128.249996086121,8|0,2:1|0:0,0:0:0:0:
196,125,152735,2,0,B|161:137|161:137|156:144|156:144|118:157,1,85.4999973907472,10|0,2:2|0:0,0:0:0:0:
280,281,153051,6,0,B|375:242|375:242|389:194|342:171,1,170.999994781494,8|8,2:1|2:2,0:0:0:0:
135,302,153682,2,0,P|146:339|157:384,1,85.4999973907472,10|8,2:1|2:1,0:0:0:0:
280,281,153998,2,0,B|317:220|280:149|226:184|197:119|235:54,1,256.499992172241,10|8,2:2|2:1,0:0:0:0:
56,143,154630,2,0,B|94:208|65:273|11:238|-26:309|11:370,1,256.499992172241,10|0,2:2|0:0,0:0:0:0:
166,359,155261,2,0,P|124:345|79:327,1,85.4999973907472,10|0,2:2|0:0,0:0:0:0:
178,366,155577,6,0,P|234:331|220:268,1,128.249996086121,8|0,2:1|0:0,0:0:0:0:
149,266,155893,2,0,B|283:211|283:211|304:143|233:112,1,256.499992172241,10|8,2:2|2:1,0:0:0:0:
364,0,156524,2,0,B|342:36|342:36|362:75,1,85.4999973907472,10|8,2:2|2:1,0:0:0:0:
244,117,156840,6,0,P|203:102|157:76,1,85.4999973907472,0|8,0:0|2:1,0:0:0:0:
31,195,157156,2,0,P|72:180|118:154,1,85.4999973907472,10|0,2:2|0:0,0:0:0:0:
238,282,157472,2,0,P|209:248|183:202,1,85.4999973907472,10|0,2:1|0:0,0:0:0:0:
77,350,157787,2,0,P|95:310|109:259,1,85.4999973907472,8|2,2:2|2:2,0:0:0:0:
249,292,158103,6,0,B|318:324|275:353|353:381,1,128.249996086121,8|0,2:1|0:0,0:0:0:0:
404,338,158419,2,0,B|426:302|426:302|406:263,1,85.4999973907472,8|0,2:2|0:0,0:0:0:0:
320,194,158735,1,8,2:1:0:0:
359,127,158893,1,8,2:1:0:0:
282,40,159051,2,0,B|244:53|244:53|238:62|238:62|191:79,1,85.4999973907472,8|8,2:2|2:1,0:0:0:0:
352,3,159366,6,0,B|425:27|425:27|436:56|408:72,1,128.249996086121
359,127,159682,2,0,B|367:166|367:166|366:174|366:174|376:215,1,85.4999973907472,8|0,2:2|0:0,0:0:0:0:
257,295,159998,2,0,B|193:276|193:276|164:241|164:241|97:220,1,170.999994781494,10|8,2:1|2:2,0:0:0:0:
43,261,160472,1,2,2:2:0:0:
5,135,160630,5,10,2:1:0:0:
19,142,160787,1,2,2:2:0:0:
20,125,160945,2,0,L|6:89,1,38,10|2,2:2|2:2,0:0:0:0:
88,85,161261,2,0,L|102:49,1,38,10|8,2:1|2:1,0:0:0:0:
188,115,161576,2,0,L|174:79,1,38,10|8,2:2|2:1,0:0:0:0:
299,50,161893,6,0,L|285:86,1,38,2|8,2:2|2:1,0:0:0:0:
374,2,162209,2,0,L|401:71,1,57,8|0,2:2|0:0,0:0:0:0:
465,97,162524,6,0,L|485:43,1,57,10|0,2:1|0:0,0:0:0:0:
456,111,162840,2,0,B|405:136|435:155|375:185,1,104.500003189087,8|0,2:2|0:0,0:0:0:0:
218,216,163156,5,10,2:1:0:0:
378,287,163314,1,10,2:2:0:0:
56,349,163472,5,8,2:2:0:0:
234,222,163630,1,10,2:2:0:0:
79,155,163787,5,10,2:1:0:0:
284,326,163945,1,8,2:2:0:0:
284,326,164024,1,8,2:2:0:0:
284,326,164103,2,0,L|299:269,1,52.2500015945435,10|0,2:1|0:0,0:0:0:0:
190,78,164261,6,0,B|132:60|97:108|97:108|99:146|61:167,1,156.750004783631,10|0,2:2|0:0,0:0:0:0:
197,65,164577,2,0,P|197:39|174:12,1,52.2500015945435,10|0,2:2|0:0,0:0:0:0:
275,129,164735,2,0,P|348:103|382:17,1,156.750004783631,10|0,2:2|0:0,0:0:0:0:
381,35,165051,5,10,2:2:0:0:
480,126,165209,1,2,2:2:0:0:
335,220,165366,1,8,2:2:0:0:
498,378,165524,2,0,P|505:348|515:321,1,52.2500015945435,10|0,2:1|0:0,0:0:0:0:
314,377,165682,6,0,B|227:341|227:341|213:297|259:277,1,170.999994781494,14|0,2:1|0:0,0:0:0:0:
326,384,165998,2,0,B|418:351|343:312|461:277,1,170.999994781494,10|0,2:2|0:0,0:0:0:0:
452,279,166314,1,8,2:1:0:0:
335,220,166472,1,10,2:1:0:0:
510,107,166630,1,8,2:2:0:0:
388,35,166787,2,0,B|325:16|287:68|287:68|289:110|248:133,1,170.999994781494,10|0,2:1|0:0,0:0:0:0:
267,118,167103,1,8,2:1:0:0:
126,22,167261,5,10,2:2:0:0:
212,65,167419,1,0,0:0:0:0:
0,110,167577,5,10,2:1:0:0:
118,40,167735,1,2,2:2:0:0:
211,206,167893,2,0,B|162:190|162:190|154:177|154:177|97:158,1,113.999996520996,8|2,2:2|2:2,0:0:0:0:
277,293,168209,6,0,B|364:257|364:257|378:213|332:193,1,170.999994781494,10|0,2:1|0:0,0:0:0:0:
267,301,168524,2,0,B|204:282|166:334|166:334|168:376|127:399,1,170.999994781494,10|0,2:2|0:0,0:0:0:0:
146,384,168840,1,8,2:1:0:0:
46,313,168998,1,10,2:1:0:0:
127,186,169156,1,8,2:2:0:0:
29,137,169314,2,0,P|40:162|50:199,1,56.9999982604981,10|0,2:1|0:0,0:0:0:0:
189,246,169472,6,0,B|299:206|299:206|262:218|235:203,1,170.999994781494
246,207,169787,1,10,2:2:0:0:
358,326,169945,1,10,2:2:0:0:
463,149,170103,1,10,2:2:0:0:
512,252,170261,2,0,P|485:240|449:227,1,56.9999982604981,10|0,2:1|0:0,0:0:0:0:
346,93,170419,5,8,2:2:0:0:
246,207,170577,2,0,P|273:195|309:182,1,56.9999982604981,10|0,2:1|0:0,0:0:0:0:
132,112,170735,6,0,P|60:147|76:232,1,170.999994781494,14|0,2:1|0:0,0:0:0:0:
145,120,171051,2,0,B|237:87|162:48|280:13,1,170.999994781494,10|0,2:2|0:0,0:0:0:0:
271,16,171366,1,8,2:1:0:0:
346,93,171524,1,10,2:1:0:0:
246,207,171682,1,8,2:2:0:0:
392,322,171840,2,0,B|479:286|479:286|493:242|447:222,1,170.999994781494,10|0,2:1|0:0,0:0:0:0:
450,223,172156,1,8,2:1:0:0:
277,358,172314,6,0,P|197:324|102:291,1,170.999994781494,10|0,2:2|0:0,0:0:0:0:
117,295,172630,1,10,2:1:0:0:
16,336,172787,1,2,2:2:0:0:
165,193,172945,1,8,2:2:0:0:
24,126,173103,2,0,P|36:154|44:189,1,56.9999982604981
228,273,173261,6,0,B|253:231|283:207|283:207|260:180|239:128,1,170.999994781494,10|0,2:1|0:0,0:0:0:0:
238,287,173577,2,0,P|259:296|295:313,1,56.9999982604981,8|0,2:2|0:0,0:0:0:0:
168,181,173735,2,0,P|147:190|111:207,1,56.9999982604981,8|0,2:2|0:0,0:0:0:0:
17,331,173893,5,10,2:1:0:0:
104,282,174051,1,8,2:1:0:0:
24,126,174209,1,8,2:2:0:0:
100,67,174366,2,0,P|76:57|45:44,1,56.9999982604981,10|0,2:1|0:0,0:0:0:0:
168,181,174524,6,0,B|255:145|255:145|269:101|223:81,1,170.999994781494,2|0,2:2|0:0,0:0:0:0:
226,82,174840,1,10,2:2:0:0:
358,187,174998,1,8,2:2:0:0:
292,282,175156,5,10,2:1:0:0:
226,239,175314,1,8,2:1:0:0:
407,117,175472,1,10,2:2:0:0:
208,27,175630,2,0,P|219:57|227:92,1,56.9999982604981
372,283,175787,6,0,B|384:209|384:209|397:190|397:190|407:115,1,170.999994781494,14|0,2:1|0:0,0:0:0:0:
363,296,176103,2,0,B|300:277|262:329|262:329|264:371|223:394,1,170.999994781494,10|0,2:2|0:0,0:0:0:0:
242,379,176419,1,8,2:1:0:0:
162,315,176577,1,10,2:1:0:0:
16,384,176735,1,8,2:2:0:0:
29,252,176893,2,0,P|38:276|47:307,1,56.9999982604981,10|0,2:1|0:0,0:0:0:0:
172,198,177051,6,0,B|106:174|106:174|86:144|86:144|18:117,1,170.999994781494
181,209,177366,2,0,P|257:167|226:92,1,170.999994781494,10|0,2:2|0:0,0:0:0:0:
236,99,177682,5,10,2:1:0:0:
334,34,177840,1,2,2:2:0:0:
494,173,177998,5,8,2:2:0:0:
383,114,178156,1,2,2:2:0:0:
242,257,178314,6,0,B|329:221|329:221|343:177|297:157,1,170.999994781494,10|0,2:1|0:0,0:0:0:0:
232,267,178630,2,0,B|143:299|204:349|113:383,1,170.999994781494,10|0,2:2|0:0,0:0:0:0:
115,382,178945,1,8,2:1:0:0:
35,276,179103,2,0,P|20:217|-2:165,1,113.999996520996,10|8,2:1|2:2,0:0:0:0:
131,42,179419,2,0,P|151:126|185:206,1,170.999994781494,10|0,2:1|0:0,0:0:0:0:
183,204,179735,1,10,2:1:0:0:
314,114,179893,5,10,2:2:0:0:
177,217,180051,1,8,2:2:0:0:
364,312,180209,1,10,2:2:0:0:
285,384,180366,2,0,P|277:358|263:326,1,56.9999982604981,10|0,2:1|0:0,0:0:0:0:
389,178,180524,5,8,2:2:0:0:
474,251,180682,2,0,P|482:225|496:193,1,56.9999982604981,10|0,2:1|0:0,0:0:0:0:
351,41,180840,6,0,B|260:72|321:125|229:161,1,170.999994781494,14|0,2:1|0:0,0:0:0:0:
361,29,181156,2,0,B|424:10|462:62|462:62|460:104|501:127,1,170.999994781494,10|0,2:2|0:0,0:0:0:0:
481,112,181472,1,8,2:1:0:0:
389,178,181630,1,10,2:1:0:0:
254,63,181787,1,8,2:2:0:0:
131,220,181945,2,0,B|233:175|233:175|195:186|169:172,1,170.999994781494,10|0,2:1|0:0,0:0:0:0:
174,174,182261,1,10,2:1:0:0:
306,278,182419,6,0,B|400:311|334:355|443:386,1,170.999994781494,10|0,2:2|0:0,0:0:0:0:
432,382,182735,1,10,2:1:0:0:
512,303,182893,1,2,2:2:0:0:
379,217,183051,2,0,B|428:200|428:200|436:190|436:190|491:172,1,113.999996520996,8|0,2:2|0:0,0:0:0:0:
294,286,183366,5,10,2:1:0:0:
209,85,183524,1,8,2:2:0:0:
369,20,183682,5,8,2:2:0:0:
304,177,183840,5,8,2:2:0:0:
122,246,183998,1,10,2:1:0:0:
80,132,184156,1,8,2:1:0:0:
221,223,184314,5,8,2:2:0:0:
195,293,184472,5,10,2:1:0:0:
293,330,184630,1,2,2:2:0:0:
229,209,184787,1,8,2:1:0:0:
415,113,184945,5,10,2:2:0:0:
340,259,185103,1,8,2:2:0:0:
504,384,185261,5,10,2:1:0:0:
377,183,185419,1,8,2:1:0:0:
178,379,185577,2,0,B|265:343|265:343|279:299|233:279,1,170.999994781494,10|0,2:2|0:0,0:0:0:0:
162,384,185893,2,0,B|99:359|99:359|79:329|79:329|19:306,1,156.750004783631,10|0,2:1|0:0,0:0:0:0:
1,236,186209,6,0,B|13:185|13:185|20:177|20:177|31:127,1,104.500003189087,14|0,2:2|0:0,0:0:0:0:
145,198,186524,1,10,2:1:0:0:
86,254,186682,1,8,2:1:0:0:
210,315,186840,1,8,2:2:0:0:
288,170,186998,2,0,B|177:124|177:124|126:151|149:210,1,209.000006378174,8|8,2:1|2:1,0:0:0:0:
286,304,187472,5,10,2:2:0:0:
357,239,187630,1,0,0:0:0:0:
437,340,187787,1,10,2:1:0:0:
499,298,187945,1,2,2:2:0:0:
343,384,188103,2,0,B|291:368|291:368|261:331|261:331|207:313,1,156.750004783631,10|0,2:2|0:0,0:0:0:0:
132,350,188419,6,0,P|191:302|165:231,1,156.750004783631,10|0,2:1|0:0,0:0:0:0:
128,169,188735,2,0,B|145:94|145:94|154:85|154:85|167:20,1,156.750004783631,10|0,2:2|0:0,0:0:0:0:
167,19,189051,1,10,2:1:0:0:
238,69,189209,1,8,2:1:0:0:
113,174,189366,2,0,B|71:156|71:156|61:144|61:144|21:126,1,104.500003189087,10|8,2:2|2:1,0:0:0:0:
202,263,189682,2,0,B|244:245|244:245|254:233|254:233|294:215,1,104.500003189087,2|8,2:2|2:1,0:0:0:0:
481,149,189998,5,10,2:2:0:0:
359,86,190156,1,8,2:2:0:0:
293,215,190314,1,10,2:2:0:0:
222,186,190472,1,10,2:1:0:0:
419,276,190630,2,0,P|433:226|404:180,1,104.500003189087,10|8,2:2|2:1,0:0:0:0:
251,303,190945,6,0,B|158:328|209:364|122:385,1,156.750004783631,14|0,2:1|0:0,0:0:0:0:
49,361,191261,2,0,B|33:312|33:312|64:268,1,104.500003189087,10|0,2:2|0:0,0:0:0:0:
153,162,191577,1,10,2:1:0:0:
54,94,191735,1,8,2:1:0:0:
122,60,191893,2,0,B|166:77|166:77|174:85|174:85|218:101,1,104.500003189087,8|8,2:2|2:1,0:0:0:0:
273,236,192209,6,0,B|317:219|317:219|325:211|325:211|369:195,1,104.500003189087,2|8,2:2|2:1,0:0:0:0:
172,347,192524,2,0,B|157:294|157:294|158:284|158:284|145:235,1,104.500003189087,10|0,2:2|0:0,0:0:0:0:
12,305,192840,1,10,2:1:0:0:
77,342,192998,1,10,2:1:0:0:
193,172,193156,2,0,B|120:195|163:245|77:270,1,156.750004783631,10|0,2:2|0:0,0:0:0:0:
208,179,193472,6,0,B|264:201|264:201|283:238|283:238|340:260,1,156.750004783631,10|0,2:1|0:0,0:0:0:0:
334,257,193787,1,10,2:2:0:0:
433,160,193945,1,8,2:2:0:0:
309,133,194103,2,0,B|365:111|365:111|384:74|384:74|441:52,1,156.750004783631,8|0,2:1|0:0,0:0:0:0:
318,0,194419,6,0,L|302:50,1,52.2500015945435,10|0,2:2|0:0,0:0:0:0:
302,4,194577,2,0,L|286:54,1,52.2500015945435,8|0,2:1|0:0,0:0:0:0:
203,167,194735,2,0,B|157:152|157:152|147:139|147:139|101:122,1,104.500003189087,0|8,0:0|2:1,0:0:0:0:
12,241,195051,6,0,L|63:222,1,52.2500015945435,10|0,2:2|0:0,0:0:0:0:
26,251,195209,2,0,L|75:233,1,52.2500015945435,10|0,2:2|0:0,0:0:0:0:
209,179,195366,2,0,P|195:229|176:278,1,104.500003189087,10|8,2:1|2:1,0:0:0:0:
315,379,195682,2,0,P|328:328|347:279,1,104.500003189087,10|2,2:2|2:2,0:0:0:0:
209,179,195998,6,0,B|152:161|117:208|117:208|119:246|82:267,1,156.750004783631,14|0,2:1|0:0,0:0:0:0:
52,315,196314,2,0,P|19:272|36:211,1,104.500003189087,10|0,2:2|0:0,0:0:0:0:
184,252,196630,1,10,2:1:0:0:
209,179,196787,1,8,2:1:0:0:
96,97,196945,2,0,B|52:115|52:115|45:125|45:125|2:142,1,104.500003189087,8|8,2:2|2:1,0:0:0:0:
145,4,197261,2,0,B|189:22|189:22|196:32|196:32|239:49,1,104.500003189087,2|8,2:2|2:1,0:0:0:0:
350,149,197577,2,0,B|321:251|321:251|326:222|316:199,1,156.750004783631,10|0,2:2|0:0,0:0:0:0:
316,201,197893,5,10,2:1:0:0:
244,279,198051,1,10,2:1:0:0:
427,341,198209,2,0,B|417:293|417:293|418:283|418:283|407:236,1,104.500003189087,10|0,2:2|0:0,0:0:0:0:
237,143,198524,6,0,B|156:171|156:171|142:209|182:230,1,156.750004783631,10|0,2:1|0:0,0:0:0:0:
244,279,198840,2,0,B|232:326|232:326|234:337|234:337|222:384,1,104.500003189087,10|0,2:2|0:0,0:0:0:0:
147,312,199156,1,10,2:1:0:0:
85,362,199314,1,8,2:1:0:0:
0,217,199472,2,0,B|44:230|44:230|51:239|51:239|98:252,1,104.500003189087,10|8,2:2|2:1,0:0:0:0:
226,131,199787,2,0,B|182:144|182:144|175:153|175:153|128:166,1,104.500003189087,2|8,2:2|2:1,0:0:0:0:
267,296,200103,5,10,2:2:0:0:
364,213,200261,1,8,2:2:0:0:
238,121,200419,1,10,2:2:0:0:
297,67,200577,1,10,2:1:0:0:
437,158,200735,5,10,2:2:0:0:
474,62,200893,2,0,P|444:76|413:87,1,52.2500015945435,8|0,2:1|0:0,0:0:0:0:
286,184,201051,6,0,B|225:162|225:162|207:141|207:141|145:118,1,156.750004783631,14|0,2:1|0:0,0:0:0:0:
85,162,201366,2,0,B|59:207|59:207|83:259,1,104.500003189087,10|0,2:2|0:0,0:0:0:0:
170,290,201682,1,10,2:1:0:0:
233,242,201840,1,8,2:1:0:0:
334,358,201998,2,0,B|289:343|289:343|285:334|285:334|234:313,1,104.500003189087,8|8,2:2|2:1,0:0:0:0:
286,184,202314,6,0,B|331:169|331:169|335:160|335:160|386:139,1,104.500003189087,2|8,2:2|2:1,0:0:0:0:
219,35,202630,2,0,B|197:72|171:96|171:96|199:126|204:170,1,156.750004783631,10|0,2:2|0:0,0:0:0:0:
203,166,202945,1,10,2:1:0:0:
131,242,203103,1,10,2:1:0:0:
21,111,203261,2,0,B|62:126|62:126|67:135|67:135|116:154,1,104.500003189087,10|0,2:2|0:0,0:0:0:0:
249,288,203577,6,0,P|316:256|402:229,1,156.750004783631,10|0,2:1|0:0,0:0:0:0:
437,172,203893,2,0,L|417:115,1,52.2500015945435,10|0,2:2|0:0,0:0:0:0:
444,163,204051,2,0,L|424:106,1,52.2500015945435,8|0,2:2|0:0,0:0:0:0:
339,52,204209,5,8,2:1:0:0:
280,97,204366,1,8,2:1:0:0:
156,4,204524,1,10,2:2:0:0:
49,96,204682,2,0,B|71:180|71:180|64:217|64:217|87:302,1,209.000006378174,8|8,2:1|2:1,0:0:0:0:
235,257,205156,6,0,L|179:236,1,52.2500015945435,10|0,2:2|0:0,0:0:0:0:
228,242,205314,2,0,L|172:221,1,52.2500015945435,10|0,2:2|0:0,0:0:0:0:
215,135,205472,5,10,2:1:0:0:
280,97,205630,1,8,2:1:0:0:
418,184,205787,5,10,2:2:0:0:
289,102,205945,1,2,2:2:0:0:
