osu file format v14

[General]
AudioFilename: audio.mp3
AudioLeadIn: 0
PreviewTime: 109695
Countdown: 0
SampleSet: Soft
StackLeniency: 0.7
Mode: 0
LetterboxInBreaks: 0
WidescreenStoryboard: 0

[Editor]
Bookmarks: 36701,134536,134727,134918,135109,135682,135873,136064,136256,136829,137020,137211,137593,137784,137975,138166,138740,138931,139122,139313,139886,140077,140268,140650,140842,141033,141224,141797,141988,142179,142370,142943,143135,143326,143708,143899,144090,144281,144854,145045,145236,145428,146001,146192,146383,146765
DistanceSpacing: 4.1
BeatDivisor: 4
GridSize: 16
TimelineZoom: 2

[Metadata]
Title:Odoriko
TitleUnicode:踊り子
Artist:Vaundy
ArtistUnicode:Vaundy
Creator:Ducknorriss
Version:Spinning
Source:
Tags:jpop j-pop jrock j-rock japanese pop rock バウンディ replica Sunflowers tycani fuiba fuyu
BeatmapID:3896717
BeatmapSetID:1891267

[Difficulty]
HPDrainRate:4.5
CircleSize:4.4
OverallDifficulty:8.7
ApproachRate:9
SliderMultiplier:2
SliderTickRate:1

[Events]
//Background and Video events
0,0,"seroshii.jpg",0,0
//Break Periods
2,135052,146001
2,159319,161768
//Storyboard Layer 0 (Background)
//Storyboard Layer 1 (Fail)
//Storyboard Layer 2 (Pass)
//Storyboard Layer 3 (Foreground)
//Storyboard Layer 4 (Overlay)
//Storyboard Sound Samples

[TimingPoints]
330,382.165605095541,4,2,1,40,1,0
330,-105.263157894737,4,2,1,40,0,0
616,-105.263157894737,4,2,1,5,0,0
712,-105.263157894737,4,2,1,40,0,0
2909,-105.263157894737,4,2,1,5,0,0
3005,-100,4,2,1,40,0,0
3291,-100,4,2,1,5,0,0
3387,-90.9090909090909,4,2,1,40,0,0
3673,-90.9090909090909,4,2,1,5,0,0
3769,-90.9090909090909,4,2,1,40,0,0
5966,-90.9090909090909,4,2,1,5,0,0
6062,-90.9090909090909,4,2,1,40,0,0
6349,-90.9090909090909,4,2,1,5,0,0
6444,-90.9090909090909,4,2,1,40,0,0
6731,-90.9090909090909,4,2,1,5,0,0
6826,-90.9090909090909,4,2,1,40,0,0
8737,-100,4,2,1,40,0,0
9024,-100,4,2,1,5,0,0
9119,-100,4,2,1,40,0,0
9406,-100,4,2,1,5,0,0
9501,-83.3333333333333,4,2,1,40,0,0
9788,-83.3333333333333,4,2,1,5,0,0
9884,-83.3333333333333,4,2,1,40,0,0
11794,-125,4,2,1,40,0,0
12177,-200,4,2,1,40,0,0
12559,-90.9090909090909,4,2,1,40,0,0
12845,-90.9090909090909,4,2,1,5,0,0
12941,-90.9090909090909,4,2,1,40,0,0
14183,-90.9090909090909,4,2,1,5,0,0
14279,-90.9090909090909,4,2,1,40,0,0
15138,-90.9090909090909,4,2,1,5,0,0
15234,-90.9090909090909,4,2,1,40,0,0
17240,-90.9090909090909,4,2,1,5,0,0
17336,-90.9090909090909,4,2,1,40,0,0
18578,-90.9090909090909,4,2,1,5,0,0
18673,-90.9090909090909,4,2,1,40,0,0
18960,-90.9090909090909,4,2,1,5,0,0
19056,-90.9090909090909,4,2,1,40,0,0
22017,-90.9090909090909,4,2,1,5,0,0
22113,-90.9090909090909,4,2,1,40,0,0
24024,-111.111111111111,4,2,1,40,0,0
24406,-166.666666666666,4,2,1,40,0,0
24788,-90.9090909090907,4,2,1,40,0,0
25075,-90.9090909090907,4,2,1,5,0,0
25170,-90.9090909090907,4,2,1,40,0,0
26412,-90.9090909090907,4,2,1,5,0,0
26508,-90.9090909090907,4,2,1,40,0,0
27368,-90.9090909090907,4,2,1,5,0,0
27463,-90.9090909090907,4,2,1,40,0,0
29470,-90.9090909090907,4,2,1,5,0,0
29565,-90.9090909090907,4,2,1,40,0,0
30807,-90.9090909090907,4,2,1,5,0,0
30903,-90.9090909090907,4,2,1,40,0,0
31572,-90.9090909090907,4,2,1,5,0,0
31667,-90.9090909090907,4,2,1,40,0,0
33482,-90.9090909090907,4,2,1,5,0,0
33578,-90.9090909090907,4,2,1,40,0,0
33865,-90.9090909090907,4,2,1,5,0,0
33960,-90.9090909090907,4,2,1,40,0,0
34247,-90.9090909090907,4,2,1,5,0,0
34342,-90.9090909090907,4,2,1,40,0,0
36635,-142.857142857143,4,2,1,40,0,0
36922,-142.857142857143,4,2,1,5,0,0
37017,-83.3333333333333,4,2,1,40,0,0
38546,-83.3333333333333,4,2,1,40,0,0
38833,-83.3333333333333,4,2,1,5,0,0
38930,-83.3333333333333,4,2,1,40,0,0
39979,-83.3333333333333,4,2,1,5,0,0
40075,-71.4285714285714,4,2,1,40,0,0
40361,-71.4285714285714,4,2,1,5,0,0
40457,-83.3333333333333,4,2,1,40,0,0
42559,-71.4285714285714,4,2,1,40,0,0
42654,-71.4285714285714,4,2,1,5,0,0
42750,-71.4285714285714,4,2,1,40,0,0
43037,-71.4285714285714,4,2,1,5,0,0
43132,-83.3333333333333,4,2,1,40,0,0
43896,-76.9230769230769,4,2,1,40,0,0
44183,-76.9230769230769,4,2,1,5,0,0
44279,-76.9230769230769,4,2,1,40,0,0
46189,-71.4285714285714,4,2,1,40,0,0
46476,-71.4285714285714,4,2,1,5,0,0
46572,-71.4285714285714,4,2,1,40,0,0
49820,-83.3333333333333,4,2,1,40,0,0
50775,-83.3333333333333,4,2,1,40,0,0
51062,-83.3333333333333,4,2,1,5,0,0
51158,-83.3333333333333,4,2,1,40,0,0
52304,-71.4285714285714,4,2,1,40,0,0
52591,-71.4285714285714,4,2,1,5,0,0
52686,-71.4285714285714,4,2,1,40,0,0
53833,-83.3333333333333,4,2,1,40,0,0
54788,-71.4285714285714,4,2,1,40,0,0
54884,-71.4285714285714,4,2,1,5,0,0
54979,-71.4285714285714,4,2,1,40,0,0
55266,-71.4285714285714,4,2,1,5,0,0
55361,-76.9230769230769,4,2,1,40,0,0
56412,-71.4285714285714,4,2,1,5,0,0
56508,-76.9230769230769,4,2,1,40,0,0
58419,-71.4285714285714,4,2,1,40,0,0
58705,-71.4285714285714,4,2,1,5,0,0
58801,-71.4285714285714,4,2,1,40,0,0
59470,-71.4285714285714,4,2,1,5,0,0
59565,-71.4285714285714,4,2,1,40,0,0
61476,-71.4285714285714,4,2,2,40,0,0
62049,-83.3333333333333,4,2,2,40,0,0
62622,-71.4285714285714,4,2,2,40,0,0
63196,-83.3333333333333,4,2,2,40,0,0
63960,-66.6666666666667,4,2,2,40,0,0
64533,-71.4285714285714,4,2,2,40,0,0
65107,-83.3333333333333,4,2,2,40,0,0
65680,-71.4285714285714,4,2,2,40,0,0
66253,-83.3333333333333,4,2,2,40,0,0
67017,-55.5555555555556,4,2,2,40,0,0
67208,-71.4285714285714,4,2,2,40,0,0
68164,-83.3333333333333,4,2,2,40,0,0
68737,-71.4285714285714,4,2,2,40,0,0
69310,-83.3333333333333,4,2,2,40,0,0
70075,-52.6315789473684,4,2,2,40,0,0
70266,-66.6666666666667,4,2,2,40,0,0
70648,-71.4285714285714,4,2,2,40,0,0
71221,-83.3333333333333,4,2,2,40,0,0
71794,-71.4285714285714,4,2,2,40,0,0
72368,-83.3333333333333,4,2,2,40,0,0
72941,-66.6666666666667,4,2,2,40,0,0
73705,-142.857142857143,4,2,1,40,0,0
80107,-142.857142857143,4,2,1,5,0,0
80202,-142.857142857143,4,2,1,40,0,0
81635,-142.857142857143,4,2,1,5,0,0
81731,-166.666666666667,4,2,1,40,0,0
82113,-200,4,2,1,40,0,0
85935,-100,4,2,1,40,0,0
88992,-125,4,2,1,40,0,0
91667,-100,4,2,1,40,0,0
91954,-100,4,2,1,5,0,0
92049,-125,4,2,1,40,0,0
95107,-111.111111111111,4,2,1,40,0,0
97782,-142.857142857143,4,2,1,40,0,0
98164,-71.4285714285714,4,2,1,40,0,0
98737,-100,4,2,1,40,0,0
99682,-71.4285714285714,4,2,1,40,0,0
100266,-100,4,2,1,40,0,0
101221,-83.3333333333333,4,2,1,40,0,0
101317,-83.3333333333333,4,2,1,5,0,0
101412,-83.3333333333333,4,2,1,40,0,0
101508,-83.3333333333333,4,2,1,5,0,0
101603,-83.3333333333333,4,2,1,40,0,0
104279,-71.4285714285714,4,2,1,40,0,0
104852,-100,4,2,1,40,0,0
105616,-71.4285714285714,4,2,1,40,0,0
106380,-100,4,2,1,40,0,0
107336,-83.3333333333333,4,2,1,40,0,0
107431,-83.3333333333333,4,2,1,5,0,0
107527,-83.3333333333333,4,2,1,40,0,0
107622,-83.3333333333333,4,2,1,5,0,0
107718,-83.3333333333333,4,2,1,40,0,0
112208,-83.3333333333333,4,2,1,5,0,0
112304,-83.3333333333333,4,2,1,40,0,0
113355,-83.3333333333333,4,2,1,5,0,0
113451,-71.4285714285714,4,2,1,40,0,0
113737,-71.4285714285714,4,2,1,5,0,0
113833,-71.4285714285714,4,2,1,40,0,0
114979,-83.3333333333333,4,2,1,40,0,0
115935,-71.4285714285714,4,2,1,40,0,0
116030,-71.4285714285714,4,2,1,5,0,0
116126,-71.4285714285714,4,2,1,40,0,0
116412,-71.4285714285714,4,2,1,5,0,0
116508,-83.3333333333333,4,2,1,40,0,0
117272,-76.9230769230769,4,2,1,40,0,0
117559,-83.3333333333333,4,2,1,5,0,0
117654,-83.3333333333333,4,2,1,40,0,0
119565,-71.4285714285714,4,2,1,40,0,0
119852,-71.4285714285714,4,2,1,5,0,0
119947,-71.4285714285714,4,2,1,40,0,0
120329,-71.4285714285714,4,2,1,40,0,0
120616,-71.4285714285714,4,2,1,5,0,0
120712,-71.4285714285714,4,2,1,40,0,0
122622,-83.3333333333333,4,2,1,40,0,0
124438,-83.3333333333333,4,2,1,5,0,0
124533,-83.3333333333333,4,2,1,40,0,0
125584,-83.3333333333333,4,2,1,5,0,0
125680,-71.4285714285714,4,2,1,40,0,0
125966,-71.4285714285714,4,2,1,5,0,0
126062,-83.3333333333333,4,2,1,40,0,0
128164,-71.4285714285714,4,2,1,40,0,0
128259,-71.4285714285714,4,2,1,5,0,0
128355,-71.4285714285714,4,2,1,40,0,0
128642,-71.4285714285714,4,2,1,5,0,0
128737,-83.3333333333333,4,2,1,40,0,0
129501,-76.9230769230769,4,2,1,40,0,0
129788,-76.9230769230769,4,2,1,5,0,0
129884,-83.3333333333333,4,2,1,40,0,0
131794,-71.4285714285714,4,2,1,40,0,0
132081,-71.4285714285714,4,2,1,5,0,0
132177,-71.4285714285714,4,2,1,40,0,0
132845,-71.4285714285714,4,2,1,5,0,0
132941,-71.4285714285714,4,2,1,40,0,0
133323,-83.3333333333333,4,2,1,40,0,0
147081,-100,4,2,1,35,0,0
162368,-71.4285714285714,4,2,1,40,0,1
164183,-71.4285714285714,4,2,1,10,0,1
164279,-71.4285714285714,4,2,1,40,0,1
165329,-71.4285714285714,4,2,1,5,0,1
165425,-71.4285714285714,4,2,1,40,0,1
166954,-83.3333333333333,4,2,1,40,0,1
167909,-71.4285714285714,4,2,1,40,0,1
168005,-71.4285714285714,4,2,1,5,0,1
168100,-71.4285714285714,4,2,1,40,0,1
168387,-71.4285714285714,4,2,1,5,0,1
168482,-71.4285714285714,4,2,1,40,0,1
168865,-83.3333333333333,4,2,1,40,0,1
169247,-71.4285714285714,4,2,1,40,0,1
169533,-71.4285714285714,4,2,1,5,0,1
169629,-83.3333333333333,4,2,1,40,0,1
171540,-71.4285714285714,4,2,1,40,0,1
171826,-71.4285714285714,4,2,1,5,0,1
171922,-71.4285714285714,4,2,1,40,0,1
172591,-71.4285714285714,4,2,1,5,0,1
172686,-71.4285714285714,4,2,1,40,0,1
176412,-71.4285714285714,4,2,1,5,0,1
176508,-71.4285714285714,4,2,1,40,0,1
177559,-71.4285714285714,4,2,1,5,0,1
177654,-71.4285714285714,4,2,1,40,0,1
180234,-71.4285714285714,4,2,1,5,0,1
180329,-71.4285714285714,4,2,1,40,0,1
180616,-71.4285714285714,4,2,1,5,0,1
180712,-83.3333333333333,4,2,1,40,0,1
181476,-71.4285714285714,4,2,1,40,0,1
181763,-71.4285714285714,4,2,1,5,0,1
181858,-83.3333333333333,4,2,1,40,0,1
183769,-71.4285714285714,4,2,1,40,0,1
184056,-71.4285714285714,4,2,1,5,0,1
184151,-71.4285714285714,4,2,1,40,0,1
186826,-83.3333333333333,4,2,2,40,0,1
189310,-58.8235294117647,4,2,2,40,0,1
189501,-66.6666666666667,4,2,2,40,0,1
190648,-76.9230769230769,4,2,2,40,0,1
192368,-62.5,4,2,2,40,0,1
192559,-71.4285714285714,4,2,2,40,0,1
193705,-83.3333333333333,4,2,2,40,0,1
194087,-71.4285714285714,4,2,2,40,0,1
195425,-58.8235294117647,4,2,2,40,0,1
195998,-83.3333333333333,4,2,2,40,0,1
201540,-50,4,2,2,40,0,1
201731,-62.5,4,2,2,40,0,1
202877,-71.4285714285714,4,2,2,40,0,1
204597,-62.5,4,2,2,40,0,1
204788,-71.4285714285714,4,2,2,40,0,1
205170,-83.3333333333333,4,2,2,40,0,1
207463,-71.4285714285714,4,2,2,40,0,1
207654,-58.8235294117647,4,2,2,40,0,1
208228,-71.4285714285714,4,2,2,40,0,1
210521,-83.3333333333333,4,2,2,40,0,1
211285,-66.6666666666667,4,2,2,40,0,1
211858,-76.9230769230769,4,2,2,40,0,1
212431,-66.6666666666667,4,2,2,40,0,1
213005,-76.9230769230769,4,2,2,40,0,1
213769,-58.8235294117647,4,2,2,40,0,1
213960,-66.6666666666667,4,2,2,40,0,1
214915,-76.9230769230769,4,2,2,40,0,1
215489,-66.6666666666667,4,2,2,40,0,1
216062,-76.9230769230769,4,2,2,40,0,1
216826,-55.5555555555556,4,2,2,40,0,1
217017,-66.6666666666667,4,2,2,40,0,1
217973,-76.9230769230769,4,2,2,40,0,1
218546,-66.6666666666667,4,2,2,40,0,1
219119,-76.9230769230769,4,2,2,40,0,1
219884,-58.8235294117647,4,2,2,40,0,1
220457,-66.6666666666667,4,2,2,40,0,1
221030,-76.9230769230769,4,2,2,40,0,1
221603,-66.6666666666667,4,2,2,40,0,1
222177,-76.9230769230769,4,2,2,40,0,1
222941,-62.5,4,2,2,40,0,1
223132,-76.9230769230769,4,2,2,40,0,1
223514,-83.3333333333333,4,2,1,40,0,0

[Colours]
Combo1 : 167,216,177
Combo2 : 46,190,190
Combo3 : 85,217,118
Combo4 : 166,200,217

[HitObjects]
381,72,330,38,0,P|304:66|225:55,1,142.49999619484,0|0,3:2|0:2,0:2:0:0:
221,55,712,5,0,1:2:0:0:
240,157,903,1,0,2:2:0:0:
134,112,1094,1,0,3:2:0:0:
138,136,1285,1,0,2:2:0:0:
338,153,1476,37,0,1:2:0:0:
319,255,1667,1,0,2:2:0:0:
425,210,1858,1,0,3:2:0:0:
421,234,2049,1,0,2:2:0:0:
221,289,2240,5,0,1:2:0:0:
299,356,2431,1,0,2:2:0:0:
211,282,2622,38,0,L|62:263,1,142.49999619484,0|0,3:2|0:2,0:2:0:0:
0,308,3005,2,0,B|11:294|28:287|28:287|44:164,1,150,0|0,1:2|0:2,0:2:0:0:
43,67,3387,2,0,B|79:91|79:91|89:173|89:173|145:200,1,165.000005035401,0|0,3:2|0:2,0:2:0:0:
142,187,3769,5,0,1:2:0:0:
162,85,3960,1,0,2:2:0:0:
244,166,4151,1,0,3:2:0:0:
249,142,4342,1,0,2:2:0:0:
420,117,4533,37,0,1:2:0:0:
400,15,4724,1,0,2:2:0:0:
318,96,4915,1,0,3:2:0:0:
313,72,5107,1,0,2:2:0:0:
142,47,5298,5,0,1:2:0:0:
249,142,5489,1,0,0:2:0:0:
244,26,5680,1,0,3:2:0:0:
142,187,5871,38,0,L|154:250,1,55.0000016784668,0|0,0:2|0:2,0:2:0:0:
218,293,6062,2,0,B|103:271|103:271|74:278|65:305,1,165.000005035401,0|0,1:2|0:2,0:2:0:0:
125,371,6444,2,0,B|324:351,1,165.000005035401,0|0,3:2|0:2,0:2:0:0:
308,354,6826,5,0,1:2:0:0:
289,252,7017,1,0,2:2:0:0:
395,297,7208,1,0,3:2:0:0:
391,273,7400,1,0,2:2:0:0:
220,175,7591,37,0,1:2:0:0:
240,73,7782,1,0,2:2:0:0:
322,154,7973,1,0,3:2:0:0:
327,130,8164,1,0,2:2:0:0:
132,244,8355,5,0,1:2:0:0:
112,142,8546,1,0,2:2:0:0:
212,359,8737,38,0,P|286:347|360:343,1,150,0|0,3:2|0:2,2:2:0:0:
446,282,9119,2,0,P|371:270|297:266,1,150,0|0,1:2|0:2,0:2:0:0:
222,278,9501,2,0,B|211:224|256:191|253:208|303:178|275:86,1,179.999994506836,0|0,3:2|0:2,0:2:0:0:
280,101,9884,5,0,1:2:0:0:
378,67,10075,1,0,2:2:0:0:
349,178,10266,1,0,3:2:0:0:
372,171,10457,1,0,2:2:0:0:
156,0,10648,37,0,1:2:0:0:
257,21,10839,1,0,2:2:0:0:
175,101,11030,1,0,3:2:0:0:
198,107,11221,1,0,2:2:0:0:
59,213,11412,5,0,1:2:0:0:
157,179,11603,1,0,2:2:0:0:
104,278,11794,2,0,P|99:308|94:363,1,80,0|0,3:2|0:2,0:2:0:0:
434,98,12177,6,0,P|438:74|442:28,1,50,2|0,1:2|0:2,0:2:0:0:
441,49,12559,6,0,P|367:62|274:91,1,165.000005035401,2|0,3:2|0:2,0:2:0:0:
267,100,12941,5,0,1:2:0:0:
233,2,13132,1,0,2:2:0:0:
337,8,13323,1,0,3:2:0:0:
344,31,13514,1,0,2:2:0:0:
195,85,13705,21,0,1:2:0:0:
329,196,13896,2,0,P|250:171|169:155,1,165.000005035401,2|0,0:2|0:2,0:2:0:0:
155,161,14279,37,0,2:2:0:0:
174,284,14470,1,0,1:2:0:0:
73,250,14661,1,0,0:2:0:0:
241,369,14852,2,0,B|268:351|276:321|276:321|397:288,1,165.000005035401,0|0,3:2|0:2,0:2:0:0:
398,303,15234,21,0,1:2:0:0:
398,303,15425,1,0,0:2:0:0:
264,122,15616,2,0,P|254:185|251:234,1,110.000003356934,2|0,3:2|0:2,0:2:0:0:
421,56,15998,2,0,P|411:119|408:168,1,110.000003356934,2|0,1:2|0:2,0:2:0:0:
124,0,16380,2,0,P|114:63|111:112,1,110.000003356934,2|0,3:2|0:2,0:2:0:0:
157,306,16763,1,0,1:2:0:0:
25,185,16954,2,0,P|116:142|210:125,1,165.000005035401,2|0,0:2|0:2,0:2:0:0:
197,133,17336,5,0,2:2:0:0:
278,222,17527,1,0,1:2:0:0:
302,104,17718,1,0,0:2:0:0:
310,365,17909,22,0,P|239:339|227:306,1,110.000003356934,2|0,3:2|0:2,0:2:0:0:
410,32,18291,2,0,P|471:92|448:191,1,165.000005035401,2|0,1:2|0:2,0:2:0:0:
496,233,18673,2,0,P|443:301|342:290,1,165.000005035401,2|0,3:2|0:2,0:2:0:0:
359,294,19056,2,0,P|358:209|352:157,1,110.000003356934,0|0,1:2|0:2,0:2:0:0:
153,14,19438,5,2,3:2:0:0:
270,120,19629,1,0,0:2:0:0:
263,0,19820,2,0,P|259:54|259:109,1,110.000003356934,0|0,1:2|0:2,0:2:0:0:
125,330,20202,37,2,3:2:0:0:
200,213,20393,1,0,0:2:0:0:
25,123,20584,2,0,P|28:177|28:232,1,110.000003356934,0|0,1:2|0:2,0:2:0:0:
253,324,20966,2,0,P|198:320|143:320,1,110.000003356934,2|0,3:2|0:2,0:2:0:0:
149,106,21349,2,0,P|203:105|258:109,1,110.000003356934,2|0,1:2|0:2,0:2:0:0:
493,352,21731,2,0,P|458:308|445:172,1,165.000005035401,2|0,3:2|0:2,0:2:0:0:
447,191,22113,37,0,1:2:0:0:
455,86,22304,1,0,2:2:0:0:
356,118,22495,1,0,3:2:0:0:
354,141,22686,1,0,2:2:0:0:
225,111,22877,21,2,1:2:0:0:
271,277,23068,2,0,P|274:217|275:150,1,110.000003356934,2|0,0:2|3:2,0:2:0:0:
224,88,23451,5,0,2:2:0:0:
104,50,23642,1,0,1:2:0:0:
112,155,23833,1,0,2:2:0:0:
298,89,24024,2,0,P|295:29|294:-38,1,89.9999972534181,0|0,3:2|0:2,0:2:0:0:
40,292,24406,22,0,P|42:333|42:380,1,59.9999981689454,2|0,1:2|0:2,0:2:0:0:
42,351,24788,6,0,P|124:343|223:321,1,165.000005035401,2|0,3:2|0:2,0:2:0:0:
214,319,25170,5,0,1:2:0:0:
235,215,25361,1,0,2:2:0:0:
321,273,25552,1,0,3:2:0:0:
317,296,25744,1,0,2:2:0:0:
457,357,25935,21,0,1:2:0:0:
411,250,26126,2,0,P|329:242|230:220,1,165.000005035401,2|0,0:2|0:2,0:2:0:0:
235,215,26508,37,0,0:2:0:0:
309,42,26699,1,0,1:2:0:0:
326,147,26890,1,0,2:2:0:0:
478,0,27081,2,0,B|452:34|452:34|433:180,1,165.000005035401,0|0,3:2|0:2,0:2:0:0:
448,177,27463,21,0,1:2:0:0:
448,177,27654,1,0,0:2:0:0:
309,273,27845,2,0,P|400:283|437:292,1,110.000003356934,2|0,3:2|0:2,0:2:0:0:
185,151,28228,2,0,P|276:161|313:170,1,110.000003356934,2|0,1:2|0:2,0:2:0:0:
45,311,28610,2,0,P|136:321|173:330,1,110.000003356934,2|0,3:2|0:2,0:2:0:0:
296,384,28992,1,0,1:2:0:0:
195,250,29183,2,0,P|124:207|47:178,1,165.000005035401,2|0,0:2|0:2,0:2:0:0:
37,185,29565,5,0,0:2:0:0:
185,151,29756,1,0,1:2:0:0:
106,242,29947,1,0,2:2:0:0:
348,83,30138,22,0,P|271:87|244:134,1,110.000003356934,2|0,3:2|0:2,0:2:0:0:
378,331,30521,2,0,P|374:197|387:131,1,165.000005035401,2|0,1:2|0:2,0:2:0:0:
396,147,30903,2,0,P|473:151|500:198,1,110.000003356934,2|0,3:2|0:2,0:2:0:0:
238,372,31285,2,0,P|242:238|229:172,1,165.000005035401,0|0,1:2|0:2,0:2:0:0:
227,188,31667,2,0,P|170:177|99:157,1,110.000003356934,2|0,3:2|0:2,0:2:0:0:
0,354,32049,2,0,P|53:339|107:329,1,110.000003356934,0|0,1:2|0:2,0:2:0:0:
352,261,32431,5,2,3:2:0:0:
226,363,32622,1,0,0:2:0:0:
365,384,32814,2,0,P|368:303|360:248,1,110.000003356934,0|0,1:2|0:2,0:2:0:0:
452,22,33196,38,0,P|363:41|287:81,1,165.000005035401,2|0,3:2|0:2,0:2:0:0:
283,85,33578,2,0,P|194:66|118:26,1,165.000005035401,2|0,1:2|0:2,0:2:0:0:
112,22,33960,2,0,B|79:33|79:33|35:102|97:177,1,165.000005035401,2|0,3:2|0:2,0:2:0:0:
95,164,34342,37,0,1:2:0:0:
199,152,34533,1,0,2:2:0:0:
169,252,34724,1,0,3:2:0:0:
145,254,34915,1,0,2:2:0:0:
285,209,35107,21,2,1:2:0:0:
221,384,35298,2,0,P|227:327|239:269,1,110.000003356934,2|0,0:2|3:2,0:2:0:0:
309,207,35680,5,0,2:2:0:0:
427,299,35871,1,0,1:2:0:0:
323,311,36062,1,0,2:2:0:0:
471,153,36253,1,0,3:2:0:0:
174,61,36635,6,0,P|208:61|174:62,1,104.999996795654,2|0,0:2|0:2,0:2:0:0:
165,72,37017,5,6,3:2:0:0:
325,140,37208,1,2,0:2:0:0:
101,206,37400,1,0,1:2:0:0:
339,129,37591,2,0,P|416:138|483:172,1,119.999996337891,2|0,0:2|3:2,0:2:0:0:
246,60,37973,2,0,P|315:55|378:26,1,119.999996337891,0|0,0:2|1:2,0:2:0:0:
173,18,38355,1,0,0:2:0:0:
0,170,38546,6,0,P|118:166|144:89,1,179.999994506836,2|0,3:2|0:2,0:2:0:0:
137,101,38928,2,0,P|60:92|-3:76,1,119.999996337891,0|0,1:2|0:2,0:2:0:0:
200,241,39310,2,0,P|209:164|225:101,1,119.999996337891,0|0,3:2|0:2,0:2:0:0:
93,304,39693,2,0,P|211:317|308:342,1,179.999994506836,2|0,1:2|0:2,0:2:0:0:
331,372,40075,38,0,B|396:375|416:319|411:313|426:250|512:260,1,209.999993591309,2|0,3:2|0:2,0:2:0:0:
512,264,40457,5,2,1:2:0:0:
469,81,40648,1,0,0:2:0:0:
379,231,40839,37,2,3:2:0:0:
372,122,41030,1,0,0:2:0:0:
251,240,41221,5,2,1:2:0:0:
292,32,41412,1,0,0:2:0:0:
60,56,41603,38,0,P|84:130|98:218,1,119.999996337891,2|0,3:2|0:2,0:2:0:0:
138,263,41986,21,0,1:2:0:0:
138,263,42177,1,0,0:2:0:0:
310,220,42368,37,2,3:2:0:0:
211,361,42559,22,0,L|220:288,1,69.9999978637696,0|0,0:2|0:2,0:2:0:0:
288,144,42750,2,0,L|304:353,1,209.999993591309,0|0,1:2|0:2,0:2:0:0:
317,371,43132,5,6,3:2:0:0:
374,254,43323,1,2,0:2:0:0:
512,292,43514,2,0,P|472:218|478:157,1,119.999996337891,0|0,1:2|0:2,0:2:0:0:
512,14,43896,2,0,P|403:74|302:84,1,194.999991073609,2|0,3:2|0:2,0:2:0:0:
323,72,44279,2,0,P|252:56|181:44,1,129.999994049073,0|0,1:2|0:2,0:2:0:0:
93,216,44661,5,2,3:2:0:0:
54,90,44852,1,0,0:2:0:0:
227,169,45043,5,0,1:2:0:0:
227,169,45234,1,0,0:2:0:0:
257,84,45425,21,2,3:2:0:0:
151,176,45616,1,2,0:2:0:0:
314,218,45807,2,0,P|341:289|314:351,1,129.999994049073,0|0,1:2|0:2,0:2:0:0:
213,119,46189,6,0,P|313:143|433:160,1,209.999993591309,2|0,3:2|0:2,0:2:0:0:
486,121,46572,2,0,P|457:35|452:-19,1,139.999995727539,0|0,1:2|0:2,0:2:0:0:
160,173,46954,2,0,P|189:259|194:313,1,139.999995727539,2|0,3:2|0:2,0:2:0:0:
389,370,47336,2,0,P|398:300|422:235,1,139.999995727539,0|0,1:2|0:2,0:2:0:0:
504,53,47718,37,2,3:2:0:0:
380,87,47909,1,0,0:2:0:0:
357,195,48100,5,2,1:2:0:0:
172,81,48291,1,0,0:2:0:0:
213,143,48482,37,2,3:2:0:0:
93,173,48673,1,0,0:2:0:0:
171,216,48865,21,0,1:2:0:0:
171,216,49056,1,0,0:2:0:0:
44,114,49247,37,6,3:2:0:0:
58,288,49438,1,2,0:2:0:0:
32,105,49629,1,0,1:2:0:0:
147,321,49820,38,0,P|235:331|294:352,1,119.999996337891,2|0,0:2|3:2,0:2:0:0:
512,191,50202,2,0,P|442:196|375:217,1,119.999996337891,0|0,0:2|1:2,0:2:0:0:
329,272,50584,1,0,0:2:0:0:
290,0,50775,6,0,P|399:12|426:111,1,179.999994506836,2|0,3:2|0:2,0:2:0:0:
392,137,51158,2,0,P|325:116|255:111,1,119.999996337891,0|0,1:2|0:2,0:2:0:0:
164,307,51540,2,0,P|168:237|189:170,1,119.999996337891,0|0,3:2|0:2,0:2:0:0:
57,0,51922,2,0,P|77:66|82:136,1,119.999996337891,2|0,1:2|0:2,0:2:0:0:
411,316,52304,38,0,B|331:330|328:270|315:288|314:217|218:243,1,209.999993591309,2|0,3:2|0:2,0:2:0:0:
210,250,52686,5,2,1:2:0:0:
343,161,52877,1,0,0:2:0:0:
153,101,53068,37,2,3:2:0:0:
256,128,53259,1,0,0:2:0:0:
84,42,53451,5,2,1:2:0:0:
267,25,53642,1,0,0:2:0:0:
233,350,53833,38,0,P|239:248|246:199,1,119.999996337891,2|0,3:2|0:2,0:2:0:0:
357,82,54215,21,0,1:2:0:0:
357,82,54406,1,0,0:2:0:0:
408,169,54597,37,2,3:2:0:0:
332,5,54788,6,0,L|409:11,1,69.9999978637696,0|0,0:2|0:2,0:2:0:0:
481,140,54979,2,0,B|337:159|337:159|305:130|257:144,1,209.999993591309,0|0,1:2|0:2,0:2:0:0:
260,147,55361,21,6,3:2:0:0:
402,220,55552,1,2,0:2:0:0:
202,61,55744,2,0,P|170:128|179:205,1,129.999994049073,0|0,1:2|0:2,0:2:0:0:
165,375,56126,2,0,B|231:407|269:304|256:327|297:309|311:302|336:314,1,194.999991073609,2|0,3:2|0:2,0:2:0:0:
355,330,56508,2,0,P|355:261|323:198,1,129.999994049073,0|0,1:2|0:2,0:2:0:0:
304,18,56890,5,2,3:2:0:0:
260,147,57081,1,0,0:2:0:0:
374,98,57272,5,0,1:2:0:0:
374,98,57463,1,0,0:2:0:0:
209,45,57654,21,2,3:2:0:0:
310,215,57845,1,2,0:2:0:0:
200,28,58037,2,0,P|121:32|86:81,1,129.999994049073,0|0,1:2|0:2,0:2:0:0:
86,332,58419,6,0,P|246:349|346:372,1,209.999993591309,2|0,3:2|0:2,0:2:0:0:
314,351,58801,2,0,P|326:288|266:248,1,139.999995727539,0|0,1:2|0:2,0:2:0:0:
181,115,59183,2,0,P|341:98|441:75,1,209.999993591309,2|0,3:2|0:2,0:2:0:0:
409,96,59565,2,0,P|421:159|361:199,1,139.999995727539,0|0,1:2|0:2,0:2:0:0:
197,19,59947,37,2,3:2:0:0:
285,178,60138,1,0,0:2:0:0:
158,90,60329,5,2,1:2:0:0:
138,177,60521,1,0,0:2:0:0:
77,39,60712,37,2,3:2:0:0:
232,113,60903,1,0,0:2:0:0:
49,122,61094,5,2,1:2:0:0:
265,44,61285,1,0,0:2:0:0:
333,372,61476,38,0,P|336:303|334:287,1,69.9999978637696,6|0,3:2|0:2,0:2:0:0:
288,248,61667,2,0,P|285:179|287:163,1,69.9999978637696,2|0,0:2|0:2,0:2:0:0:
439,134,61858,2,0,P|442:65|440:49,1,69.9999978637696,2|0,1:2|0:2,0:2:0:0:
374,0,62049,2,0,P|369:90|371:289,1,239.999992675781,2|0,0:2|0:2,0:2:0:0:
230,384,62622,6,0,P|227:315|229:299,1,69.9999978637696,2|0,1:2|0:2,0:2:0:0:
275,260,62814,2,0,P|278:191|276:175,1,69.9999978637696,2|0,0:2|0:2,0:2:0:0:
124,146,63005,2,0,P|121:77|123:61,1,69.9999978637696,2|0,3:2|0:2,0:2:0:0:
189,12,63196,2,0,P|194:102|192:301,1,239.999992675781,2|0,0:2|0:2,0:2:0:0:
50,356,63769,38,0,P|73:373|106:374,1,59.9999981689454,2|0,3:2|0:2,0:2:0:0:
127,266,63960,2,0,B|121:250|127:230|127:230|121:250|97:262,1,75.0000028610231,2|0,0:2|0:2,0:2:0:0:
4,265,64151,2,0,P|133:306|232:354,1,225.000008583069,2|0,1:2|0:2,0:2:0:0:
293,384,64533,6,0,P|292:349|295:314,1,69.9999978637696,2|0,3:2|0:2,0:2:0:0:
340,257,64724,2,0,P|339:222|342:187,1,69.9999978637696,2|0,0:2|0:2,0:2:0:0:
489,250,64915,2,0,P|492:319|490:335,1,69.9999978637696,2|0,1:2|0:2,0:2:0:0:
413,360,65107,2,0,P|413:240|419:121,1,239.999992675781,2|0,0:2|0:2,0:2:0:0:
356,0,65680,38,0,P|356:34|353:69,1,69.9999978637696,2|0,1:2|0:2,0:2:0:0:
309,127,65871,2,0,P|309:161|306:196,1,69.9999978637696,2|0,0:2|0:2,0:2:0:0:
160,134,66062,2,0,P|157:65|159:49,1,69.9999978637696,2|0,3:2|0:2,0:2:0:0:
235,23,66253,2,0,P|235:142|229:262,1,239.999992675781,2|0,0:2|0:2,0:2:0:0:
128,315,66826,6,0,L|138:375,1,59.9999981689454,2|0,3:2|0:2,0:2:0:0:
339,267,67017,2,0,B|358:244|382:243|382:243|364:256|358:275,1,89.9999972534181,2|0,0:2|0:2,0:2:0:0:
280,317,67208,2,0,L|56:259,1,209.999993591309,2|0,1:2|0:2,0:2:0:0:
15,205,67591,38,0,P|67:178|109:187,1,69.9999978637696,6|0,3:2|0:2,0:2:0:0:
215,158,67782,2,0,P|180:151|153:130,1,69.9999978637696,2|0,0:2|0:2,0:2:0:0:
69,27,67973,2,0,P|96:6|130:0,1,69.9999978637696,2|0,1:2|2:2,0:2:0:0:
212,79,68164,2,0,P|187:196|171:335,1,239.999992675781,2|0,0:2|0:2,0:2:0:0:
234,384,68737,6,0,P|268:377|295:356,1,69.9999978637696,2|0,1:2|0:2,0:2:0:0:
317,226,68928,2,0,P|351:232|378:253,1,69.9999978637696,2|0,0:2|0:2,0:2:0:0:
500,288,69119,2,0,P|465:294|438:315,1,69.9999978637696,2|0,3:2|0:2,0:2:0:0:
379,384,69310,2,0,P|404:267|420:128,1,239.999992675781,2|0,0:2|0:2,0:2:0:0:
323,12,69884,38,0,P|339:36|343:66,1,59.9999981689454,2|0,3:2|0:2,0:2:0:0:
512,128,70075,2,0,B|461:111|490:89|429:66,1,94.9999974632264,2|0,0:2|0:2,0:2:0:0:
506,20,70266,2,0,B|435:22|414:83|442:94|379:150|332:143,1,225.000008583069,2|0,1:2|0:2,0:2:0:0:
268,101,70648,6,0,P|220:127|212:158,1,69.9999978637696,2|0,3:2|0:2,0:2:0:0:
136,120,70839,2,0,P|134:174|158:196,1,69.9999978637696,2|0,0:2|0:2,0:2:0:0:
270,324,71030,2,0,P|290:293|286:257,1,69.9999978637696,2|0,1:2|0:2,0:2:0:0:
189,34,71221,2,0,P|207:115|212:275,1,239.999992675781,2|0,2:2|0:2,0:2:0:0:
137,384,71794,38,0,P|89:357|81:326,1,69.9999978637696,2|0,1:2|0:2,0:2:0:0:
5,365,71986,2,0,P|3:310|27:288,1,69.9999978637696,2|0,0:2|0:2,0:2:0:0:
117,211,72177,2,0,P|137:241|133:277,1,69.9999978637696,2|0,3:2|0:2,0:2:0:0:
17,371,72368,2,0,P|35:290|40:130,1,239.999992675781,2|0,0:2|0:2,0:2:0:0:
33,0,72941,6,0,P|9:28|0:63,1,75.0000028610231,2|0,3:2|0:2,0:2:0:0:
118,126,73132,2,0,P|141:97|151:62,1,75.0000028610231,2|0,0:2|0:2,0:2:0:0:
75,63,73323,37,0,1:2:0:0:
147,52,73514,1,0,0:2:0:0:
220,41,73705,1,2,3:2:0:0:
349,85,74087,37,0,1:0:0:0:
215,34,74470,1,0,3:0:0:0:
354,79,74661,21,0,2:2:0:0:
365,151,74852,1,2,1:2:0:0:
376,224,75043,1,2,2:2:0:0:
376,224,75234,5,0,3:0:0:0:
232,172,75616,1,0,1:0:0:0:
384,218,75998,1,0,3:0:0:0:
239,167,76380,21,0,1:2:0:0:
228,239,76572,1,0,2:2:0:0:
217,312,76763,2,0,P|153:346|84:328,2,139.999995727539,2|0|0,3:2|1:2|3:2,0:2:0:0:
296,369,77909,2,0,P|329:362|359:379,1,69.9999978637696,2|2,1:2|2:2,0:2:0:0:
429,353,78291,37,0,3:0:0:0:
398,207,78673,1,0,1:0:0:0:
435,359,79056,22,0,P|442:322|454:285,1,69.9999978637696,2|0,3:2|0:2,0:0:0:0:
391,213,79438,2,0,P|398:176|410:139,1,69.9999978637696,2|2,1:2|2:2,2:2:0:0:
294,9,79820,38,0,P|311:64|321:121,1,104.999996795654,2|0,3:2|2:2,2:2:0:0:
323,120,80202,2,0,P|286:129|263:155,1,69.9999978637696,0|0,1:2|0:0,0:0:0:0:
144,159,80584,2,0,P|168:183|202:190,1,69.9999978637696,0|0,3:2|0:0,0:0:0:0:
284,4,80966,2,0,P|260:33|258:68,1,69.9999978637696,0|0,1:2|0:0,0:0:0:0:
210,194,81349,6,0,P|253:246|262:313,1,104.999996795654,0|0,3:2|0:2,0:2:0:0:
264,289,81731,2,0,P|230:297|200:314,1,59.9999981689454,0|0,1:2|0:2,0:2:0:0:
163,362,82113,2,0,P|130:350|101:330,1,50,0|0,3:2|0:2,0:2:0:0:
78,286,82495,2,0,P|48:304|24:329,1,50,0|0,1:2|0:2,0:2:0:0:
13,380,82877,1,2,3:2:0:0:
63,119,83259,5,0,1:0:0:0:
19,384,83642,1,0,3:0:0:0:
58,327,83833,21,2,2:2:0:0:
47,254,84024,1,2,1:2:0:0:
36,182,84215,1,0,2:2:0:0:
63,119,84406,37,2,3:2:0:0:
19,384,84788,1,0,1:0:0:0:
63,119,85170,1,0,3:0:0:0:
238,33,85552,22,0,P|233:57|232:82,1,50,2|0,1:2|0:0,0:0:0:0:
232,82,85935,38,0,P|282:101|325:125,1,100,2|0,3:2|0:0,0:0:0:0:
450,178,86317,21,0,1:0:0:0:
320,134,86508,1,0,0:0:0:0:
383,166,86699,5,0,3:0:0:0:
318,145,86890,1,0,0:0:0:0:
446,200,87081,21,2,1:2:0:0:
411,94,87272,2,0,P|391:139|379:187,1,100,2|0,0:0|3:3,0:0:0:0:
314,167,87654,5,0,0:0:0:0:
442,222,87845,5,0,1:0:0:0:
312,178,88037,1,0,0:0:0:0:
375,210,88228,37,0,3:0:0:0:
310,189,88419,1,0,0:0:0:0:
484,275,88610,21,2,1:2:0:0:
354,319,88801,1,2,0:0:0:0:
421,307,88992,2,0,P|441:363|444:392,1,80,2|0,3:2|0:0,0:0:0:0:
301,262,89374,2,0,P|281:318|278:347,1,80,0|0,1:2|0:0,0:0:0:0:
140,206,89756,2,0,P|160:262|163:291,1,80,2|0,3:2|0:0,0:0:0:0:
220,384,90138,1,2,1:2:0:0:
47,365,90329,2,0,P|54:325|69:288,1,80,2|0,0:0|3:3,0:0:0:0:
139,280,90712,37,0,0:0:0:0:
0,286,90903,37,0,1:0:0:0:
136,270,91094,1,0,0:0:0:0:
65,268,91285,38,0,P|57:228|42:191,1,80,2|0,3:2|2:3,0:0:0:0:
204,292,91667,2,0,P|269:300|324:239,1,150,2|0,1:2|0:0,0:0:0:0:
385,206,92049,38,0,P|418:236|419:283,1,80,6|0,3:2|0:2,0:2:0:0:
512,384,92431,2,0,P|479:354|478:307,1,80,0|0,1:2|0:2,0:2:0:0:
429,136,92814,1,2,3:2:0:0:
494,168,93005,1,0,0:2:0:0:
393,23,93196,2,0,P|360:53|359:100,1,80,2|0,1:2|0:2,0:2:0:0:
209,215,93578,5,2,3:2:0:0:
277,223,93769,1,0,0:2:0:0:
162,377,93960,2,0,P|142:363|138:301,1,80,2|0,1:2|0:2,0:2:0:0:
30,153,94342,2,0,P|1:179|0:218,1,80,2|0,3:2|0:2,0:2:0:0:
49,288,94724,2,0,P|77:261|78:222,1,80,0|0,1:2|0:2,0:2:0:0:
95,71,95107,2,0,P|140:66|201:48,1,89.9999972534181,2|0,3:2|0:2,0:2:0:0:
322,51,95489,21,0,1:2:0:0:
186,66,95680,1,0,0:2:0:0:
257,69,95871,37,0,3:2:0:0:
189,77,96062,21,2,0:2:0:0:
328,73,96253,1,2,1:2:0:0:
265,194,96444,1,0,0:2:0:0:
261,90,96635,37,0,3:2:0:0:
193,99,96826,1,0,0:2:0:0:
331,94,97017,37,0,1:2:0:0:
195,109,97208,1,0,0:2:0:0:
265,111,97400,5,0,3:2:0:0:
198,120,97591,1,0,0:2:0:0:
337,115,97782,22,0,P|313:114|336:114,1,104.999996795654,2|0,1:2|0:2,0:2:0:0:
353,120,98164,38,0,P|388:156|386:246,2,139.999995727539,6|0|0,3:2|0:2|1:2,0:2:0:0:
263,91,98737,2,0,P|237:49|234:-6,1,100,2|0,0:2|3:3,0:2:0:0:
486,30,99119,2,0,P|460:72|457:127,1,100,0|0,0:2|1:2,0:2:0:0:
437,293,99501,1,0,0:2:0:0:
437,293,99597,1,0,0:2:0:0:
437,293,99693,2,0,P|401:258|311:260,2,139.999995727539,2|2|0,3:2|0:2|1:2,0:2:0:0:
503,376,100266,2,0,P|445:368|392:363,1,100,2|0,0:2|3:2,0:2:0:0:
353,175,100648,2,0,P|295:183|242:188,1,100,0|0,0:2|1:2,0:2:0:0:
143,142,101030,1,0,0:2:0:0:
95,329,101221,6,0,P|78:303|80:274,1,59.9999981689454,2|0,3:2|0:2,0:2:0:0:
151,260,101412,2,0,P|167:285|165:314,1,59.9999981689454,2|0,0:2|0:2,0:2:0:0:
35,382,101603,2,0,P|0:321|2:260,1,119.999996337891,2|0,1:2|0:2,0:2:0:0:
210,212,101986,2,0,P|244:272|242:333,1,119.999996337891,2|0,3:2|0:2,0:2:0:0:
145,378,102368,1,0,1:2:0:0:
99,206,102559,1,0,0:2:0:0:
238,315,102750,1,2,3:2:0:0:
91,197,102941,2,0,P|86:125|96:60,2,119.999996337891,2|0|0,0:2|1:2|0:2,0:2:0:0:
151,252,103514,37,2,3:2:0:0:
15,151,103705,1,2,0:2:0:0:
193,189,103896,5,2,1:2:0:0:
7,150,104087,1,2,0:2:0:0:
142,24,104279,38,0,P|202:54|214:121,2,139.999995727539,6|0|0,3:2|0:2|1:2,0:2:0:0:
0,150,104852,2,0,P|63:144|95:119,1,100,2|0,0:2|3:2,0:2:0:0:
255,0,105234,2,0,P|318:6|350:31,1,100,0|0,0:2|1:2,2:2:0:0:
418,138,105616,1,0,0:2:0:0:
418,138,105712,1,0,0:2:0:0:
418,138,105807,2,0,P|432:2|437:-17,2,139.999995727539,2|2|0,3:2|0:2|1:2,0:2:0:0:
468,229,106380,2,0,P|504:261|507:324,1,100,2|0,0:2|3:2,0:2:0:0:
251,370,106763,2,0,P|257:321|294:288,1,100,0|0,0:2|1:2,0:2:0:0:
389,283,107145,1,0,0:2:0:0:
209,137,107336,6,0,P|197:165|203:193,1,59.9999981689454,2|0,3:2|0:2,0:2:0:0:
275,196,107527,2,0,P|286:167|280:139,1,59.9999981689454,2|0,0:2|0:2,0:2:0:0:
141,94,107718,2,0,P|116:158|128:219,1,119.999996337891,2|0,1:2|0:2,0:2:0:0:
340,234,108100,2,0,P|364:169|352:108,1,119.999996337891,2|0,3:2|0:2,0:2:0:0:
129,2,108482,2,0,P|72:41|46:97,1,119.999996337891,2|0,1:2|0:2,0:2:0:0:
235,255,108865,1,2,3:2:0:0:
458,123,110393,37,6,3:2:0:0:
294,84,110584,1,2,0:2:0:0:
483,22,110775,1,0,1:2:0:0:
279,90,110966,2,0,P|258:156|266:223,1,119.999996337891,2|0,0:2|3:2,0:2:0:0:
406,384,111349,2,0,P|427:318|419:251,1,119.999996337891,0|0,0:2|1:2,0:2:0:0:
307,153,111731,1,0,0:2:0:0:
461,157,111922,6,0,P|381:182|314:270,1,179.999994506836,2|0,3:2|0:2,0:2:0:0:
312,271,112304,2,0,P|249:280|188:245,1,119.999996337891,0|0,1:2|0:2,0:2:0:0:
95,384,112686,2,0,P|95:320|138:266,1,119.999996337891,0|0,3:2|0:2,0:2:0:0:
0,126,113068,2,0,P|87:140|153:212,1,179.999994506836,2|0,1:2|0:2,0:2:0:0:
200,257,113451,38,0,B|267:302|310:245|314:250|344:209|414:254,1,209.999993591309,2|0,3:2|0:2,0:2:0:0:
463,285,113833,5,2,1:2:0:0:
430,122,114024,1,0,0:2:0:0:
258,139,114215,37,2,3:2:0:0:
342,172,114406,1,0,0:2:0:0:
445,19,114597,5,2,1:2:0:0:
326,90,114788,1,0,0:2:0:0:
152,0,114979,38,0,P|182:83|184:131,1,119.999996337891,2|0,3:2|0:2,0:2:0:0:
297,261,115361,21,0,1:2:0:0:
297,261,115552,1,0,2:3:0:0:
340,159,115744,37,2,3:2:0:0:
160,276,115935,22,0,L|242:289,1,69.9999978637696,0|0,0:2|0:2,0:2:0:0:
384,317,116126,2,0,B|289:334|289:334|281:348|281:348|168:368,1,209.999993591309,0|0,1:2|0:2,0:2:0:0:
165,360,116508,5,6,3:2:0:0:
208,223,116699,1,2,0:2:0:0:
83,342,116890,2,0,P|55:271|64:228,1,119.999996337891,0|0,1:2|0:2,0:2:0:0:
190,89,117272,2,0,P|100:38|8:50,1,194.999991073609,2|0,3:2|0:2,0:2:0:0:
0,54,117654,2,0,P|-6:112|19:165,1,119.999996337891,0|0,1:2|0:2,0:2:0:0:
221,258,118037,5,2,3:2:0:0:
110,148,118228,1,0,0:2:0:0:
198,176,118419,21,0,1:2:0:0:
198,176,118610,1,0,0:2:0:0:
270,29,118801,5,2,3:2:0:0:
314,189,118992,1,2,0:2:0:0:
128,67,119183,2,0,P|180:88|245:104,1,119.999996337891,0|0,1:2|0:2,0:2:0:0:
511,10,119565,6,0,P|433:53|432:167,1,209.999993591309,2|0,3:2|0:2,0:2:0:0:
489,212,119947,2,0,P|508:286|512:350,1,139.999995727539,0|0,1:2|0:2,0:2:0:0:
223,193,120329,2,0,P|264:114|378:111,1,209.999993591309,2|0,3:2|0:2,0:2:0:0:
422,169,120712,2,0,P|404:243|401:307,1,139.999995727539,0|0,1:2|0:2,0:2:0:0:
283,384,121094,37,2,3:2:0:0:
233,203,121285,1,0,0:2:0:0:
110,303,121476,5,2,1:2:0:0:
209,347,121667,1,0,0:2:0:0:
238,209,121858,37,2,3:2:0:0:
187,268,122049,1,0,0:2:0:0:
286,288,122240,21,0,1:2:0:0:
286,288,122431,1,0,0:2:0:0:
89,373,122622,37,6,3:2:0:0:
115,200,122814,1,2,0:2:0:0:
99,380,123005,1,0,1:2:0:0:
5,220,123196,2,0,P|2:164|28:100,1,119.999996337891,2|0,0:2|3:2,0:2:0:0:
171,0,123578,2,0,P|192:55|190:114,1,119.999996337891,0|0,0:2|1:2,0:2:0:0:
136,239,123960,1,0,0:2:0:0:
213,358,124151,38,0,P|294:357|308:253,1,179.999994506836,2|0,3:2|0:2,0:2:0:0:
275,209,124533,2,0,P|219:224|215:284,1,119.999996337891,0|0,1:2|0:2,0:2:0:0:
464,200,124915,2,0,P|443:163|372:174,1,119.999996337891,0|0,3:2|0:2,0:2:0:0:
487,384,125298,2,0,P|421:348|407:244,1,179.999994506836,2|0,1:2|0:2,0:2:0:0:
464,200,125680,6,0,P|441:117|315:107,1,209.999993591309,2|0,3:2|0:2,0:2:0:0:
315,106,126062,37,2,1:2:0:0:
402,0,126253,1,0,0:2:0:0:
238,58,126444,5,2,3:2:0:0:
268,173,126635,1,0,0:2:0:0:
323,13,126826,37,2,1:2:0:0:
178,140,127017,1,0,0:2:0:0:
324,229,127208,2,0,P|234:219|169:224,1,119.999996337891,2|0,3:2|0:2,0:2:0:0:
45,239,127591,37,0,1:2:0:0:
45,239,127782,1,0,0:2:0:0:
92,142,127973,21,2,3:2:0:0:
56,322,128164,22,0,L|131:293,1,69.9999978637696,0|0,0:2|0:2,0:2:0:0:
121,209,128355,2,0,B|174:223|174:223|201:313|201:313|263:329,1,209.999993591309,0|0,1:2|0:2,0:2:0:0:
275,322,128737,5,6,3:2:0:0:
145,369,128928,1,2,0:2:0:0:
256,251,129119,2,0,P|261:185|271:119,1,119.999996337891,0|0,1:2|0:2,0:2:0:0:
388,384,129501,2,0,P|374:285|366:185,1,194.999991073609,2|0,3:2|0:2,0:2:0:0:
358,181,129884,2,0,P|363:115|373:49,1,119.999996337891,0|0,1:2|0:2,0:2:0:0:
498,261,130266,5,2,3:2:0:0:
452,88,130457,1,0,0:2:0:0:
442,205,130648,5,0,1:2:0:0:
442,205,130839,1,0,0:2:0:0:
371,62,131030,21,2,3:2:0:0:
500,148,131221,1,2,0:2:0:0:
361,53,131412,2,0,P|300:67|265:121,1,119.999996337891,0|0,1:2|0:2,0:2:0:0:
132,384,131794,6,0,P|107:254|78:175,1,209.999993591309,2|0,3:2|0:2,0:2:0:0:
66,174,132177,2,0,P|76:86|127:54,1,139.999995727539,0|0,1:2|0:2,0:2:0:0:
380,0,132559,2,0,P|404:129|433:208,1,209.999993591309,2|0,3:2|0:2,0:2:0:0:
446,210,132941,2,0,P|435:297|384:329,1,139.999995727539,0|0,1:2|0:2,0:2:0:0:
133,132,133323,38,0,P|215:116|266:97,1,119.999996337891,2|0,3:2|0:2,0:2:0:0:
379,252,133705,2,0,P|296:267|245:286,1,119.999996337891,2|0,1:2|0:2,0:2:0:0:
316,69,134087,2,0,P|331:151|350:202,1,119.999996337891,2|0,3:2|0:2,0:2:0:0:
196,315,134470,2,0,P|180:232|161:181,1,119.999996337891,2|0,1:2|0:2,0:2:0:0:
256,192,134852,37,0,3:2:0:0:
69,192,147081,6,0,P|67:236|67:245,1,50,2|0,3:2|0:2,0:2:0:0:
72,301,147272,2,0,P|70:257|70:248,1,50,2|0,0:2|0:2,0:2:0:0:
141,163,147463,2,0,P|139:207|139:216,1,50,2|0,1:2|0:2,0:2:0:0:
141,284,147654,2,0,P|142:337|145:391,2,100,2|0|0,0:2|3:2|0:2,0:2:0:0:
218,138,148228,6,0,P|216:182|216:191,1,50,2|0,1:2|0:2,0:2:0:0:
222,305,148419,2,0,P|220:261|220:252,1,50,2|0,0:2|0:2,0:2:0:0:
294,172,148610,2,0,P|292:216|292:225,1,50,2|0,3:2|0:2,0:2:0:0:
297,232,148801,2,0,P|297:282|300:334,2,100,2|0|0,0:2|1:2|0:2,0:2:0:0:
366,129,149374,38,0,P|364:173|364:182,1,50,2|0,3:2|0:2,0:2:0:0:
369,238,149565,2,0,P|367:194|367:185,1,50,2|0,0:2|0:2,0:2:0:0:
440,54,149756,2,0,P|435:149|435:168,1,100,2|0,1:2|0:2,0:2:0:0:
510,346,150138,6,0,P|512:302|512:293,1,50,2|0,3:2|0:2,0:2:0:0:
507,237,150329,2,0,P|509:281|509:290,1,50,2|0,0:2|0:2,0:2:0:0:
438,375,150521,2,0,P|440:331|440:322,1,50,2|0,1:2|0:2,0:2:0:0:
438,254,150712,2,0,P|437:201|434:147,2,100,2|0|0,0:2|3:2|0:2,0:2:0:0:
365,332,151285,38,0,P|367:288|367:279,1,50,2|0,1:2|0:2,0:2:0:0:
361,165,151476,2,0,P|363:209|363:218,1,50,2|0,0:2|0:2,0:2:0:0:
290,287,151667,2,0,P|292:243|292:234,1,50,2|0,3:2|0:2,0:2:0:0:
287,227,151858,2,0,P|286:174|283:120,2,100,2|0|0,0:2|1:2|0:2,0:2:0:0:
215,322,152431,6,0,P|217:278|217:269,1,50,2|0,3:2|0:2,0:2:0:0:
212,213,152622,2,0,P|214:257|214:266,1,50,2|0,0:2|0:2,0:2:0:0:
139,372,152814,2,0,P|144:277|144:258,1,100,2|0,1:2|0:2,0:2:0:0:
191,7,153196,38,0,P|147:4|138:5,1,50,2|0,3:2|0:2,0:2:0:0:
82,10,153387,2,0,P|125:7|135:7,1,50,2|0,0:2|0:2,0:2:0:0:
220,79,153578,2,0,P|176:77|167:77,1,50,2|0,1:2|0:2,0:2:0:0:
99,79,153769,2,0,P|45:80|-8:83,2,100,2|0|0,0:2|3:2|0:2,0:2:0:0:
245,156,154342,6,0,P|201:154|192:154,1,50,2|0,1:2|0:2,0:2:0:0:
78,160,154533,2,0,P|122:158|131:158,1,50,2|0,0:2|0:2,0:2:0:0:
211,232,154724,2,0,P|167:230|158:230,1,50,2|0,3:2|0:2,0:2:0:0:
150,235,154915,2,0,P|97:236|43:239,2,100,2|0|0,0:2|1:2|0:2,0:2:0:0:
203,309,155489,38,0,P|159:307|150:307,1,50,2|0,3:2|0:2,0:2:0:0:
94,312,155680,2,0,P|134:310|147:310,1,50,2|0,0:2|0:2,0:2:0:0:
278,383,155871,2,0,P|183:378|164:378,1,100,2|0,1:2|0:2,0:2:0:0:
460,369,156253,6,0,P|416:371|407:371,1,50,2|0,3:2|0:2,0:2:0:0:
351,366,156444,2,0,P|395:368|404:368,1,50,2|0,0:2|0:2,0:2:0:0:
489,297,156635,2,0,P|445:299|436:299,1,50,2|0,1:2|0:2,0:2:0:0:
368,297,156826,2,0,P|315:296|261:293,2,100,2|0|0,0:2|3:2|0:2,0:2:0:0:
466,224,157400,38,0,P|422:226|413:226,1,50,2|0,1:2|0:2,0:2:0:0:
299,220,157591,2,0,P|343:222|352:222,1,50,2|0,0:2|0:2,0:2:0:0:
421,149,157782,2,0,P|377:151|368:151,1,50,2|0,3:2|0:2,0:2:0:0:
361,146,157973,2,0,P|308:145|254:142,2,100,2|0|0,0:2|1:2|0:2,0:2:0:0:
446,76,158546,6,0,P|402:78|393:78,1,50,2|0,3:2|0:2,0:2:0:0:
337,73,158737,2,0,P|381:75|390:75,1,50,2|0,0:2|0:2,0:2:0:0:
496,0,158928,2,0,P|401:5|382:5,1,100,2|0,1:2|0:2,0:2:0:0:
432,290,162368,37,6,3:2:0:0:
313,136,162559,1,2,0:2:0:0:
336,347,162750,1,0,1:2:0:0:
319,127,162941,2,0,P|364:77|454:80,1,139.999995727539,2|0,0:2|3:2,0:2:0:0:
265,307,163323,2,0,P|196:295|151:243,1,139.999995727539,0|0,0:2|1:2,0:2:0:0:
143,89,163705,1,0,0:2:0:0:
0,21,163896,6,0,P|-11:137|43:213,1,209.999993591309,2|0,3:2|0:2,0:2:0:0:
54,220,164279,2,0,P|39:300|37:373,1,139.999995727539,0|0,1:2|0:2,0:2:0:0:
282,107,164661,2,0,P|202:92|129:90,1,139.999995727539,0|0,3:2|0:2,0:2:0:0:
122,301,165043,2,0,P|231:280|331:277,1,209.999993591309,2|0,1:2|0:2,0:2:0:0:
375,336,165425,38,0,P|450:332|463:246,1,139.999995727539,2|0,3:2|0:2,0:2:0:0:
499,53,165807,5,2,1:2:0:0:
411,221,165998,1,0,0:2:0:0:
378,35,166189,37,2,3:2:0:0:
491,142,166380,1,0,0:2:0:0:
316,165,166572,5,2,1:2:0:0:
492,49,166763,1,0,0:2:0:0:
371,275,166954,38,0,P|305:264|260:201,1,119.999996337891,2|0,3:2|0:2,0:2:0:0:
245,80,167336,21,0,1:2:0:0:
245,80,167527,1,0,0:2:0:0:
91,54,167718,37,2,3:2:0:0:
217,176,167909,22,0,L|150:198,1,69.9999978637696,0|0,0:2|0:2,0:2:0:0:
86,136,168100,2,0,B|123:143|123:143|164:261|164:261|221:274,1,209.999993591309,0|0,1:2|0:2,0:2:0:0:
227,261,168482,5,6,3:2:0:0:
148,382,168673,1,2,0:2:0:0:
242,253,168865,2,0,P|318:272|359:318,1,119.999996337891,0|0,1:2|0:2,0:2:0:0:
316,8,169247,2,0,P|397:95|414:203,1,209.999993591309,2|0,3:2|0:2,0:2:0:0:
416,194,169629,2,0,P|340:213|299:259,1,119.999996337891,0|0,1:2|0:2,0:2:0:0:
338,384,170011,5,2,3:2:0:0:
198,272,170202,1,0,0:2:0:0:
321,314,170393,5,0,1:2:0:0:
321,314,170584,1,0,0:2:0:0:
250,374,170775,21,2,3:2:0:0:
301,231,170966,1,2,0:2:0:0:
415,361,171158,2,0,P|406:277|393:203,1,119.999996337891,0|0,1:2|0:2,0:2:0:0:
313,36,171540,6,0,P|317:120|453:152,1,209.999993591309,2|0,3:2|0:2,0:2:0:0:
494,144,171922,2,0,P|503:60|516:-14,1,139.999995727539,0|0,1:2|0:2,0:2:0:0:
219,42,172304,2,0,P|303:46|335:182,1,209.999993591309,2|0,3:2|0:2,0:2:0:0:
321,219,172686,2,0,P|237:228|163:241,1,139.999995727539,0|0,1:2|0:2,0:2:0:0:
0,226,173068,37,2,3:2:0:0:
177,312,173259,1,0,0:2:0:0:
20,309,173451,5,2,1:2:0:0:
190,243,173642,1,0,0:2:0:0:
97,299,173833,37,2,3:2:0:0:
169,383,174024,1,0,0:2:0:0:
78,368,174215,37,0,1:2:0:0:
78,368,174406,1,0,0:2:0:0:
305,351,174597,21,6,3:2:0:0:
97,299,174788,1,2,0:2:0:0:
336,241,174979,1,0,1:2:0:0:
89,292,175170,2,0,P|56:214|66:127,1,139.999995727539,2|0,0:2|3:2,0:2:0:0:
189,0,175552,2,0,P|222:78|212:165,1,139.999995727539,0|0,0:2|1:2,0:2:0:0:
80,282,175935,1,0,0:2:0:0:
208,372,176126,38,0,P|251:303|374:261,1,209.999993591309,2|0,3:2|0:2,0:2:0:0:
414,204,176508,2,0,P|479:239|464:304,1,139.999995727539,0|0,1:2|0:2,0:2:0:0:
310,154,176890,2,0,P|345:89|410:104,1,139.999995727539,0|0,3:2|0:2,0:2:0:0:
258,253,177272,2,0,P|128:258|76:139,1,209.999993591309,2|0,1:2|0:2,0:2:0:0:
22,163,177654,6,0,P|24:87|18:17,1,139.999995727539,2|0,3:2|0:2,0:2:0:0:
183,184,178037,37,2,1:2:0:0:
99,0,178228,1,0,0:2:0:0:
306,118,178419,5,2,3:2:0:0:
119,90,178610,1,0,0:2:0:0:
289,13,178801,37,2,1:2:0:0:
251,245,178992,1,0,0:2:0:0:
388,0,179183,6,0,P|385:69|391:139,1,139.999995727539,2|0,3:2|0:2,0:2:0:0:
475,261,179565,5,0,1:2:0:0:
475,261,179756,1,0,0:2:0:0:
336,239,179947,21,2,3:2:0:0:
512,322,180138,38,0,L|440:335,1,69.9999978637696,0|0,0:2|0:2,0:2:0:0:
451,188,180329,2,0,B|433:208|409:214|409:214|385:381,1,209.999993591309,0|0,1:2|0:2,0:2:0:0:
396,384,180712,5,6,3:2:0:0:
329,230,180903,1,2,0:2:0:0:
307,381,181094,2,0,P|247:372|206:311,1,119.999996337891,0|0,1:2|0:2,0:2:0:0:
0,111,181476,2,0,P|25:222|42:321,1,209.999993591309,2|0,3:2|0:2,0:2:0:0:
53,331,181858,2,0,P|113:322|154:261,1,119.999996337891,0|0,1:2|0:2,0:2:0:0:
218,114,182240,5,2,3:2:0:0:
93,220,182431,1,0,0:2:0:0:
113,107,182622,21,0,1:2:0:0:
113,107,182814,1,0,0:2:0:0:
237,188,183005,5,2,3:2:0:0:
176,47,183196,1,2,0:2:0:0:
82,228,183387,2,0,P|144:236|210:250,1,119.999996337891,0|0,1:2|0:2,0:2:0:0:
470,384,183769,6,0,P|366:358|354:264,1,209.999993591309,2|0,3:2|0:2,0:2:0:0:
404,213,184151,2,0,P|423:119|445:63,1,139.999995727539,2|0,1:2|0:2,0:2:0:0:
217,234,184533,2,0,P|311:253|367:275,1,139.999995727539,2|0,3:2|0:2,0:2:0:0:
113,58,184915,2,0,P|135:124|147:193,1,139.999995727539,2|0,1:2|0:2,0:2:0:0:
191,369,185298,37,2,3:2:0:0:
65,197,185489,1,0,0:2:0:0:
246,300,185680,5,2,1:2:0:0:
84,278,185871,1,0,0:2:0:0:
312,332,186062,37,2,3:2:0:0:
135,223,186253,1,0,0:2:0:0:
311,218,186444,5,2,1:2:0:0:
89,283,186635,1,0,0:2:0:0:
282,86,186826,38,0,P|268:120|266:164,1,59.9999981689454,6|0,3:2|0:2,0:2:0:0:
213,222,187017,2,0,P|199:189|195:155,1,59.9999981689454,2|0,0:2|0:2,0:2:0:0:
45,148,187208,2,0,P|58:115|62:81,1,59.9999981689454,2|0,1:2|0:2,0:2:0:0:
152,24,187400,1,2,0:2:0:0:
127,152,187591,2,0,P|132:82|149:15,1,119.999996337891,0|0,3:2|0:2,0:2:0:0:
109,384,187973,2,0,P|102:292|80:205,1,179.999994506836,2|0,1:2|0:2,0:2:0:0:
127,152,188355,6,0,P|193:151|225:211,1,119.999996337891,2|2,3:2|0:2,0:2:0:0:
257,310,188737,1,0,1:2:0:0:
158,218,188928,1,0,0:2:0:0:
326,155,189119,38,0,P|303:207|304:229,1,59.9999981689454,2|0,3:2|0:2,0:2:0:0:
184,74,189310,2,0,B|163:59|138:68|138:68|153:66|173:81,1,85.0000016212464,2|0,0:2|0:2,0:2:0:0:
279,79,189501,2,0,P|314:190|337:297,1,225.000008583069,2|0,1:2|0:2,0:2:0:0:
382,354,189884,6,0,P|416:372|478:357,1,75.0000028610231,2|0,3:2|0:2,0:2:0:0:
512,233,190075,2,0,P|474:232|442:249,1,75.0000028610231,2|0,0:2|0:2,0:2:0:0:
269,224,190266,2,0,P|306:224|338:207,1,75.0000028610231,2|0,1:2|0:2,0:2:0:0:
450,136,190457,1,2,0:2:0:0:
250,21,190648,2,0,P|273:81|282:145,1,129.999994049073,0|0,3:2|0:2,0:2:0:0:
458,130,191030,2,0,P|431:204|426:285,1,129.999994049073,2|2,1:2|0:2,0:2:0:0:
188,384,191412,38,0,P|194:340|210:300,1,64.9999970245363,2|0,3:2|0:2,0:2:0:0:
246,259,191603,1,2,0:2:0:0:
286,348,191794,1,0,1:2:0:0:
239,253,191986,1,0,0:2:0:0:
59,375,192177,6,0,P|128:357|139:343,1,64.9999970245363,2|0,3:2|0:2,0:2:0:0:
89,170,192368,2,0,B|94:214|118:194|124:249,1,80,2|0,0:2|0:2,0:2:0:0:
78,304,192559,2,0,B|60:245|102:205|104:212|144:177|121:102,1,209.999993591309,2|0,1:2|0:2,0:2:0:0:
99,43,192941,38,0,P|123:17|164:17,1,69.9999978637696,6|0,3:2|0:2,0:2:0:0:
259,175,193132,2,0,P|224:171|201:146,1,69.9999978637696,2|0,0:2|0:2,0:2:0:0:
236,31,193323,2,0,P|270:34|293:59,1,69.9999978637696,2|0,1:2|0:2,0:2:0:0:
346,141,193514,1,2,0:2:0:0:
421,43,193705,2,0,P|354:93|346:144,1,119.999996337891,0|0,3:2|0:2,0:2:0:0:
455,304,194087,6,0,P|421:281|386:273,1,69.9999978637696,2|0,1:2|0:2,0:2:0:0:
279,296,194279,2,0,P|313:319|348:327,1,69.9999978637696,2|0,0:2|0:2,0:2:0:0:
510,187,194470,2,0,P|476:196|448:217,1,69.9999978637696,2|0,3:2|0:2,0:2:0:0:
351,324,194661,2,0,P|374:238|376:173,2,139.999995727539,2|0|0,0:2|1:2|0:2,0:2:0:0:
305,231,195234,38,0,P|277:202|232:203,1,69.9999978637696,2|0,3:2|0:2,0:2:0:0:
143,344,195425,2,0,B|157:326|159:304|159:304|171:323|190:330,1,85.0000016212464,2|0,0:2|0:2,0:2:0:0:
243,269,195616,2,0,B|175:296|172:368|172:368|140:299|52:311,1,255.000004863739,2|0,1:2|0:2,0:2:0:0:
61,318,195998,6,0,P|46:350|40:385,1,59.9999981689454,2|0,3:2|0:2,0:2:0:0:
146,251,196189,2,0,P|139:221|125:195,1,59.9999981689454,2|0,0:2|0:2,0:2:0:0:
21,219,196380,2,0,P|27:189|41:163,1,59.9999981689454,2|0,1:2|0:2,0:2:0:0:
110,117,196572,1,2,0:2:0:0:
7,35,196763,2,0,P|64:71|112:120,1,119.999996337891,0|0,3:2|0:2,0:2:0:0:
193,306,197145,2,0,P|277:226|376:164,1,179.999994506836,2|0,1:2|0:2,0:2:0:0:
393,161,197527,38,0,P|399:111|383:85,1,59.9999981689454,2|0,3:2|0:2,0:2:0:0:
236,116,197718,2,0,P|315:190|324:191,1,119.999996337891,2|0,0:2|1:2,0:2:0:0:
490,218,198100,1,0,0:2:0:0:
275,327,198291,6,0,P|323:281|329:280,1,59.9999981689454,2|0,3:2|0:2,0:2:0:0:
383,259,198482,2,0,P|428:307|429:313,1,59.9999981689454,2|0,0:2|0:2,0:2:0:0:
512,384,198673,2,0,P|433:310|424:309,1,119.999996337891,2|0,1:2|0:2,0:2:0:0:
204,369,199056,38,0,P|186:312|174:290,1,59.9999981689454,6|0,3:2|0:2,0:2:0:0:
74,188,199247,2,0,P|92:131|104:109,1,59.9999981689454,2|0,0:2|0:2,0:2:0:0:
93,327,199438,2,0,P|82:354|74:384,1,59.9999981689454,2|0,1:2|0:2,0:2:0:0:
198,240,199629,1,2,0:2:0:0:
78,194,199820,2,0,P|177:222|213:239,1,119.999996337891,0|0,3:2|0:2,0:2:0:0:
0,148,200202,2,0,P|84:115|172:95,1,179.999994506836,2|0,1:2|0:2,0:2:0:0:
233,135,200584,6,0,P|296:125|330:78,1,119.999996337891,2|2,3:2|0:2,0:2:0:0:
402,0,200966,1,0,1:2:0:0:
438,126,201158,1,0,0:2:0:0:
337,18,201349,38,0,P|322:56|319:103,1,59.9999981689454,2|0,3:2|0:2,0:2:0:0:
217,146,201540,2,0,P|201:176|222:152,1,100,2|0,0:2|0:2,0:2:0:0:
188,38,201731,2,0,P|300:76|333:191,1,240,2|0,1:2|0:2,0:2:0:0:
277,237,202113,6,0,P|301:268|339:282,1,80,2|0,3:2|0:2,0:2:0:0:
478,211,202304,2,0,P|440:210|391:246,1,80,2|0,0:2|0:2,0:2:0:0:
366,355,202495,2,0,P|402:357|451:320,1,80,2|0,1:2|0:2,0:2:0:0:
509,141,202686,1,2,0:2:0:0:
344,38,202877,2,0,P|304:93|309:162,1,139.999995727539,0|0,3:2|0:2,0:2:0:0:
163,316,203259,2,0,P|218:355|287:350,1,139.999995727539,2|2,1:2|0:2,0:2:0:0:
479,384,203642,38,0,P|455:339|465:289,1,69.9999978637696,2|0,3:2|0:2,0:2:0:0:
469,246,203833,1,2,0:2:0:0:
373,347,204024,1,0,1:2:0:0:
463,317,204215,1,0,0:2:0:0:
276,172,204406,6,0,P|314:194|312:233,1,69.9999978637696,2|0,3:2|0:2,0:2:0:0:
312,384,204597,2,0,P|296:294|296:291,1,80,2|0,0:2|0:2,0:2:0:0:
319,86,204788,2,0,P|295:231|290:334,1,209.999993591309,2|0,1:2|0:2,0:2:0:0:
223,322,205170,38,0,P|194:317|168:274,1,59.9999981689454,6|0,3:2|0:2,0:2:0:0:
221,194,205361,2,0,P|241:172|270:167,1,59.9999981689454,2|0,0:2|0:2,0:2:0:0:
350,232,205552,1,2,1:2:0:0:
245,97,205744,1,2,0:2:0:0:
358,237,205935,2,0,P|384:299|394:351,1,119.999996337891,0|0,3:2|0:2,0:2:0:0:
512,116,206317,6,0,P|497:172|495:197,1,59.9999981689454,2|0,1:2|0:2,0:2:0:0:
463,299,206508,2,0,P|457:269|447:241,1,59.9999981689454,2|0,0:2|0:2,0:2:0:0:
386,114,206699,2,0,P|391:84|401:56,1,59.9999981689454,2|0,3:2|0:2,0:2:0:0:
455,4,206890,2,0,P|385:18|320:26,2,119.999996337891,2|0|0,0:2|1:2|0:2,0:2:0:0:
214,180,207463,38,0,P|219:147|233:113,1,69.9999978637696,2|0,3:2|0:2,0:2:0:0:
100,11,207654,2,0,P|159:33|180:84,1,85.0000016212464,2|0,0:2|0:2,0:2:0:0:
332,176,207845,2,0,B|236:192|207:135|214:133|186:73|92:89,1,255.000004863739,2|0,1:2|0:2,0:2:0:0:
43,117,208228,6,0,P|56:149|61:183,1,69.9999978637696,2|0,3:2|0:2,0:2:0:0:
149,226,208419,2,0,P|135:258|130:292,1,69.9999978637696,2|0,0:2|0:2,0:2:0:0:
38,384,208610,2,0,P|32:349|19:317,1,69.9999978637696,2|0,1:2|0:2,0:2:0:0:
61,257,208801,1,2,0:2:0:0:
189,384,208992,38,0,P|231:332|221:253,1,139.999995727539,0|0,3:2|0:2,0:2:0:0:
121,22,209374,2,0,P|115:90|158:143,1,139.999995727539,2|2,1:2|0:2,0:2:0:0:
371,163,209756,6,0,P|313:173|291:184,1,69.9999978637696,2|0,3:2|0:2,0:2:0:0:
175,226,209947,2,0,P|243:231|296:188,1,139.999995727539,2|0,0:2|1:2,0:2:0:0:
371,39,210329,1,0,0:2:0:0:
512,228,210521,38,0,P|425:194|74:111,1,419.999987182618,2|0,3:2|0:2,0:2:0:0:
49,74,211285,6,0,P|47:48|38:-6,1,75.0000028610231,6|0,3:2|0:2,0:2:0:0:
187,83,211476,2,0,P|179:119|174:156,1,75.0000028610231,2|0,0:2|0:2,0:2:0:0:
43,220,211667,2,0,P|49:256|52:294,1,75.0000028610231,2|0,1:2|0:2,0:2:0:0:
75,373,211858,2,0,P|87:239|109:107,1,259.999988098145,2|0,0:2|0:2,0:2:0:0:
187,2,212431,38,0,P|193:38|196:76,1,75.0000028610231,2|0,1:2|0:2,0:2:0:0:
325,163,212622,2,0,P|317:199|312:236,1,75.0000028610231,2|0,0:2|0:2,0:2:0:0:
154,243,212813,2,0,P|160:279|163:317,1,75.0000028610231,2|0,3:2|0:2,0:2:0:0:
227,373,213005,2,0,P|239:239|261:107,1,259.999988098145,2|0,0:2|0:2,0:2:0:0:
452,12,213578,6,0,P|475:40|475:96,1,64.9999970245363,2|0,3:2|0:2,0:2:0:0:
359,115,213769,2,0,B|369:93|390:87|390:87|370:106|370:129,1,85.0000016212464,2|0,0:2|0:2,0:2:0:0:
456,175,213960,2,0,P|365:106|233:131,1,225.000008583069,2|0,1:2|0:2,0:2:0:0:
214,172,214342,38,0,P|232:254|232:271,1,75.0000028610231,2|0,3:2|0:2,0:2:0:0:
294,314,214533,2,0,P|299:276|311:241,1,75.0000028610231,2|0,0:2|0:2,0:2:0:0:
143,187,214724,2,0,P|137:149|125:114,1,75.0000028610231,2|0,1:2|0:2,0:2:0:0:
286,0,214915,2,0,P|238:217|238:262,1,259.999988098145,2|0,0:2|0:2,0:2:0:0:
83,377,215489,6,0,P|89:340|101:305,1,75.0000028610231,2|0,1:2|0:2,0:2:0:0:
22,300,215680,2,0,P|16:262|5:227,1,75.0000028610231,2|0,0:2|0:2,0:2:0:0:
154,179,215871,2,0,P|159:141|171:106,1,75.0000028610231,2|0,3:2|0:2,0:2:0:0:
46,43,216062,2,0,P|93:260|93:305,1,259.999988098145,2|0,0:2|0:2,0:2:0:0:
258,384,216635,38,0,P|217:377|196:361,1,64.9999970245363,2|0,3:2|0:2,0:2:0:0:
273,287,216826,2,0,P|298:270|275:291,1,89.9999972534181,2|0,0:2|0:2,0:2:0:0:
198,353,217017,2,0,P|179:251|263:168,1,225.000008583069,2|0,1:2|0:2,0:2:0:0:
328,184,217400,6,0,P|323:129|313:96,1,75.0000028610231,6|0,3:2|0:2,0:2:0:0:
378,0,217591,2,0,P|387:35|389:73,1,75.0000028610231,2|0,0:2|0:2,0:2:0:0:
497,119,217782,2,0,P|488:155|484:192,1,75.0000028610231,2|0,1:2|0:2,0:2:0:0:
426,337,217973,2,0,P|410:168|380:67,1,259.999988098145,2|0,0:2|0:2,0:2:0:0:
163,144,218546,38,0,P|171:180|173:217,1,75.0000028610231,2|0,1:2|0:2,0:2:0:0:
246,335,218737,2,0,P|245:298|237:262,1,75.0000028610231,2|0,0:2|0:2,0:2:0:0:
329,230,218928,2,0,P|331:192|339:151,1,75.0000028610231,2|0,3:2|0:2,0:2:0:0:
273,1,219119,2,0,P|257:169|227:270,1,259.999988098145,2|0,0:2|0:2,0:2:0:0:
75,370,219693,6,0,P|116:336|169:344,1,64.9999970245363,2|0,3:2|0:2,0:2:0:0:
229,384,219884,2,0,P|183:309|171:306,1,85.0000016212464,2|0,0:2|0:2,0:2:0:0:
1,347,220075,2,0,P|98:324|121:179,1,255.000004863739,2|0,1:2|0:2,0:2:0:0:
84,130,220457,38,0,P|97:50|102:38,1,75.0000028610231,2|0,3:2|0:2,0:2:0:0:
188,104,220648,2,0,P|196:140|198:177,1,75.0000028610231,2|0,0:2|0:2,0:2:0:0:
38,250,220839,2,0,P|36:212|27:176,1,75.0000028610231,2|0,1:2|0:2,0:2:0:0:
186,0,221030,2,0,P|154:129|147:262,1,259.999988098145,2|0,0:2|0:2,0:2:0:0:
334,292,221603,6,0,P|342:328|344:365,1,75.0000028610231,2|0,1:2|0:2,0:2:0:0:
229,295,221794,2,0,P|220:258|218:221,1,75.0000028610231,2|0,0:2|0:2,0:2:0:0:
379,165,221985,2,0,P|380:202|389:238,1,75.0000028610231,2|0,3:2|0:2,0:2:0:0:
235,383,222177,2,0,P|266:253|273:120,1,259.999988098145,2|0,0:2|0:2,0:2:0:0:
502,12,222750,38,0,P|455:26|443:62,1,64.9999970245363,2|0,3:2|0:2,0:2:0:0:
370,157,222941,2,0,P|417:143|429:107,1,80,2|0,0:2|0:2,0:2:0:0:
512,20,223132,2,0,P|498:110|493:193,1,129.999994049073,2|0,1:2|0:2,0:2:0:0:
507,249,223514,5,0,3:2:0:0:
